  0
SECTION
  2
HEADER
  9
$ACADVER
  1
AC1012
  9
$DWGCODEPAGE
  3
dos932
  9
$INSBASE
 10
0.0
 20
0.0
 30
0.0
  9
$EXTMIN
 10
-59.1326091966271
 20
-87.3651183691614
 30
-0.0000000349181948
  9
$EXTMAX
 10
60.41373024569475
 20
27.75122886274766
 30
0.0000000814935747
  9
$LIMMIN
 10
-61.0
 20
-90.485359
  9
$LIMMAX
 10
55.278824
 20
64.078561
  9
$ORTHOMODE
 70
     0
  9
$REGENMODE
 70
     1
  9
$FILLMODE
 70
     1
  9
$QTEXTMODE
 70
     0
  9
$MIRRTEXT
 70
     1
  9
$DRAGMODE
 70
     2
  9
$LTSCALE
 40
1.0
  9
$OSMODE
 70
    37
  9
$ATTMODE
 70
     1
  9
$TEXTSIZE
 40
4.1672
  9
$TRACEWID
 40
0.05
  9
$TEXTSTYLE
  7
STANDARD
  9
$CLAYER
  8
0
  9
$CELTYPE
  6
CONTINUOUS
  9
$CECOLOR
 62
   256
  9
$CELTSCALE
 40
1.0
  9
$DELOBJ
 70
     1
  9
$DISPSILH
 70
     0
  9
$DIMSCALE
 40
1.0
  9
$DIMASZ
 40
0.18
  9
$DIMEXO
 40
0.0625
  9
$DIMDLI
 40
0.38
  9
$DIMRND
 40
0.0
  9
$DIMDLE
 40
0.0
  9
$DIMEXE
 40
0.18
  9
$DIMTP
 40
0.0
  9
$DIMTM
 40
0.0
  9
$DIMTXT
 40
0.18
  9
$DIMCEN
 40
0.09
  9
$DIMTSZ
 40
0.0
  9
$DIMTOL
 70
     0
  9
$DIMLIM
 70
     0
  9
$DIMTIH
 70
     1
  9
$DIMTOH
 70
     1
  9
$DIMSE1
 70
     0
  9
$DIMSE2
 70
     0
  9
$DIMTAD
 70
     0
  9
$DIMZIN
 70
     0
  9
$DIMBLK
  1

  9
$DIMASO
 70
     1
  9
$DIMSHO
 70
     1
  9
$DIMPOST
  1

  9
$DIMAPOST
  1

  9
$DIMALT
 70
     0
  9
$DIMALTD
 70
     2
  9
$DIMALTF
 40
25.4
  9
$DIMLFAC
 40
1.0
  9
$DIMTOFL
 70
     0
  9
$DIMTVP
 40
0.0
  9
$DIMTIX
 70
     0
  9
$DIMSOXD
 70
     0
  9
$DIMSAH
 70
     0
  9
$DIMBLK1
  1

  9
$DIMBLK2
  1

  9
$DIMSTYLE
  2
STANDARD
  9
$DIMCLRD
 70
     0
  9
$DIMCLRE
 70
     0
  9
$DIMCLRT
 70
     0
  9
$DIMTFAC
 40
1.0
  9
$DIMGAP
 40
0.09
  9
$DIMJUST
 70
     0
  9
$DIMSD1
 70
     0
  9
$DIMSD2
 70
     0
  9
$DIMTOLJ
 70
     1
  9
$DIMTZIN
 70
     0
  9
$DIMALTZ
 70
     0
  9
$DIMALTTZ
 70
     0
  9
$DIMFIT
 70
     3
  9
$DIMUPT
 70
     0
  9
$DIMUNIT
 70
     2
  9
$DIMDEC
 70
     4
  9
$DIMTDEC
 70
     4
  9
$DIMALTU
 70
     2
  9
$DIMALTTD
 70
     2
  9
$DIMTXSTY
  7
STANDARD
  9
$DIMAUNIT
 70
     0
  9
$LUNITS
 70
     2
  9
$LUPREC
 70
     6
  9
$SKETCHINC
 40
0.1
  9
$FILLETRAD
 40
0.0
  9
$AUNITS
 70
     0
  9
$AUPREC
 70
     4
  9
$MENU
  1
acad
  9
$ELEVATION
 40
0.0
  9
$PELEVATION
 40
0.0
  9
$THICKNESS
 40
0.0
  9
$LIMCHECK
 70
     0
  9
$BLIPMODE
 70
     0
  9
$CHAMFERA
 40
0.0
  9
$CHAMFERB
 40
0.0
  9
$CHAMFERC
 40
0.0
  9
$CHAMFERD
 40
0.0
  9
$SKPOLY
 70
     0
  9
$TDCREATE
 40
2376126.114255486
  9
$TDUPDATE
 40
2451683.853722685
  9
$TDINDWG
 40
0.0027564815
  9
$TDUSRTIMER
 40
0.0027552083
  9
$USRTIMER
 70
     1
  9
$ANGBASE
 50
0.0
  9
$ANGDIR
 70
     0
  9
$PDMODE
 70
     0
  9
$PDSIZE
 40
0.0
  9
$PLINEWID
 40
0.0
  9
$COORDS
 70
     1
  9
$SPLFRAME
 70
     0
  9
$SPLINETYPE
 70
     6
  9
$SPLINESEGS
 70
     8
  9
$ATTDIA
 70
     0
  9
$ATTREQ
 70
     1
  9
$HANDLING
 70
 10241
  9
$HANDSEED
  5
1E8
  9
$SURFTAB1
 70
     6
  9
$SURFTAB2
 70
     6
  9
$SURFTYPE
 70
     6
  9
$SURFU
 70
     6
  9
$SURFV
 70
     6
  9
$UCSNAME
  2

  9
$UCSORG
 10
0.0
 20
0.0
 30
0.0
  9
$UCSXDIR
 10
1.0
 20
0.0
 30
0.0
  9
$UCSYDIR
 10
0.0
 20
1.0
 30
0.0
  9
$PUCSNAME
  2

  9
$PUCSORG
 10
0.0
 20
0.0
 30
0.0
  9
$PUCSXDIR
 10
1.0
 20
0.0
 30
0.0
  9
$PUCSYDIR
 10
0.0
 20
1.0
 30
0.0
  9
$USERI1
 70
     0
  9
$USERI2
 70
     0
  9
$USERI3
 70
     0
  9
$USERI4
 70
     0
  9
$USERI5
 70
     0
  9
$USERR1
 40
0.0
  9
$USERR2
 40
0.0
  9
$USERR3
 40
0.0
  9
$USERR4
 40
0.0
  9
$USERR5
 40
0.0
  9
$WORLDVIEW
 70
     1
  9
$SHADEDGE
 70
     3
  9
$SHADEDIF
 70
    70
  9
$TILEMODE
 70
     1
  9
$MAXACTVP
 70
    16
  9
$PINSBASE
 10
0.0
 20
0.0
 30
0.0
  9
$PLIMCHECK
 70
     0
  9
$PEXTMIN
 10
-61.0
 20
-90.485359
 30
1.000000000000000E+20
  9
$PEXTMAX
 10
55.278824
 20
64.078561
 30
-1.000000000000000E+20
  9
$PLIMMIN
 10
0.0
 20
0.0
  9
$PLIMMAX
 10
12.0
 20
9.0
  9
$UNITMODE
 70
     0
  9
$VISRETAIN
 70
     0
  9
$PLINEGEN
 70
     0
  9
$PSLTSCALE
 70
     1
  9
$TREEDEPTH
 70
  3020
  9
$PICKSTYLE
 70
     1
  9
$CMLSTYLE
  2
STANDARD
  9
$CMLJUST
 70
     0
  9
$CMLSCALE
 40
1.0
  9
$SAVEIMAGES
 70
     1
  0
ENDSEC
  0
SECTION
  2
CLASSES
  0
CLASS
  1
ACDBDICTIONARYWDFLT
  2
AcDbDictionaryWithDefault
  3
AutoCAD 2000
 90
    32768
280
     0
281
     0
  0
CLASS
  1
ACDBPLACEHOLDER
  2
AcDbPlaceHolder
  3
AutoCAD 2000
 90
    32768
280
     0
281
     0
  0
CLASS
  1
LAYOUT
  2
AcDbLayout
  3
AutoCAD 2000
 90
    32768
280
     0
281
     0
  0
CLASS
  1
LONG_TRANSACTION
  2
AcDbLongTransaction
  3
AutoCAD 2000
 90
    32768
280
     0
281
     0
  0
CLASS
  1
LWPOLYLINE
  2
AcDbPolyline
  3
AutoCAD 2000
 90
    32768
280
     0
281
     1
  0
CLASS
  1
HATCH
  2
AcDbHatch
  3
AutoCAD 2000
 90
    32768
280
     0
281
     1
  0
CLASS
  1
XRECORD
  2
AcDbXrecord
  3
AutoCAD 2000
 90
    32768
280
     0
281
     0
  0
CLASS
  1
LONG_TRANSACTION
  2
AcDbLongTransaction
  3
AutoCAD 2000
 90
    32768
280
     0
281
     0
  0
CLASS
  1
LWPOLYLINE
  2
AcDbPolyline
  3
AutoCAD 2000
 90
    32768
280
     0
281
     1
  0
CLASS
  1
HATCH
  2
AcDbHatch
  3
AutoCAD 2000
 90
    32768
280
     0
281
     1
  0
CLASS
  1
XRECORD
  2
AcDbXrecord
  3
AutoCAD 2000
 90
    32768
280
     0
281
     0
  0
ENDSEC
  0
SECTION
  2
TABLES
  0
TABLE
  2
VPORT
  5
7
330
0
100
AcDbSymbolTable
 70
     3
  0
VPORT
  5
1E1
330
7
100
AcDbSymbolTableRecord
100
AcDbViewportTableRecord
  2
*ACTIVE
 70
     0
 10
0.0
 20
0.0
 11
1.0
 21
1.0
 12
-0.2931359250820975
 22
-28.36148910900374
 13
0.0
 23
0.0
 14
6.349999999999998
 24
6.349999999999998
 15
6.349999999999998
 25
6.349999999999998
 16
0.0
 26
0.0
 36
1.0
 17
0.0
 27
0.0
 37
0.0
 40
120.3252228919444
 41
1.619666048237476
 42
50.0
 43
0.0
 44
0.0
 50
0.0
 51
0.0
 71
     0
 72
   100
 73
     1
 74
     1
 75
     0
 76
     0
 77
     0
 78
     0
  0
ENDTAB
  0
TABLE
  2
LTYPE
  5
4
330
0
100
AcDbSymbolTable
 70
    37
  0
LTYPE
  5
12
330
4
100
AcDbSymbolTableRecord
100
AcDbLinetypeTableRecord
  2
BYBLOCK
 70
     0
  3

 72
    65
 73
     0
 40
0.0
  0
LTYPE
  5
13
330
4
100
AcDbSymbolTableRecord
100
AcDbLinetypeTableRecord
  2
BYLAYER
 70
     0
  3

 72
    65
 73
     0
 40
0.0
  0
LTYPE
  5
14
330
4
100
AcDbSymbolTableRecord
100
AcDbLinetypeTableRecord
  2
CONTINUOUS
 70
     0
  3
DXF Default line type
 72
    65
 73
     0
 40
0.0
  0
LTYPE
  5
20
330
4
100
AcDbSymbolTableRecord
100
AcDbLinetypeTableRecord
  2
DASHED
 70
     0
  3
DXF Dashed
 72
    65
 73
     2
 40
0.75
 49
0.5
 74
     0
 49
-0.25
 74
     0
  0
LTYPE
  5
21
330
4
100
AcDbSymbolTableRecord
100
AcDbLinetypeTableRecord
  2
HIDDEN
 70
     0
  3
DXF Hidden
 72
    65
 73
     2
 40
0.375
 49
0.25
 74
     0
 49
-0.125
 74
     0
  0
LTYPE
  5
22
330
4
100
AcDbSymbolTableRecord
100
AcDbLinetypeTableRecord
  2
CENTER
 70
     0
  3
DXF Center
 72
    65
 73
     4
 40
2.0
 49
1.25
 74
     0
 49
-0.25
 74
     0
 49
0.25
 74
     0
 49
-0.25
 74
     0
  0
LTYPE
  5
23
330
4
100
AcDbSymbolTableRecord
100
AcDbLinetypeTableRecord
  2
PHANTOM
 70
     0
  3
DXF Phantom
 72
    65
 73
     6
 40
2.5
 49
1.25
 74
     0
 49
-0.25
 74
     0
 49
0.25
 74
     0
 49
-0.25
 74
     0
 49
0.25
 74
     0
 49
-0.25
 74
     0
  0
LTYPE
  5
24
330
4
100
AcDbSymbolTableRecord
100
AcDbLinetypeTableRecord
  2
DOT
 70
     0
  3
DXF DOT
 72
    65
 73
     2
 40
0.25
 49
0.0
 74
     0
 49
-0.25
 74
     0
  0
LTYPE
  5
25
330
4
100
AcDbSymbolTableRecord
100
AcDbLinetypeTableRecord
  2
DASHDOT
 70
     0
  3
DXF Dash Dot
 72
    65
 73
     4
 40
1.0
 49
0.5
 74
     0
 49
-0.25
 74
     0
 49
0.0
 74
     0
 49
-0.25
 74
     0
  0
LTYPE
  5
26
330
4
100
AcDbSymbolTableRecord
100
AcDbLinetypeTableRecord
  2
BORDER
 70
     0
  3
DXF Border
 72
    65
 73
     6
 40
1.75
 49
0.5
 74
     0
 49
-0.25
 74
     0
 49
0.5
 74
     0
 49
-0.25
 74
     0
 49
0.0
 74
     0
 49
-0.25
 74
     0
  0
LTYPE
  5
27
330
4
100
AcDbSymbolTableRecord
100
AcDbLinetypeTableRecord
  2
DIVIDE
 70
     0
  3
DXF Divide
 72
    65
 73
     6
 40
1.25
 49
0.5
 74
     0
 49
-0.25
 74
     0
 49
0.0
 74
     0
 49
-0.25
 74
     0
 49
0.0
 74
     0
 49
-0.25
 74
     0
  0
LTYPE
  5
28
330
4
100
AcDbSymbolTableRecord
100
AcDbLinetypeTableRecord
  2
C_SOLID_L
 70
     0
  3
CADAM Solid Light
 72
    65
 73
     0
 40
0.0
  0
LTYPE
  5
29
330
4
100
AcDbSymbolTableRecord
100
AcDbLinetypeTableRecord
  2
C_SOLID_M
 70
     0
  3
CADAM Solid Medium
 72
    65
 73
     0
 40
0.0
  0
LTYPE
  5
2A
330
4
100
AcDbSymbolTableRecord
100
AcDbLinetypeTableRecord
  2
C_SOLID_H
 70
     0
  3
CADAM Solid Heavy
 72
    65
 73
     0
 40
0.0
  0
LTYPE
  5
2B
330
4
100
AcDbSymbolTableRecord
100
AcDbLinetypeTableRecord
  2
C_DASHED_L
 70
     0
  3
CADAM Dashed Light
 72
    65
 73
     2
 40
0.375
 49
0.25
 74
     0
 49
-0.125
 74
     0
  0
LTYPE
  5
2C
330
4
100
AcDbSymbolTableRecord
100
AcDbLinetypeTableRecord
  2
C_DASHED_M
 70
     0
  3
CADAM Dashed Medium
 72
    65
 73
     2
 40
0.5
 49
0.375
 74
     0
 49
-0.125
 74
     0
  0
LTYPE
  5
2D
330
4
100
AcDbSymbolTableRecord
100
AcDbLinetypeTableRecord
  2
C_CENTER_L
 70
     0
  3
CADAM Center Light
 72
    65
 73
     4
 40
2.0
 49
1.25
 74
     0
 49
-0.25
 74
     0
 49
0.25
 74
     0
 49
-0.25
 74
     0
  0
LTYPE
  5
2E
330
4
100
AcDbSymbolTableRecord
100
AcDbLinetypeTableRecord
  2
C_PHANTOM_L
 70
     0
  3
CADAM Phantom Light
 72
    65
 73
     6
 40
2.5
 49
1.25
 74
     0
 49
-0.25
 74
     0
 49
0.25
 74
     0
 49
-0.25
 74
     0
 49
0.25
 74
     0
 49
-0.25
 74
     0
  0
LTYPE
  5
2F
330
4
100
AcDbSymbolTableRecord
100
AcDbLinetypeTableRecord
  2
C_BREAK_M
 70
     0
  3
CADAM Break Medium
 72
    65
 73
     4
 40
1.0
 49
0.5
 74
     0
 49
-0.25
 74
     0
 49
0.0
 74
     0
 49
-0.25
 74
     0
  0
LTYPE
  5
30
330
4
100
AcDbSymbolTableRecord
100
AcDbLinetypeTableRecord
  2
C_NC
 70
     0
  3
CADAM NC
 72
    65
 73
     0
 40
0.0
  0
LTYPE
  5
31
330
4
100
AcDbSymbolTableRecord
100
AcDbLinetypeTableRecord
  2
DSH1
 70
     0
  3
CADAM Style2 Type 1 Dashed Line
 72
    65
 73
     2
 40
0.075
 49
0.04
 74
     0
 49
-0.035
 74
     0
  0
LTYPE
  5
32
330
4
100
AcDbSymbolTableRecord
100
AcDbLinetypeTableRecord
  2
DSH2
 70
     0
  3
CADAM Style2 Type 2 Dashed Line
 72
    65
 73
     2
 40
0.15
 49
0.11
 74
     0
 49
-0.04
 74
     0
  0
LTYPE
  5
33
330
4
100
AcDbSymbolTableRecord
100
AcDbLinetypeTableRecord
  2
DSH3
 70
     0
  3
CADAM Style2 Type 3 Dashed Line
 72
    65
 73
     2
 40
0.2
 49
0.15
 74
     0
 49
-0.05
 74
     0
  0
LTYPE
  5
34
330
4
100
AcDbSymbolTableRecord
100
AcDbLinetypeTableRecord
  2
DSH4
 70
     0
  3
CADAM Style2 Type 4 Dashed Line
 72
    65
 73
     2
 40
0.36
 49
0.28
 74
     0
 49
-0.08
 74
     0
  0
LTYPE
  5
35
330
4
100
AcDbSymbolTableRecord
100
AcDbLinetypeTableRecord
  2
DSH5
 70
     0
  3
CADAM Style2 Type 5 Dashed Line
 72
    65
 73
     2
 40
0.47
 49
0.39
 74
     0
 49
-0.08
 74
     0
  0
LTYPE
  5
36
330
4
100
AcDbSymbolTableRecord
100
AcDbLinetypeTableRecord
  2
DSH6
 70
     0
  3
CADAM Style2 Type 6 Dashed Line
 72
    65
 73
     2
 40
0.9
 49
0.8100000000000001
 74
     0
 49
-0.09
 74
     0
  0
LTYPE
  5
37
330
4
100
AcDbSymbolTableRecord
100
AcDbLinetypeTableRecord
  2
PL1
 70
     0
  3
Style 2 Type 1 Phantom Line
 72
    65
 73
     6
 40
1.0
 49
0.6
 74
     0
 49
-0.08
 74
     0
 49
0.08
 74
     0
 49
-0.08
 74
     0
 49
0.08
 74
     0
 49
-0.08
 74
     0
  0
LTYPE
  5
38
330
4
100
AcDbSymbolTableRecord
100
AcDbLinetypeTableRecord
  2
PL2
 70
     0
  3
Style 2 Type 2 Phantom Line
 72
    65
 73
     6
 40
1.08
 49
0.6
 74
     0
 49
-0.08
 74
     0
 49
0.12
 74
     0
 49
-0.08
 74
     0
 49
0.12
 74
     0
 49
-0.08
 74
     0
  0
LTYPE
  5
39
330
4
100
AcDbSymbolTableRecord
100
AcDbLinetypeTableRecord
  2
PL3
 70
     0
  3
Style 2 Type 3 Phantom Line
 72
    65
 73
     6
 40
2.0
 49
1.439999999999999
 74
     0
 49
-0.08
 74
     0
 49
0.16
 74
     0
 49
-0.08
 74
     0
 49
0.16
 74
     0
 49
-0.08
 74
     0
  0
LTYPE
  5
3A
330
4
100
AcDbSymbolTableRecord
100
AcDbLinetypeTableRecord
  2
CL1
 70
     0
  3
CADAM Style 2 Type 1 Center Line
 72
    65
 73
     4
 40
0.7
 49
0.45
 74
     0
 49
-0.06
 74
     0
 49
0.13
 74
     0
 49
-0.06
 74
     0
  0
LTYPE
  5
3B
330
4
100
AcDbSymbolTableRecord
100
AcDbLinetypeTableRecord
  2
CL2
 70
     0
  3
CADAM Style 2 Type 2 Center Line
 72
    65
 73
     4
 40
1.199999999999999
 49
1.01
 74
     0
 49
-0.06
 74
     0
 49
0.11
 74
     0
 49
-0.06
 74
     0
  0
LTYPE
  5
3C
330
4
100
AcDbSymbolTableRecord
100
AcDbLinetypeTableRecord
  2
CL3
 70
     0
  3
CADAM Style 2 Type 3 Center Line
 72
    65
 73
     4
 40
1.199999999999999
 49
0.98
 74
     0
 49
-0.06
 74
     0
 49
0.1
 74
     0
 49
-0.06
 74
     0
  0
LTYPE
  5
3D
330
4
100
AcDbSymbolTableRecord
100
AcDbLinetypeTableRecord
  2
CL4
 70
     0
  3
CADAM Style 2 Type 4 Center Line
 72
    65
 73
     4
 40
2.2
 49
1.929999999999999
 74
     0
 49
-0.07
 74
     0
 49
0.13
 74
     0
 49
-0.07
 74
     0
  0
LTYPE
  5
3E
330
4
100
AcDbSymbolTableRecord
100
AcDbLinetypeTableRecord
  2
CL5
 70
     0
  3
CADAM Style 2 Type 5 Center Line
 72
    65
 73
     4
 40
2.2
 49
1.879999999999999
 74
     0
 49
-0.07
 74
     0
 49
0.18
 74
     0
 49
-0.07
 74
     0
  0
LTYPE
  5
3F
330
4
100
AcDbSymbolTableRecord
100
AcDbLinetypeTableRecord
  2
SBK1
 70
     0
  3
CADAM Style 2 Type 1 SetBack Line
 72
    65
 73
     8
 40
2.7
 49
0.1
 74
     0
 49
-0.08
 74
     0
 49
0.1
 74
     0
 49
-0.8
 74
     0
 49
0.0
 74
     0
 49
0.0
 74
     0
 49
0.0
 74
     0
 49
0.0
 74
     0
  0
LTYPE
  5
40
330
4
100
AcDbSymbolTableRecord
100
AcDbLinetypeTableRecord
  2
SBK2
 70
     0
  3
CADAM Style 2 Type 2 SetBack Line
 72
    65
 73
     8
 40
3.709999999999998
 49
0.13
 74
     0
 49
-0.08
 74
     0
 49
0.13
 74
     0
 49
-0.8
 74
     0
 49
0.0
 74
     0
 49
0.0
 74
     0
 49
0.0
 74
     0
 49
0.0
 74
     0
  0
LTYPE
  5
41
330
4
100
AcDbSymbolTableRecord
100
AcDbLinetypeTableRecord
  2
STCH
 70
     0
  3
CADAM Style2 Stitch Line
 72
    65
 73
     2
 40
0.25
 49
0.0
 74
     0
 49
-0.25
 74
     0
  0
LTYPE
  5
42
330
4
100
AcDbSymbolTableRecord
100
AcDbLinetypeTableRecord
  2
MTCH
 70
     0
  3
CADAM Style2 Match Line
 72
    65
 73
     6
 40
2.0
 49
1.439999999999999
 74
     0
 49
-0.8
 74
     0
 49
0.16
 74
     0
 49
-0.08
 74
     0
 49
0.16
 74
     0
 49
-0.08
 74
     0
  0
LTYPE
  5
43
330
4
100
AcDbSymbolTableRecord
100
AcDbLinetypeTableRecord
  2
SLD
 70
     0
  3
CADAM Solid_EXT2
 72
    65
 73
     0
 40
0.0
  0
ENDTAB
  0
TABLE
  2
LAYER
  5
2
330
0
100
AcDbSymbolTable
 70
     8
  0
LAYER
  5
15
330
2
100
AcDbSymbolTableRecord
100
AcDbLayerTableRecord
  2
0
 70
     0
 62
     7
  6
CONTINUOUS
  0
LAYER
  5
44
330
2
100
AcDbSymbolTableRecord
100
AcDbLayerTableRecord
  2
MO_001_NOSHOW
 70
     1
 62
     7
  6
CONTINUOUS
  0
LAYER
  5
45
330
2
100
AcDbSymbolTableRecord
100
AcDbLayerTableRecord
  2
MO_001_VIEW_PV
 70
     0
 62
     7
  6
CONTINUOUS
  0
LAYER
  5
46
330
2
100
AcDbSymbolTableRecord
100
AcDbLayerTableRecord
  2
MO_001_VIEW_EV
 70
     0
 62
     7
  6
CONTINUOUS
  0
LAYER
  5
47
330
2
100
AcDbSymbolTableRecord
100
AcDbLayerTableRecord
  2
OVERLAY_MAP
 70
     1
 62
     7
  6
CONTINUOUS
  0
LAYER
  5
48
330
2
100
AcDbSymbolTableRecord
100
AcDbLayerTableRecord
  2
DITTOS
 70
     0
 62
     7
  6
CONTINUOUS
  0
LAYER
  5
49
330
2
100
AcDbSymbolTableRecord
100
AcDbLayerTableRecord
  2
SYMBOLS
 70
     0
 62
     7
  6
CONTINUOUS
  0
LAYER
  5
4A
330
2
100
AcDbSymbolTableRecord
100
AcDbLayerTableRecord
  2
SETS
 70
     0
 62
     7
  6
CONTINUOUS
  0
ENDTAB
  0
TABLE
  2
STYLE
  5
3
330
0
100
AcDbSymbolTable
 70
     1
  0
STYLE
  5
18
330
3
100
AcDbSymbolTableRecord
100
AcDbTextStyleTableRecord
  2
STANDARD
 70
     0
 40
4.1672
 41
1.0
 50
0.0
 71
     0
 42
4.1672
  3
monotxt
  4
BIGFONT
  0
ENDTAB
  0
TABLE
  2
VIEW
  5
5
330
0
100
AcDbSymbolTable
 70
     0
  0
ENDTAB
  0
TABLE
  2
UCS
  5
6
330
0
100
AcDbSymbolTable
 70
     3
  0
UCS
  5
4B
330
6
100
AcDbSymbolTableRecord
100
AcDbUCSTableRecord
  2
MO_001_VIEW_PV_P
 70
     0
 10
0.0
 20
0.0
 30
0.0
 11
1.0
 21
0.0
 31
0.0
 12
-0.0000000002051034
 22
1.0
 32
0.0
  0
UCS
  5
4C
330
6
100
AcDbSymbolTableRecord
100
AcDbUCSTableRecord
  2
MO_001_VIEW_PV_NP_000870
 70
     0
 10
-16.33162117004394
 20
58.32277297973632
 30
0.0
 11
1.0
 21
0.0
 31
0.0
 12
-0.0000000002051034
 22
1.0
 32
0.0
  0
UCS
  5
4D
330
6
100
AcDbSymbolTableRecord
100
AcDbUCSTableRecord
  2
MO_001_VIEW_EV_P
 70
     0
 10
36.63769531250379
 20
64.07856143026098
 30
0.0
 11
-1.0
 21
-0.0000000000000003
 31
0.0
 12
0.0000000002051033
 22
-1.0
 32
0.0
  0
ENDTAB
  0
TABLE
  2
APPID
  5
8
330
0
100
AcDbSymbolTable
 70
     1
  0
APPID
  5
17
330
8
100
AcDbSymbolTableRecord
100
AcDbRegAppTableRecord
  2
ACAD
 70
     0
  0
ENDTAB
  0
TABLE
  2
DIMSTYLE
  5
9
330
0
100
AcDbSymbolTable
 70
     1
  0
DIMSTYLE
105
19
102
{ACAD_REACTORS
330
E6
330
E8
330
EA
330
EC
330
EE
330
F0
330
F2
330
F4
330
F6
330
F8
330
FA
330
FC
330
FE
330
100
330
102
330
104
102
}
330
9
100
AcDbSymbolTableRecord
100
AcDbDimStyleTableRecord
  2
STANDARD
 70
     0
  3

  4

  5

  6

  7

 40
1.0
 41
0.18
 42
0.0625
 43
0.38
 44
0.18
 45
0.0
 46
0.0
 47
0.0
 48
0.0
140
0.18
141
0.09
142
0.0
143
25.4
144
1.0
145
0.0
146
1.0
147
0.09
 71
     0
 72
     0
 73
     1
 74
     1
 75
     0
 76
     0
 77
     0
 78
     0
170
     0
171
     2
172
     0
173
     0
174
     0
175
     0
176
     0
177
     0
178
     0
270
     2
271
     4
272
     4
273
     2
274
     2
340
18
275
     0
280
     0
281
     0
282
     0
283
     1
284
     0
285
     0
286
     0
287
     3
288
     0
  0
ENDTAB
  0
TABLE
  2
BLOCK_RECORD
  5
C
330
0
100
AcDbSymbolTable
 70
    16
  0
BLOCK_RECORD
  5
1E
102
{ACAD_XDICTIONARY
360
1C9
102
}
330
C
100
AcDbSymbolTableRecord
100
AcDbBlockTableRecord
  2
*MODEL_SPACE
  0
BLOCK_RECORD
  5
1F
102
{ACAD_XDICTIONARY
360
1CB
102
}
330
C
100
AcDbSymbolTableRecord
100
AcDbBlockTableRecord
  2
*PAPER_SPACE
  0
BLOCK_RECORD
  5
E5
330
C
100
AcDbSymbolTableRecord
100
AcDbBlockTableRecord
  2
*D0
  0
BLOCK_RECORD
  5
E7
330
C
100
AcDbSymbolTableRecord
100
AcDbBlockTableRecord
  2
*D1
  0
BLOCK_RECORD
  5
E9
330
C
100
AcDbSymbolTableRecord
100
AcDbBlockTableRecord
  2
*D2
  0
BLOCK_RECORD
  5
EB
330
C
100
AcDbSymbolTableRecord
100
AcDbBlockTableRecord
  2
*D3
  0
BLOCK_RECORD
  5
ED
330
C
100
AcDbSymbolTableRecord
100
AcDbBlockTableRecord
  2
*D4
  0
BLOCK_RECORD
  5
EF
330
C
100
AcDbSymbolTableRecord
100
AcDbBlockTableRecord
  2
*D5
  0
BLOCK_RECORD
  5
F1
330
C
100
AcDbSymbolTableRecord
100
AcDbBlockTableRecord
  2
*D6
  0
BLOCK_RECORD
  5
F3
330
C
100
AcDbSymbolTableRecord
100
AcDbBlockTableRecord
  2
*D7
  0
BLOCK_RECORD
  5
F5
330
C
100
AcDbSymbolTableRecord
100
AcDbBlockTableRecord
  2
*D8
  0
BLOCK_RECORD
  5
F7
330
C
100
AcDbSymbolTableRecord
100
AcDbBlockTableRecord
  2
*D9
  0
BLOCK_RECORD
  5
F9
330
C
100
AcDbSymbolTableRecord
100
AcDbBlockTableRecord
  2
*D10
  0
BLOCK_RECORD
  5
FB
330
C
100
AcDbSymbolTableRecord
100
AcDbBlockTableRecord
  2
*D11
  0
BLOCK_RECORD
  5
FD
330
C
100
AcDbSymbolTableRecord
100
AcDbBlockTableRecord
  2
*D12
  0
BLOCK_RECORD
  5
FF
330
C
100
AcDbSymbolTableRecord
100
AcDbBlockTableRecord
  2
*D13
  0
BLOCK_RECORD
  5
101
330
C
100
AcDbSymbolTableRecord
100
AcDbBlockTableRecord
  2
*D14
  0
BLOCK_RECORD
  5
103
330
C
100
AcDbSymbolTableRecord
100
AcDbBlockTableRecord
  2
*D15
  0
ENDTAB
  0
ENDSEC
  0
SECTION
  2
BLOCKS
  0
BLOCK
  5
E
330
1E
100
AcDbEntity
  8
0
100
AcDbBlockBegin
  2
*MODEL_SPACE
 70
     0
 10
0.0
 20
0.0
 30
0.0
  3
*MODEL_SPACE
  1

  0
ENDBLK
  5
F
330
1E
100
AcDbEntity
  8
0
100
AcDbBlockEnd
  0
BLOCK
  5
10
330
1F
100
AcDbEntity
 67
     1
  8
0
100
AcDbBlockBegin
  2
*PAPER_SPACE
 70
     0
 10
0.0
 20
0.0
 30
0.0
  3
*PAPER_SPACE
  1

  0
ENDBLK
  5
11
330
1F
100
AcDbEntity
 67
     1
  8
0
100
AcDbBlockEnd
  0
BLOCK
  5
10B
330
E5
100
AcDbEntity
  8
0
100
AcDbBlockBegin
  2
*D0
 70
     1
 10
0.0
 20
0.0
 30
0.0
  3
*D0
  1

  0
LINE
  5
10C
330
E5
100
AcDbEntity
  8
MO_001_VIEW_PV
  6
BYBLOCK
100
AcDbLine
 10
-55.0
 20
-4.0
 30
0.0
 11
-55.0
 21
3.999998
 31
0.0
  0
LINE
  5
10D
330
E5
100
AcDbEntity
  8
MO_001_VIEW_PV
  6
BYBLOCK
100
AcDbLine
 10
-55.0
 20
-4.0
 30
0.0
 11
-55.0
 21
-10.34999999999999
 31
0.0
  0
LINE
  5
10E
330
E5
100
AcDbEntity
  8
MO_001_VIEW_PV
  6
BYBLOCK
100
AcDbLine
 10
-55.0
 20
3.999998
 30
0.0
 11
-55.0
 21
10.349998
 31
0.0
  0
SOLID
  5
10F
330
E5
100
AcDbEntity
  8
MO_001_VIEW_PV
  6
BYBLOCK
100
AcDbTrace
 10
-54.416488
 20
-7.31826
 30
0.0
 11
-55.0
 21
-4.508
 31
0.0
 12
-55.583512
 22
-7.31826
 32
0.0
 13
-55.583512
 23
-7.31826
 33
0.0
  0
SOLID
  5
110
330
E5
100
AcDbEntity
  8
MO_001_VIEW_PV
  6
BYBLOCK
100
AcDbTrace
 10
-55.583512
 20
7.318258
 30
0.0
 11
-55.0
 21
4.507998
 31
0.0
 12
-54.416488
 22
7.318258
 32
0.0
 13
-54.416488
 23
7.318258
 33
0.0
  0
LINE
  5
111
330
E5
100
AcDbEntity
  8
MO_001_VIEW_PV
  6
BYBLOCK
100
AcDbLine
 10
-50.0
 20
-4.0
 30
0.0
 11
-57.28599899999998
 21
-4.0
 31
0.0
  0
LINE
  5
112
330
E5
100
AcDbEntity
  8
MO_001_VIEW_PV
  6
BYBLOCK
100
AcDbLine
 10
-50.0
 20
3.999998
 30
0.0
 11
-57.28599899999998
 21
3.999998
 31
0.0
  0
TEXT
  5
113
330
E5
100
AcDbEntity
  8
MO_001_VIEW_PV
  6
BYBLOCK
100
AcDbText
 10
-57.625
 20
10.71428599999999
 30
0.0
 40
1.5
  1
%%P0.3
 50
90.0
100
AcDbText
  0
TEXT
  5
114
330
E5
100
AcDbEntity
  8
MO_001_VIEW_PV
  6
BYBLOCK
100
AcDbText
 10
-55.75
 20
7.928571
 30
0.0
 40
3.0
  1
8
 50
90.0
100
AcDbText
  0
LINE
  5
115
330
E5
100
AcDbEntity
  8
MO_001_VIEW_PV
  6
BYBLOCK
100
AcDbLine
 10
-55.0
 20
3.999998
 30
0.0
 11
-55.0
 21
17.035713
 31
0.0
  0
ENDBLK
  5
116
330
E5
100
AcDbEntity
  8
0
100
AcDbBlockEnd
  0
BLOCK
  5
117
330
E7
100
AcDbEntity
  8
0
100
AcDbBlockBegin
  2
*D1
 70
     1
 10
0.0
 20
0.0
 30
0.0
  3
*D1
  1

  0
LINE
  5
118
330
E7
100
AcDbEntity
  8
MO_001_VIEW_PV
  6
BYBLOCK
100
AcDbLine
 10
-50.0
 20
-15.0
 30
0.0
 11
-40.0
 21
-15.0
 31
0.0
  0
LINE
  5
119
330
E7
100
AcDbEntity
  8
MO_001_VIEW_PV
  6
BYBLOCK
100
AcDbLine
 10
-50.0
 20
-15.0
 30
0.0
 11
-56.35
 21
-15.0
 31
0.0
  0
LINE
  5
11A
330
E7
100
AcDbEntity
  8
MO_001_VIEW_PV
  6
BYBLOCK
100
AcDbLine
 10
-40.0
 20
-15.0
 30
0.0
 11
-33.65
 21
-15.0
 31
0.0
  0
SOLID
  5
11B
330
E7
100
AcDbEntity
  8
MO_001_VIEW_PV
  6
BYBLOCK
100
AcDbTrace
 10
-53.31825999999999
 20
-15.58351199999999
 30
0.0
 11
-50.508
 21
-15.0
 31
0.0
 12
-53.31825999999999
 22
-14.416488
 32
0.0
 13
-53.31825999999999
 23
-14.416488
 33
0.0
  0
SOLID
  5
11C
330
E7
100
AcDbEntity
  8
MO_001_VIEW_PV
  6
BYBLOCK
100
AcDbTrace
 10
-36.68174
 20
-14.416488
 30
0.0
 11
-39.49199999999999
 21
-15.0
 31
0.0
 12
-36.68174
 22
-15.58351199999999
 32
0.0
 13
-36.68174
 23
-15.58351199999999
 33
0.0
  0
LINE
  5
11D
330
E7
100
AcDbEntity
  8
MO_001_VIEW_PV
  6
BYBLOCK
100
AcDbLine
 10
-50.0
 20
-4.0
 30
0.0
 11
-50.0
 21
-17.285999
 31
0.0
  0
LINE
  5
11E
330
E7
100
AcDbEntity
  8
MO_001_VIEW_PV
  6
BYBLOCK
100
AcDbLine
 10
-40.0
 20
-4.0
 30
0.0
 11
-40.0
 21
-17.285999
 31
0.0
  0
TEXT
  5
11F
330
E7
100
AcDbEntity
  8
MO_001_VIEW_PV
  6
BYBLOCK
100
AcDbText
 10
-30.785714
 20
-12.375
 30
0.0
 40
1.5
  1
%%P0.3
100
AcDbText
  0
TEXT
  5
120
330
E7
100
AcDbEntity
  8
MO_001_VIEW_PV
  6
BYBLOCK
100
AcDbText
 10
-36.57142899999998
 20
-14.25
 30
0.0
 40
3.0
  1
10
100
AcDbText
  0
LINE
  5
121
330
E7
100
AcDbEntity
  8
MO_001_VIEW_PV
  6
BYBLOCK
100
AcDbLine
 10
-40.0
 20
-15.0
 30
0.0
 11
-24.464285
 21
-15.0
 31
0.0
  0
ENDBLK
  5
122
330
E7
100
AcDbEntity
  8
0
100
AcDbBlockEnd
  0
BLOCK
  5
123
330
E9
100
AcDbEntity
  8
0
100
AcDbBlockBegin
  2
*D2
 70
     1
 10
0.0
 20
0.0
 30
0.0
  3
*D2
  1

  0
TEXT
  5
124
330
E9
100
AcDbEntity
  8
MO_001_VIEW_PV
  6
BYBLOCK
100
AcDbText
 10
-29.625
 20
11.46428599999999
 30
0.0
 40
1.5
  1
%%P0.05
 50
90.0
100
AcDbText
  0
TEXT
  5
125
330
E9
100
AcDbEntity
  8
MO_001_VIEW_PV
  6
BYBLOCK
100
AcDbText
 10
-27.75
 20
5.678570999999998
 30
0.0
 40
3.0
  1
%%C3
 50
90.0
100
AcDbText
  0
LINE
  5
126
330
E9
100
AcDbEntity
  8
MO_001_VIEW_PV
  6
BYBLOCK
100
AcDbLine
 10
-27.0
 20
-1.5
 30
0.0
 11
-27.0
 21
1.5
 31
0.0
  0
LINE
  5
127
330
E9
100
AcDbEntity
  8
MO_001_VIEW_PV
  6
BYBLOCK
100
AcDbLine
 10
-27.0
 20
-1.5
 30
0.0
 11
-27.0
 21
-7.849999999999998
 31
0.0
  0
LINE
  5
128
330
E9
100
AcDbEntity
  8
MO_001_VIEW_PV
  6
BYBLOCK
100
AcDbLine
 10
-27.0
 20
1.5
 30
0.0
 11
-27.0
 21
7.849999999999998
 31
0.0
  0
SOLID
  5
129
330
E9
100
AcDbEntity
  8
MO_001_VIEW_PV
  6
BYBLOCK
100
AcDbTrace
 10
-26.416488
 20
-4.818259999999998
 30
0.0
 11
-27.0
 21
-2.008
 31
0.0
 12
-27.58351199999999
 22
-4.818259999999998
 32
0.0
 13
-27.58351199999999
 23
-4.818259999999998
 33
0.0
  0
SOLID
  5
12A
330
E9
100
AcDbEntity
  8
MO_001_VIEW_PV
  6
BYBLOCK
100
AcDbTrace
 10
-27.58351199999999
 20
4.818259999999998
 30
0.0
 11
-27.0
 21
2.008
 31
0.0
 12
-26.416488
 22
4.818259999999998
 32
0.0
 13
-26.416488
 23
4.818259999999998
 33
0.0
  0
LINE
  5
12B
330
E9
100
AcDbEntity
  8
MO_001_VIEW_PV
  6
BYBLOCK
100
AcDbLine
 10
-17.400005
 20
-1.5
 30
0.0
 11
-29.285999
 21
-1.5
 31
0.0
  0
LINE
  5
12C
330
E9
100
AcDbEntity
  8
MO_001_VIEW_PV
  6
BYBLOCK
100
AcDbLine
 10
-17.400005
 20
1.5
 30
0.0
 11
-29.285999
 21
1.5
 31
0.0
  0
LINE
  5
12D
330
E9
100
AcDbEntity
  8
MO_001_VIEW_PV
  6
BYBLOCK
100
AcDbLine
 10
-27.0
 20
1.5
 30
0.0
 11
-27.0
 21
19.285715
 31
0.0
  0
ENDBLK
  5
12E
330
E9
100
AcDbEntity
  8
0
100
AcDbBlockEnd
  0
BLOCK
  5
12F
330
EB
100
AcDbEntity
  8
0
100
AcDbBlockBegin
  2
*D3
 70
     1
 10
0.0
 20
0.0
 30
0.0
  3
*D3
  1

  0
LINE
  5
130
330
EB
100
AcDbEntity
  8
MO_001_VIEW_PV
  6
BYBLOCK
100
AcDbLine
 10
-17.500004
 20
1.399993999999999
 30
0.0
 11
-17.500004
 21
10.55636999999999
 31
0.0
  0
TEXT
  5
131
330
EB
100
AcDbEntity
  8
MO_001_VIEW_PV
  6
BYBLOCK
100
AcDbText
 10
-14.32142999999999
 20
24.75
 30
0.0
 40
3.0
  1
17.5
100
AcDbText
  0
LINE
  5
132
330
EB
100
AcDbEntity
  8
MO_001_VIEW_PV
  6
BYBLOCK
100
AcDbLine
 10
-17.500004
 20
24.0
 30
0.0
 11
0.0
 21
24.0
 31
0.0
  0
SOLID
  5
133
330
EB
100
AcDbEntity
  8
MO_001_VIEW_PV
  6
BYBLOCK
100
AcDbTrace
 10
-14.181744
 20
24.583512
 30
0.0
 11
-16.992004
 21
24.0
 31
0.0
 12
-14.181744
 22
23.416488
 32
0.0
 13
-14.181744
 23
23.416488
 33
0.0
  0
SOLID
  5
134
330
EB
100
AcDbEntity
  8
MO_001_VIEW_PV
  6
BYBLOCK
100
AcDbTrace
 10
-3.318259999999998
 20
23.416488
 30
0.0
 11
-0.508
 21
24.0
 31
0.0
 12
-3.318259999999998
 22
24.583512
 32
0.0
 13
-3.318259999999998
 23
24.583512
 33
0.0
  0
LINE
  5
135
330
EB
100
AcDbEntity
  8
MO_001_VIEW_PV
  6
BYBLOCK
100
AcDbLine
 10
-17.500004
 20
20.384459
 30
0.0
 11
-17.500004
 21
26.285999
 31
0.0
  0
LINE
  5
136
330
EB
100
AcDbEntity
  8
MO_001_VIEW_PV
  6
BYBLOCK
100
AcDbLine
 10
0.0
 20
3.999998
 30
0.0
 11
0.0
 21
26.285999
 31
0.0
  0
ENDBLK
  5
137
330
EB
100
AcDbEntity
  8
0
100
AcDbBlockEnd
  0
BLOCK
  5
138
330
ED
100
AcDbEntity
  8
0
100
AcDbBlockBegin
  2
*D4
 70
     1
 10
0.0
 20
0.0
 30
0.0
  3
*D4
  1

  0
TEXT
  5
139
330
ED
100
AcDbEntity
  8
MO_001_VIEW_PV
  6
BYBLOCK
100
AcDbText
 10
-7.285713999999998
 20
20.625
 30
0.0
 40
1.5
  1
%%P0.3
100
AcDbText
  0
TEXT
  5
13A
330
ED
100
AcDbEntity
  8
MO_001_VIEW_PV
  6
BYBLOCK
100
AcDbText
 10
-13.071428
 20
18.75
 30
0.0
 40
3.0
  1
15
100
AcDbText
  0
LINE
  5
13B
330
ED
100
AcDbEntity
  8
MO_001_VIEW_PV
  6
BYBLOCK
100
AcDbLine
 10
-14.99999899999999
 20
18.0
 30
0.0
 11
0.0
 21
18.0
 31
0.0
  0
LINE
  5
13C
330
ED
100
AcDbEntity
  8
MO_001_VIEW_PV
  6
BYBLOCK
100
AcDbLine
 10
-14.99999899999999
 20
18.0
 30
0.0
 11
-21.34999899999999
 21
18.0
 31
0.0
  0
LINE
  5
13D
330
ED
100
AcDbEntity
  8
MO_001_VIEW_PV
  6
BYBLOCK
100
AcDbLine
 10
0.0
 20
18.0
 30
0.0
 11
6.349999999999998
 21
18.0
 31
0.0
  0
SOLID
  5
13E
330
ED
100
AcDbEntity
  8
MO_001_VIEW_PV
  6
BYBLOCK
100
AcDbTrace
 10
-18.318259
 20
17.416488
 30
0.0
 11
-15.507999
 21
18.0
 31
0.0
 12
-18.318259
 22
18.58351199999998
 32
0.0
 13
-18.318259
 23
18.58351199999998
 33
0.0
  0
SOLID
  5
13F
330
ED
100
AcDbEntity
  8
MO_001_VIEW_PV
  6
BYBLOCK
100
AcDbTrace
 10
3.318259999999998
 20
18.58351199999998
 30
0.0
 11
0.508
 21
18.0
 31
0.0
 12
3.318259999999998
 22
17.416488
 32
0.0
 13
3.318259999999998
 23
17.416488
 33
0.0
  0
LINE
  5
140
330
ED
100
AcDbEntity
  8
MO_001_VIEW_PV
  6
BYBLOCK
100
AcDbLine
 10
-14.99999899999999
 20
15.592243
 30
0.0
 11
-14.99999899999999
 21
20.285999
 31
0.0
  0
LINE
  5
141
330
ED
100
AcDbEntity
  8
MO_001_NOSHOW
  6
BYBLOCK
100
AcDbLine
 10
0.0
 20
3.999998
 30
0.0
 11
0.0
 21
20.285999
 31
0.0
  0
LINE
  5
142
330
ED
100
AcDbEntity
  8
MO_001_VIEW_PV
  6
BYBLOCK
100
AcDbLine
 10
-14.99999899999999
 20
3.999998
 30
0.0
 11
-14.99999899999999
 21
10.65321399999999
 31
0.0
  0
ENDBLK
  5
143
330
ED
100
AcDbEntity
  8
0
100
AcDbBlockEnd
  0
BLOCK
  5
144
330
EF
100
AcDbEntity
  8
0
100
AcDbBlockBegin
  2
*D5
 70
     1
 10
0.0
 20
0.0
 30
0.0
  3
*D5
  1

  0
TEXT
  5
145
330
EF
100
AcDbEntity
  8
MO_001_VIEW_PV
  6
BYBLOCK
100
AcDbText
 10
-22.57287799999999
 20
12.75
 30
0.0
 40
3.0
  1
(4.5)
100
AcDbText
  0
LINE
  5
146
330
EF
100
AcDbEntity
  8
MO_001_VIEW_PV
  6
BYBLOCK
100
AcDbLine
 10
-4.5
 20
12.0
 30
0.0
 11
0.0
 21
12.0
 31
0.0
  0
LINE
  5
147
330
EF
100
AcDbEntity
  8
MO_001_VIEW_PV
  6
BYBLOCK
100
AcDbLine
 10
-4.5
 20
12.0
 30
0.0
 11
-10.84999999999999
 21
12.0
 31
0.0
  0
LINE
  5
148
330
EF
100
AcDbEntity
  8
MO_001_VIEW_PV
  6
BYBLOCK
100
AcDbLine
 10
0.0
 20
12.0
 30
0.0
 11
6.349999999999998
 21
12.0
 31
0.0
  0
SOLID
  5
149
330
EF
100
AcDbEntity
  8
MO_001_VIEW_PV
  6
BYBLOCK
100
AcDbTrace
 10
-7.81826
 20
11.416488
 30
0.0
 11
-5.008
 21
12.0
 31
0.0
 12
-7.81826
 22
12.58351199999999
 32
0.0
 13
-7.81826
 23
12.58351199999999
 33
0.0
  0
SOLID
  5
14A
330
EF
100
AcDbEntity
  8
MO_001_VIEW_PV
  6
BYBLOCK
100
AcDbTrace
 10
3.318259999999998
 20
12.58351199999999
 30
0.0
 11
0.508
 21
12.0
 31
0.0
 12
3.318259999999998
 22
11.416488
 32
0.0
 13
3.318259999999998
 23
11.416488
 33
0.0
  0
LINE
  5
14B
330
EF
100
AcDbEntity
  8
MO_001_VIEW_PV
  6
BYBLOCK
100
AcDbLine
 10
-4.5
 20
0.5
 30
0.0
 11
-4.5
 21
14.286
 31
0.0
  0
LINE
  5
14C
330
EF
100
AcDbEntity
  8
MO_001_VIEW_PV
  6
BYBLOCK
100
AcDbLine
 10
0.0
 20
3.999998
 30
0.0
 11
0.0
 21
14.286
 31
0.0
  0
LINE
  5
14D
330
EF
100
AcDbEntity
  8
MO_001_VIEW_PV
  6
BYBLOCK
100
AcDbLine
 10
-23.53716499999999
 20
12.0
 30
0.0
 11
-4.5
 21
12.0
 31
0.0
  0
ENDBLK
  5
14E
330
EF
100
AcDbEntity
  8
0
100
AcDbBlockEnd
  0
BLOCK
  5
14F
330
F1
100
AcDbEntity
  8
0
100
AcDbBlockBegin
  2
*D6
 70
     1
 10
0.0
 20
0.0
 30
0.0
  3
*D6
  1

  0
TEXT
  5
150
330
F1
100
AcDbEntity
  8
MO_001_VIEW_PV
  6
BYBLOCK
100
AcDbText
 10
-25.285714
 20
-21.375
 30
0.0
 40
1.5
  1
%%P0.5
100
AcDbText
  0
TEXT
  5
151
330
F1
100
AcDbEntity
  8
MO_001_VIEW_PV
  6
BYBLOCK
100
AcDbText
 10
-34.07142899999998
 20
-23.25
 30
0.0
 40
3.0
  1
7.5
100
AcDbText
  0
LINE
  5
152
330
F1
100
AcDbEntity
  8
MO_001_VIEW_PV
  6
BYBLOCK
100
AcDbLine
 10
-17.000004
 20
-24.0
 30
0.0
 11
-9.499999
 21
-24.0
 31
0.0
  0
LINE
  5
153
330
F1
100
AcDbEntity
  8
MO_001_VIEW_PV
  6
BYBLOCK
100
AcDbLine
 10
-17.000004
 20
-24.0
 30
0.0
 11
-23.350004
 21
-24.0
 31
0.0
  0
SOLID
  5
154
330
F1
100
AcDbEntity
  8
MO_001_VIEW_PV
  6
BYBLOCK
100
AcDbTrace
 10
-20.318264
 20
-24.583512
 30
0.0
 11
-17.508004
 21
-24.0
 31
0.0
 12
-20.318264
 22
-23.416488
 32
0.0
 13
-20.318264
 23
-23.416488
 33
0.0
  0
SOLID
  5
155
330
F1
100
AcDbEntity
  8
MO_001_VIEW_PV
  6
BYBLOCK
100
AcDbTrace
 10
-9.499999
 20
-24.635
 30
0.0
 11
-9.499999
 21
-23.365
 31
0.0
 12
-9.499999
 22
-24.635
 32
0.0
 13
-9.499999
 23
-24.635
 33
0.0
  0
LINE
  5
156
330
F1
100
AcDbEntity
  8
MO_001_VIEW_PV
  6
BYBLOCK
100
AcDbLine
 10
-17.000004
 20
-1.5
 30
0.0
 11
-17.000004
 21
-26.285999
 31
0.0
  0
LINE
  5
157
330
F1
100
AcDbEntity
  8
MO_001_VIEW_PV
  6
BYBLOCK
100
AcDbLine
 10
-9.499999
 20
-0.5
 30
0.0
 11
-9.499999
 21
-26.285999
 31
0.0
  0
LINE
  5
158
330
F1
100
AcDbEntity
  8
MO_001_VIEW_PV
  6
BYBLOCK
100
AcDbLine
 10
-35.035713
 20
-24.0
 30
0.0
 11
-17.000004
 21
-24.0
 31
0.0
  0
ENDBLK
  5
159
330
F1
100
AcDbEntity
  8
0
100
AcDbBlockEnd
  0
BLOCK
  5
15A
330
F3
100
AcDbEntity
  8
0
100
AcDbBlockBegin
  2
*D7
 70
     1
 10
0.0
 20
0.0
 30
0.0
  3
*D7
  1

  0
TEXT
  5
15B
330
F3
100
AcDbEntity
  8
MO_001_VIEW_PV
  6
BYBLOCK
100
AcDbText
 10
3.012538
 20
-21.375
 30
0.0
 40
1.5
  1
%%P0.2
100
AcDbText
  0
TEXT
  5
15C
330
F3
100
AcDbEntity
  8
MO_001_VIEW_PV
  6
BYBLOCK
100
AcDbText
 10
0.226824
 20
-23.25
 30
0.0
 40
3.0
  1
5
100
AcDbText
  0
LINE
  5
15D
330
F3
100
AcDbEntity
  8
MO_001_VIEW_PV
  6
BYBLOCK
100
AcDbLine
 10
-9.499999
 20
-24.0
 30
0.0
 11
-4.5
 21
-24.0
 31
0.0
  0
LINE
  5
15E
330
F3
100
AcDbEntity
  8
MO_001_VIEW_PV
  6
BYBLOCK
100
AcDbLine
 10
-4.5
 20
-24.0
 30
0.0
 11
1.85
 21
-24.0
 31
0.0
  0
SOLID
  5
15F
330
F3
100
AcDbEntity
  8
MO_001_VIEW_PV
  6
BYBLOCK
100
AcDbTrace
 10
-1.18174
 20
-23.416488
 30
0.0
 11
-3.991999999999998
 21
-24.0
 31
0.0
 12
-1.18174
 22
-24.583512
 32
0.0
 13
-1.18174
 23
-24.583512
 33
0.0
  0
LINE
  5
160
330
F3
100
AcDbEntity
  8
MO_001_VIEW_PV
  6
BYBLOCK
100
AcDbLine
 10
-9.499999
 20
-0.5
 30
0.0
 11
-9.499999
 21
-26.285999
 31
0.0
  0
LINE
  5
161
330
F3
100
AcDbEntity
  8
MO_001_VIEW_PV
  6
BYBLOCK
100
AcDbLine
 10
-4.5
 20
-4.5
 30
0.0
 11
-4.5
 21
-26.285999
 31
0.0
  0
LINE
  5
162
330
F3
100
AcDbEntity
  8
MO_001_VIEW_PV
  6
BYBLOCK
100
AcDbLine
 10
-4.5
 20
-24.0
 30
0.0
 11
9.333966
 21
-24.0
 31
0.0
  0
ENDBLK
  5
163
330
F3
100
AcDbEntity
  8
0
100
AcDbBlockEnd
  0
BLOCK
  5
164
330
F5
100
AcDbEntity
  8
0
100
AcDbBlockBegin
  2
*D8
 70
     1
 10
0.0
 20
0.0
 30
0.0
  3
*D8
  1

  0
TEXT
  5
165
330
F5
100
AcDbEntity
  8
MO_001_VIEW_PV
  6
BYBLOCK
100
AcDbText
 10
18.375
 20
9.599968999999999
 30
0.0
 40
1.5
  1
%%P0.2
 50
90.0
100
AcDbText
  0
TEXT
  5
166
330
F5
100
AcDbEntity
  8
MO_001_VIEW_PV
  6
BYBLOCK
100
AcDbText
 10
20.24999999999999
 20
6.814255
 30
0.0
 40
3.0
  1
4
 50
90.0
100
AcDbText
  0
LINE
  5
167
330
F5
100
AcDbEntity
  8
MO_001_VIEW_PV
  6
BYBLOCK
100
AcDbLine
 10
21.0
 20
-2.0
 30
0.0
 11
21.0
 21
2.0
 31
0.0
  0
LINE
  5
168
330
F5
100
AcDbEntity
  8
MO_001_VIEW_PV
  6
BYBLOCK
100
AcDbLine
 10
21.0
 20
-2.0
 30
0.0
 11
21.0
 21
-8.349999999999999
 31
0.0
  0
LINE
  5
169
330
F5
100
AcDbEntity
  8
MO_001_VIEW_PV
  6
BYBLOCK
100
AcDbLine
 10
21.0
 20
2.0
 30
0.0
 11
21.0
 21
8.349999999999999
 31
0.0
  0
SOLID
  5
16A
330
F5
100
AcDbEntity
  8
MO_001_VIEW_PV
  6
BYBLOCK
100
AcDbTrace
 10
21.58351199999999
 20
-5.318259999999998
 30
0.0
 11
21.0
 21
-2.508
 31
0.0
 12
20.416488
 22
-5.318259999999998
 32
0.0
 13
20.416488
 23
-5.318259999999998
 33
0.0
  0
SOLID
  5
16B
330
F5
100
AcDbEntity
  8
MO_001_VIEW_PV
  6
BYBLOCK
100
AcDbTrace
 10
20.416488
 20
5.318259999999998
 30
0.0
 11
21.0
 21
2.508
 31
0.0
 12
21.58351199999999
 22
5.318259999999998
 32
0.0
 13
21.58351199999999
 23
5.318259999999998
 33
0.0
  0
LINE
  5
16C
330
F5
100
AcDbEntity
  8
MO_001_VIEW_PV
  6
BYBLOCK
100
AcDbLine
 10
-2.0
 20
-2.0
 30
0.0
 11
23.28599899999999
 21
-2.0
 31
0.0
  0
LINE
  5
16D
330
F5
100
AcDbEntity
  8
MO_001_VIEW_PV
  6
BYBLOCK
100
AcDbLine
 10
-6.999999
 20
2.0
 30
0.0
 11
23.28599899999999
 21
2.0
 31
0.0
  0
LINE
  5
16E
330
F5
100
AcDbEntity
  8
MO_001_VIEW_PV
  6
BYBLOCK
100
AcDbLine
 10
21.0
 20
2.0
 30
0.0
 11
21.0
 21
15.921398
 31
0.0
  0
ENDBLK
  5
16F
330
F5
100
AcDbEntity
  8
0
100
AcDbBlockEnd
  0
BLOCK
  5
170
330
F7
100
AcDbEntity
  8
0
100
AcDbBlockBegin
  2
*D9
 70
     1
 10
0.0
 20
0.0
 30
0.0
  3
*D9
  1

  0
TEXT
  5
171
330
F7
100
AcDbEntity
  8
MO_001_VIEW_PV
  6
BYBLOCK
100
AcDbText
 10
4.044438999999998
 20
-8.25
 30
0.0
 40
3.0
  1
(0.5)
100
AcDbText
  0
LINE
  5
172
330
F7
100
AcDbEntity
  8
MO_001_VIEW_PV
  6
BYBLOCK
100
AcDbLine
 10
0.0
 20
-9.0
 30
0.0
 11
0.5
 21
-9.0
 31
0.0
  0
LINE
  5
173
330
F7
100
AcDbEntity
  8
MO_001_VIEW_PV
  6
BYBLOCK
100
AcDbLine
 10
0.0
 20
-9.0
 30
0.0
 11
-6.349999999999998
 21
-9.0
 31
0.0
  0
LINE
  5
174
330
F7
100
AcDbEntity
  8
MO_001_VIEW_PV
  6
BYBLOCK
100
AcDbLine
 10
0.5
 20
-9.0
 30
0.0
 11
6.849999999999998
 21
-9.0
 31
0.0
  0
SOLID
  5
175
330
F7
100
AcDbEntity
  8
MO_001_VIEW_PV
  6
BYBLOCK
100
AcDbTrace
 10
-3.318259999999998
 20
-9.583511999999997
 30
0.0
 11
-0.508
 21
-9.0
 31
0.0
 12
-3.318259999999998
 22
-8.416488000000001
 32
0.0
 13
-3.318259999999998
 23
-8.416488000000001
 33
0.0
  0
SOLID
  5
176
330
F7
100
AcDbEntity
  8
MO_001_VIEW_PV
  6
BYBLOCK
100
AcDbTrace
 10
3.81826
 20
-8.416488000000001
 30
0.0
 11
1.008
 21
-9.0
 31
0.0
 12
3.81826
 22
-9.583511999999997
 32
0.0
 13
3.81826
 23
-9.583511999999997
 33
0.0
  0
LINE
  5
177
330
F7
100
AcDbEntity
  8
MO_001_NOSHOW
  6
BYBLOCK
100
AcDbLine
 10
0.0
 20
-4.0
 30
0.0
 11
0.0
 21
-11.286
 31
0.0
  0
LINE
  5
178
330
F7
100
AcDbEntity
  8
MO_001_VIEW_PV
  6
BYBLOCK
100
AcDbLine
 10
0.5
 20
-1.0
 30
0.0
 11
0.5
 21
-11.286
 31
0.0
  0
LINE
  5
179
330
F7
100
AcDbEntity
  8
MO_001_VIEW_PV
  6
BYBLOCK
100
AcDbLine
 10
0.5
 20
-9.0
 30
0.0
 11
19.15158299999998
 21
-9.0
 31
0.0
  0
ENDBLK
  5
17A
330
F7
100
AcDbEntity
  8
0
100
AcDbBlockEnd
  0
BLOCK
  5
17B
330
F9
100
AcDbEntity
  8
0
100
AcDbBlockBegin
  2
*D10
 70
     1
 10
0.0
 20
0.0
 30
0.0
  3
*D10
  1

  0
LINE
  5
17C
330
F9
100
AcDbEntity
  8
MO_001_VIEW_PV
  6
BYBLOCK
100
AcDbLine
 10
0.0
 20
-15.0
 30
0.0
 11
41.0
 21
-15.0
 31
0.0
  0
SOLID
  5
17D
330
F9
100
AcDbEntity
  8
MO_001_VIEW_PV
  6
BYBLOCK
100
AcDbTrace
 10
3.318259999999998
 20
-14.416488
 30
0.0
 11
0.508
 21
-15.0
 31
0.0
 12
3.318259999999998
 22
-15.58351199999999
 32
0.0
 13
3.318259999999998
 23
-15.58351199999999
 33
0.0
  0
SOLID
  5
17E
330
F9
100
AcDbEntity
  8
MO_001_VIEW_PV
  6
BYBLOCK
100
AcDbTrace
 10
37.68174
 20
-15.58351199999999
 30
0.0
 11
40.49199999999999
 21
-15.0
 31
0.0
 12
37.68174
 22
-14.416488
 32
0.0
 13
37.68174
 23
-14.416488
 33
0.0
  0
LINE
  5
17F
330
F9
100
AcDbEntity
  8
MO_001_VIEW_PV
  6
BYBLOCK
100
AcDbLine
 10
0.0
 20
-4.0
 30
0.0
 11
0.0
 21
-17.285999
 31
0.0
  0
LINE
  5
180
330
F9
100
AcDbEntity
  8
MO_001_VIEW_PV
  6
BYBLOCK
100
AcDbLine
 10
41.0
 20
4.9195
 30
0.0
 11
41.0
 21
-17.285999
 31
0.0
  0
TEXT
  5
181
330
F9
100
AcDbEntity
  8
MO_001_VIEW_PV
  6
BYBLOCK
100
AcDbText
 10
10.42857099999999
 20
-14.25
 30
0.0
 40
3.0
  1
長さ240以上
100
AcDbText
  0
ENDBLK
  5
182
330
F9
100
AcDbEntity
  8
0
100
AcDbBlockEnd
  0
BLOCK
  5
183
330
FB
100
AcDbEntity
  8
0
100
AcDbBlockBegin
  2
*D11
 70
     1
 10
0.0
 20
0.0
 30
0.0
  3
*D11
  1

  0
LINE
  5
184
330
FB
100
AcDbEntity
  8
MO_001_VIEW_PV
  6
BYBLOCK
100
AcDbLine
 10
-36.0
 20
-55.400002
 30
0.0
 11
-36.0
 21
-56.599998
 31
0.0
  0
LINE
  5
185
330
FB
100
AcDbEntity
  8
MO_001_VIEW_PV
  6
BYBLOCK
100
AcDbLine
 10
-36.0
 20
-55.400002
 30
0.0
 11
-36.0
 21
-49.05000199999999
 31
0.0
  0
LINE
  5
186
330
FB
100
AcDbEntity
  8
MO_001_VIEW_PV
  6
BYBLOCK
100
AcDbLine
 10
-36.0
 20
-56.599998
 30
0.0
 11
-36.0
 21
-62.949998
 31
0.0
  0
SOLID
  5
187
330
FB
100
AcDbEntity
  8
MO_001_VIEW_PV
  6
BYBLOCK
100
AcDbTrace
 10
-36.583512
 20
-52.081741
 30
0.0
 11
-36.0
 21
-54.892002
 31
0.0
 12
-35.416488
 22
-52.081741
 32
0.0
 13
-35.416488
 23
-52.081741
 33
0.0
  0
SOLID
  5
188
330
FB
100
AcDbEntity
  8
MO_001_VIEW_PV
  6
BYBLOCK
100
AcDbTrace
 10
-35.416488
 20
-59.918259
 30
0.0
 11
-36.0
 21
-57.107998
 31
0.0
 12
-36.583512
 22
-59.918259
 32
0.0
 13
-36.583512
 23
-59.918259
 33
0.0
  0
LINE
  5
189
330
FB
100
AcDbEntity
  8
MO_001_VIEW_PV
  6
BYBLOCK
100
AcDbLine
 10
-17.000004
 20
-55.400002
 30
0.0
 11
-38.285999
 21
-55.400002
 31
0.0
  0
LINE
  5
18A
330
FB
100
AcDbEntity
  8
MO_001_VIEW_PV
  6
BYBLOCK
100
AcDbLine
 10
-17.000004
 20
-56.599998
 30
0.0
 11
-38.285999
 21
-56.599998
 31
0.0
  0
TEXT
  5
18B
330
FB
100
AcDbEntity
  8
MO_001_VIEW_PV
  6
BYBLOCK
100
AcDbText
 10
-38.625
 20
-38.77559
 30
0.0
 40
1.5
  1
%%P0.3
 50
90.0
100
AcDbText
  0
TEXT
  5
18C
330
FB
100
AcDbEntity
  8
MO_001_VIEW_PV
  6
BYBLOCK
100
AcDbText
 10
-36.75
 20
-50.561304
 30
0.0
 40
3.0
  1
%%C1.2
 50
90.0
100
AcDbText
  0
LINE
  5
18D
330
FB
100
AcDbEntity
  8
MO_001_VIEW_PV
  6
BYBLOCK
100
AcDbLine
 10
-36.0
 20
-32.454159
 30
0.0
 11
-36.0
 21
-55.400002
 31
0.0
  0
ENDBLK
  5
18E
330
FB
100
AcDbEntity
  8
0
100
AcDbBlockEnd
  0
BLOCK
  5
18F
330
FD
100
AcDbEntity
  8
0
100
AcDbBlockBegin
  2
*D12
 70
     1
 10
0.0
 20
0.0
 30
0.0
  3
*D12
  1

  0
TEXT
  5
190
330
FD
100
AcDbEntity
  8
MO_001_VIEW_PV
  6
BYBLOCK
100
AcDbText
 10
-24.610751
 20
-44.375
 30
0.0
 40
1.5
  1
%%P0.2
100
AcDbText
  0
TEXT
  5
191
330
FD
100
AcDbEntity
  8
MO_001_VIEW_PV
  6
BYBLOCK
100
AcDbText
 10
-33.396466
 20
-46.25
 30
0.0
 40
3.0
  1
0.5
100
AcDbText
  0
LINE
  5
192
330
FD
100
AcDbEntity
  8
MO_001_VIEW_PV
  6
BYBLOCK
100
AcDbLine
 10
-17.000004
 20
-47.0
 30
0.0
 11
-17.500004
 21
-47.0
 31
0.0
  0
LINE
  5
193
330
FD
100
AcDbEntity
  8
MO_001_VIEW_PV
  6
BYBLOCK
100
AcDbLine
 10
-17.000004
 20
-47.0
 30
0.0
 11
-10.65000399999999
 21
-47.0
 31
0.0
  0
LINE
  5
194
330
FD
100
AcDbEntity
  8
MO_001_VIEW_PV
  6
BYBLOCK
100
AcDbLine
 10
-17.500004
 20
-47.0
 30
0.0
 11
-23.850004
 21
-47.0
 31
0.0
  0
SOLID
  5
195
330
FD
100
AcDbEntity
  8
MO_001_VIEW_PV
  6
BYBLOCK
100
AcDbTrace
 10
-13.681744
 20
-46.416488
 30
0.0
 11
-16.492004
 21
-47.0
 31
0.0
 12
-13.681744
 22
-47.58351199999999
 32
0.0
 13
-13.681744
 23
-47.58351199999999
 33
0.0
  0
SOLID
  5
196
330
FD
100
AcDbEntity
  8
MO_001_VIEW_PV
  6
BYBLOCK
100
AcDbTrace
 10
-20.818264
 20
-47.58351199999999
 30
0.0
 11
-18.00800399999999
 21
-47.0
 31
0.0
 12
-20.818264
 22
-46.416488
 32
0.0
 13
-20.818264
 23
-46.416488
 33
0.0
  0
LINE
  5
197
330
FD
100
AcDbEntity
  8
MO_001_NOSHOW
  6
BYBLOCK
100
AcDbLine
 10
-17.000004
 20
-54.5
 30
0.0
 11
-17.000004
 21
-44.714001
 31
0.0
  0
LINE
  5
198
330
FD
100
AcDbEntity
  8
MO_001_NOSHOW
  6
BYBLOCK
100
AcDbLine
 10
-17.500004
 20
-54.600006
 30
0.0
 11
-17.500004
 21
-44.714001
 31
0.0
  0
LINE
  5
199
330
FD
100
AcDbEntity
  8
MO_001_VIEW_PV
  6
BYBLOCK
100
AcDbLine
 10
-17.500004
 20
-47.0
 30
0.0
 11
-34.360748
 21
-47.0
 31
0.0
  0
ENDBLK
  5
19A
330
FD
100
AcDbEntity
  8
0
100
AcDbBlockEnd
  0
BLOCK
  5
19B
330
FF
100
AcDbEntity
  8
0
100
AcDbBlockBegin
  2
*D13
 70
     1
 10
0.0
 20
0.0
 30
0.0
  3
*D13
  1

  0
LINE
  5
19C
330
FF
100
AcDbEntity
  8
MO_001_VIEW_PV
  6
BYBLOCK
100
AcDbLine
 10
-17.000004
 20
-41.0
 30
0.0
 11
-15.400004
 21
-41.0
 31
0.0
  0
LINE
  5
19D
330
FF
100
AcDbEntity
  8
MO_001_VIEW_PV
  6
BYBLOCK
100
AcDbLine
 10
-17.000004
 20
-41.0
 30
0.0
 11
-23.350004
 21
-41.0
 31
0.0
  0
LINE
  5
19E
330
FF
100
AcDbEntity
  8
MO_001_VIEW_PV
  6
BYBLOCK
100
AcDbLine
 10
-15.400004
 20
-41.0
 30
0.0
 11
-9.050003999999999
 21
-41.0
 31
0.0
  0
SOLID
  5
19F
330
FF
100
AcDbEntity
  8
MO_001_VIEW_PV
  6
BYBLOCK
100
AcDbTrace
 10
-20.318264
 20
-41.583512
 30
0.0
 11
-17.508004
 21
-41.0
 31
0.0
 12
-20.318264
 22
-40.41648799999999
 32
0.0
 13
-20.318264
 23
-40.41648799999999
 33
0.0
  0
SOLID
  5
1A0
330
FF
100
AcDbEntity
  8
MO_001_VIEW_PV
  6
BYBLOCK
100
AcDbTrace
 10
-12.081744
 20
-40.41648799999999
 30
0.0
 11
-14.892004
 21
-41.0
 31
0.0
 12
-12.081744
 22
-41.583512
 32
0.0
 13
-12.081744
 23
-41.583512
 33
0.0
  0
LINE
  5
1A1
330
FF
100
AcDbEntity
  8
MO_001_VIEW_PV
  6
BYBLOCK
100
AcDbLine
 10
-17.000004
 20
-54.5
 30
0.0
 11
-17.000004
 21
-38.714001
 31
0.0
  0
LINE
  5
1A2
330
FF
100
AcDbEntity
  8
MO_001_VIEW_PV
  6
BYBLOCK
100
AcDbLine
 10
-15.400004
 20
-54.5
 30
0.0
 11
-15.400004
 21
-38.714001
 31
0.0
  0
TEXT
  5
1A3
330
FF
100
AcDbEntity
  8
MO_001_VIEW_PV
  6
BYBLOCK
100
AcDbText
 10
-2.784378999999998
 20
-38.375
 30
0.0
 40
1.5
  1
%%P0.2
100
AcDbText
  0
TEXT
  5
1A4
330
FF
100
AcDbEntity
  8
MO_001_VIEW_PV
  6
BYBLOCK
100
AcDbText
 10
-11.570094
 20
-40.25
 30
0.0
 40
3.0
  1
1.6
100
AcDbText
  0
LINE
  5
1A5
330
FF
100
AcDbEntity
  8
MO_001_VIEW_PV
  6
BYBLOCK
100
AcDbLine
 10
-15.400004
 20
-41.0
 30
0.0
 11
3.537048999999998
 21
-41.0
 31
0.0
  0
ENDBLK
  5
1A6
330
FF
100
AcDbEntity
  8
0
100
AcDbBlockEnd
  0
BLOCK
  5
1A7
330
101
100
AcDbEntity
  8
0
100
AcDbBlockBegin
  2
*D14
 70
     1
 10
0.0
 20
0.0
 30
0.0
  3
*D14
  1

  0
LINE
  5
1A8
330
101
100
AcDbEntity
  8
MO_001_VIEW_PV
  6
BYBLOCK
100
AcDbLine
 10
0.0
 20
-35.0
 30
0.0
 11
-14.500001
 21
-35.0
 31
0.0
  0
LINE
  5
1A9
330
101
100
AcDbEntity
  8
MO_001_VIEW_PV
  6
BYBLOCK
100
AcDbLine
 10
0.0
 20
-35.0
 30
0.0
 11
6.349999999999998
 21
-35.0
 31
0.0
  0
SOLID
  5
1AA
330
101
100
AcDbEntity
  8
MO_001_VIEW_PV
  6
BYBLOCK
100
AcDbTrace
 10
3.318259999999998
 20
-34.416488
 30
0.0
 11
0.508
 21
-35.0
 31
0.0
 12
3.318259999999998
 22
-35.583512
 32
0.0
 13
3.318259999999998
 23
-35.583512
 33
0.0
  0
SOLID
  5
1AB
330
101
100
AcDbEntity
  8
MO_001_VIEW_PV
  6
BYBLOCK
100
AcDbTrace
 10
-14.500001
 20
-34.365
 30
0.0
 11
-14.500001
 21
-35.63499999999999
 31
0.0
 12
-14.500001
 22
-34.365
 32
0.0
 13
-14.500001
 23
-34.365
 33
0.0
  0
LINE
  5
1AC
330
101
100
AcDbEntity
  8
MO_001_VIEW_PV
  6
BYBLOCK
100
AcDbLine
 10
0.0
 20
-36.515789
 30
0.0
 11
0.0
 21
-32.714001
 31
0.0
  0
LINE
  5
1AD
330
101
100
AcDbEntity
  8
MO_001_VIEW_PV
  6
BYBLOCK
100
AcDbLine
 10
-14.500001
 20
-52.0
 30
0.0
 11
-14.500001
 21
-32.714001
 31
0.0
  0
TEXT
  5
1AE
330
101
100
AcDbEntity
  8
MO_001_VIEW_PV
  6
BYBLOCK
100
AcDbText
 10
15.21428599999999
 20
-32.375
 30
0.0
 40
1.5
  1
%%P0.5
100
AcDbText
  0
TEXT
  5
1AF
330
101
100
AcDbEntity
  8
MO_001_VIEW_PV
  6
BYBLOCK
100
AcDbText
 10
3.428570999999998
 20
-34.25
 30
0.0
 40
3.0
  1
14.5
100
AcDbText
  0
LINE
  5
1B0
330
101
100
AcDbEntity
  8
MO_001_VIEW_PV
  6
BYBLOCK
100
AcDbLine
 10
21.53571499999999
 20
-35.0
 30
0.0
 11
0.0
 21
-35.0
 31
0.0
  0
LINE
  5
1B1
330
101
100
AcDbEntity
  8
MO_001_VIEW_PV
  6
BYBLOCK
100
AcDbLine
 10
0.0
 20
-52.0
 30
0.0
 11
0.0
 21
-41.963333
 31
0.0
  0
ENDBLK
  5
1B2
330
101
100
AcDbEntity
  8
0
100
AcDbBlockEnd
  0
BLOCK
  5
1B3
330
103
100
AcDbEntity
  8
0
100
AcDbBlockBegin
  2
*D15
 70
     1
 10
0.0
 20
0.0
 30
0.0
  3
*D15
  1

  0
LINE
  5
1B4
330
103
100
AcDbEntity
  8
MO_001_VIEW_PV
  6
BYBLOCK
100
AcDbLine
 10
-14.500001
 20
-35.0
 30
0.0
 11
-17.500004
 21
-35.0
 31
0.0
  0
LINE
  5
1B5
330
103
100
AcDbEntity
  8
MO_001_VIEW_PV
  6
BYBLOCK
100
AcDbLine
 10
-17.500004
 20
-35.0
 30
0.0
 11
-23.850004
 21
-35.0
 31
0.0
  0
SOLID
  5
1B6
330
103
100
AcDbEntity
  8
MO_001_VIEW_PV
  6
BYBLOCK
100
AcDbTrace
 10
-20.818264
 20
-35.583512
 30
0.0
 11
-18.00800399999999
 21
-35.0
 31
0.0
 12
-20.818264
 22
-34.416488
 32
0.0
 13
-20.818264
 23
-34.416488
 33
0.0
  0
LINE
  5
1B7
330
103
100
AcDbEntity
  8
MO_001_NOSHOW
  6
BYBLOCK
100
AcDbLine
 10
-14.500001
 20
-52.0
 30
0.0
 11
-14.500001
 21
-32.714001
 31
0.0
  0
LINE
  5
1B8
330
103
100
AcDbEntity
  8
MO_001_VIEW_PV
  6
BYBLOCK
100
AcDbLine
 10
-17.500004
 20
-54.600006
 30
0.0
 11
-17.500004
 21
-32.714001
 31
0.0
  0
TEXT
  5
1B9
330
103
100
AcDbEntity
  8
MO_001_VIEW_PV
  6
BYBLOCK
100
AcDbText
 10
-29.949114
 20
-34.25
 30
0.0
 40
3.0
  1
(3)
100
AcDbText
  0
LINE
  5
1BA
330
103
100
AcDbEntity
  8
MO_001_VIEW_PV
  6
BYBLOCK
100
AcDbLine
 10
-17.500004
 20
-35.0
 30
0.0
 11
-30.913401
 21
-35.0
 31
0.0
  0
ENDBLK
  5
1BB
330
103
100
AcDbEntity
  8
0
100
AcDbBlockEnd
  0
ENDSEC
  0
SECTION
  2
ENTITIES
  0
TEXT
  5
4E
330
1E
100
AcDbEntity
  8
OVERLAY_MAP
  6
C_SOLID_L
100
AcDbText
 10
0.0
 20
6.349999999999998
 30
0.0
 40
4.1672
  1
Model Overlay Name
100
AcDbText
  0
TEXT
  5
4F
330
1E
100
AcDbEntity
  8
OVERLAY_MAP
  6
C_SOLID_L
100
AcDbText
 10
126.999998
 20
0.0
 30
0.0
 40
4.1672
  1
Number
100
AcDbText
  0
TEXT
  5
50
330
1E
100
AcDbEntity
  8
OVERLAY_MAP
  6
C_SOLID_L
100
AcDbText
 10
177.7999969999999
 20
0.0
 30
0.0
 40
4.1672
  1
File Text
100
AcDbText
  0
TEXT
  5
51
330
1E
100
AcDbEntity
  8
OVERLAY_MAP
  6
C_SOLID_L
100
AcDbText
 10
0.0
 20
-6.349999999999998
 30
0.0
 40
4.1672
  1
op sk0315a 
100
AcDbText
  0
TEXT
  5
52
330
1E
100
AcDbEntity
  8
OVERLAY_MAP
  6
C_SOLID_L
100
AcDbText
 10
126.999998
 20
-6.349999999999998
 30
0.0
 40
4.1672
  1
001
100
AcDbText
  0
TEXT
  5
53
330
1E
100
AcDbEntity
  8
OVERLAY_MAP
  6
C_SOLID_L
100
AcDbText
 10
177.7999969999999
 20
-6.349999999999998
 30
0.0
 40
4.1672
  1
                                                     890589050 131000139
100
AcDbText
  0
LINE
  5
54
330
1E
100
AcDbEntity
  8
MO_001_VIEW_PV
  6
C_SOLID_M
100
AcDbLine
 10
0.0
 20
3.999998
 30
0.0
 11
0.0
 21
-4.0
 31
0.0
  0
LINE
  5
55
330
1E
100
AcDbEntity
  8
MO_001_VIEW_PV
  6
C_SOLID_M
100
AcDbLine
 10
-14.99999899999999
 20
3.999998
 30
0.0
 11
0.0
 21
3.999998
 31
0.0
  0
LINE
  5
56
330
1E
100
AcDbEntity
  8
MO_001_VIEW_PV
  6
C_SOLID_M
100
AcDbLine
 10
-14.99999899999999
 20
-4.0
 30
0.0
 11
0.0
 21
-4.0
 31
0.0
  0
LINE
  5
57
330
1E
100
AcDbEntity
  8
MO_001_VIEW_PV
  6
C_SOLID_M
100
AcDbLine
 10
-12.900001
 20
1.999997999999999
 30
0.0
 11
-12.900001
 21
-2.000004
 31
0.0
  0
LINE
  5
58
330
1E
100
AcDbEntity
  8
MO_001_VIEW_PV
  6
C_SOLID_M
100
AcDbLine
 10
-14.17106099999999
 20
1.848684
 30
0.0
 11
-12.9
 21
2.000000999999999
 31
0.0
  0
LINE
  5
59
330
1E
100
AcDbEntity
  8
MO_001_VIEW_PV
  6
C_SOLID_M
100
AcDbLine
 10
-14.99999899999999
 20
2.311326999999999
 30
0.0
 11
-14.99999899999999
 21
1.6
 31
0.0
  0
CIRCLE
  5
5A
330
1E
100
AcDbEntity
  8
MO_001_VIEW_PV
  6
C_SOLID_L
100
AcDbCircle
 10
-9.499999
 20
2.0
 30
0.0
 40
1.0
  0
CIRCLE
  5
5B
330
1E
100
AcDbEntity
  8
MO_001_VIEW_PV
  6
C_SOLID_L
100
AcDbCircle
 10
-4.5
 20
-2.0
 30
0.0
 40
1.0
  0
CIRCLE
  5
5C
330
1E
100
AcDbEntity
  8
MO_001_VIEW_PV
  6
C_SOLID_M
100
AcDbCircle
 10
-4.5
 20
-2.0
 30
0.0
 40
0.8
  0
CIRCLE
  5
5D
330
1E
100
AcDbEntity
  8
MO_001_VIEW_PV
  6
C_SOLID_M
100
AcDbCircle
 10
-9.499999
 20
2.0
 30
0.0
 40
0.8
  0
LINE
  5
5E
330
1E
100
AcDbEntity
  8
MO_001_VIEW_PV
  6
C_CENTER_L
100
AcDbLine
 10
-24.0
 20
-56.0
 30
0.0
 11
8.0
 21
-56.0
 31
0.0
  0
LINE
  5
5F
330
1E
100
AcDbEntity
  8
MO_001_VIEW_PV
  6
C_SOLID_M
100
AcDbLine
 10
-41.0
 20
1.6
 30
0.0
 11
-41.0
 21
3.999998
 31
0.0
  0
LINE
  5
60
330
1E
100
AcDbEntity
  8
MO_001_VIEW_PV
  6
C_SOLID_M
100
AcDbLine
 10
-14.99999899999999
 20
-51.0
 30
0.0
 11
-1.0
 21
-51.0
 31
0.0
  0
LINE
  5
61
330
1E
100
AcDbEntity
  8
MO_001_VIEW_PV
  6
C_SOLID_M
100
AcDbLine
 10
-14.99999899999999
 20
-61.0
 30
0.0
 11
-1.0
 21
-61.0
 31
0.0
  0
LINE
  5
62
330
1E
100
AcDbEntity
  8
MO_001_VIEW_PV
  6
C_SOLID_M
100
AcDbLine
 10
-1.0
 20
-52.0
 30
0.0
 11
-1.0
 21
-60.0
 31
0.0
  0
LINE
  5
63
330
1E
100
AcDbEntity
  8
MO_001_VIEW_PV
  6
C_SOLID_M
100
AcDbLine
 10
0.0
 20
-52.0
 30
0.0
 11
0.0
 21
-60.0
 31
0.0
  0
LINE
  5
64
330
1E
100
AcDbEntity
  8
MO_001_VIEW_PV
  6
C_SOLID_M
100
AcDbLine
 10
-14.99999899999999
 20
-60.0
 30
0.0
 11
-14.99999899999999
 21
-61.0
 31
0.0
  0
ARC
  5
65
330
1E
100
AcDbEntity
  8
MO_001_VIEW_PV
  6
C_SOLID_M
100
AcDbCircle
 10
-1.0
 20
-52.0
 30
0.0
 40
1.0
100
AcDbArc
 50
0.0
 51
89.99998900000001
  0
ARC
  5
66
330
1E
100
AcDbEntity
  8
MO_001_VIEW_PV
  6
C_SOLID_M
100
AcDbCircle
 10
-1.0
 20
-60.0
 30
0.0
 40
1.0
100
AcDbArc
 50
269.999998
 51
0.00001
  0
LINE
  5
67
330
1E
100
AcDbEntity
  8
MO_001_VIEW_PV
  6
C_SOLID_M
100
AcDbLine
 10
-14.99999899999999
 20
-51.0
 30
0.0
 11
-14.99999899999999
 21
-52.0
 31
0.0
  0
LINE
  5
68
330
1E
100
AcDbEntity
  8
MO_001_VIEW_PV
  6
C_CENTER_L
100
AcDbLine
 10
-24.0
 20
0.0
 30
0.0
 11
8.0
 21
0.0
 31
0.0
  0
LINE
  5
69
330
1E
100
AcDbEntity
  8
MO_001_VIEW_PV
  6
C_SOLID_M
100
AcDbLine
 10
-50.0
 20
-4.0
 30
0.0
 11
-50.0
 21
3.999998
 31
0.0
  0
LINE
  5
6A
330
1E
100
AcDbEntity
  8
MO_001_VIEW_PV
  6
C_SOLID_M
100
AcDbLine
 10
-40.0
 20
-4.0
 30
0.0
 11
-40.0
 21
3.999998
 31
0.0
  0
LINE
  5
6B
330
1E
100
AcDbEntity
  8
MO_001_VIEW_PV
  6
C_SOLID_M
100
AcDbLine
 10
-50.0
 20
3.999998
 30
0.0
 11
-40.0
 21
3.999998
 31
0.0
  0
LINE
  5
6C
330
1E
100
AcDbEntity
  8
MO_001_VIEW_PV
  6
C_SOLID_M
100
AcDbLine
 10
-50.0
 20
-4.0
 30
0.0
 11
-40.0
 21
-4.0
 31
0.0
  0
CIRCLE
  5
6D
330
1E
100
AcDbEntity
  8
MO_001_VIEW_PV
  6
C_SOLID_M
100
AcDbCircle
 10
-45.0
 20
0.0
 30
0.0
 40
2.1
  0
LINE
  5
6E
330
1E
100
AcDbEntity
  8
MO_001_VIEW_PV
  6
C_CENTER_L
100
AcDbLine
 10
-45.0
 20
-8.0
 30
0.0
 11
-45.0
 21
8.0
 31
0.0
  0
LINE
  5
6F
330
1E
100
AcDbEntity
  8
MO_001_VIEW_PV
  6
C_CENTER_L
100
AcDbLine
 10
-53.0
 20
0.0
 30
0.0
 11
-37.0
 21
0.0
 31
0.0
  0
LINE
  5
70
330
1E
100
AcDbEntity
  8
MO_001_VIEW_PV
  6
C_SOLID_M
100
AcDbLine
 10
0.0
 20
-57.0
 30
0.0
 11
0.5
 21
-57.0
 31
0.0
  0
LINE
  5
71
330
1E
100
AcDbEntity
  8
MO_001_VIEW_PV
  6
C_SOLID_M
100
AcDbLine
 10
-14.99999899999999
 20
-52.0
 30
0.0
 11
-1.0
 21
-52.0
 31
0.0
  0
LINE
  5
72
330
1E
100
AcDbEntity
  8
MO_001_VIEW_PV
  6
C_SOLID_M
100
AcDbLine
 10
-14.99999899999999
 20
-60.0
 30
0.0
 11
-1.0
 21
-60.0
 31
0.0
  0
LINE
  5
73
330
1E
100
AcDbEntity
  8
MO_001_VIEW_PV
  6
C_CENTER_L
100
AcDbLine
 10
-11.999999
 20
2.0
 30
0.0
 11
-6.999999
 21
2.0
 31
0.0
  0
LINE
  5
74
330
1E
100
AcDbEntity
  8
MO_001_VIEW_PV
  6
C_CENTER_L
100
AcDbLine
 10
-7.0
 20
-2.0
 30
0.0
 11
-2.0
 21
-2.0
 31
0.0
  0
LINE
  5
75
330
1E
100
AcDbEntity
  8
MO_001_VIEW_PV
  6
C_CENTER_L
100
AcDbLine
 10
-9.499999
 20
4.5
 30
0.0
 11
-9.499999
 21
-0.5
 31
0.0
  0
LINE
  5
76
330
1E
100
AcDbEntity
  8
MO_001_VIEW_PV
  6
C_CENTER_L
100
AcDbLine
 10
-4.5
 20
0.5
 30
0.0
 11
-4.5
 21
-4.5
 31
0.0
  0
LINE
  5
77
330
1E
100
AcDbEntity
  8
MO_001_VIEW_PV
  6
C_SOLID_M
100
AcDbLine
 10
0.0
 20
-55.0
 30
0.0
 11
0.5
 21
-55.0
 31
0.0
  0
LINE
  5
78
330
1E
100
AcDbEntity
  8
MO_001_VIEW_PV
  6
C_SOLID_M
100
AcDbLine
 10
-14.500001
 20
1.750000999999999
 30
0.0
 11
-14.500001
 21
-1.750000999999999
 31
0.0
  0
LINE
  5
79
330
1E
100
AcDbEntity
  8
MO_001_VIEW_PV
  6
C_SOLID_M
100
AcDbLine
 10
-14.500001
 20
-1.75
 30
0.0
 11
-12.900001
 21
-1.75
 31
0.0
  0
LINE
  5
7A
330
1E
100
AcDbEntity
  8
MO_001_VIEW_PV
  6
C_SOLID_M
100
AcDbLine
 10
-14.500001
 20
1.75
 30
0.0
 11
-12.900001
 21
1.75
 31
0.0
  0
LINE
  5
7B
330
1E
100
AcDbEntity
  8
MO_001_VIEW_PV
  6
C_SOLID_M
100
AcDbLine
 10
-14.99999899999999
 20
1.600000999999999
 30
0.0
 11
-14.17106099999999
 21
1.848683
 31
0.0
  0
CIRCLE
  5
7C
330
1E
100
AcDbEntity
  8
MO_001_VIEW_PV
  6
C_SOLID_M
100
AcDbCircle
 10
-45.0
 20
0.0
 30
0.0
 40
1.5
  0
LINE
  5
7D
330
1E
100
AcDbEntity
  8
MO_001_VIEW_PV
  6
C_SOLID_M
100
AcDbLine
 10
0.5
 20
1.0
 30
0.0
 11
0.5
 21
-1.0
 31
0.0
  0
LINE
  5
7E
330
1E
100
AcDbEntity
  8
MO_001_VIEW_PV
  6
C_SOLID_M
100
AcDbLine
 10
0.0
 20
1.0
 30
0.0
 11
0.5
 21
1.0
 31
0.0
  0
LINE
  5
7F
330
1E
100
AcDbEntity
  8
MO_001_VIEW_PV
  6
C_SOLID_M
100
AcDbLine
 10
0.0
 20
-1.0
 30
0.0
 11
0.5
 21
-1.0
 31
0.0
  0
LINE
  5
80
330
1E
100
AcDbEntity
  8
MO_001_VIEW_PV
  6
C_SOLID_M
100
AcDbLine
 10
0.5
 20
1.0
 30
0.0
 11
0.5
 21
-1.0
 31
0.0
  0
LINE
  5
81
330
1E
100
AcDbEntity
  8
MO_001_VIEW_PV
  6
C_SOLID_M
100
AcDbLine
 10
-17.500004
 20
-1.400001999999999
 30
0.0
 11
-17.500004
 21
1.399993999999999
 31
0.0
  0
LINE
  5
82
330
1E
100
AcDbEntity
  8
MO_001_VIEW_PV
  6
C_SOLID_M
100
AcDbLine
 10
-14.500001
 20
-1.5
 30
0.0
 11
-15.400004
 21
-1.5
 31
0.0
  0
LINE
  5
83
330
1E
100
AcDbEntity
  8
MO_001_VIEW_PV
  6
C_SOLID_M
100
AcDbLine
 10
-17.000004
 20
-1.5
 30
0.0
 11
-17.000004
 21
1.5
 31
0.0
  0
LINE
  5
84
330
1E
100
AcDbEntity
  8
MO_001_VIEW_PV
  6
C_SOLID_M
100
AcDbLine
 10
-15.400004
 20
-1.5
 30
0.0
 11
-15.400004
 21
1.5
 31
0.0
  0
LINE
  5
85
330
1E
100
AcDbEntity
  8
MO_001_VIEW_PV
  6
C_SOLID_M
100
AcDbLine
 10
-17.000004
 20
-1.5
 30
0.0
 11
-17.400005
 21
-1.5
 31
0.0
  0
LINE
  5
86
330
1E
100
AcDbEntity
  8
MO_001_VIEW_PV
  6
C_SOLID_M
100
AcDbLine
 10
-15.400004
 20
-0.5999979999999999
 30
0.0
 11
-17.000004
 21
-0.5999979999999999
 31
0.0
  0
LINE
  5
87
330
1E
100
AcDbEntity
  8
MO_001_VIEW_PV
  6
C_SOLID_M
100
AcDbLine
 10
-17.400004
 20
-1.499999
 30
0.0
 11
-17.50000199999999
 21
-1.400001
 31
0.0
  0
LINE
  5
88
330
1E
100
AcDbEntity
  8
MO_001_VIEW_PV
  6
C_SOLID_M
100
AcDbLine
 10
-14.500001
 20
1.5
 30
0.0
 11
-15.400004
 21
1.5
 31
0.0
  0
LINE
  5
89
330
1E
100
AcDbEntity
  8
MO_001_VIEW_PV
  6
C_SOLID_M
100
AcDbLine
 10
-17.000004
 20
1.5
 30
0.0
 11
-17.400005
 21
1.5
 31
0.0
  0
LINE
  5
8A
330
1E
100
AcDbEntity
  8
MO_001_VIEW_PV
  6
C_SOLID_M
100
AcDbLine
 10
-15.400004
 20
0.5999979999999999
 30
0.0
 11
-17.000004
 21
0.5999979999999999
 31
0.0
  0
LINE
  5
8B
330
1E
100
AcDbEntity
  8
MO_001_VIEW_PV
  6
C_SOLID_M
100
AcDbLine
 10
-17.40000299999999
 20
1.499997999999999
 30
0.0
 11
-17.500001
 21
1.399999999999999
 31
0.0
  0
LINE
  5
8C
330
1E
100
AcDbEntity
  8
MO_001_VIEW_PV
  6
C_SOLID_M
100
AcDbLine
 10
-17.400005
 20
-1.5
 30
0.0
 11
-17.400005
 21
1.5
 31
0.0
  0
LINE
  5
8D
330
1E
100
AcDbEntity
  8
MO_001_VIEW_PV
  6
C_SOLID_M
100
AcDbLine
 10
-17.500004
 20
-57.400002
 30
0.0
 11
-17.500004
 21
-54.600006
 31
0.0
  0
LINE
  5
8E
330
1E
100
AcDbEntity
  8
MO_001_VIEW_PV
  6
C_SOLID_M
100
AcDbLine
 10
-14.500001
 20
-57.5
 30
0.0
 11
-15.400004
 21
-57.5
 31
0.0
  0
LINE
  5
8F
330
1E
100
AcDbEntity
  8
MO_001_VIEW_PV
  6
C_SOLID_M
100
AcDbLine
 10
-17.000004
 20
-57.5
 30
0.0
 11
-17.000004
 21
-54.5
 31
0.0
  0
LINE
  5
90
330
1E
100
AcDbEntity
  8
MO_001_VIEW_PV
  6
C_SOLID_M
100
AcDbLine
 10
-15.400004
 20
-57.5
 30
0.0
 11
-15.400004
 21
-54.5
 31
0.0
  0
LINE
  5
91
330
1E
100
AcDbEntity
  8
MO_001_VIEW_PV
  6
C_SOLID_M
100
AcDbLine
 10
-17.000004
 20
-57.5
 30
0.0
 11
-17.400005
 21
-57.5
 31
0.0
  0
LINE
  5
92
330
1E
100
AcDbEntity
  8
MO_001_VIEW_PV
  6
C_SOLID_M
100
AcDbLine
 10
-15.400004
 20
-56.599998
 30
0.0
 11
-17.000004
 21
-56.599998
 31
0.0
  0
LINE
  5
93
330
1E
100
AcDbEntity
  8
MO_001_VIEW_PV
  6
C_SOLID_M
100
AcDbLine
 10
-17.40001099999999
 20
-57.499986
 30
0.0
 11
-17.50000899999999
 21
-57.399988
 31
0.0
  0
LINE
  5
94
330
1E
100
AcDbEntity
  8
MO_001_VIEW_PV
  6
C_SOLID_M
100
AcDbLine
 10
-14.500001
 20
-54.5
 30
0.0
 11
-15.400004
 21
-54.5
 31
0.0
  0
LINE
  5
95
330
1E
100
AcDbEntity
  8
MO_001_VIEW_PV
  6
C_SOLID_M
100
AcDbLine
 10
-17.000004
 20
-54.5
 30
0.0
 11
-17.400005
 21
-54.5
 31
0.0
  0
LINE
  5
96
330
1E
100
AcDbEntity
  8
MO_001_VIEW_PV
  6
C_SOLID_M
100
AcDbLine
 10
-15.400004
 20
-55.400002
 30
0.0
 11
-17.000004
 21
-55.400002
 31
0.0
  0
LINE
  5
97
330
1E
100
AcDbEntity
  8
MO_001_VIEW_PV
  6
C_SOLID_M
100
AcDbLine
 10
-17.39999899999999
 20
-54.49998199999999
 30
0.0
 11
-17.499997
 21
-54.59998
 31
0.0
  0
LINE
  5
98
330
1E
100
AcDbEntity
  8
MO_001_VIEW_PV
  6
C_SOLID_M
100
AcDbLine
 10
-17.400005
 20
-57.5
 30
0.0
 11
-17.400005
 21
-54.5
 31
0.0
  0
LINE
  5
99
330
1E
100
AcDbEntity
  8
MO_001_VIEW_PV
  6
C_SOLID_M
100
AcDbLine
 10
-14.500001
 20
-52.0
 30
0.0
 11
-14.500001
 21
-60.0
 31
0.0
  0
LINE
  5
9A
330
1E
100
AcDbEntity
  8
MO_001_VIEW_PV
  6
C_SOLID_M
100
AcDbLine
 10
-12.900001
 20
-52.0
 30
0.0
 11
-12.900001
 21
-60.0
 31
0.0
  0
LINE
  5
9B
330
1E
100
AcDbEntity
  8
MO_001_VIEW_PV
  6
C_SOLID_M
100
AcDbLine
 10
-12.9
 20
-52.050003
 30
0.0
 11
-12.9
 21
-59.949997
 31
0.0
  0
LINE
  5
9C
330
1E
100
AcDbEntity
  8
MO_001_VIEW_PV
  6
C_SOLID_M
100
AcDbLine
 10
-12.4
 20
-52.050003
 30
0.0
 11
-12.4
 21
-59.949997
 31
0.0
  0
LINE
  5
9D
330
1E
100
AcDbEntity
  8
MO_001_VIEW_PV
  6
C_SOLID_M
100
AcDbLine
 10
-1.0
 20
-52.050003
 30
0.0
 11
-1.0
 21
-59.949997
 31
0.0
  0
LINE
  5
9E
330
1E
100
AcDbEntity
  8
MO_001_VIEW_PV
  6
C_SOLID_M
100
AcDbLine
 10
-1.5
 20
-52.050003
 30
0.0
 11
-1.5
 21
-59.949997
 31
0.0
  0
LINE
  5
9F
330
1E
100
AcDbEntity
  8
MO_001_VIEW_PV
  6
C_SOLID_M
100
AcDbLine
 10
-1.5
 20
-52.050003
 30
0.0
 11
-1.0
 21
-52.050003
 31
0.0
  0
LINE
  5
A0
330
1E
100
AcDbEntity
  8
MO_001_VIEW_PV
  6
C_SOLID_M
100
AcDbLine
 10
-1.5
 20
-59.949997
 30
0.0
 11
-1.0
 21
-59.949997
 31
0.0
  0
LINE
  5
A1
330
1E
100
AcDbEntity
  8
MO_001_VIEW_PV
  6
C_SOLID_M
100
AcDbLine
 10
-12.9
 20
-52.050003
 30
0.0
 11
-12.4
 21
-52.050003
 31
0.0
  0
LINE
  5
A2
330
1E
100
AcDbEntity
  8
MO_001_VIEW_PV
  6
C_SOLID_M
100
AcDbLine
 10
-12.9
 20
-59.949997
 30
0.0
 11
-12.4
 21
-59.949997
 31
0.0
  0
LINE
  5
A3
330
1E
100
AcDbEntity
  8
MO_001_VIEW_PV
  6
C_SOLID_M
100
AcDbLine
 10
-12.4
 20
-52.550003
 30
0.0
 11
-1.5
 21
-52.550003
 31
0.0
  0
LINE
  5
A4
330
1E
100
AcDbEntity
  8
MO_001_VIEW_PV
  6
C_SOLID_M
100
AcDbLine
 10
-12.4
 20
-59.449997
 30
0.0
 11
-1.5
 21
-59.449997
 31
0.0
  0
LINE
  5
A5
330
1E
100
AcDbEntity
  8
MO_001_VIEW_PV
  6
C_SOLID_M
100
AcDbLine
 10
0.5
 20
-55.5
 30
0.0
 11
36.0
 21
-55.5
 31
0.0
  0
LINE
  5
A6
330
1E
100
AcDbEntity
  8
MO_001_VIEW_PV
  6
C_SOLID_M
100
AcDbLine
 10
0.0
 20
-54.27999899999999
 30
0.0
 11
36.0
 21
-54.27999899999999
 31
0.0
  0
LINE
  5
A7
330
1E
100
AcDbEntity
  8
MO_001_VIEW_PV
  6
C_SOLID_M
100
AcDbLine
 10
36.0
 20
-54.27999899999999
 30
0.0
 11
36.0
 21
-55.5
 31
0.0
  0
LINE
  5
A8
330
1E
100
AcDbEntity
  8
MO_001_VIEW_PV
  6
C_SOLID_M
100
AcDbLine
 10
36.0
 20
-54.699501
 30
0.0
 11
41.0
 21
-54.699501
 31
0.0
  0
LINE
  5
A9
330
1E
100
AcDbEntity
  8
MO_001_VIEW_PV
  6
C_SOLID_M
100
AcDbLine
 10
36.0
 20
-55.080498
 30
0.0
 11
41.0
 21
-55.080498
 31
0.0
  0
LINE
  5
AA
330
1E
100
AcDbEntity
  8
MO_001_VIEW_PV
  6
C_SOLID_M
100
AcDbLine
 10
41.0
 20
-54.699501
 30
0.0
 11
41.0
 21
-55.080498
 31
0.0
  0
LINE
  5
AB
330
1E
100
AcDbEntity
  8
MO_001_VIEW_PV
  6
C_SOLID_M
100
AcDbLine
 10
36.0
 20
-54.27999899999999
 30
0.0
 11
36.0
 21
-55.5
 31
0.0
  0
LINE
  5
AC
330
1E
100
AcDbEntity
  8
MO_001_VIEW_PV
  6
C_SOLID_M
100
AcDbLine
 10
0.5
 20
-56.5
 30
0.0
 11
36.0
 21
-56.5
 31
0.0
  0
LINE
  5
AD
330
1E
100
AcDbEntity
  8
MO_001_VIEW_PV
  6
C_SOLID_M
100
AcDbLine
 10
0.0
 20
-57.720001
 30
0.0
 11
36.0
 21
-57.720001
 31
0.0
  0
LINE
  5
AE
330
1E
100
AcDbEntity
  8
MO_001_VIEW_PV
  6
C_SOLID_M
100
AcDbLine
 10
36.0
 20
-57.720001
 30
0.0
 11
36.0
 21
-56.5
 31
0.0
  0
LINE
  5
AF
330
1E
100
AcDbEntity
  8
MO_001_VIEW_PV
  6
C_SOLID_M
100
AcDbLine
 10
36.0
 20
-57.300499
 30
0.0
 11
41.0
 21
-57.300499
 31
0.0
  0
LINE
  5
B0
330
1E
100
AcDbEntity
  8
MO_001_VIEW_PV
  6
C_SOLID_M
100
AcDbLine
 10
36.0
 20
-56.919502
 30
0.0
 11
41.0
 21
-56.919502
 31
0.0
  0
LINE
  5
B1
330
1E
100
AcDbEntity
  8
MO_001_VIEW_PV
  6
C_SOLID_M
100
AcDbLine
 10
41.0
 20
-57.300499
 30
0.0
 11
41.0
 21
-56.919502
 31
0.0
  0
LINE
  5
B2
330
1E
100
AcDbEntity
  8
MO_001_VIEW_PV
  6
C_SOLID_M
100
AcDbLine
 10
36.0
 20
-57.720001
 30
0.0
 11
36.0
 21
-56.5
 31
0.0
  0
LINE
  5
B3
330
1E
100
AcDbEntity
  8
MO_001_VIEW_PV
  6
C_SOLID_M
100
AcDbLine
 10
-0.133972
 20
4.5
 30
0.0
 11
36.0
 21
4.5
 31
0.0
  0
LINE
  5
B4
330
1E
100
AcDbEntity
  8
MO_001_VIEW_PV
  6
C_SOLID_M
100
AcDbLine
 10
-0.133972
 20
5.719998999999998
 30
0.0
 11
36.0
 21
5.719998999999998
 31
0.0
  0
LINE
  5
B5
330
1E
100
AcDbEntity
  8
MO_001_VIEW_PV
  6
C_SOLID_M
100
AcDbLine
 10
36.0
 20
5.719998999999998
 30
0.0
 11
36.0
 21
4.5
 31
0.0
  0
LINE
  5
B6
330
1E
100
AcDbEntity
  8
MO_001_VIEW_PV
  6
C_SOLID_M
100
AcDbLine
 10
36.0
 20
5.300501
 30
0.0
 11
41.0
 21
5.300501
 31
0.0
  0
LINE
  5
B7
330
1E
100
AcDbEntity
  8
MO_001_VIEW_PV
  6
C_SOLID_M
100
AcDbLine
 10
36.0
 20
4.9195
 30
0.0
 11
41.0
 21
4.9195
 31
0.0
  0
LINE
  5
B8
330
1E
100
AcDbEntity
  8
MO_001_VIEW_PV
  6
C_SOLID_M
100
AcDbLine
 10
41.0
 20
5.300501
 30
0.0
 11
41.0
 21
4.9195
 31
0.0
  0
LINE
  5
B9
330
1E
100
AcDbEntity
  8
MO_001_VIEW_PV
  6
C_SOLID_M
100
AcDbLine
 10
36.0
 20
5.720000999999999
 30
0.0
 11
36.0
 21
4.5
 31
0.0
  0
ARC
  5
BA
330
1E
100
AcDbEntity
  8
MO_001_VIEW_PV
  6
C_SOLID_M
100
AcDbCircle
 10
-0.133973
 20
3.5
 30
0.0
 40
1.0
100
AcDbArc
 50
90.000002
 51
150.0001199999998
  0
ARC
  5
BB
330
1E
100
AcDbEntity
  8
MO_001_VIEW_PV
  6
C_SOLID_M
100
AcDbCircle
 10
-0.133973
 20
3.5
 30
0.0
 40
2.219999
100
AcDbArc
 50
90.000002
 51
166.9839179999998
  0
LINE
  5
BC
330
1E
100
AcDbEntity
  8
MO_001_VIEW_PV
  6
C_SOLID_M
100
AcDbLine
 10
0.5
 20
-55.0
 30
0.0
 11
0.5
 21
-57.0
 31
0.0
  0
CIRCLE
  5
BD
330
1E
100
AcDbEntity
  8
MO_001_VIEW_PV
  6
C_SOLID_M
100
AcDbCircle
 10
-45.0
 20
0.0
 30
0.0
 40
1.399993999999999
  0
LINE
  5
BE
330
1E
100
AcDbEntity
  8
MO_001_VIEW_PV
  6
C_SOLID_M
100
AcDbLine
 10
-14.99999899999999
 20
2.311325999999999
 30
0.0
 11
-14.50000199999998
 21
2.6
 31
0.0
  0
LINE
  5
BF
330
1E
100
AcDbEntity
  8
MO_001_VIEW_PV
  6
C_SOLID_M
100
AcDbLine
 10
-14.99999899999999
 20
3.999998
 30
0.0
 11
-14.99999899999999
 21
2.688163
 31
0.0
  0
LINE
  5
C0
330
1E
100
AcDbEntity
  8
MO_001_VIEW_PV
  6
C_SOLID_M
100
AcDbLine
 10
-14.99999899999999
 20
-2.311326999999999
 30
0.0
 11
-14.99999899999999
 21
-1.6
 31
0.0
  0
LINE
  5
C1
330
1E
100
AcDbEntity
  8
MO_001_VIEW_PV
  6
C_SOLID_M
100
AcDbLine
 10
-14.99999899999999
 20
-2.311325999999999
 30
0.0
 11
-14.50000199999998
 21
-2.6
 31
0.0
  0
LINE
  5
C2
330
1E
100
AcDbEntity
  8
MO_001_VIEW_PV
  6
C_SOLID_M
100
AcDbLine
 10
-14.99999899999999
 20
-1.600000999999999
 30
0.0
 11
-14.17106099999999
 21
-1.848683
 31
0.0
  0
LINE
  5
C3
330
1E
100
AcDbEntity
  8
MO_001_VIEW_PV
  6
C_SOLID_M
100
AcDbLine
 10
-14.171062
 20
-1.848684
 30
0.0
 11
-12.900001
 21
-2.000000999999999
 31
0.0
  0
LINE
  5
C4
330
1E
100
AcDbEntity
  8
MO_001_VIEW_PV
  6
C_SOLID_M
100
AcDbLine
 10
-41.0
 20
1.6
 30
0.0
 11
-40.0
 21
1.6
 31
0.0
  0
LINE
  5
C5
330
1E
100
AcDbEntity
  8
MO_001_VIEW_PV
  6
C_SOLID_M
100
AcDbLine
 10
-41.0
 20
2.311326999999999
 30
0.0
 11
-40.0
 21
2.311326999999999
 31
0.0
  0
LINE
  5
C6
330
1E
100
AcDbEntity
  8
MO_001_VIEW_PV
  6
C_SOLID_M
100
AcDbLine
 10
-41.0
 20
2.6
 30
0.0
 11
-40.0
 21
2.6
 31
0.0
  0
LINE
  5
C7
330
1E
100
AcDbEntity
  8
MO_001_VIEW_PV
  6
C_SOLID_M
100
AcDbLine
 10
-14.99999899999999
 20
2.311326999999999
 30
0.0
 11
-14.99999899999999
 21
1.6
 31
0.0
  0
LINE
  5
C8
330
1E
100
AcDbEntity
  8
MO_001_VIEW_PV
  6
C_SOLID_M
100
AcDbLine
 10
-14.99999899999999
 20
2.311325999999999
 30
0.0
 11
-14.50000199999998
 21
2.6
 31
0.0
  0
LINE
  5
C9
330
1E
100
AcDbEntity
  8
MO_001_VIEW_PV
  6
C_SOLID_M
100
AcDbLine
 10
-14.99999899999999
 20
1.600000999999999
 30
0.0
 11
-14.17106099999999
 21
1.848683
 31
0.0
  0
LINE
  5
CA
330
1E
100
AcDbEntity
  8
MO_001_VIEW_PV
  6
C_SOLID_M
100
AcDbLine
 10
-14.171063
 20
1.848684
 30
0.0
 11
-12.900002
 21
2.000000999999999
 31
0.0
  0
LINE
  5
CB
330
1E
100
AcDbEntity
  8
MO_001_VIEW_PV
  6
C_SOLID_M
100
AcDbLine
 10
-41.0
 20
-1.6
 30
0.0
 11
-40.0
 21
-1.6
 31
0.0
  0
LINE
  5
CC
330
1E
100
AcDbEntity
  8
MO_001_VIEW_PV
  6
C_SOLID_M
100
AcDbLine
 10
-41.0
 20
-1.6
 30
0.0
 11
-41.0
 21
-3.999998
 31
0.0
  0
LINE
  5
CD
330
1E
100
AcDbEntity
  8
MO_001_VIEW_PV
  6
C_SOLID_M
100
AcDbLine
 10
-41.0
 20
-2.311326999999999
 30
0.0
 11
-40.0
 21
-2.311326999999999
 31
0.0
  0
LINE
  5
CE
330
1E
100
AcDbEntity
  8
MO_001_VIEW_PV
  6
C_SOLID_M
100
AcDbLine
 10
-41.0
 20
-2.6
 30
0.0
 11
-40.0
 21
-2.6
 31
0.0
  0
LINE
  5
CF
330
1E
100
AcDbEntity
  8
MO_001_VIEW_PV
  6
C_SOLID_M
100
AcDbLine
 10
-49.0
 20
1.6
 30
0.0
 11
-50.0
 21
1.6
 31
0.0
  0
LINE
  5
D0
330
1E
100
AcDbEntity
  8
MO_001_VIEW_PV
  6
C_SOLID_M
100
AcDbLine
 10
-49.0
 20
1.6
 30
0.0
 11
-49.0
 21
3.999998
 31
0.0
  0
LINE
  5
D1
330
1E
100
AcDbEntity
  8
MO_001_VIEW_PV
  6
C_SOLID_M
100
AcDbLine
 10
-49.0
 20
2.311326999999999
 30
0.0
 11
-50.0
 21
2.311326999999999
 31
0.0
  0
LINE
  5
D2
330
1E
100
AcDbEntity
  8
MO_001_VIEW_PV
  6
C_SOLID_M
100
AcDbLine
 10
-49.0
 20
2.6
 30
0.0
 11
-50.0
 21
2.6
 31
0.0
  0
LINE
  5
D3
330
1E
100
AcDbEntity
  8
MO_001_VIEW_PV
  6
C_SOLID_M
100
AcDbLine
 10
-49.0
 20
-1.6
 30
0.0
 11
-50.0
 21
-1.6
 31
0.0
  0
LINE
  5
D4
330
1E
100
AcDbEntity
  8
MO_001_VIEW_PV
  6
C_SOLID_M
100
AcDbLine
 10
-49.0
 20
-1.6
 30
0.0
 11
-49.0
 21
-3.999998
 31
0.0
  0
LINE
  5
D5
330
1E
100
AcDbEntity
  8
MO_001_VIEW_PV
  6
C_SOLID_M
100
AcDbLine
 10
-49.0
 20
-2.311326999999999
 30
0.0
 11
-50.0
 21
-2.311326999999999
 31
0.0
  0
LINE
  5
D6
330
1E
100
AcDbEntity
  8
MO_001_VIEW_PV
  6
C_SOLID_M
100
AcDbLine
 10
-49.0
 20
-2.6
 30
0.0
 11
-50.0
 21
-2.6
 31
0.0
  0
LINE
  5
D7
330
1E
100
AcDbEntity
  8
MO_001_VIEW_PV
  6
C_SOLID_M
100
AcDbLine
 10
-14.50000199999998
 20
2.6
 30
0.0
 11
-14.99999899999999
 21
2.688163
 31
0.0
  0
LINE
  5
D8
330
1E
100
AcDbEntity
  8
MO_001_VIEW_PV
  6
C_SOLID_M
100
AcDbLine
 10
-14.50000199999998
 20
-2.6
 30
0.0
 11
-14.99999899999999
 21
-2.688163
 31
0.0
  0
LINE
  5
D9
330
1E
100
AcDbEntity
  8
MO_001_VIEW_PV
  6
C_SOLID_M
100
AcDbLine
 10
-14.99999899999999
 20
-3.999998
 30
0.0
 11
-14.99999899999999
 21
-2.688163
 31
0.0
  0
LINE
  5
DA
330
1E
100
AcDbEntity
  8
MO_001_VIEW_PV
  6
C_SOLID_M
100
AcDbLine
 10
-41.0
 20
2.688163
 30
0.0
 11
-40.0
 21
2.688163
 31
0.0
  0
LINE
  5
DB
330
1E
100
AcDbEntity
  8
MO_001_VIEW_PV
  6
C_SOLID_M
100
AcDbLine
 10
-41.0
 20
-2.688163
 30
0.0
 11
-40.0
 21
-2.688163
 31
0.0
  0
LINE
  5
DC
330
1E
100
AcDbEntity
  8
MO_001_VIEW_PV
  6
C_SOLID_M
100
AcDbLine
 10
-49.0
 20
2.688163
 30
0.0
 11
-50.0
 21
2.688163
 31
0.0
  0
LINE
  5
DD
330
1E
100
AcDbEntity
  8
MO_001_VIEW_PV
  6
C_SOLID_M
100
AcDbLine
 10
-49.0
 20
-2.688163
 30
0.0
 11
-50.0
 21
-2.688163
 31
0.0
  0
LINE
  5
DE
330
1E
100
AcDbEntity
  8
MO_001_VIEW_PV
  6
C_SOLID_L
100
AcDbLine
 10
14.638149
 20
18.0
 30
0.0
 11
38.564529
 21
18.0
 31
0.0
  0
TEXT
  5
DF
330
1E
100
AcDbEntity
  8
MO_001_VIEW_PV
  6
C_SOLID_L
100
AcDbText
 10
-52.942432
 20
-79.35996800000002
 30
0.0
 40
4.167187
  1
SK0315A
100
AcDbText
  0
TEXT
  5
E0
330
1E
100
AcDbEntity
  8
MO_001_VIEW_PV
  6
C_SOLID_L
100
AcDbText
 10
21.792498
 20
-79.35996800000002
 30
0.0
 40
4.167187
  1
単位：mm
100
AcDbText
  0
TEXT
  5
E1
330
1E
100
AcDbEntity
  8
MO_001_VIEW_PV
  6
C_SOLID_L
100
AcDbText
 10
21.792498
 20
-87.359968
 30
0.0
 40
4.167187
  1
図は励磁時を示す
100
AcDbText
  0
TEXT
  5
E2
330
1E
100
AcDbEntity
  8
MO_001_VIEW_PV
  6
C_SOLID_L
100
AcDbText
 10
-50.648592
 20
-71.505127
 30
0.0
 40
3.0
  1
板厚1.0mm、ネジ突き出しは0.3mm以下
100
AcDbText
  0
TEXT
  5
E3
330
1E
100
AcDbEntity
  8
MO_001_VIEW_PV
  6
C_SOLID_L
100
AcDbText
 10
1.928570999999999
 20
-19.0
 30
0.0
 40
3.0
  1
UL1571 AWG.28
100
AcDbText
  0
TEXT
  5
E4
330
1E
100
AcDbEntity
  8
MO_001_VIEW_PV
  6
C_SOLID_L
100
AcDbText
 10
15.066721
 20
18.75
 30
0.0
 40
3.0
  1
2-M2x0.4
100
AcDbText
  0
DIMENSION
  5
E6
330
1E
100
AcDbEntity
  8
MO_001_VIEW_PV
  6
C_SOLID_M
100
AcDbDimension
  2
*D0
 10
-55.0
 20
12.0
 30
0.0
 11
-55.0
 21
12.0
 31
0.0
  3
STANDARD
100
AcDbAlignedDimension
 13
-50.0
 23
3.999998
 33
0.0
 14
-50.0
 24
-4.0
 34
0.0
 50
89.999523
100
AcDbRotatedDimension
  0
DIMENSION
  5
E8
330
1E
100
AcDbEntity
  8
MO_001_VIEW_PV
  6
C_SOLID_M
100
AcDbDimension
  2
*D1
 10
-31.0
 20
-15.0
 30
0.0
 11
-31.0
 21
-15.0
 31
0.0
  3
STANDARD
100
AcDbAlignedDimension
 13
-40.0
 23
-4.0
 33
0.0
 14
-50.0
 24
-4.0
 34
0.0
100
AcDbRotatedDimension
  0
DIMENSION
  5
EA
330
1E
100
AcDbEntity
  8
MO_001_VIEW_PV
  6
C_SOLID_M
100
AcDbDimension
  2
*D2
 10
-27.0
 20
12.0
 30
0.0
 11
-27.0
 21
12.0
 31
0.0
  3
STANDARD
100
AcDbAlignedDimension
 13
-17.400005
 23
-1.5
 33
0.0
 14
-17.400005
 24
1.5
 34
0.0
 50
89.98785500000002
100
AcDbRotatedDimension
  0
DIMENSION
  5
EC
330
1E
100
AcDbEntity
  8
MO_001_VIEW_PV
  6
C_SOLID_M
100
AcDbDimension
  2
*D3
 10
-8.750002
 20
24.0
 30
0.0
 11
-8.750002
 21
24.0
 31
0.0
  1
17.5
  3
STANDARD
100
AcDbAlignedDimension
 13
-17.500004
 23
1.399993999999999
 33
0.0
 14
0.0
 24
3.999998
 34
0.0
100
AcDbRotatedDimension
  0
DIMENSION
  5
EE
330
1E
100
AcDbEntity
  8
MO_001_VIEW_PV
  6
C_SOLID_M
100
AcDbDimension
  2
*D4
 10
-7.5
 20
18.0
 30
0.0
 11
-7.5
 21
18.0
 31
0.0
  3
STANDARD
100
AcDbAlignedDimension
 13
-14.99999899999999
 23
3.999998
 33
0.0
 14
0.0
 24
3.999998
 34
0.0
100
AcDbRotatedDimension
  0
DIMENSION
  5
F0
330
1E
100
AcDbEntity
  8
MO_001_VIEW_PV
  6
C_SOLID_M
100
AcDbDimension
  2
*D5
 10
-15.50145
 20
12.0
 30
0.0
 11
-15.50145
 21
12.0
 31
0.0
  1
(4.5)
  3
STANDARD
100
AcDbAlignedDimension
 13
-4.5
 23
0.5
 33
0.0
 14
0.0
 24
3.999998
 34
0.0
100
AcDbRotatedDimension
  0
DIMENSION
  5
F2
330
1E
100
AcDbEntity
  8
MO_001_VIEW_PV
  6
C_SOLID_M
100
AcDbDimension
  2
*D6
 10
-27.0
 20
-24.0
 30
0.0
 11
-27.0
 21
-24.0
 31
0.0
  3
STANDARD
100
AcDbAlignedDimension
 13
-17.000004
 23
-1.5
 33
0.0
 14
-9.499999
 24
-0.5
 34
0.0
100
AcDbRotatedDimension
  0
DIMENSION
  5
F4
330
1E
100
AcDbEntity
  8
MO_001_VIEW_PV
  6
C_SOLID_M
100
AcDbDimension
  2
*D7
 10
4.298251999999998
 20
-24.0
 30
0.0
 11
4.298251999999998
 21
-24.0
 31
0.0
  3
STANDARD
100
AcDbAlignedDimension
 13
-9.499999
 23
-0.5
 33
0.0
 14
-4.5
 24
-4.5
 34
0.0
100
AcDbRotatedDimension
  0
DIMENSION
  5
F6
330
1E
100
AcDbEntity
  8
MO_001_VIEW_PV
  6
C_SOLID_M
100
AcDbDimension
  2
*D8
 10
21.0
 20
10.885683
 30
0.0
 11
21.0
 21
10.885683
 31
0.0
  3
STANDARD
100
AcDbAlignedDimension
 13
-2.0
 23
-2.0
 33
0.0
 14
-6.999999
 24
2.0
 34
0.0
 50
89.98785500000002
100
AcDbRotatedDimension
  0
DIMENSION
  5
F8
330
1E
100
AcDbEntity
  8
MO_001_VIEW_PV
  6
C_SOLID_M
100
AcDbDimension
  2
*D9
 10
11.11586799999999
 20
-9.0
 30
0.0
 11
11.11586799999999
 21
-9.0
 31
0.0
  1
(0.5)
  3
STANDARD
100
AcDbAlignedDimension
 13
0.0
 23
-4.0
 33
0.0
 14
0.5
 24
-1.0
 34
0.0
100
AcDbRotatedDimension
  0
DIMENSION
  5
FA
330
1E
100
AcDbEntity
  8
MO_001_VIEW_PV
  6
C_SOLID_M
100
AcDbDimension
  2
*D10
 10
20.5
 20
-15.0
 30
0.0
 11
20.5
 21
-15.0
 31
0.0
  1
長さ240以上
  3
STANDARD
100
AcDbAlignedDimension
 13
41.0
 23
4.9195
 33
0.0
 14
0.0
 24
-4.0
 34
0.0
100
AcDbRotatedDimension
  0
DIMENSION
  5
FC
330
1E
100
AcDbEntity
  8
MO_001_VIEW_PV
  6
C_SOLID_M
100
AcDbDimension
  2
*D11
 10
-36.0
 20
-41.989876
 30
0.0
 11
-36.0
 21
-41.989876
 31
0.0
  3
STANDARD
100
AcDbAlignedDimension
 13
-17.000004
 23
-56.599998
 33
0.0
 14
-17.000004
 24
-55.400002
 34
0.0
 50
89.999523
100
AcDbRotatedDimension
  0
DIMENSION
  5
FE
330
1E
100
AcDbEntity
  8
MO_001_VIEW_PV
  6
C_SOLID_M
100
AcDbDimension
  2
*D12
 10
-26.325037
 20
-47.0
 30
0.0
 11
-26.325037
 21
-47.0
 31
0.0
  3
STANDARD
100
AcDbAlignedDimension
 13
-17.500004
 23
-54.600006
 33
0.0
 14
-17.000004
 24
-54.5
 34
0.0
100
AcDbRotatedDimension
  0
DIMENSION
  5
100
330
1E
100
AcDbEntity
  8
MO_001_VIEW_PV
  6
C_SOLID_M
100
AcDbDimension
  2
*D13
 10
-4.498664999999999
 20
-41.0
 30
0.0
 11
-4.498664999999999
 21
-41.0
 31
0.0
  3
STANDARD
100
AcDbAlignedDimension
 13
-15.400004
 23
-54.5
 33
0.0
 14
-17.000004
 24
-54.5
 34
0.0
100
AcDbRotatedDimension
  0
DIMENSION
  5
102
330
1E
100
AcDbEntity
  8
MO_001_VIEW_PV
  6
C_SOLID_M
100
AcDbDimension
  2
*D14
 10
12.0
 20
-35.0
 30
0.0
 11
12.0
 21
-35.0
 31
0.0
  3
STANDARD
100
AcDbAlignedDimension
 13
-14.500001
 23
-52.0
 33
0.0
 14
0.0
 24
-52.0
 34
0.0
100
AcDbRotatedDimension
  0
DIMENSION
  5
104
330
1E
100
AcDbEntity
  8
MO_001_VIEW_PV
  6
C_SOLID_M
100
AcDbDimension
  2
*D15
 10
-25.87768599999999
 20
-35.0
 30
0.0
 11
-25.87768599999999
 21
-35.0
 31
0.0
  1
(3)
  3
STANDARD
100
AcDbAlignedDimension
 13
-17.500004
 23
-54.600006
 33
0.0
 14
-14.500001
 24
-52.0
 34
0.0
100
AcDbRotatedDimension
  0
LINE
  5
105
330
1E
100
AcDbEntity
  8
MO_001_VIEW_PV
  6
C_SOLID_L
100
AcDbLine
 10
-3.808631999999998
 20
-1.277496999999998
 30
0.0
 11
14.63815
 21
18.000001
 31
0.0
  0
POLYLINE
  5
106
330
1E
100
AcDbEntity
  8
MO_001_VIEW_PV
  6
C_SOLID_L
100
AcDb2dPolyline
 66
     1
 10
0.0
 20
0.0
 30
0.0
 70
     1
  0
VERTEX
  5
1E4
330
106
100
AcDbEntity
  8
MO_001_VIEW_PV
  6
C_SOLID_L
100
AcDbVertex
100
AcDb2dVertex
 10
-1.936081
 20
1.523376
 30
0.0
  0
VERTEX
  5
1E5
330
106
100
AcDbEntity
  8
MO_001_VIEW_PV
  6
C_SOLID_L
100
AcDbVertex
100
AcDb2dVertex
 10
-3.457416999999998
 20
-0.9104659999999999
 30
0.0
  0
VERTEX
  5
1E6
330
106
100
AcDbEntity
  8
MO_001_VIEW_PV
  6
C_SOLID_L
100
AcDbVertex
100
AcDb2dVertex
 10
-1.092904
 20
0.716533
 30
0.0
  0
SEQEND
  5
1E7
330
106
100
AcDbEntity
  8
MO_001_VIEW_PV
  6
C_SOLID_L
  0
ENDSEC
  0
SECTION
  2
OBJECTS
  0
DICTIONARY
  5
1A
330
0
100
AcDbDictionary
  3
ACAD_GROUP
350
1B
  3
ACAD_MLINESTYLE
350
1C
  3
ACAD_LAYOUT
350
1C3
  3
ACAD_PLOTSETTINGS
350
1C4
1001
ACAD
1000
TREAT_AS_HARD
1070
     0
1000
TREAT_AS_HARD
1070
     0
  0
DICTIONARY
  5
1C9
330
1E
100
AcDbDictionary
  3
ACAD_LAYOUTSELFREF
350
1E2
1001
ACAD
1000
TREAT_AS_HARD
1070
     0
  0
DICTIONARY
  5
1CB
330
1F
100
AcDbDictionary
  3
ACAD_LAYOUTSELFREF
350
1E3
1001
ACAD
1000
TREAT_AS_HARD
1070
     0
  0
DICTIONARY
  5
1B
102
{ACAD_REACTORS
330
1A
102
}
330
1A
100
AcDbDictionary
1001
ACAD
1000
TREAT_AS_HARD
1070
     0
1000
TREAT_AS_HARD
1070
     0
  0
DICTIONARY
  5
1C
102
{ACAD_REACTORS
330
1A
102
}
330
1A
100
AcDbDictionary
  3
STANDARD
350
1D
1001
ACAD
1000
TREAT_AS_HARD
1070
     0
1000
TREAT_AS_HARD
1070
     0
  0
DICTIONARY
  5
1C3
102
{ACAD_REACTORS
330
1A
102
}
330
1A
100
AcDbDictionary
1001
ACAD
1000
TREAT_AS_HARD
1070
     0
1000
TREAT_AS_HARD
1070
     0
  0
DICTIONARY
  5
1C4
102
{ACAD_REACTORS
330
1A
102
}
330
1A
100
AcDbDictionary
1001
ACAD
1000
TREAT_AS_HARD
1070
     0
1000
TREAT_AS_HARD
1070
     0
  0
XRECORD
  5
1E2
102
{ACAD_REACTORS
330
1C9
102
}
330
1C9
100
AcDbXrecord
340
1E
  0
XRECORD
  5
1E3
102
{ACAD_REACTORS
330
1CB
102
}
330
1CB
100
AcDbXrecord
340
1F
  0
MLINESTYLE
  5
1D
102
{ACAD_REACTORS
330
1C
102
}
330
1C
100
AcDbMlineStyle
  2
STANDARD
 70
     0
  3

 62
     0
 51
90.0
 52
90.0
 71
     2
 49
0.5
 62
   256
  6
BYLAYER
 49
-0.5
 62
   256
  6
BYLAYER
  0
ENDSEC
  0
EOF
