  0
SECTION
  2
HEADER
  9
$ACADVER
  1
AC1012
  9
$DWGCODEPAGE
  3
dos932
  9
$INSBASE
 10
0.0
 20
0.0
 30
0.0
  9
$EXTMIN
 10
-69.91196867093754
 20
-84.01391362032425
 30
-0.0015258207003583
  9
$EXTMAX
 10
60.91826265931922
 20
30.75808752501234
 30
0.0000000349246037
  9
$LIMMIN
 10
-71.24556700000001
 20
-87.135727
  9
$LIMMAX
 10
55.787399
 20
33.0
  9
$ORTHOMODE
 70
     0
  9
$REGENMODE
 70
     1
  9
$FILLMODE
 70
     1
  9
$QTEXTMODE
 70
     0
  9
$MIRRTEXT
 70
     1
  9
$DRAGMODE
 70
     2
  9
$LTSCALE
 40
1.0
  9
$OSMODE
 70
    37
  9
$ATTMODE
 70
     1
  9
$TEXTSIZE
 40
4.1672
  9
$TRACEWID
 40
0.05
  9
$TEXTSTYLE
  7
STANDARD
  9
$CLAYER
  8
0
  9
$CELTYPE
  6
CONTINUOUS
  9
$CECOLOR
 62
   256
  9
$CELTSCALE
 40
1.0
  9
$DELOBJ
 70
     1
  9
$DISPSILH
 70
     0
  9
$DIMSCALE
 40
1.0
  9
$DIMASZ
 40
0.18
  9
$DIMEXO
 40
0.0625
  9
$DIMDLI
 40
0.38
  9
$DIMRND
 40
0.0
  9
$DIMDLE
 40
0.0
  9
$DIMEXE
 40
0.18
  9
$DIMTP
 40
0.0
  9
$DIMTM
 40
0.0
  9
$DIMTXT
 40
0.18
  9
$DIMCEN
 40
0.09
  9
$DIMTSZ
 40
0.0
  9
$DIMTOL
 70
     0
  9
$DIMLIM
 70
     0
  9
$DIMTIH
 70
     1
  9
$DIMTOH
 70
     1
  9
$DIMSE1
 70
     0
  9
$DIMSE2
 70
     0
  9
$DIMTAD
 70
     0
  9
$DIMZIN
 70
     0
  9
$DIMBLK
  1

  9
$DIMASO
 70
     1
  9
$DIMSHO
 70
     1
  9
$DIMPOST
  1

  9
$DIMAPOST
  1

  9
$DIMALT
 70
     0
  9
$DIMALTD
 70
     2
  9
$DIMALTF
 40
25.4
  9
$DIMLFAC
 40
1.0
  9
$DIMTOFL
 70
     0
  9
$DIMTVP
 40
0.0
  9
$DIMTIX
 70
     0
  9
$DIMSOXD
 70
     0
  9
$DIMSAH
 70
     0
  9
$DIMBLK1
  1

  9
$DIMBLK2
  1

  9
$DIMSTYLE
  2
STANDARD
  9
$DIMCLRD
 70
     0
  9
$DIMCLRE
 70
     0
  9
$DIMCLRT
 70
     0
  9
$DIMTFAC
 40
1.0
  9
$DIMGAP
 40
0.09
  9
$DIMJUST
 70
     0
  9
$DIMSD1
 70
     0
  9
$DIMSD2
 70
     0
  9
$DIMTOLJ
 70
     1
  9
$DIMTZIN
 70
     0
  9
$DIMALTZ
 70
     0
  9
$DIMALTTZ
 70
     0
  9
$DIMFIT
 70
     3
  9
$DIMUPT
 70
     0
  9
$DIMUNIT
 70
     2
  9
$DIMDEC
 70
     4
  9
$DIMTDEC
 70
     4
  9
$DIMALTU
 70
     2
  9
$DIMALTTD
 70
     2
  9
$DIMTXSTY
  7
STANDARD
  9
$DIMAUNIT
 70
     0
  9
$LUNITS
 70
     2
  9
$LUPREC
 70
     6
  9
$SKETCHINC
 40
0.1
  9
$FILLETRAD
 40
0.0
  9
$AUNITS
 70
     0
  9
$AUPREC
 70
     4
  9
$MENU
  1
acad
  9
$ELEVATION
 40
0.0
  9
$PELEVATION
 40
0.0
  9
$THICKNESS
 40
0.0
  9
$LIMCHECK
 70
     0
  9
$BLIPMODE
 70
     0
  9
$CHAMFERA
 40
0.0
  9
$CHAMFERB
 40
0.0
  9
$CHAMFERC
 40
0.0
  9
$CHAMFERD
 40
0.0
  9
$SKPOLY
 70
     0
  9
$TDCREATE
 40
2376126.114255937
  9
$TDUPDATE
 40
2451683.735054398
  9
$TDINDWG
 40
0.0009903935
  9
$TDUSRTIMER
 40
0.0009903935
  9
$USRTIMER
 70
     1
  9
$ANGBASE
 50
0.0
  9
$ANGDIR
 70
     0
  9
$PDMODE
 70
     0
  9
$PDSIZE
 40
0.0
  9
$PLINEWID
 40
0.0
  9
$COORDS
 70
     1
  9
$SPLFRAME
 70
     0
  9
$SPLINETYPE
 70
     6
  9
$SPLINESEGS
 70
     8
  9
$ATTDIA
 70
     0
  9
$ATTREQ
 70
     1
  9
$HANDLING
 70
 10241
  9
$HANDSEED
  5
1C3
  9
$SURFTAB1
 70
     6
  9
$SURFTAB2
 70
     6
  9
$SURFTYPE
 70
     6
  9
$SURFU
 70
     6
  9
$SURFV
 70
     6
  9
$UCSNAME
  2

  9
$UCSORG
 10
-23.299999
 20
-0.800003
 30
0.0
  9
$UCSXDIR
 10
1.0
 20
0.0
 30
0.0
  9
$UCSYDIR
 10
0.0
 20
1.0
 30
0.0
  9
$PUCSNAME
  2

  9
$PUCSORG
 10
0.0
 20
0.0
 30
0.0
  9
$PUCSXDIR
 10
1.0
 20
0.0
 30
0.0
  9
$PUCSYDIR
 10
0.0
 20
1.0
 30
0.0
  9
$USERI1
 70
     0
  9
$USERI2
 70
     0
  9
$USERI3
 70
     0
  9
$USERI4
 70
     0
  9
$USERI5
 70
     0
  9
$USERR1
 40
0.0
  9
$USERR2
 40
0.0
  9
$USERR3
 40
0.0
  9
$USERR4
 40
0.0
  9
$USERR5
 40
0.0
  9
$WORLDVIEW
 70
     1
  9
$SHADEDGE
 70
     3
  9
$SHADEDIF
 70
    70
  9
$TILEMODE
 70
     1
  9
$MAXACTVP
 70
    16
  9
$PINSBASE
 10
0.0
 20
0.0
 30
0.0
  9
$PLIMCHECK
 70
     0
  9
$PEXTMIN
 10
-71.24556700000001
 20
-87.135727
 30
1.000000000000000E+20
  9
$PEXTMAX
 10
55.787399
 20
33.0
 30
-1.000000000000000E+20
  9
$PLIMMIN
 10
0.0
 20
0.0
  9
$PLIMMAX
 10
12.0
 20
9.0
  9
$UNITMODE
 70
     0
  9
$VISRETAIN
 70
     0
  9
$PLINEGEN
 70
     0
  9
$PSLTSCALE
 70
     1
  9
$TREEDEPTH
 70
  3020
  9
$PICKSTYLE
 70
     1
  9
$CMLSTYLE
  2
STANDARD
  9
$CMLJUST
 70
     0
  9
$CMLSCALE
 40
1.0
  9
$SAVEIMAGES
 70
     1
  0
ENDSEC
  0
SECTION
  2
CLASSES
  0
CLASS
  1
ACDBDICTIONARYWDFLT
  2
AcDbDictionaryWithDefault
  3
AutoCAD 2000
 90
    32768
280
     0
281
     0
  0
CLASS
  1
ACDBPLACEHOLDER
  2
AcDbPlaceHolder
  3
AutoCAD 2000
 90
    32768
280
     0
281
     0
  0
CLASS
  1
LAYOUT
  2
AcDbLayout
  3
AutoCAD 2000
 90
    32768
280
     0
281
     0
  0
CLASS
  1
LONG_TRANSACTION
  2
AcDbLongTransaction
  3
AutoCAD 2000
 90
    32768
280
     0
281
     0
  0
CLASS
  1
LWPOLYLINE
  2
AcDbPolyline
  3
AutoCAD 2000
 90
    32768
280
     0
281
     1
  0
CLASS
  1
HATCH
  2
AcDbHatch
  3
AutoCAD 2000
 90
    32768
280
     0
281
     1
  0
CLASS
  1
XRECORD
  2
AcDbXrecord
  3
AutoCAD 2000
 90
    32768
280
     0
281
     0
  0
ENDSEC
  0
SECTION
  2
TABLES
  0
TABLE
  2
VPORT
  5
7
330
0
100
AcDbSymbolTable
 70
     2
  0
VPORT
  5
1BA
330
7
100
AcDbSymbolTableRecord
100
AcDbViewportTableRecord
  2
*ACTIVE
 70
     0
 10
0.0
 20
0.0
 11
1.0
 21
1.0
 12
-5.163652170340377
 22
-27.0678635
 13
0.0
 23
0.0
 14
6.349999999999999
 24
6.349999999999999
 15
6.349999999999999
 25
6.349999999999999
 16
0.0
 26
0.0
 36
1.0
 17
0.0
 27
0.0
 37
0.0
 40
121.453486345521
 41
1.727106227106227
 42
50.0
 43
0.0
 44
0.0
 50
0.0
 51
0.0
 71
     0
 72
   100
 73
     1
 74
     1
 75
     0
 76
     0
 77
     0
 78
     0
  0
ENDTAB
  0
TABLE
  2
LTYPE
  5
4
330
0
100
AcDbSymbolTable
 70
    37
  0
LTYPE
  5
12
330
4
100
AcDbSymbolTableRecord
100
AcDbLinetypeTableRecord
  2
BYBLOCK
 70
     0
  3

 72
    65
 73
     0
 40
0.0
  0
LTYPE
  5
13
330
4
100
AcDbSymbolTableRecord
100
AcDbLinetypeTableRecord
  2
BYLAYER
 70
     0
  3

 72
    65
 73
     0
 40
0.0
  0
LTYPE
  5
14
330
4
100
AcDbSymbolTableRecord
100
AcDbLinetypeTableRecord
  2
CONTINUOUS
 70
     0
  3
DXF Default line type
 72
    65
 73
     0
 40
0.0
  0
LTYPE
  5
20
330
4
100
AcDbSymbolTableRecord
100
AcDbLinetypeTableRecord
  2
DASHED
 70
     0
  3
DXF Dashed
 72
    65
 73
     2
 40
0.75
 49
0.5
 74
     0
 49
-0.25
 74
     0
  0
LTYPE
  5
21
330
4
100
AcDbSymbolTableRecord
100
AcDbLinetypeTableRecord
  2
HIDDEN
 70
     0
  3
DXF Hidden
 72
    65
 73
     2
 40
0.375
 49
0.25
 74
     0
 49
-0.125
 74
     0
  0
LTYPE
  5
22
330
4
100
AcDbSymbolTableRecord
100
AcDbLinetypeTableRecord
  2
CENTER
 70
     0
  3
DXF Center
 72
    65
 73
     4
 40
2.0
 49
1.25
 74
     0
 49
-0.25
 74
     0
 49
0.25
 74
     0
 49
-0.25
 74
     0
  0
LTYPE
  5
23
330
4
100
AcDbSymbolTableRecord
100
AcDbLinetypeTableRecord
  2
PHANTOM
 70
     0
  3
DXF Phantom
 72
    65
 73
     6
 40
2.5
 49
1.25
 74
     0
 49
-0.25
 74
     0
 49
0.25
 74
     0
 49
-0.25
 74
     0
 49
0.25
 74
     0
 49
-0.25
 74
     0
  0
LTYPE
  5
24
330
4
100
AcDbSymbolTableRecord
100
AcDbLinetypeTableRecord
  2
DOT
 70
     0
  3
DXF DOT
 72
    65
 73
     2
 40
0.25
 49
0.0
 74
     0
 49
-0.25
 74
     0
  0
LTYPE
  5
25
330
4
100
AcDbSymbolTableRecord
100
AcDbLinetypeTableRecord
  2
DASHDOT
 70
     0
  3
DXF Dash Dot
 72
    65
 73
     4
 40
1.0
 49
0.5
 74
     0
 49
-0.25
 74
     0
 49
0.0
 74
     0
 49
-0.25
 74
     0
  0
LTYPE
  5
26
330
4
100
AcDbSymbolTableRecord
100
AcDbLinetypeTableRecord
  2
BORDER
 70
     0
  3
DXF Border
 72
    65
 73
     6
 40
1.75
 49
0.5
 74
     0
 49
-0.25
 74
     0
 49
0.5
 74
     0
 49
-0.25
 74
     0
 49
0.0
 74
     0
 49
-0.25
 74
     0
  0
LTYPE
  5
27
330
4
100
AcDbSymbolTableRecord
100
AcDbLinetypeTableRecord
  2
DIVIDE
 70
     0
  3
DXF Divide
 72
    65
 73
     6
 40
1.25
 49
0.5
 74
     0
 49
-0.25
 74
     0
 49
0.0
 74
     0
 49
-0.25
 74
     0
 49
0.0
 74
     0
 49
-0.25
 74
     0
  0
LTYPE
  5
28
330
4
100
AcDbSymbolTableRecord
100
AcDbLinetypeTableRecord
  2
C_SOLID_L
 70
     0
  3
CADAM Solid Light
 72
    65
 73
     0
 40
0.0
  0
LTYPE
  5
29
330
4
100
AcDbSymbolTableRecord
100
AcDbLinetypeTableRecord
  2
C_SOLID_M
 70
     0
  3
CADAM Solid Medium
 72
    65
 73
     0
 40
0.0
  0
LTYPE
  5
2A
330
4
100
AcDbSymbolTableRecord
100
AcDbLinetypeTableRecord
  2
C_SOLID_H
 70
     0
  3
CADAM Solid Heavy
 72
    65
 73
     0
 40
0.0
  0
LTYPE
  5
2B
330
4
100
AcDbSymbolTableRecord
100
AcDbLinetypeTableRecord
  2
C_DASHED_L
 70
     0
  3
CADAM Dashed Light
 72
    65
 73
     2
 40
0.375
 49
0.25
 74
     0
 49
-0.125
 74
     0
  0
LTYPE
  5
2C
330
4
100
AcDbSymbolTableRecord
100
AcDbLinetypeTableRecord
  2
C_DASHED_M
 70
     0
  3
CADAM Dashed Medium
 72
    65
 73
     2
 40
0.5
 49
0.375
 74
     0
 49
-0.125
 74
     0
  0
LTYPE
  5
2D
330
4
100
AcDbSymbolTableRecord
100
AcDbLinetypeTableRecord
  2
C_CENTER_L
 70
     0
  3
CADAM Center Light
 72
    65
 73
     4
 40
2.0
 49
1.25
 74
     0
 49
-0.25
 74
     0
 49
0.25
 74
     0
 49
-0.25
 74
     0
  0
LTYPE
  5
2E
330
4
100
AcDbSymbolTableRecord
100
AcDbLinetypeTableRecord
  2
C_PHANTOM_L
 70
     0
  3
CADAM Phantom Light
 72
    65
 73
     6
 40
2.5
 49
1.25
 74
     0
 49
-0.25
 74
     0
 49
0.25
 74
     0
 49
-0.25
 74
     0
 49
0.25
 74
     0
 49
-0.25
 74
     0
  0
LTYPE
  5
2F
330
4
100
AcDbSymbolTableRecord
100
AcDbLinetypeTableRecord
  2
C_BREAK_M
 70
     0
  3
CADAM Break Medium
 72
    65
 73
     4
 40
1.0
 49
0.5
 74
     0
 49
-0.25
 74
     0
 49
0.0
 74
     0
 49
-0.25
 74
     0
  0
LTYPE
  5
30
330
4
100
AcDbSymbolTableRecord
100
AcDbLinetypeTableRecord
  2
C_NC
 70
     0
  3
CADAM NC
 72
    65
 73
     0
 40
0.0
  0
LTYPE
  5
31
330
4
100
AcDbSymbolTableRecord
100
AcDbLinetypeTableRecord
  2
DSH1
 70
     0
  3
CADAM Style2 Type 1 Dashed Line
 72
    65
 73
     2
 40
0.075
 49
0.04
 74
     0
 49
-0.035
 74
     0
  0
LTYPE
  5
32
330
4
100
AcDbSymbolTableRecord
100
AcDbLinetypeTableRecord
  2
DSH2
 70
     0
  3
CADAM Style2 Type 2 Dashed Line
 72
    65
 73
     2
 40
0.15
 49
0.11
 74
     0
 49
-0.04
 74
     0
  0
LTYPE
  5
33
330
4
100
AcDbSymbolTableRecord
100
AcDbLinetypeTableRecord
  2
DSH3
 70
     0
  3
CADAM Style2 Type 3 Dashed Line
 72
    65
 73
     2
 40
0.2
 49
0.15
 74
     0
 49
-0.05
 74
     0
  0
LTYPE
  5
34
330
4
100
AcDbSymbolTableRecord
100
AcDbLinetypeTableRecord
  2
DSH4
 70
     0
  3
CADAM Style2 Type 4 Dashed Line
 72
    65
 73
     2
 40
0.36
 49
0.28
 74
     0
 49
-0.08
 74
     0
  0
LTYPE
  5
35
330
4
100
AcDbSymbolTableRecord
100
AcDbLinetypeTableRecord
  2
DSH5
 70
     0
  3
CADAM Style2 Type 5 Dashed Line
 72
    65
 73
     2
 40
0.47
 49
0.39
 74
     0
 49
-0.08
 74
     0
  0
LTYPE
  5
36
330
4
100
AcDbSymbolTableRecord
100
AcDbLinetypeTableRecord
  2
DSH6
 70
     0
  3
CADAM Style2 Type 6 Dashed Line
 72
    65
 73
     2
 40
0.9
 49
0.8100000000000001
 74
     0
 49
-0.09
 74
     0
  0
LTYPE
  5
37
330
4
100
AcDbSymbolTableRecord
100
AcDbLinetypeTableRecord
  2
PL1
 70
     0
  3
Style 2 Type 1 Phantom Line
 72
    65
 73
     6
 40
1.0
 49
0.6
 74
     0
 49
-0.08
 74
     0
 49
0.08
 74
     0
 49
-0.08
 74
     0
 49
0.08
 74
     0
 49
-0.08
 74
     0
  0
LTYPE
  5
38
330
4
100
AcDbSymbolTableRecord
100
AcDbLinetypeTableRecord
  2
PL2
 70
     0
  3
Style 2 Type 2 Phantom Line
 72
    65
 73
     6
 40
1.08
 49
0.6
 74
     0
 49
-0.08
 74
     0
 49
0.12
 74
     0
 49
-0.08
 74
     0
 49
0.12
 74
     0
 49
-0.08
 74
     0
  0
LTYPE
  5
39
330
4
100
AcDbSymbolTableRecord
100
AcDbLinetypeTableRecord
  2
PL3
 70
     0
  3
Style 2 Type 3 Phantom Line
 72
    65
 73
     6
 40
2.0
 49
1.439999999999999
 74
     0
 49
-0.08
 74
     0
 49
0.16
 74
     0
 49
-0.08
 74
     0
 49
0.16
 74
     0
 49
-0.08
 74
     0
  0
LTYPE
  5
3A
330
4
100
AcDbSymbolTableRecord
100
AcDbLinetypeTableRecord
  2
CL1
 70
     0
  3
CADAM Style 2 Type 1 Center Line
 72
    65
 73
     4
 40
0.7
 49
0.45
 74
     0
 49
-0.06
 74
     0
 49
0.13
 74
     0
 49
-0.06
 74
     0
  0
LTYPE
  5
3B
330
4
100
AcDbSymbolTableRecord
100
AcDbLinetypeTableRecord
  2
CL2
 70
     0
  3
CADAM Style 2 Type 2 Center Line
 72
    65
 73
     4
 40
1.199999999999999
 49
1.01
 74
     0
 49
-0.06
 74
     0
 49
0.11
 74
     0
 49
-0.06
 74
     0
  0
LTYPE
  5
3C
330
4
100
AcDbSymbolTableRecord
100
AcDbLinetypeTableRecord
  2
CL3
 70
     0
  3
CADAM Style 2 Type 3 Center Line
 72
    65
 73
     4
 40
1.199999999999999
 49
0.98
 74
     0
 49
-0.06
 74
     0
 49
0.1
 74
     0
 49
-0.06
 74
     0
  0
LTYPE
  5
3D
330
4
100
AcDbSymbolTableRecord
100
AcDbLinetypeTableRecord
  2
CL4
 70
     0
  3
CADAM Style 2 Type 4 Center Line
 72
    65
 73
     4
 40
2.2
 49
1.929999999999999
 74
     0
 49
-0.07
 74
     0
 49
0.13
 74
     0
 49
-0.07
 74
     0
  0
LTYPE
  5
3E
330
4
100
AcDbSymbolTableRecord
100
AcDbLinetypeTableRecord
  2
CL5
 70
     0
  3
CADAM Style 2 Type 5 Center Line
 72
    65
 73
     4
 40
2.2
 49
1.879999999999999
 74
     0
 49
-0.07
 74
     0
 49
0.18
 74
     0
 49
-0.07
 74
     0
  0
LTYPE
  5
3F
330
4
100
AcDbSymbolTableRecord
100
AcDbLinetypeTableRecord
  2
SBK1
 70
     0
  3
CADAM Style 2 Type 1 SetBack Line
 72
    65
 73
     8
 40
2.7
 49
0.1
 74
     0
 49
-0.08
 74
     0
 49
0.1
 74
     0
 49
-0.8
 74
     0
 49
0.0
 74
     0
 49
0.0
 74
     0
 49
0.0
 74
     0
 49
0.0
 74
     0
  0
LTYPE
  5
40
330
4
100
AcDbSymbolTableRecord
100
AcDbLinetypeTableRecord
  2
SBK2
 70
     0
  3
CADAM Style 2 Type 2 SetBack Line
 72
    65
 73
     8
 40
3.709999999999999
 49
0.13
 74
     0
 49
-0.08
 74
     0
 49
0.13
 74
     0
 49
-0.8
 74
     0
 49
0.0
 74
     0
 49
0.0
 74
     0
 49
0.0
 74
     0
 49
0.0
 74
     0
  0
LTYPE
  5
41
330
4
100
AcDbSymbolTableRecord
100
AcDbLinetypeTableRecord
  2
STCH
 70
     0
  3
CADAM Style2 Stitch Line
 72
    65
 73
     2
 40
0.25
 49
0.0
 74
     0
 49
-0.25
 74
     0
  0
LTYPE
  5
42
330
4
100
AcDbSymbolTableRecord
100
AcDbLinetypeTableRecord
  2
MTCH
 70
     0
  3
CADAM Style2 Match Line
 72
    65
 73
     6
 40
2.0
 49
1.439999999999999
 74
     0
 49
-0.8
 74
     0
 49
0.16
 74
     0
 49
-0.08
 74
     0
 49
0.16
 74
     0
 49
-0.08
 74
     0
  0
LTYPE
  5
43
330
4
100
AcDbSymbolTableRecord
100
AcDbLinetypeTableRecord
  2
SLD
 70
     0
  3
CADAM Solid_EXT2
 72
    65
 73
     0
 40
0.0
  0
ENDTAB
  0
TABLE
  2
LAYER
  5
2
330
0
100
AcDbSymbolTable
 70
     7
  0
LAYER
  5
15
330
2
100
AcDbSymbolTableRecord
100
AcDbLayerTableRecord
  2
0
 70
     0
 62
     7
  6
CONTINUOUS
  0
LAYER
  5
44
330
2
100
AcDbSymbolTableRecord
100
AcDbLayerTableRecord
  2
MO_001_NOSHOW
 70
     1
 62
     7
  6
CONTINUOUS
  0
LAYER
  5
45
330
2
100
AcDbSymbolTableRecord
100
AcDbLayerTableRecord
  2
MO_001_VIEW_PV
 70
     0
 62
     7
  6
CONTINUOUS
  0
LAYER
  5
46
330
2
100
AcDbSymbolTableRecord
100
AcDbLayerTableRecord
  2
OVERLAY_MAP
 70
     1
 62
     7
  6
CONTINUOUS
  0
LAYER
  5
47
330
2
100
AcDbSymbolTableRecord
100
AcDbLayerTableRecord
  2
DITTOS
 70
     0
 62
     7
  6
CONTINUOUS
  0
LAYER
  5
48
330
2
100
AcDbSymbolTableRecord
100
AcDbLayerTableRecord
  2
SYMBOLS
 70
     0
 62
     7
  6
CONTINUOUS
  0
LAYER
  5
49
330
2
100
AcDbSymbolTableRecord
100
AcDbLayerTableRecord
  2
SETS
 70
     0
 62
     7
  6
CONTINUOUS
  0
ENDTAB
  0
TABLE
  2
STYLE
  5
3
330
0
100
AcDbSymbolTable
 70
     1
  0
STYLE
  5
18
330
3
100
AcDbSymbolTableRecord
100
AcDbTextStyleTableRecord
  2
STANDARD
 70
     0
 40
4.1672
 41
1.0
 50
0.0
 71
     0
 42
4.1672
  3
monotxt
  4
BIGFONT
  0
ENDTAB
  0
TABLE
  2
VIEW
  5
5
330
0
100
AcDbSymbolTable
 70
     0
  0
ENDTAB
  0
TABLE
  2
UCS
  5
6
330
0
100
AcDbSymbolTable
 70
     1
  0
UCS
  5
4A
330
6
100
AcDbSymbolTableRecord
100
AcDbUCSTableRecord
  2
MO_001_VIEW_PV_P
 70
     0
 10
0.0
 20
0.0
 30
0.0
 11
1.0
 21
0.0
 31
0.0
 12
-0.0000000002051034
 22
1.0
 32
0.0
  0
ENDTAB
  0
TABLE
  2
APPID
  5
8
330
0
100
AcDbSymbolTable
 70
     1
  0
APPID
  5
17
330
8
100
AcDbSymbolTableRecord
100
AcDbRegAppTableRecord
  2
ACAD
 70
     0
  0
ENDTAB
  0
TABLE
  2
DIMSTYLE
  5
9
330
0
100
AcDbSymbolTable
 70
     1
  0
DIMSTYLE
105
19
102
{ACAD_REACTORS
330
DB
330
DD
330
DF
330
E1
330
E3
330
E5
330
E7
330
E9
330
EB
330
ED
330
EF
330
F1
330
F3
330
F5
330
F7
330
F9
102
}
330
9
100
AcDbSymbolTableRecord
100
AcDbDimStyleTableRecord
  2
STANDARD
 70
     0
  3

  4

  5

  6

  7

 40
1.0
 41
0.18
 42
0.0625
 43
0.38
 44
0.18
 45
0.0
 46
0.0
 47
0.0
 48
0.0
140
0.18
141
0.09
142
0.0
143
25.4
144
1.0
145
0.0
146
1.0
147
0.09
 71
     0
 72
     0
 73
     1
 74
     1
 75
     0
 76
     0
 77
     0
 78
     0
170
     0
171
     2
172
     0
173
     0
174
     0
175
     0
176
     0
177
     0
178
     0
270
     2
271
     4
272
     4
273
     2
274
     2
340
18
275
     0
280
     0
281
     0
282
     0
283
     1
284
     0
285
     0
286
     0
287
     3
288
     0
  0
ENDTAB
  0
TABLE
  2
BLOCK_RECORD
  5
C
330
0
100
AcDbSymbolTable
 70
    16
  0
BLOCK_RECORD
  5
1E
102
{ACAD_XDICTIONARY
360
1BB
102
}
330
C
100
AcDbSymbolTableRecord
100
AcDbBlockTableRecord
  2
*MODEL_SPACE
  0
BLOCK_RECORD
  5
1F
102
{ACAD_XDICTIONARY
360
1BD
102
}
330
C
100
AcDbSymbolTableRecord
100
AcDbBlockTableRecord
  2
*PAPER_SPACE
  0
BLOCK_RECORD
  5
DA
330
C
100
AcDbSymbolTableRecord
100
AcDbBlockTableRecord
  2
*D0
  0
BLOCK_RECORD
  5
DC
330
C
100
AcDbSymbolTableRecord
100
AcDbBlockTableRecord
  2
*D1
  0
BLOCK_RECORD
  5
DE
330
C
100
AcDbSymbolTableRecord
100
AcDbBlockTableRecord
  2
*D2
  0
BLOCK_RECORD
  5
E0
330
C
100
AcDbSymbolTableRecord
100
AcDbBlockTableRecord
  2
*D3
  0
BLOCK_RECORD
  5
E2
330
C
100
AcDbSymbolTableRecord
100
AcDbBlockTableRecord
  2
*D4
  0
BLOCK_RECORD
  5
E4
330
C
100
AcDbSymbolTableRecord
100
AcDbBlockTableRecord
  2
*D5
  0
BLOCK_RECORD
  5
E6
330
C
100
AcDbSymbolTableRecord
100
AcDbBlockTableRecord
  2
*D6
  0
BLOCK_RECORD
  5
E8
330
C
100
AcDbSymbolTableRecord
100
AcDbBlockTableRecord
  2
*D7
  0
BLOCK_RECORD
  5
EA
330
C
100
AcDbSymbolTableRecord
100
AcDbBlockTableRecord
  2
*D8
  0
BLOCK_RECORD
  5
EC
330
C
100
AcDbSymbolTableRecord
100
AcDbBlockTableRecord
  2
*D9
  0
BLOCK_RECORD
  5
EE
330
C
100
AcDbSymbolTableRecord
100
AcDbBlockTableRecord
  2
*D10
  0
BLOCK_RECORD
  5
F0
330
C
100
AcDbSymbolTableRecord
100
AcDbBlockTableRecord
  2
*D11
  0
BLOCK_RECORD
  5
F2
330
C
100
AcDbSymbolTableRecord
100
AcDbBlockTableRecord
  2
*D12
  0
BLOCK_RECORD
  5
F4
330
C
100
AcDbSymbolTableRecord
100
AcDbBlockTableRecord
  2
*D13
  0
BLOCK_RECORD
  5
F6
330
C
100
AcDbSymbolTableRecord
100
AcDbBlockTableRecord
  2
*D14
  0
BLOCK_RECORD
  5
F8
330
C
100
AcDbSymbolTableRecord
100
AcDbBlockTableRecord
  2
*D15
  0
ENDTAB
  0
ENDSEC
  0
SECTION
  2
BLOCKS
  0
BLOCK
  5
E
330
1E
100
AcDbEntity
  8
0
100
AcDbBlockBegin
  2
*MODEL_SPACE
 70
     0
 10
0.0
 20
0.0
 30
0.0
  3
*MODEL_SPACE
  1

  0
ENDBLK
  5
F
330
1E
100
AcDbEntity
  8
0
100
AcDbBlockEnd
  0
BLOCK
  5
10
330
1F
100
AcDbEntity
 67
     1
  8
0
100
AcDbBlockBegin
  2
*PAPER_SPACE
 70
     0
 10
0.0
 20
0.0
 30
0.0
  3
*PAPER_SPACE
  1

  0
ENDBLK
  5
11
330
1F
100
AcDbEntity
 67
     1
  8
0
100
AcDbBlockEnd
  0
BLOCK
  5
100
330
DA
100
AcDbEntity
  8
0
100
AcDbBlockBegin
  2
*D0
 70
     1
 10
0.0
 20
0.0
 30
0.0
  3
*D0
  1

  0
TEXT
  5
101
330
DA
100
AcDbEntity
  8
MO_001_VIEW_PV
  6
BYBLOCK
100
AcDbText
 10
-16.03299299999999
 20
15.75
 30
0.0
 40
3.0
  1
(4)
100
AcDbText
  0
LINE
  5
102
330
DA
100
AcDbEntity
  8
MO_001_VIEW_PV
  6
BYBLOCK
100
AcDbLine
 10
-4.0
 20
15.0
 30
0.0
 11
0.0
 21
15.0
 31
0.0
  0
LINE
  5
103
330
DA
100
AcDbEntity
  8
MO_001_VIEW_PV
  6
BYBLOCK
100
AcDbLine
 10
-4.0
 20
15.0
 30
0.0
 11
-10.34999999999999
 21
15.0
 31
0.0
  0
LINE
  5
104
330
DA
100
AcDbEntity
  8
MO_001_VIEW_PV
  6
BYBLOCK
100
AcDbLine
 10
0.0
 20
15.0
 30
0.0
 11
6.349999999999999
 21
15.0
 31
0.0
  0
SOLID
  5
105
330
DA
100
AcDbEntity
  8
MO_001_VIEW_PV
  6
BYBLOCK
100
AcDbTrace
 10
-7.31826
 20
14.416488
 30
0.0
 11
-4.508
 21
15.0
 31
0.0
 12
-7.31826
 22
15.58351199999999
 32
0.0
 13
-7.31826
 23
15.58351199999999
 33
0.0
  0
SOLID
  5
106
330
DA
100
AcDbEntity
  8
MO_001_VIEW_PV
  6
BYBLOCK
100
AcDbTrace
 10
3.318259999999999
 20
15.58351199999999
 30
0.0
 11
0.508
 21
15.0
 31
0.0
 12
3.318259999999999
 22
14.416488
 32
0.0
 13
3.318259999999999
 23
14.416488
 33
0.0
  0
LINE
  5
107
330
DA
100
AcDbEntity
  8
MO_001_VIEW_PV
  6
BYBLOCK
100
AcDbLine
 10
-4.0
 20
4.25
 30
0.0
 11
-4.0
 21
17.285999
 31
0.0
  0
LINE
  5
108
330
DA
100
AcDbEntity
  8
MO_001_NOSHOW
  6
BYBLOCK
100
AcDbLine
 10
0.0
 20
3.75
 30
0.0
 11
0.0
 21
17.285999
 31
0.0
  0
LINE
  5
109
330
DA
100
AcDbEntity
  8
MO_001_VIEW_PV
  6
BYBLOCK
100
AcDbLine
 10
-16.997278
 20
15.0
 30
0.0
 11
-4.0
 21
15.0
 31
0.0
  0
ENDBLK
  5
10A
330
DA
100
AcDbEntity
  8
0
100
AcDbBlockEnd
  0
BLOCK
  5
10B
330
DC
100
AcDbEntity
  8
0
100
AcDbBlockBegin
  2
*D1
 70
     1
 10
0.0
 20
0.0
 30
0.0
  3
*D1
  1

  0
LINE
  5
10C
330
DC
100
AcDbEntity
  8
MO_001_VIEW_PV
  6
BYBLOCK
100
AcDbLine
 10
0.0
 20
21.0
 30
0.0
 11
42.0
 21
21.0
 31
0.0
  0
SOLID
  5
10D
330
DC
100
AcDbEntity
  8
MO_001_VIEW_PV
  6
BYBLOCK
100
AcDbTrace
 10
3.318259999999999
 20
21.58351199999999
 30
0.0
 11
0.508
 21
21.0
 31
0.0
 12
3.318259999999999
 22
20.416488
 32
0.0
 13
3.318259999999999
 23
20.416488
 33
0.0
  0
SOLID
  5
10E
330
DC
100
AcDbEntity
  8
MO_001_VIEW_PV
  6
BYBLOCK
100
AcDbTrace
 10
38.68174
 20
20.416488
 30
0.0
 11
41.49199999999999
 21
21.0
 31
0.0
 12
38.68174
 22
21.58351199999999
 32
0.0
 13
38.68174
 23
21.58351199999999
 33
0.0
  0
LINE
  5
10F
330
DC
100
AcDbEntity
  8
MO_001_NOSHOW
  6
BYBLOCK
100
AcDbLine
 10
0.0
 20
3.75
 30
0.0
 11
0.0
 21
23.28599899999999
 31
0.0
  0
LINE
  5
110
330
DC
100
AcDbEntity
  8
MO_001_VIEW_PV
  6
BYBLOCK
100
AcDbLine
 10
42.0
 20
5.050502999999999
 30
0.0
 11
42.0
 21
23.28599899999999
 31
0.0
  0
TEXT
  5
111
330
DC
100
AcDbEntity
  8
MO_001_VIEW_PV
  6
BYBLOCK
100
AcDbText
 10
10.178564
 20
21.75
 30
0.0
 40
3.0
  1
長さ240以上
100
AcDbText
  0
ENDBLK
  5
112
330
DC
100
AcDbEntity
  8
0
100
AcDbBlockEnd
  0
BLOCK
  5
113
330
DE
100
AcDbEntity
  8
0
100
AcDbBlockBegin
  2
*D2
 70
     1
 10
0.0
 20
0.0
 30
0.0
  3
*D2
  1

  0
TEXT
  5
114
330
DE
100
AcDbEntity
  8
MO_001_VIEW_PV
  6
BYBLOCK
100
AcDbText
 10
-9.785714
 20
23.625
 30
0.0
 40
1.5
  1
%%P0.3
100
AcDbText
  0
TEXT
  5
115
330
DE
100
AcDbEntity
  8
MO_001_VIEW_PV
  6
BYBLOCK
100
AcDbText
 10
-15.571429
 20
21.75
 30
0.0
 40
3.0
  1
20
100
AcDbText
  0
LINE
  5
116
330
DE
100
AcDbEntity
  8
MO_001_VIEW_PV
  6
BYBLOCK
100
AcDbLine
 10
-20.0
 20
21.0
 30
0.0
 11
0.0
 21
21.0
 31
0.0
  0
SOLID
  5
117
330
DE
100
AcDbEntity
  8
MO_001_VIEW_PV
  6
BYBLOCK
100
AcDbTrace
 10
-16.68173999999999
 20
21.58351199999999
 30
0.0
 11
-19.492
 21
21.0
 31
0.0
 12
-16.68173999999999
 22
20.416488
 32
0.0
 13
-16.68173999999999
 23
20.416488
 33
0.0
  0
SOLID
  5
118
330
DE
100
AcDbEntity
  8
MO_001_VIEW_PV
  6
BYBLOCK
100
AcDbTrace
 10
-3.318259999999999
 20
20.416488
 30
0.0
 11
-0.508
 21
21.0
 31
0.0
 12
-3.318259999999999
 22
21.58351199999999
 32
0.0
 13
-3.318259999999999
 23
21.58351199999999
 33
0.0
  0
LINE
  5
119
330
DE
100
AcDbEntity
  8
MO_001_VIEW_PV
  6
BYBLOCK
100
AcDbLine
 10
-20.0
 20
3.75
 30
0.0
 11
-20.0
 21
23.28599899999999
 31
0.0
  0
LINE
  5
11A
330
DE
100
AcDbEntity
  8
MO_001_NOSHOW
  6
BYBLOCK
100
AcDbLine
 10
0.0
 20
3.75
 30
0.0
 11
0.0
 21
23.28599899999999
 31
0.0
  0
ENDBLK
  5
11B
330
DE
100
AcDbEntity
  8
0
100
AcDbBlockEnd
  0
BLOCK
  5
11C
330
E0
100
AcDbEntity
  8
0
100
AcDbBlockBegin
  2
*D3
 70
     1
 10
0.0
 20
0.0
 30
0.0
  3
*D3
  1

  0
TEXT
  5
11D
330
E0
100
AcDbEntity
  8
MO_001_VIEW_PV
  6
BYBLOCK
100
AcDbText
 10
-17.721428
 20
27.75
 30
0.0
 40
3.0
  1
24
100
AcDbText
  0
LINE
  5
11E
330
E0
100
AcDbEntity
  8
MO_001_VIEW_PV
  6
BYBLOCK
100
AcDbLine
 10
0.0
 20
27.0
 30
0.0
 11
-24.299999
 21
27.0
 31
0.0
  0
SOLID
  5
11F
330
E0
100
AcDbEntity
  8
MO_001_VIEW_PV
  6
BYBLOCK
100
AcDbTrace
 10
-3.318259999999999
 20
26.416488
 30
0.0
 11
-0.508
 21
27.0
 31
0.0
 12
-3.318259999999999
 22
27.58351199999999
 32
0.0
 13
-3.318259999999999
 23
27.58351199999999
 33
0.0
  0
SOLID
  5
120
330
E0
100
AcDbEntity
  8
MO_001_VIEW_PV
  6
BYBLOCK
100
AcDbTrace
 10
-20.981739
 20
27.58351199999999
 30
0.0
 11
-23.791999
 21
27.0
 31
0.0
 12
-20.981739
 22
26.416488
 32
0.0
 13
-20.981739
 23
26.416488
 33
0.0
  0
LINE
  5
121
330
E0
100
AcDbEntity
  8
MO_001_VIEW_PV
  6
BYBLOCK
100
AcDbLine
 10
0.0
 20
3.75
 30
0.0
 11
0.0
 21
29.285999
 31
0.0
  0
LINE
  5
122
330
E0
100
AcDbEntity
  8
MO_001_VIEW_PV
  6
BYBLOCK
100
AcDbLine
 10
-24.299999
 20
2.0
 30
0.0
 11
-24.299999
 21
29.285999
 31
0.0
  0
ENDBLK
  5
123
330
E0
100
AcDbEntity
  8
0
100
AcDbBlockEnd
  0
BLOCK
  5
124
330
E2
100
AcDbEntity
  8
0
100
AcDbBlockBegin
  2
*D4
 70
     1
 10
0.0
 20
0.0
 30
0.0
  3
*D4
  1

  0
TEXT
  5
125
330
E2
100
AcDbEntity
  8
MO_001_VIEW_PV
  6
BYBLOCK
100
AcDbText
 10
-32.625
 20
13.21299699999999
 30
0.0
 40
1.5
  1
%%P0.05
 50
90.0
100
AcDbText
  0
TEXT
  5
126
330
E2
100
AcDbEntity
  8
MO_001_VIEW_PV
  6
BYBLOCK
100
AcDbText
 10
-30.75
 20
7.427283
 30
0.0
 40
3.0
  1
%%C4
 50
90.0
100
AcDbText
  0
LINE
  5
127
330
E2
100
AcDbEntity
  8
MO_001_VIEW_PV
  6
BYBLOCK
100
AcDbLine
 10
-30.0
 20
-2.0
 30
0.0
 11
-30.0
 21
2.0
 31
0.0
  0
LINE
  5
128
330
E2
100
AcDbEntity
  8
MO_001_VIEW_PV
  6
BYBLOCK
100
AcDbLine
 10
-30.0
 20
-2.0
 30
0.0
 11
-30.0
 21
-8.349999999999999
 31
0.0
  0
LINE
  5
129
330
E2
100
AcDbEntity
  8
MO_001_VIEW_PV
  6
BYBLOCK
100
AcDbLine
 10
-30.0
 20
2.0
 30
0.0
 11
-30.0
 21
8.349999999999999
 31
0.0
  0
SOLID
  5
12A
330
E2
100
AcDbEntity
  8
MO_001_VIEW_PV
  6
BYBLOCK
100
AcDbTrace
 10
-29.416488
 20
-5.318259999999999
 30
0.0
 11
-30.0
 21
-2.508
 31
0.0
 12
-30.583512
 22
-5.318259999999999
 32
0.0
 13
-30.583512
 23
-5.318259999999999
 33
0.0
  0
SOLID
  5
12B
330
E2
100
AcDbEntity
  8
MO_001_VIEW_PV
  6
BYBLOCK
100
AcDbTrace
 10
-30.583512
 20
5.318259999999999
 30
0.0
 11
-30.0
 21
2.508
 31
0.0
 12
-29.416488
 22
5.318259999999999
 32
0.0
 13
-29.416488
 23
5.318259999999999
 33
0.0
  0
LINE
  5
12C
330
E2
100
AcDbEntity
  8
MO_001_VIEW_PV
  6
BYBLOCK
100
AcDbLine
 10
-24.299999
 20
-2.0
 30
0.0
 11
-32.28599899999999
 21
-2.0
 31
0.0
  0
LINE
  5
12D
330
E2
100
AcDbEntity
  8
MO_001_VIEW_PV
  6
BYBLOCK
100
AcDbLine
 10
-24.299999
 20
2.0
 30
0.0
 11
-32.28599899999999
 21
2.0
 31
0.0
  0
LINE
  5
12E
330
E2
100
AcDbEntity
  8
MO_001_VIEW_PV
  6
BYBLOCK
100
AcDbLine
 10
-30.0
 20
2.0
 30
0.0
 11
-30.0
 21
21.03442799999999
 31
0.0
  0
ENDBLK
  5
12F
330
E2
100
AcDbEntity
  8
0
100
AcDbBlockEnd
  0
BLOCK
  5
130
330
E4
100
AcDbEntity
  8
0
100
AcDbBlockBegin
  2
*D5
 70
     1
 10
0.0
 20
0.0
 30
0.0
  3
*D5
  1

  0
TEXT
  5
131
330
E4
100
AcDbEntity
  8
MO_001_VIEW_PV
  6
BYBLOCK
100
AcDbText
 10
4.065776
 20
-15.375
 30
0.0
 40
1.5
  1
%%P0.2
100
AcDbText
  0
TEXT
  5
132
330
E4
100
AcDbEntity
  8
MO_001_VIEW_PV
  6
BYBLOCK
100
AcDbText
 10
1.280062
 20
-17.25
 30
0.0
 40
3.0
  1
7
100
AcDbText
  0
LINE
  5
133
330
E4
100
AcDbEntity
  8
MO_001_VIEW_PV
  6
BYBLOCK
100
AcDbLine
 10
-11.0
 20
-18.0
 30
0.0
 11
-4.0
 21
-18.0
 31
0.0
  0
LINE
  5
134
330
E4
100
AcDbEntity
  8
MO_001_VIEW_PV
  6
BYBLOCK
100
AcDbLine
 10
-11.0
 20
-18.0
 30
0.0
 11
-17.35
 21
-18.0
 31
0.0
  0
LINE
  5
135
330
E4
100
AcDbEntity
  8
MO_001_VIEW_PV
  6
BYBLOCK
100
AcDbLine
 10
-4.0
 20
-18.0
 30
0.0
 11
2.35
 21
-18.0
 31
0.0
  0
SOLID
  5
136
330
E4
100
AcDbEntity
  8
MO_001_VIEW_PV
  6
BYBLOCK
100
AcDbTrace
 10
-14.31826
 20
-18.58351199999999
 30
0.0
 11
-11.508
 21
-18.0
 31
0.0
 12
-14.31826
 22
-17.416488
 32
0.0
 13
-14.31826
 23
-17.416488
 33
0.0
  0
SOLID
  5
137
330
E4
100
AcDbEntity
  8
MO_001_VIEW_PV
  6
BYBLOCK
100
AcDbTrace
 10
-0.6817400000000001
 20
-17.416488
 30
0.0
 11
-3.491999999999999
 21
-18.0
 31
0.0
 12
-0.6817400000000001
 22
-18.58351199999999
 32
0.0
 13
-0.6817400000000001
 23
-18.58351199999999
 33
0.0
  0
LINE
  5
138
330
E4
100
AcDbEntity
  8
MO_001_NOSHOW
  6
BYBLOCK
100
AcDbLine
 10
-11.0
 20
-4.25
 30
0.0
 11
-11.0
 21
-20.285999
 31
0.0
  0
LINE
  5
139
330
E4
100
AcDbEntity
  8
MO_001_VIEW_PV
  6
BYBLOCK
100
AcDbLine
 10
-4.0
 20
-0.75
 30
0.0
 11
-4.0
 21
-20.285999
 31
0.0
  0
LINE
  5
13A
330
E4
100
AcDbEntity
  8
MO_001_VIEW_PV
  6
BYBLOCK
100
AcDbLine
 10
-4.0
 20
-18.0
 30
0.0
 11
10.38720399999999
 21
-18.0
 31
0.0
  0
ENDBLK
  5
13B
330
E4
100
AcDbEntity
  8
0
100
AcDbBlockEnd
  0
BLOCK
  5
13C
330
E6
100
AcDbEntity
  8
0
100
AcDbBlockBegin
  2
*D6
 70
     1
 10
0.0
 20
0.0
 30
0.0
  3
*D6
  1

  0
LINE
  5
13D
330
E6
100
AcDbEntity
  8
MO_001_VIEW_PV
  6
BYBLOCK
100
AcDbLine
 10
-22.60000199999999
 20
-33.0
 30
0.0
 11
-23.299999
 21
-33.0
 31
0.0
  0
LINE
  5
13E
330
E6
100
AcDbEntity
  8
MO_001_VIEW_PV
  6
BYBLOCK
100
AcDbLine
 10
-22.60000199999999
 20
-33.0
 30
0.0
 11
-16.25000199999999
 21
-33.0
 31
0.0
  0
LINE
  5
13F
330
E6
100
AcDbEntity
  8
MO_001_VIEW_PV
  6
BYBLOCK
100
AcDbLine
 10
-23.299999
 20
-33.0
 30
0.0
 11
-29.649999
 21
-33.0
 31
0.0
  0
SOLID
  5
140
330
E6
100
AcDbEntity
  8
MO_001_VIEW_PV
  6
BYBLOCK
100
AcDbTrace
 10
-19.281742
 20
-32.416488
 30
0.0
 11
-22.09200199999999
 21
-33.0
 31
0.0
 12
-19.281742
 22
-33.58351199999999
 32
0.0
 13
-19.281742
 23
-33.58351199999999
 33
0.0
  0
SOLID
  5
141
330
E6
100
AcDbEntity
  8
MO_001_VIEW_PV
  6
BYBLOCK
100
AcDbTrace
 10
-26.618259
 20
-33.58351199999999
 30
0.0
 11
-23.80799899999999
 21
-33.0
 31
0.0
 12
-26.618259
 22
-32.416488
 32
0.0
 13
-26.618259
 23
-32.416488
 33
0.0
  0
LINE
  5
142
330
E6
100
AcDbEntity
  8
MO_001_VIEW_PV
  6
BYBLOCK
100
AcDbLine
 10
-22.60000199999999
 20
-49.0
 30
0.0
 11
-22.60000199999999
 21
-30.71400099999999
 31
0.0
  0
LINE
  5
143
330
E6
100
AcDbEntity
  8
MO_001_VIEW_PV
  6
BYBLOCK
100
AcDbLine
 10
-23.299999
 20
-49.0
 30
0.0
 11
-23.299999
 21
-30.71400099999999
 31
0.0
  0
TEXT
  5
144
330
E6
100
AcDbEntity
  8
MO_001_VIEW_PV
  6
BYBLOCK
100
AcDbText
 10
-8.815927
 20
-30.375
 30
0.0
 40
1.5
  1
%%P0.2
100
AcDbText
  0
TEXT
  5
145
330
E6
100
AcDbEntity
  8
MO_001_VIEW_PV
  6
BYBLOCK
100
AcDbText
 10
-17.601641
 20
-32.25
 30
0.0
 40
3.0
  1
0.7
100
AcDbText
  0
LINE
  5
146
330
E6
100
AcDbEntity
  8
MO_001_VIEW_PV
  6
BYBLOCK
100
AcDbLine
 10
-2.494498
 20
-33.0
 30
0.0
 11
-22.60000199999999
 21
-33.0
 31
0.0
  0
ENDBLK
  5
147
330
E6
100
AcDbEntity
  8
0
100
AcDbBlockEnd
  0
BLOCK
  5
148
330
E8
100
AcDbEntity
  8
0
100
AcDbBlockBegin
  2
*D7
 70
     1
 10
0.0
 20
0.0
 30
0.0
  3
*D7
  1

  0
TEXT
  5
149
330
E8
100
AcDbEntity
  8
MO_001_VIEW_PV
  6
BYBLOCK
100
AcDbText
 10
-33.23195
 20
-36.375
 30
0.0
 40
1.5
  1
%%P0.2
100
AcDbText
  0
TEXT
  5
14A
330
E8
100
AcDbEntity
  8
MO_001_VIEW_PV
  6
BYBLOCK
100
AcDbText
 10
-36.017664
 20
-38.25
 30
0.0
 40
3.0
  1
1
100
AcDbText
  0
LINE
  5
14B
330
E8
100
AcDbEntity
  8
MO_001_VIEW_PV
  6
BYBLOCK
100
AcDbLine
 10
-23.299999
 20
-39.0
 30
0.0
 11
-24.299999
 21
-39.0
 31
0.0
  0
LINE
  5
14C
330
E8
100
AcDbEntity
  8
MO_001_VIEW_PV
  6
BYBLOCK
100
AcDbLine
 10
-23.299999
 20
-39.0
 30
0.0
 11
-16.949999
 21
-39.0
 31
0.0
  0
LINE
  5
14D
330
E8
100
AcDbEntity
  8
MO_001_VIEW_PV
  6
BYBLOCK
100
AcDbLine
 10
-24.299999
 20
-39.0
 30
0.0
 11
-30.649999
 21
-39.0
 31
0.0
  0
SOLID
  5
14E
330
E8
100
AcDbEntity
  8
MO_001_VIEW_PV
  6
BYBLOCK
100
AcDbTrace
 10
-19.981739
 20
-38.416488
 30
0.0
 11
-22.791999
 21
-39.0
 31
0.0
 12
-19.981739
 22
-39.583512
 32
0.0
 13
-19.981739
 23
-39.583512
 33
0.0
  0
SOLID
  5
14F
330
E8
100
AcDbEntity
  8
MO_001_VIEW_PV
  6
BYBLOCK
100
AcDbTrace
 10
-27.618259
 20
-39.583512
 30
0.0
 11
-24.807999
 21
-39.0
 31
0.0
 12
-27.618259
 22
-38.416488
 32
0.0
 13
-27.618259
 23
-38.416488
 33
0.0
  0
LINE
  5
150
330
E8
100
AcDbEntity
  8
MO_001_NOSHOW
  6
BYBLOCK
100
AcDbLine
 10
-23.299999
 20
-49.0
 30
0.0
 11
-23.299999
 21
-36.714001
 31
0.0
  0
LINE
  5
151
330
E8
100
AcDbEntity
  8
MO_001_NOSHOW
  6
BYBLOCK
100
AcDbLine
 10
-24.299999
 20
-49.0
 30
0.0
 11
-24.299999
 21
-36.714001
 31
0.0
  0
LINE
  5
152
330
E8
100
AcDbEntity
  8
MO_001_VIEW_PV
  6
BYBLOCK
100
AcDbLine
 10
-24.299999
 20
-39.0
 30
0.0
 11
-36.981949
 21
-39.0
 31
0.0
  0
ENDBLK
  5
153
330
E8
100
AcDbEntity
  8
0
100
AcDbBlockEnd
  0
BLOCK
  5
154
330
EA
100
AcDbEntity
  8
0
100
AcDbBlockBegin
  2
*D8
 70
     1
 10
0.0
 20
0.0
 30
0.0
  3
*D8
  1

  0
LINE
  5
155
330
EA
100
AcDbEntity
  8
MO_001_VIEW_PV
  6
BYBLOCK
100
AcDbLine
 10
-24.299999
 20
-27.0
 30
0.0
 11
-19.700001
 21
-27.0
 31
0.0
  0
LINE
  5
156
330
EA
100
AcDbEntity
  8
MO_001_VIEW_PV
  6
BYBLOCK
100
AcDbLine
 10
-24.299999
 20
-27.0
 30
0.0
 11
-30.649999
 21
-27.0
 31
0.0
  0
LINE
  5
157
330
EA
100
AcDbEntity
  8
MO_001_VIEW_PV
  6
BYBLOCK
100
AcDbLine
 10
-19.700001
 20
-27.0
 30
0.0
 11
-13.350001
 21
-27.0
 31
0.0
  0
SOLID
  5
158
330
EA
100
AcDbEntity
  8
MO_001_VIEW_PV
  6
BYBLOCK
100
AcDbTrace
 10
-27.618259
 20
-27.58351199999999
 30
0.0
 11
-24.807999
 21
-27.0
 31
0.0
 12
-27.618259
 22
-26.416488
 32
0.0
 13
-27.618259
 23
-26.416488
 33
0.0
  0
SOLID
  5
159
330
EA
100
AcDbEntity
  8
MO_001_VIEW_PV
  6
BYBLOCK
100
AcDbTrace
 10
-16.381741
 20
-26.416488
 30
0.0
 11
-19.192001
 21
-27.0
 31
0.0
 12
-16.381741
 22
-27.58351199999999
 32
0.0
 13
-16.381741
 23
-27.58351199999999
 33
0.0
  0
LINE
  5
15A
330
EA
100
AcDbEntity
  8
MO_001_VIEW_PV
  6
BYBLOCK
100
AcDbLine
 10
-24.299999
 20
-49.0
 30
0.0
 11
-24.299999
 21
-24.714001
 31
0.0
  0
LINE
  5
15B
330
EA
100
AcDbEntity
  8
MO_001_VIEW_PV
  6
BYBLOCK
100
AcDbLine
 10
-19.700001
 20
-46.5
 30
0.0
 11
-19.700001
 21
-24.714001
 31
0.0
  0
TEXT
  5
15C
330
EA
100
AcDbEntity
  8
MO_001_VIEW_PV
  6
BYBLOCK
100
AcDbText
 10
-41.822596
 20
-26.25
 30
0.0
 40
3.0
  1
(4.3)
100
AcDbText
  0
LINE
  5
15D
330
EA
100
AcDbEntity
  8
MO_001_VIEW_PV
  6
BYBLOCK
100
AcDbLine
 10
-42.78687999999999
 20
-27.0
 30
0.0
 11
-24.299999
 21
-27.0
 31
0.0
  0
ENDBLK
  5
15E
330
EA
100
AcDbEntity
  8
0
100
AcDbBlockEnd
  0
BLOCK
  5
15F
330
EC
100
AcDbEntity
  8
0
100
AcDbBlockBegin
  2
*D9
 70
     1
 10
0.0
 20
0.0
 30
0.0
  3
*D9
  1

  0
LINE
  5
160
330
EC
100
AcDbEntity
  8
MO_001_VIEW_PV
  6
BYBLOCK
100
AcDbLine
 10
-19.700001
 20
-27.0
 30
0.0
 11
0.0
 21
-27.0
 31
0.0
  0
SOLID
  5
161
330
EC
100
AcDbEntity
  8
MO_001_VIEW_PV
  6
BYBLOCK
100
AcDbTrace
 10
-16.381741
 20
-26.416488
 30
0.0
 11
-19.192001
 21
-27.0
 31
0.0
 12
-16.381741
 22
-27.58351199999999
 32
0.0
 13
-16.381741
 23
-27.58351199999999
 33
0.0
  0
SOLID
  5
162
330
EC
100
AcDbEntity
  8
MO_001_VIEW_PV
  6
BYBLOCK
100
AcDbTrace
 10
-3.318259999999999
 20
-27.58351199999999
 30
0.0
 11
-0.508
 21
-27.0
 31
0.0
 12
-3.318259999999999
 22
-26.416488
 32
0.0
 13
-3.318259999999999
 23
-26.416488
 33
0.0
  0
LINE
  5
163
330
EC
100
AcDbEntity
  8
MO_001_VIEW_PV
  6
BYBLOCK
100
AcDbLine
 10
-19.700001
 20
-46.5
 30
0.0
 11
-19.700001
 21
-24.714001
 31
0.0
  0
LINE
  5
164
330
EC
100
AcDbEntity
  8
MO_001_VIEW_PV
  6
BYBLOCK
100
AcDbLine
 10
0.0
 20
-46.5
 30
0.0
 11
0.0
 21
-24.714001
 31
0.0
  0
TEXT
  5
165
330
EC
100
AcDbEntity
  8
MO_001_VIEW_PV
  6
BYBLOCK
100
AcDbText
 10
12.991599
 20
-24.375
 30
0.0
 40
1.5
  1
%%P0.3
100
AcDbText
  0
TEXT
  5
166
330
EC
100
AcDbEntity
  8
MO_001_VIEW_PV
  6
BYBLOCK
100
AcDbText
 10
1.205885
 20
-26.25
 30
0.0
 40
3.0
  1
19.7
100
AcDbText
  0
LINE
  5
167
330
EC
100
AcDbEntity
  8
MO_001_VIEW_PV
  6
BYBLOCK
100
AcDbLine
 10
0.0
 20
-27.0
 30
0.0
 11
19.313028
 21
-27.0
 31
0.0
  0
ENDBLK
  5
168
330
EC
100
AcDbEntity
  8
0
100
AcDbBlockEnd
  0
BLOCK
  5
169
330
EE
100
AcDbEntity
  8
0
100
AcDbBlockBegin
  2
*D10
 70
     1
 10
0.0
 20
0.0
 30
0.0
  3
*D10
  1

  0
LINE
  5
16A
330
EE
100
AcDbEntity
  8
MO_001_VIEW_PV
  6
BYBLOCK
100
AcDbLine
 10
-39.0
 20
-51.800003
 30
0.0
 11
-39.0
 21
-50.19999699999999
 31
0.0
  0
LINE
  5
16B
330
EE
100
AcDbEntity
  8
MO_001_VIEW_PV
  6
BYBLOCK
100
AcDbLine
 10
-39.0
 20
-51.800003
 30
0.0
 11
-39.0
 21
-58.15000300000001
 31
0.0
  0
LINE
  5
16C
330
EE
100
AcDbEntity
  8
MO_001_VIEW_PV
  6
BYBLOCK
100
AcDbLine
 10
-39.0
 20
-50.19999699999999
 30
0.0
 11
-39.0
 21
-43.84999699999999
 31
0.0
  0
SOLID
  5
16D
330
EE
100
AcDbEntity
  8
MO_001_VIEW_PV
  6
BYBLOCK
100
AcDbTrace
 10
-38.416488
 20
-55.118263
 30
0.0
 11
-39.0
 21
-52.308003
 31
0.0
 12
-39.583512
 22
-55.118263
 32
0.0
 13
-39.583512
 23
-55.118263
 33
0.0
  0
SOLID
  5
16E
330
EE
100
AcDbEntity
  8
MO_001_VIEW_PV
  6
BYBLOCK
100
AcDbTrace
 10
-39.583512
 20
-46.881737
 30
0.0
 11
-39.0
 21
-49.691997
 31
0.0
 12
-38.416488
 22
-46.881737
 32
0.0
 13
-38.416488
 23
-46.881737
 33
0.0
  0
LINE
  5
16F
330
EE
100
AcDbEntity
  8
MO_001_VIEW_PV
  6
BYBLOCK
100
AcDbLine
 10
-23.299999
 20
-51.800003
 30
0.0
 11
-41.285999
 21
-51.800003
 31
0.0
  0
LINE
  5
170
330
EE
100
AcDbEntity
  8
MO_001_VIEW_PV
  6
BYBLOCK
100
AcDbLine
 10
-23.299999
 20
-50.19999699999999
 30
0.0
 11
-41.285999
 21
-50.19999699999999
 31
0.0
  0
TEXT
  5
171
330
EE
100
AcDbEntity
  8
MO_001_VIEW_PV
  6
BYBLOCK
100
AcDbText
 10
-41.625
 20
-34.63753599999999
 30
0.0
 40
1.5
  1
%%P0.2
 50
90.0
100
AcDbText
  0
TEXT
  5
172
330
EE
100
AcDbEntity
  8
MO_001_VIEW_PV
  6
BYBLOCK
100
AcDbText
 10
-39.75
 20
-46.42325099999999
 30
0.0
 40
3.0
  1
%%C1.6
 50
90.0
100
AcDbText
  0
LINE
  5
173
330
EE
100
AcDbEntity
  8
MO_001_VIEW_PV
  6
BYBLOCK
100
AcDbLine
 10
-39.0
 20
-50.19999699999999
 30
0.0
 11
-39.0
 21
-28.316107
 31
0.0
  0
ENDBLK
  5
174
330
EE
100
AcDbEntity
  8
0
100
AcDbBlockEnd
  0
BLOCK
  5
175
330
F0
100
AcDbEntity
  8
0
100
AcDbBlockBegin
  2
*D11
 70
     1
 10
0.0
 20
0.0
 30
0.0
  3
*D11
  1

  0
LINE
  5
176
330
F0
100
AcDbEntity
  8
MO_001_VIEW_PV
  6
BYBLOCK
100
AcDbLine
 10
-59.5
 20
-12.0
 30
0.0
 11
-48.5
 21
-12.0
 31
0.0
  0
LINE
  5
177
330
F0
100
AcDbEntity
  8
MO_001_VIEW_PV
  6
BYBLOCK
100
AcDbLine
 10
-59.5
 20
-12.0
 30
0.0
 11
-65.84999999999999
 21
-12.0
 31
0.0
  0
LINE
  5
178
330
F0
100
AcDbEntity
  8
MO_001_VIEW_PV
  6
BYBLOCK
100
AcDbLine
 10
-48.5
 20
-12.0
 30
0.0
 11
-42.14999999999999
 21
-12.0
 31
0.0
  0
SOLID
  5
179
330
F0
100
AcDbEntity
  8
MO_001_VIEW_PV
  6
BYBLOCK
100
AcDbTrace
 10
-62.81825999999999
 20
-12.58351199999999
 30
0.0
 11
-60.008
 21
-12.0
 31
0.0
 12
-62.81825999999999
 22
-11.416488
 32
0.0
 13
-62.81825999999999
 23
-11.416488
 33
0.0
  0
SOLID
  5
17A
330
F0
100
AcDbEntity
  8
MO_001_VIEW_PV
  6
BYBLOCK
100
AcDbTrace
 10
-45.18174000000001
 20
-11.416488
 30
0.0
 11
-47.99199999999999
 21
-12.0
 31
0.0
 12
-45.18174000000001
 22
-12.58351199999999
 32
0.0
 13
-45.18174000000001
 23
-12.58351199999999
 33
0.0
  0
LINE
  5
17B
330
F0
100
AcDbEntity
  8
MO_001_VIEW_PV
  6
BYBLOCK
100
AcDbLine
 10
-59.5
 20
-3.75
 30
0.0
 11
-59.5
 21
-14.286
 31
0.0
  0
LINE
  5
17C
330
F0
100
AcDbEntity
  8
MO_001_VIEW_PV
  6
BYBLOCK
100
AcDbLine
 10
-48.5
 20
-3.75
 30
0.0
 11
-48.5
 21
-14.286
 31
0.0
  0
TEXT
  5
17D
330
F0
100
AcDbEntity
  8
MO_001_VIEW_PV
  6
BYBLOCK
100
AcDbText
 10
-39.010873
 20
-9.375
 30
0.0
 40
1.5
  1
%%P0.3
100
AcDbText
  0
TEXT
  5
17E
330
F0
100
AcDbEntity
  8
MO_001_VIEW_PV
  6
BYBLOCK
100
AcDbText
 10
-44.796587
 20
-11.25
 30
0.0
 40
3.0
  1
11
100
AcDbText
  0
LINE
  5
17F
330
F0
100
AcDbEntity
  8
MO_001_VIEW_PV
  6
BYBLOCK
100
AcDbLine
 10
-48.5
 20
-12.0
 30
0.0
 11
-32.68944499999999
 21
-12.0
 31
0.0
  0
ENDBLK
  5
180
330
F0
100
AcDbEntity
  8
0
100
AcDbBlockEnd
  0
BLOCK
  5
181
330
F2
100
AcDbEntity
  8
0
100
AcDbBlockBegin
  2
*D12
 70
     1
 10
0.0
 20
0.0
 30
0.0
  3
*D12
  1

  0
LINE
  5
182
330
F2
100
AcDbEntity
  8
MO_001_VIEW_PV
  6
BYBLOCK
100
AcDbLine
 10
-65.0
 20
-3.75
 30
0.0
 11
-65.0
 21
3.75
 31
0.0
  0
LINE
  5
183
330
F2
100
AcDbEntity
  8
MO_001_VIEW_PV
  6
BYBLOCK
100
AcDbLine
 10
-65.0
 20
-3.75
 30
0.0
 11
-65.0
 21
-10.1
 31
0.0
  0
LINE
  5
184
330
F2
100
AcDbEntity
  8
MO_001_VIEW_PV
  6
BYBLOCK
100
AcDbLine
 10
-65.0
 20
3.75
 30
0.0
 11
-65.0
 21
10.1
 31
0.0
  0
SOLID
  5
185
330
F2
100
AcDbEntity
  8
MO_001_VIEW_PV
  6
BYBLOCK
100
AcDbTrace
 10
-64.416488
 20
-7.06826
 30
0.0
 11
-65.0
 21
-4.258
 31
0.0
 12
-65.583512
 22
-7.06826
 32
0.0
 13
-65.583512
 23
-7.06826
 33
0.0
  0
SOLID
  5
186
330
F2
100
AcDbEntity
  8
MO_001_VIEW_PV
  6
BYBLOCK
100
AcDbTrace
 10
-65.583512
 20
7.06826
 30
0.0
 11
-65.0
 21
4.258
 31
0.0
 12
-64.416488
 22
7.06826
 32
0.0
 13
-64.416488
 23
7.06826
 33
0.0
  0
LINE
  5
187
330
F2
100
AcDbEntity
  8
MO_001_VIEW_PV
  6
BYBLOCK
100
AcDbLine
 10
-59.5
 20
-3.75
 30
0.0
 11
-67.286003
 21
-3.75
 31
0.0
  0
LINE
  5
188
330
F2
100
AcDbEntity
  8
MO_001_VIEW_PV
  6
BYBLOCK
100
AcDbLine
 10
-59.5
 20
3.75
 30
0.0
 11
-67.286003
 21
3.75
 31
0.0
  0
TEXT
  5
189
330
F2
100
AcDbEntity
  8
MO_001_VIEW_PV
  6
BYBLOCK
100
AcDbText
 10
-67.625
 20
16.66832399999999
 30
0.0
 40
1.5
  1
%%P0.3
 50
90.0
100
AcDbText
  0
TEXT
  5
18A
330
F2
100
AcDbEntity
  8
MO_001_VIEW_PV
  6
BYBLOCK
100
AcDbText
 10
-65.75
 20
7.88261
 30
0.0
 40
3.0
  1
7.5
 50
90.0
100
AcDbText
  0
LINE
  5
18B
330
F2
100
AcDbEntity
  8
MO_001_VIEW_PV
  6
BYBLOCK
100
AcDbLine
 10
-65.0
 20
3.75
 30
0.0
 11
-65.0
 21
22.989752
 31
0.0
  0
ENDBLK
  5
18C
330
F2
100
AcDbEntity
  8
0
100
AcDbBlockEnd
  0
BLOCK
  5
18D
330
F4
100
AcDbEntity
  8
0
100
AcDbBlockBegin
  2
*D13
 70
     1
 10
0.0
 20
0.0
 30
0.0
  3
*D13
  1

  0
TEXT
  5
18E
330
F4
100
AcDbEntity
  8
MO_001_VIEW_PV
  6
BYBLOCK
100
AcDbText
 10
5.088568
 20
-11.25
 30
0.0
 40
3.0
  1
(0.7)
100
AcDbText
  0
LINE
  5
18F
330
F4
100
AcDbEntity
  8
MO_001_VIEW_PV
  6
BYBLOCK
100
AcDbLine
 10
0.7
 20
-12.0
 30
0.0
 11
0.0
 21
-12.0
 31
0.0
  0
LINE
  5
190
330
F4
100
AcDbEntity
  8
MO_001_VIEW_PV
  6
BYBLOCK
100
AcDbLine
 10
0.7
 20
-12.0
 30
0.0
 11
7.049999999999999
 21
-12.0
 31
0.0
  0
LINE
  5
191
330
F4
100
AcDbEntity
  8
MO_001_VIEW_PV
  6
BYBLOCK
100
AcDbLine
 10
0.0
 20
-12.0
 30
0.0
 11
-6.349999999999999
 21
-12.0
 31
0.0
  0
SOLID
  5
192
330
F4
100
AcDbEntity
  8
MO_001_VIEW_PV
  6
BYBLOCK
100
AcDbTrace
 10
4.018259999999999
 20
-11.416488
 30
0.0
 11
1.207999999999999
 21
-12.0
 31
0.0
 12
4.018259999999999
 22
-12.58351199999999
 32
0.0
 13
4.018259999999999
 23
-12.58351199999999
 33
0.0
  0
SOLID
  5
193
330
F4
100
AcDbEntity
  8
MO_001_VIEW_PV
  6
BYBLOCK
100
AcDbTrace
 10
-3.318259999999999
 20
-12.58351199999999
 30
0.0
 11
-0.508
 21
-12.0
 31
0.0
 12
-3.318259999999999
 22
-11.416488
 32
0.0
 13
-3.318259999999999
 23
-11.416488
 33
0.0
  0
LINE
  5
194
330
F4
100
AcDbEntity
  8
MO_001_VIEW_PV
  6
BYBLOCK
100
AcDbLine
 10
0.7
 20
-1.25
 30
0.0
 11
0.7
 21
-14.286
 31
0.0
  0
LINE
  5
195
330
F4
100
AcDbEntity
  8
MO_001_VIEW_PV
  6
BYBLOCK
100
AcDbLine
 10
0.0
 20
-3.75
 30
0.0
 11
0.0
 21
-14.286
 31
0.0
  0
LINE
  5
196
330
F4
100
AcDbEntity
  8
MO_001_VIEW_PV
  6
BYBLOCK
100
AcDbLine
 10
20.19571099999999
 20
-12.0
 30
0.0
 11
0.7
 21
-12.0
 31
0.0
  0
ENDBLK
  5
197
330
F4
100
AcDbEntity
  8
0
100
AcDbBlockEnd
  0
BLOCK
  5
198
330
F6
100
AcDbEntity
  8
0
100
AcDbBlockBegin
  2
*D14
 70
     1
 10
0.0
 20
0.0
 30
0.0
  3
*D14
  1

  0
TEXT
  5
199
330
F6
100
AcDbEntity
  8
MO_001_VIEW_PV
  6
BYBLOCK
100
AcDbText
 10
29.375
 20
-10.04882199999999
 30
0.0
 40
1.5
  1
%%P0.2
 50
90.0
100
AcDbText
  0
TEXT
  5
19A
330
F6
100
AcDbEntity
  8
MO_001_VIEW_PV
  6
BYBLOCK
100
AcDbText
 10
31.25
 20
-18.834536
 30
0.0
 40
3.0
  1
3.5
 50
90.0
100
AcDbText
  0
LINE
  5
19B
330
F6
100
AcDbEntity
  8
MO_001_VIEW_PV
  6
BYBLOCK
100
AcDbLine
 10
32.0
 20
-1.75
 30
0.0
 11
32.0
 21
1.75
 31
0.0
  0
LINE
  5
19C
330
F6
100
AcDbEntity
  8
MO_001_VIEW_PV
  6
BYBLOCK
100
AcDbLine
 10
32.0
 20
-1.75
 30
0.0
 11
32.0
 21
-8.099999999999999
 31
0.0
  0
LINE
  5
19D
330
F6
100
AcDbEntity
  8
MO_001_VIEW_PV
  6
BYBLOCK
100
AcDbLine
 10
32.0
 20
1.75
 30
0.0
 11
32.0
 21
8.099999999999999
 31
0.0
  0
SOLID
  5
19E
330
F6
100
AcDbEntity
  8
MO_001_VIEW_PV
  6
BYBLOCK
100
AcDbTrace
 10
32.58351199999999
 20
-5.068259999999999
 30
0.0
 11
32.0
 21
-2.258
 31
0.0
 12
31.416488
 22
-5.068259999999999
 32
0.0
 13
31.416488
 23
-5.068259999999999
 33
0.0
  0
SOLID
  5
19F
330
F6
100
AcDbEntity
  8
MO_001_VIEW_PV
  6
BYBLOCK
100
AcDbTrace
 10
31.416488
 20
5.068259999999999
 30
0.0
 11
32.0
 21
2.258
 31
0.0
 12
32.58351199999999
 22
5.068259999999999
 32
0.0
 13
32.58351199999999
 23
5.068259999999999
 33
0.0
  0
LINE
  5
1A0
330
F6
100
AcDbEntity
  8
MO_001_VIEW_PV
  6
BYBLOCK
100
AcDbLine
 10
-8.5
 20
-1.75
 30
0.0
 11
34.285999
 21
-1.75
 31
0.0
  0
LINE
  5
1A1
330
F6
100
AcDbEntity
  8
MO_001_VIEW_PV
  6
BYBLOCK
100
AcDbLine
 10
-1.5
 20
1.75
 30
0.0
 11
34.285999
 21
1.75
 31
0.0
  0
LINE
  5
1A2
330
F6
100
AcDbEntity
  8
MO_001_VIEW_PV
  6
BYBLOCK
100
AcDbLine
 10
32.0
 20
-19.798822
 30
0.0
 11
32.0
 21
-1.75
 31
0.0
  0
ENDBLK
  5
1A3
330
F6
100
AcDbEntity
  8
0
100
AcDbBlockEnd
  0
BLOCK
  5
1A4
330
F8
100
AcDbEntity
  8
0
100
AcDbBlockBegin
  2
*D15
 70
     1
 10
0.0
 20
0.0
 30
0.0
  3
*D15
  1

  0
TEXT
  5
1A5
330
F8
100
AcDbEntity
  8
MO_001_VIEW_PV
  6
BYBLOCK
100
AcDbText
 10
-29.950914
 20
-15.375
 30
0.0
 40
1.5
  1
%%P0.5
100
AcDbText
  0
TEXT
  5
1A6
330
F8
100
AcDbEntity
  8
MO_001_VIEW_PV
  6
BYBLOCK
100
AcDbText
 10
-41.736628
 20
-17.25
 30
0.0
 40
3.0
  1
  12
100
AcDbText
  0
LINE
  5
1A7
330
F8
100
AcDbEntity
  8
MO_001_VIEW_PV
  6
BYBLOCK
100
AcDbLine
 10
-11.0
 20
-18.0
 30
0.0
 11
-23.299999
 21
-18.0
 31
0.0
  0
SOLID
  5
1A8
330
F8
100
AcDbEntity
  8
MO_001_VIEW_PV
  6
BYBLOCK
100
AcDbTrace
 10
-14.31826
 20
-18.58351199999999
 30
0.0
 11
-11.508
 21
-18.0
 31
0.0
 12
-14.31826
 22
-17.416488
 32
0.0
 13
-14.31826
 23
-17.416488
 33
0.0
  0
SOLID
  5
1A9
330
F8
100
AcDbEntity
  8
MO_001_VIEW_PV
  6
BYBLOCK
100
AcDbTrace
 10
-19.981739
 20
-17.416488
 30
0.0
 11
-22.791999
 21
-18.0
 31
0.0
 12
-19.981739
 22
-18.58351199999999
 32
0.0
 13
-19.981739
 23
-18.58351199999999
 33
0.0
  0
LINE
  5
1AA
330
F8
100
AcDbEntity
  8
MO_001_VIEW_PV
  6
BYBLOCK
100
AcDbLine
 10
-11.0
 20
-4.25
 30
0.0
 11
-11.0
 21
-20.285999
 31
0.0
  0
LINE
  5
1AB
330
F8
100
AcDbEntity
  8
MO_001_VIEW_PV
  6
BYBLOCK
100
AcDbLine
 10
-23.299999
 20
-2.0
 30
0.0
 11
-23.299999
 21
-20.285999
 31
0.0
  0
LINE
  5
1AC
330
F8
100
AcDbEntity
  8
MO_001_VIEW_PV
  6
BYBLOCK
100
AcDbLine
 10
-23.299999
 20
-18.0
 30
0.0
 11
-42.700912
 21
-18.0
 31
0.0
  0
ENDBLK
  5
1AD
330
F8
100
AcDbEntity
  8
0
100
AcDbBlockEnd
  0
ENDSEC
  0
SECTION
  2
ENTITIES
  0
TEXT
  5
4B
330
1E
100
AcDbEntity
  8
OVERLAY_MAP
  6
C_SOLID_L
100
AcDbText
 10
0.0
 20
6.349999999999999
 30
0.0
 40
4.1672
  1
Model Overlay Name
100
AcDbText
  0
TEXT
  5
4C
330
1E
100
AcDbEntity
  8
OVERLAY_MAP
  6
C_SOLID_L
100
AcDbText
 10
126.999998
 20
0.0
 30
0.0
 40
4.1672
  1
Number
100
AcDbText
  0
TEXT
  5
4D
330
1E
100
AcDbEntity
  8
OVERLAY_MAP
  6
C_SOLID_L
100
AcDbText
 10
177.7999969999999
 20
0.0
 30
0.0
 40
4.1672
  1
File Text
100
AcDbText
  0
TEXT
  5
4E
330
1E
100
AcDbEntity
  8
OVERLAY_MAP
  6
C_SOLID_L
100
AcDbText
 10
0.0
 20
-6.349999999999999
 30
0.0
 40
4.1672
  1
op sk0420f 
100
AcDbText
  0
TEXT
  5
4F
330
1E
100
AcDbEntity
  8
OVERLAY_MAP
  6
C_SOLID_L
100
AcDbText
 10
126.999998
 20
-6.349999999999999
 30
0.0
 40
4.1672
  1
001
100
AcDbText
  0
TEXT
  5
50
330
1E
100
AcDbEntity
  8
OVERLAY_MAP
  6
C_SOLID_L
100
AcDbText
 10
177.7999969999999
 20
-6.349999999999999
 30
0.0
 40
4.1672
  1
                                                         90024 103800139
100
AcDbText
  0
LINE
  5
51
330
1E
100
AcDbEntity
  8
MO_001_VIEW_PV
  6
C_CENTER_L
100
AcDbLine
 10
-54.0
 20
-5.604930999999999
 30
0.0
 11
-54.0
 21
6.642288
 31
0.0
  0
LINE
  5
52
330
1E
100
AcDbEntity
  8
MO_001_VIEW_PV
  6
C_CENTER_L
100
AcDbLine
 10
-61.42208899999999
 20
0.0
 30
0.0
 11
-46.94810499999999
 21
0.0
 31
0.0
  0
LINE
  5
53
330
1E
100
AcDbEntity
  8
MO_001_VIEW_PV
  6
C_SOLID_M
100
AcDbLine
 10
-1.0
 20
-45.49999999999999
 30
0.0
 11
-1.0
 21
-56.5
 31
0.0
  0
LINE
  5
54
330
1E
100
AcDbEntity
  8
MO_001_VIEW_PV
  6
C_SOLID_M
100
AcDbLine
 10
-20.0
 20
-46.5
 30
0.0
 11
-1.0
 21
-46.5
 31
0.0
  0
LINE
  5
55
330
1E
100
AcDbEntity
  8
MO_001_VIEW_PV
  6
C_SOLID_M
100
AcDbLine
 10
-20.0
 20
-55.5
 30
0.0
 11
-1.0
 21
-55.5
 31
0.0
  0
LINE
  5
56
330
1E
100
AcDbEntity
  8
MO_001_VIEW_PV
  6
C_SOLID_M
100
AcDbLine
 10
-20.0
 20
-55.5
 30
0.0
 11
-20.0
 21
-56.5
 31
0.0
  0
LINE
  5
57
330
1E
100
AcDbEntity
  8
MO_001_VIEW_PV
  6
C_SOLID_M
100
AcDbLine
 10
-20.0
 20
-45.49999999999999
 30
0.0
 11
-1.0
 21
-45.49999999999999
 31
0.0
  0
LINE
  5
58
330
1E
100
AcDbEntity
  8
MO_001_VIEW_PV
  6
C_SOLID_M
100
AcDbLine
 10
0.0
 20
-46.5
 30
0.0
 11
0.0
 21
-55.5
 31
0.0
  0
LINE
  5
59
330
1E
100
AcDbEntity
  8
MO_001_VIEW_PV
  6
C_SOLID_M
100
AcDbLine
 10
-20.0
 20
-56.5
 30
0.0
 11
-1.0
 21
-56.5
 31
0.0
  0
ARC
  5
5A
330
1E
100
AcDbEntity
  8
MO_001_VIEW_PV
  6
C_SOLID_M
100
AcDbCircle
 10
-1.0
 20
-46.5
 30
0.0
 40
1.0
100
AcDbArc
 50
0.0
 51
89.99998900000001
  0
ARC
  5
5B
330
1E
100
AcDbEntity
  8
MO_001_VIEW_PV
  6
C_SOLID_M
100
AcDbCircle
 10
-1.0
 20
-55.5
 30
0.0
 40
1.0
100
AcDbArc
 50
269.999998
 51
0.0
  0
LINE
  5
5C
330
1E
100
AcDbEntity
  8
MO_001_VIEW_PV
  6
C_SOLID_M
100
AcDbLine
 10
-20.0
 20
-45.49999999999999
 30
0.0
 11
-20.0
 21
-46.5
 31
0.0
  0
LINE
  5
5D
330
1E
100
AcDbEntity
  8
MO_001_VIEW_PV
  6
C_SOLID_M
100
AcDbLine
 10
-59.5
 20
-3.75
 30
0.0
 11
-59.5
 21
3.75
 31
0.0
  0
LINE
  5
5E
330
1E
100
AcDbEntity
  8
MO_001_VIEW_PV
  6
C_SOLID_M
100
AcDbLine
 10
-48.5
 20
-3.75
 30
0.0
 11
-48.5
 21
3.75
 31
0.0
  0
LINE
  5
5F
330
1E
100
AcDbEntity
  8
MO_001_VIEW_PV
  6
C_SOLID_M
100
AcDbLine
 10
-59.5
 20
3.75
 30
0.0
 11
-48.5
 21
3.75
 31
0.0
  0
LINE
  5
60
330
1E
100
AcDbEntity
  8
MO_001_VIEW_PV
  6
C_SOLID_M
100
AcDbLine
 10
-59.5
 20
-3.75
 30
0.0
 11
-48.5
 21
-3.75
 31
0.0
  0
LINE
  5
61
330
1E
100
AcDbEntity
  8
MO_001_VIEW_PV
  6
C_CENTER_L
100
AcDbLine
 10
-24.902163
 20
0.0
 30
0.0
 11
2.827255
 21
0.0
 31
0.0
  0
LINE
  5
62
330
1E
100
AcDbEntity
  8
MO_001_VIEW_PV
  6
C_SOLID_M
100
AcDbLine
 10
-20.0
 20
3.75
 30
0.0
 11
0.0
 21
3.75
 31
0.0
  0
LINE
  5
63
330
1E
100
AcDbEntity
  8
MO_001_VIEW_PV
  6
C_SOLID_M
100
AcDbLine
 10
-20.0
 20
-3.75
 30
0.0
 11
0.0
 21
-3.75
 31
0.0
  0
LINE
  5
64
330
1E
100
AcDbEntity
  8
MO_001_VIEW_PV
  6
C_SOLID_M
100
AcDbLine
 10
-1.0
 20
-3.549998999999999
 30
0.0
 11
-1.0
 21
-3.75
 31
0.0
  0
LINE
  5
65
330
1E
100
AcDbEntity
  8
MO_001_VIEW_PV
  6
C_SOLID_M
100
AcDbLine
 10
-18.5
 20
1.5
 30
0.0
 11
-18.5
 21
-1.499997999999999
 31
0.0
  0
LINE
  5
66
330
1E
100
AcDbEntity
  8
MO_001_VIEW_PV
  6
C_SOLID_M
100
AcDbLine
 10
0.0
 20
3.75
 30
0.0
 11
0.0
 21
-3.75
 31
0.0
  0
LINE
  5
67
330
1E
100
AcDbEntity
  8
MO_001_VIEW_PV
  6
C_SOLID_M
100
AcDbLine
 10
-1.0
 20
3.549998999999999
 30
0.0
 11
0.0
 21
3.549998999999999
 31
0.0
  0
LINE
  5
68
330
1E
100
AcDbEntity
  8
MO_001_VIEW_PV
  6
C_SOLID_M
100
AcDbLine
 10
-1.0
 20
-3.549998999999999
 30
0.0
 11
0.0
 21
-3.549998999999999
 31
0.0
  0
LINE
  5
69
330
1E
100
AcDbEntity
  8
MO_001_VIEW_PV
  6
C_SOLID_M
100
AcDbLine
 10
-1.0
 20
3.75
 30
0.0
 11
-1.0
 21
3.549998999999999
 31
0.0
  0
CIRCLE
  5
6A
330
1E
100
AcDbEntity
  8
MO_001_VIEW_PV
  6
C_SOLID_L
100
AcDbCircle
 10
-11.0
 20
-1.75
 30
0.0
 40
1.0
  0
CIRCLE
  5
6B
330
1E
100
AcDbEntity
  8
MO_001_VIEW_PV
  6
C_SOLID_L
100
AcDbCircle
 10
-4.0
 20
1.75
 30
0.0
 40
1.0
  0
CIRCLE
  5
6C
330
1E
100
AcDbEntity
  8
MO_001_VIEW_PV
  6
C_SOLID_M
100
AcDbCircle
 10
-4.0
 20
1.75
 30
0.0
 40
0.8
  0
CIRCLE
  5
6D
330
1E
100
AcDbEntity
  8
MO_001_VIEW_PV
  6
C_SOLID_M
100
AcDbCircle
 10
-11.0
 20
-1.75
 30
0.0
 40
0.8
  0
LINE
  5
6E
330
1E
100
AcDbEntity
  8
MO_001_VIEW_PV
  6
C_SOLID_M
100
AcDbLine
 10
-1.0
 20
-48.0
 30
0.0
 11
0.0
 21
-48.0
 31
0.0
  0
LINE
  5
6F
330
1E
100
AcDbEntity
  8
MO_001_VIEW_PV
  6
C_SOLID_M
100
AcDbLine
 10
-1.0
 20
-54.0
 30
0.0
 11
0.0
 21
-54.0
 31
0.0
  0
LINE
  5
70
330
1E
100
AcDbEntity
  8
MO_001_VIEW_PV
  6
C_SOLID_M
100
AcDbLine
 10
-20.0
 20
1.976796
 30
0.0
 11
-20.0
 21
1.276801
 31
0.0
  0
LINE
  5
71
330
1E
100
AcDbEntity
  8
MO_001_VIEW_PV
  6
C_CENTER_L
100
AcDbLine
 10
-13.5
 20
-1.75
 30
0.0
 11
-8.5
 21
-1.75
 31
0.0
  0
LINE
  5
72
330
1E
100
AcDbEntity
  8
MO_001_VIEW_PV
  6
C_CENTER_L
100
AcDbLine
 10
-6.5
 20
1.75
 30
0.0
 11
-1.5
 21
1.75
 31
0.0
  0
LINE
  5
73
330
1E
100
AcDbEntity
  8
MO_001_VIEW_PV
  6
C_CENTER_L
100
AcDbLine
 10
-11.0
 20
0.75
 30
0.0
 11
-11.0
 21
-4.25
 31
0.0
  0
LINE
  5
74
330
1E
100
AcDbEntity
  8
MO_001_VIEW_PV
  6
C_CENTER_L
100
AcDbLine
 10
-4.0
 20
4.25
 30
0.0
 11
-4.0
 21
-0.75
 31
0.0
  0
LINE
  5
75
330
1E
100
AcDbEntity
  8
MO_001_VIEW_PV
  6
C_SOLID_M
100
AcDbLine
 10
-18.5
 20
-46.5
 30
0.0
 11
-18.5
 21
-55.5
 31
0.0
  0
CIRCLE
  5
76
330
1E
100
AcDbEntity
  8
MO_001_VIEW_PV
  6
C_SOLID_M
100
AcDbCircle
 10
-54.0
 20
0.0
 30
0.0
 40
2.549999999999999
  0
LINE
  5
77
330
1E
100
AcDbEntity
  8
MO_001_VIEW_PV
  6
C_SOLID_M
100
AcDbLine
 10
-19.552641
 20
1.535083
 30
0.0
 11
-18.500001
 21
1.499999
 31
0.0
  0
LINE
  5
78
330
1E
100
AcDbEntity
  8
MO_001_VIEW_PV
  6
C_SOLID_M
100
AcDbLine
 10
-18.5
 20
-1.5
 30
0.0
 11
-19.552633
 21
-1.535087
 31
0.0
  0
LINE
  5
79
330
1E
100
AcDbEntity
  8
MO_001_VIEW_PV
  6
C_SOLID_M
100
AcDbLine
 10
-49.5
 20
3.75
 30
0.0
 11
-49.5
 21
1.276801
 31
0.0
  0
LINE
  5
7A
330
1E
100
AcDbEntity
  8
MO_001_VIEW_PV
  6
C_CENTER_L
100
AcDbLine
 10
2.397133
 20
-51.0
 30
0.0
 11
-25.627243
 21
-51.0
 31
0.0
  0
LINE
  5
7B
330
1E
100
AcDbEntity
  8
MO_001_VIEW_PV
  6
C_SOLID_M
100
AcDbLine
 10
-19.700001
 20
-53.0
 30
0.0
 11
-22.60000199999999
 21
-53.0
 31
0.0
  0
LINE
  5
7C
330
1E
100
AcDbEntity
  8
MO_001_VIEW_PV
  6
C_SOLID_M
100
AcDbLine
 10
-19.700001
 20
-49.0
 30
0.0
 11
-22.60000199999999
 21
-49.0
 31
0.0
  0
LINE
  5
7D
330
1E
100
AcDbEntity
  8
MO_001_VIEW_PV
  6
C_SOLID_M
100
AcDbLine
 10
-23.299999
 20
-53.0
 30
0.0
 11
-23.299999
 21
-49.0
 31
0.0
  0
LINE
  5
7E
330
1E
100
AcDbEntity
  8
MO_001_VIEW_PV
  6
C_SOLID_M
100
AcDbLine
 10
-24.299999
 20
-53.0
 30
0.0
 11
-24.299999
 21
-49.0
 31
0.0
  0
LINE
  5
7F
330
1E
100
AcDbEntity
  8
MO_001_VIEW_PV
  6
C_SOLID_M
100
AcDbLine
 10
-22.60000199999999
 20
-53.0
 30
0.0
 11
-22.60000199999999
 21
-49.0
 31
0.0
  0
LINE
  5
80
330
1E
100
AcDbEntity
  8
MO_001_VIEW_PV
  6
C_SOLID_M
100
AcDbLine
 10
-23.299999
 20
-49.0
 30
0.0
 11
-24.299999
 21
-49.0
 31
0.0
  0
LINE
  5
81
330
1E
100
AcDbEntity
  8
MO_001_VIEW_PV
  6
C_SOLID_M
100
AcDbLine
 10
-23.299999
 20
-53.0
 30
0.0
 11
-24.299999
 21
-53.0
 31
0.0
  0
LINE
  5
82
330
1E
100
AcDbEntity
  8
MO_001_VIEW_PV
  6
C_SOLID_M
100
AcDbLine
 10
-22.60000199999999
 20
-51.800003
 30
0.0
 11
-23.299999
 21
-51.800003
 31
0.0
  0
LINE
  5
83
330
1E
100
AcDbEntity
  8
MO_001_VIEW_PV
  6
C_SOLID_M
100
AcDbLine
 10
-22.60000199999999
 20
-50.19999699999999
 30
0.0
 11
-23.299999
 21
-50.19999699999999
 31
0.0
  0
LINE
  5
84
330
1E
100
AcDbEntity
  8
MO_001_VIEW_PV
  6
C_SOLID_M
100
AcDbLine
 10
-19.700001
 20
-46.5
 30
0.0
 11
-19.700001
 21
-55.5
 31
0.0
  0
LINE
  5
85
330
1E
100
AcDbEntity
  8
MO_001_VIEW_PV
  6
C_SOLID_M
100
AcDbLine
 10
-19.700001
 20
1.450004999999999
 30
0.0
 11
-19.700001
 21
-1.450001
 31
0.0
  0
LINE
  5
86
330
1E
100
AcDbEntity
  8
MO_001_VIEW_PV
  6
C_SOLID_M
100
AcDbLine
 10
-19.700001
 20
1.450004999999999
 30
0.0
 11
-18.5
 21
1.450004999999999
 31
0.0
  0
LINE
  5
87
330
1E
100
AcDbEntity
  8
MO_001_VIEW_PV
  6
C_SOLID_M
100
AcDbLine
 10
-19.700001
 20
-1.450001
 30
0.0
 11
-18.5
 21
-1.450001
 31
0.0
  0
LINE
  5
88
330
1E
100
AcDbEntity
  8
MO_001_VIEW_PV
  6
C_SOLID_M
100
AcDbLine
 10
-1.0
 20
-54.75
 30
0.0
 11
-1.0
 21
-47.25
 31
0.0
  0
LINE
  5
89
330
1E
100
AcDbEntity
  8
MO_001_VIEW_PV
  6
C_SOLID_M
100
AcDbLine
 10
-1.6
 20
-54.75
 30
0.0
 11
-1.6
 21
-47.25
 31
0.0
  0
LINE
  5
8A
330
1E
100
AcDbEntity
  8
MO_001_VIEW_PV
  6
C_SOLID_M
100
AcDbLine
 10
-1.0
 20
-54.75
 30
0.0
 11
-1.6
 21
-54.75
 31
0.0
  0
LINE
  5
8B
330
1E
100
AcDbEntity
  8
MO_001_VIEW_PV
  6
C_SOLID_M
100
AcDbLine
 10
-1.0
 20
-47.25
 30
0.0
 11
-1.6
 21
-47.25
 31
0.0
  0
LINE
  5
8C
330
1E
100
AcDbEntity
  8
MO_001_VIEW_PV
  6
C_SOLID_M
100
AcDbLine
 10
-17.79999899999999
 20
-55.5
 30
0.0
 11
-17.79999899999999
 21
-46.5
 31
0.0
  0
LINE
  5
8D
330
1E
100
AcDbEntity
  8
MO_001_VIEW_PV
  6
C_SOLID_M
100
AcDbLine
 10
-19.700001
 20
-53.550003
 30
0.0
 11
-19.700001
 21
-48.44999699999999
 31
0.0
  0
LINE
  5
8E
330
1E
100
AcDbEntity
  8
MO_001_VIEW_PV
  6
C_SOLID_M
100
AcDbLine
 10
-19.95980799999999
 20
-2.0
 30
0.0
 11
-22.60000199999999
 21
-2.0
 31
0.0
  0
LINE
  5
8F
330
1E
100
AcDbEntity
  8
MO_001_VIEW_PV
  6
C_SOLID_M
100
AcDbLine
 10
-19.95980799999999
 20
2.0
 30
0.0
 11
-22.60000199999999
 21
2.0
 31
0.0
  0
LINE
  5
90
330
1E
100
AcDbEntity
  8
MO_001_VIEW_PV
  6
C_SOLID_M
100
AcDbLine
 10
-23.299999
 20
-2.0
 30
0.0
 11
-23.299999
 21
2.0
 31
0.0
  0
LINE
  5
91
330
1E
100
AcDbEntity
  8
MO_001_VIEW_PV
  6
C_SOLID_M
100
AcDbLine
 10
-24.299999
 20
-2.0
 30
0.0
 11
-24.299999
 21
2.0
 31
0.0
  0
LINE
  5
92
330
1E
100
AcDbEntity
  8
MO_001_VIEW_PV
  6
C_SOLID_M
100
AcDbLine
 10
-22.60000199999999
 20
-2.0
 30
0.0
 11
-22.60000199999999
 21
2.0
 31
0.0
  0
LINE
  5
93
330
1E
100
AcDbEntity
  8
MO_001_VIEW_PV
  6
C_SOLID_M
100
AcDbLine
 10
-23.299999
 20
2.0
 30
0.0
 11
-24.299999
 21
2.0
 31
0.0
  0
LINE
  5
94
330
1E
100
AcDbEntity
  8
MO_001_VIEW_PV
  6
C_SOLID_M
100
AcDbLine
 10
-23.299999
 20
-2.0
 30
0.0
 11
-24.299999
 21
-2.0
 31
0.0
  0
LINE
  5
95
330
1E
100
AcDbEntity
  8
MO_001_VIEW_PV
  6
C_SOLID_M
100
AcDbLine
 10
-22.60000199999999
 20
-0.800003
 30
0.0
 11
-23.299999
 21
-0.800003
 31
0.0
  0
LINE
  5
96
330
1E
100
AcDbEntity
  8
MO_001_VIEW_PV
  6
C_SOLID_M
100
AcDbLine
 10
-22.60000199999999
 20
0.800003
 30
0.0
 11
-23.299999
 21
0.800003
 31
0.0
  0
LINE
  5
97
330
1E
100
AcDbEntity
  8
MO_001_VIEW_PV
  6
C_SOLID_M
100
AcDbLine
 10
0.7
 20
-52.25
 30
0.0
 11
0.7
 21
-49.75
 31
0.0
  0
LINE
  5
98
330
1E
100
AcDbEntity
  8
MO_001_VIEW_PV
  6
C_SOLID_M
100
AcDbLine
 10
0.7
 20
-52.25
 30
0.0
 11
0.0
 21
-52.25
 31
0.0
  0
LINE
  5
99
330
1E
100
AcDbEntity
  8
MO_001_VIEW_PV
  6
C_SOLID_M
100
AcDbLine
 10
0.7
 20
-49.75
 30
0.0
 11
0.0
 21
-49.75
 31
0.0
  0
LINE
  5
9A
330
1E
100
AcDbEntity
  8
MO_001_VIEW_PV
  6
C_SOLID_M
100
AcDbLine
 10
0.7
 20
1.25
 30
0.0
 11
0.0
 21
1.25
 31
0.0
  0
LINE
  5
9B
330
1E
100
AcDbEntity
  8
MO_001_VIEW_PV
  6
C_SOLID_M
100
AcDbLine
 10
0.7
 20
-1.25
 30
0.0
 11
0.7
 21
1.25
 31
0.0
  0
LINE
  5
9C
330
1E
100
AcDbEntity
  8
MO_001_VIEW_PV
  6
C_SOLID_M
100
AcDbLine
 10
0.7
 20
-1.25
 30
0.0
 11
0.0
 21
-1.25
 31
0.0
  0
LINE
  5
9D
330
1E
100
AcDbEntity
  8
MO_001_VIEW_PV
  6
C_SOLID_M
100
AcDbLine
 10
-1.6
 20
-47.550003
 30
0.0
 11
-17.79999899999999
 21
-47.550003
 31
0.0
  0
LINE
  5
9E
330
1E
100
AcDbEntity
  8
MO_001_VIEW_PV
  6
C_SOLID_M
100
AcDbLine
 10
-1.6
 20
-54.449997
 30
0.0
 11
-17.79999899999999
 21
-54.449997
 31
0.0
  0
CIRCLE
  5
9F
330
1E
100
AcDbEntity
  8
MO_001_VIEW_PV
  6
C_SOLID_M
100
AcDbCircle
 10
-54.0
 20
0.0
 30
0.0
 40
2.0
  0
LINE
  5
A0
330
1E
100
AcDbEntity
  8
MO_001_VIEW_PV
  6
C_SOLID_M
100
AcDbLine
 10
0.7
 20
-50.5
 30
0.0
 11
37.599998
 21
-50.5
 31
0.0
  0
LINE
  5
A1
330
1E
100
AcDbEntity
  8
MO_001_VIEW_PV
  6
C_SOLID_M
100
AcDbLine
 10
0.0
 20
-49.27999899999999
 30
0.0
 11
37.599998
 21
-49.27999899999999
 31
0.0
  0
LINE
  5
A2
330
1E
100
AcDbEntity
  8
MO_001_VIEW_PV
  6
C_SOLID_M
100
AcDbLine
 10
37.599998
 20
-49.27999899999999
 30
0.0
 11
37.599998
 21
-50.5
 31
0.0
  0
LINE
  5
A3
330
1E
100
AcDbEntity
  8
MO_001_VIEW_PV
  6
C_SOLID_M
100
AcDbLine
 10
37.599998
 20
-49.699501
 30
0.0
 11
42.599998
 21
-49.699501
 31
0.0
  0
LINE
  5
A4
330
1E
100
AcDbEntity
  8
MO_001_VIEW_PV
  6
C_SOLID_M
100
AcDbLine
 10
37.599998
 20
-50.080498
 30
0.0
 11
42.599998
 21
-50.080498
 31
0.0
  0
LINE
  5
A5
330
1E
100
AcDbEntity
  8
MO_001_VIEW_PV
  6
C_SOLID_M
100
AcDbLine
 10
42.599998
 20
-49.699501
 30
0.0
 11
42.599998
 21
-50.080498
 31
0.0
  0
LINE
  5
A6
330
1E
100
AcDbEntity
  8
MO_001_VIEW_PV
  6
C_SOLID_M
100
AcDbLine
 10
37.599998
 20
-49.27999899999999
 30
0.0
 11
37.599998
 21
-50.5
 31
0.0
  0
LINE
  5
A7
330
1E
100
AcDbEntity
  8
MO_001_VIEW_PV
  6
C_SOLID_M
100
AcDbLine
 10
0.7
 20
-51.5
 30
0.0
 11
37.599998
 21
-51.5
 31
0.0
  0
LINE
  5
A8
330
1E
100
AcDbEntity
  8
MO_001_VIEW_PV
  6
C_SOLID_M
100
AcDbLine
 10
0.0
 20
-52.720001
 30
0.0
 11
37.599998
 21
-52.720001
 31
0.0
  0
LINE
  5
A9
330
1E
100
AcDbEntity
  8
MO_001_VIEW_PV
  6
C_SOLID_M
100
AcDbLine
 10
37.599998
 20
-52.720001
 30
0.0
 11
37.599998
 21
-51.5
 31
0.0
  0
LINE
  5
AA
330
1E
100
AcDbEntity
  8
MO_001_VIEW_PV
  6
C_SOLID_M
100
AcDbLine
 10
37.599998
 20
-52.300499
 30
0.0
 11
42.599998
 21
-52.300499
 31
0.0
  0
LINE
  5
AB
330
1E
100
AcDbEntity
  8
MO_001_VIEW_PV
  6
C_SOLID_M
100
AcDbLine
 10
37.599998
 20
-51.919502
 30
0.0
 11
42.599998
 21
-51.919502
 31
0.0
  0
LINE
  5
AC
330
1E
100
AcDbEntity
  8
MO_001_VIEW_PV
  6
C_SOLID_M
100
AcDbLine
 10
42.599998
 20
-52.300499
 30
0.0
 11
42.599998
 21
-51.919502
 31
0.0
  0
LINE
  5
AD
330
1E
100
AcDbEntity
  8
MO_001_VIEW_PV
  6
C_SOLID_M
100
AcDbLine
 10
37.599998
 20
-52.720001
 30
0.0
 11
37.599998
 21
-51.5
 31
0.0
  0
LINE
  5
AE
330
1E
100
AcDbEntity
  8
MO_001_VIEW_PV
  6
C_SOLID_M
100
AcDbLine
 10
-0.733974
 20
4.250001999999999
 30
0.0
 11
37.0
 21
4.250001999999999
 31
0.0
  0
LINE
  5
AF
330
1E
100
AcDbEntity
  8
MO_001_VIEW_PV
  6
C_SOLID_M
100
AcDbLine
 10
-0.733974
 20
5.470000999999999
 30
0.0
 11
37.0
 21
5.470000999999999
 31
0.0
  0
LINE
  5
B0
330
1E
100
AcDbEntity
  8
MO_001_VIEW_PV
  6
C_SOLID_M
100
AcDbLine
 10
37.0
 20
5.470000999999999
 30
0.0
 11
37.0
 21
4.250001999999999
 31
0.0
  0
LINE
  5
B1
330
1E
100
AcDbEntity
  8
MO_001_VIEW_PV
  6
C_SOLID_M
100
AcDbLine
 10
37.0
 20
5.050502999999999
 30
0.0
 11
42.0
 21
5.050502999999999
 31
0.0
  0
LINE
  5
B2
330
1E
100
AcDbEntity
  8
MO_001_VIEW_PV
  6
C_SOLID_M
100
AcDbLine
 10
37.0
 20
4.669501999999999
 30
0.0
 11
42.0
 21
4.669501999999999
 31
0.0
  0
LINE
  5
B3
330
1E
100
AcDbEntity
  8
MO_001_VIEW_PV
  6
C_SOLID_M
100
AcDbLine
 10
42.0
 20
5.050502999999999
 30
0.0
 11
42.0
 21
4.669501999999999
 31
0.0
  0
LINE
  5
B4
330
1E
100
AcDbEntity
  8
MO_001_VIEW_PV
  6
C_SOLID_M
100
AcDbLine
 10
37.0
 20
5.470003
 30
0.0
 11
37.0
 21
4.250001999999999
 31
0.0
  0
ARC
  5
B5
330
1E
100
AcDbEntity
  8
MO_001_VIEW_PV
  6
C_SOLID_M
100
AcDbCircle
 10
-0.733974
 20
3.250001999999999
 30
0.0
 40
1.0
100
AcDbArc
 50
90.000002
 51
150.0001199999999
  0
ARC
  5
B6
330
1E
100
AcDbEntity
  8
MO_001_VIEW_PV
  6
C_SOLID_M
100
AcDbCircle
 10
-0.733974
 20
3.250001999999999
 30
0.0
 40
2.219999
100
AcDbArc
 50
90.000002
 51
166.9839179999999
  0
LINE
  5
B7
330
1E
100
AcDbEntity
  8
MO_001_VIEW_PV
  6
C_SOLID_M
100
AcDbLine
 10
-19.700001
 20
2.149999999999999
 30
0.0
 11
-20.0
 21
1.976796
 31
0.0
  0
LINE
  5
B8
330
1E
100
AcDbEntity
  8
MO_001_VIEW_PV
  6
C_SOLID_M
100
AcDbLine
 10
-19.552641
 20
1.535084
 30
0.0
 11
-20.0
 21
1.276801
 31
0.0
  0
LINE
  5
B9
330
1E
100
AcDbEntity
  8
MO_001_VIEW_PV
  6
C_SOLID_M
100
AcDbLine
 10
-20.0
 20
3.75
 30
0.0
 11
-20.0
 21
2.202897999999999
 31
0.0
  0
LINE
  5
BA
330
1E
100
AcDbEntity
  8
MO_001_VIEW_PV
  6
C_SOLID_M
100
AcDbLine
 10
-19.552641
 20
-1.535084
 30
0.0
 11
-20.0
 21
-1.276801
 31
0.0
  0
LINE
  5
BB
330
1E
100
AcDbEntity
  8
MO_001_VIEW_PV
  6
C_SOLID_M
100
AcDbLine
 10
-20.0
 20
-1.976796
 30
0.0
 11
-20.0
 21
-1.276801
 31
0.0
  0
LINE
  5
BC
330
1E
100
AcDbEntity
  8
MO_001_VIEW_PV
  6
C_SOLID_M
100
AcDbLine
 10
-19.700001
 20
-2.149999999999999
 30
0.0
 11
-20.0
 21
-1.976796
 31
0.0
  0
LINE
  5
BD
330
1E
100
AcDbEntity
  8
MO_001_VIEW_PV
  6
C_SOLID_M
100
AcDbLine
 10
-49.5
 20
1.276801
 30
0.0
 11
-48.5
 21
1.276801
 31
0.0
  0
LINE
  5
BE
330
1E
100
AcDbEntity
  8
MO_001_VIEW_PV
  6
C_SOLID_M
100
AcDbLine
 10
-49.5
 20
1.976796
 30
0.0
 11
-48.5
 21
1.976796
 31
0.0
  0
LINE
  5
BF
330
1E
100
AcDbEntity
  8
MO_001_VIEW_PV
  6
C_SOLID_M
100
AcDbLine
 10
-49.5
 20
2.149999999999999
 30
0.0
 11
-48.5
 21
2.149999999999999
 31
0.0
  0
LINE
  5
C0
330
1E
100
AcDbEntity
  8
MO_001_VIEW_PV
  6
C_SOLID_M
100
AcDbLine
 10
-19.700001
 20
2.149999999999999
 30
0.0
 11
-20.0
 21
2.202897999999999
 31
0.0
  0
LINE
  5
C1
330
1E
100
AcDbEntity
  8
MO_001_VIEW_PV
  6
C_SOLID_M
100
AcDbLine
 10
-49.5
 20
2.202897999999999
 30
0.0
 11
-48.5
 21
2.202897999999999
 31
0.0
  0
LINE
  5
C2
330
1E
100
AcDbEntity
  8
MO_001_VIEW_PV
  6
C_SOLID_M
100
AcDbLine
 10
-58.5
 20
3.75
 30
0.0
 11
-58.5
 21
1.276801
 31
0.0
  0
LINE
  5
C3
330
1E
100
AcDbEntity
  8
MO_001_VIEW_PV
  6
C_SOLID_M
100
AcDbLine
 10
-58.5
 20
1.276801
 30
0.0
 11
-59.5
 21
1.276801
 31
0.0
  0
LINE
  5
C4
330
1E
100
AcDbEntity
  8
MO_001_VIEW_PV
  6
C_SOLID_M
100
AcDbLine
 10
-58.5
 20
1.976796
 30
0.0
 11
-59.5
 21
1.976796
 31
0.0
  0
LINE
  5
C5
330
1E
100
AcDbEntity
  8
MO_001_VIEW_PV
  6
C_SOLID_M
100
AcDbLine
 10
-58.5
 20
2.149999999999999
 30
0.0
 11
-59.5
 21
2.149999999999999
 31
0.0
  0
LINE
  5
C6
330
1E
100
AcDbEntity
  8
MO_001_VIEW_PV
  6
C_SOLID_M
100
AcDbLine
 10
-58.5
 20
2.202897999999999
 30
0.0
 11
-59.5
 21
2.202897999999999
 31
0.0
  0
LINE
  5
C7
330
1E
100
AcDbEntity
  8
MO_001_VIEW_PV
  6
C_SOLID_M
100
AcDbLine
 10
-49.5
 20
-3.75
 30
0.0
 11
-49.5
 21
-1.276801
 31
0.0
  0
LINE
  5
C8
330
1E
100
AcDbEntity
  8
MO_001_VIEW_PV
  6
C_SOLID_M
100
AcDbLine
 10
-49.5
 20
-1.276801
 30
0.0
 11
-48.5
 21
-1.276801
 31
0.0
  0
LINE
  5
C9
330
1E
100
AcDbEntity
  8
MO_001_VIEW_PV
  6
C_SOLID_M
100
AcDbLine
 10
-49.5
 20
-1.976796
 30
0.0
 11
-48.5
 21
-1.976796
 31
0.0
  0
LINE
  5
CA
330
1E
100
AcDbEntity
  8
MO_001_VIEW_PV
  6
C_SOLID_M
100
AcDbLine
 10
-49.5
 20
-2.149999999999999
 30
0.0
 11
-48.5
 21
-2.149999999999999
 31
0.0
  0
LINE
  5
CB
330
1E
100
AcDbEntity
  8
MO_001_VIEW_PV
  6
C_SOLID_M
100
AcDbLine
 10
-49.5
 20
-2.202897999999999
 30
0.0
 11
-48.5
 21
-2.202897999999999
 31
0.0
  0
LINE
  5
CC
330
1E
100
AcDbEntity
  8
MO_001_VIEW_PV
  6
C_SOLID_M
100
AcDbLine
 10
-58.5
 20
-3.75
 30
0.0
 11
-58.5
 21
-1.276801
 31
0.0
  0
LINE
  5
CD
330
1E
100
AcDbEntity
  8
MO_001_VIEW_PV
  6
C_SOLID_M
100
AcDbLine
 10
-58.5
 20
-1.276801
 30
0.0
 11
-59.5
 21
-1.276801
 31
0.0
  0
LINE
  5
CE
330
1E
100
AcDbEntity
  8
MO_001_VIEW_PV
  6
C_SOLID_M
100
AcDbLine
 10
-58.5
 20
-1.976796
 30
0.0
 11
-59.5
 21
-1.976796
 31
0.0
  0
LINE
  5
CF
330
1E
100
AcDbEntity
  8
MO_001_VIEW_PV
  6
C_SOLID_M
100
AcDbLine
 10
-58.5
 20
-2.149999999999999
 30
0.0
 11
-59.5
 21
-2.149999999999999
 31
0.0
  0
LINE
  5
D0
330
1E
100
AcDbEntity
  8
MO_001_VIEW_PV
  6
C_SOLID_M
100
AcDbLine
 10
-58.5
 20
-2.202897999999999
 30
0.0
 11
-59.5
 21
-2.202897999999999
 31
0.0
  0
LINE
  5
D1
330
1E
100
AcDbEntity
  8
MO_001_VIEW_PV
  6
C_SOLID_M
100
AcDbLine
 10
-19.700001
 20
-2.149999999999999
 30
0.0
 11
-20.0
 21
-2.202897999999999
 31
0.0
  0
LINE
  5
D2
330
1E
100
AcDbEntity
  8
MO_001_VIEW_PV
  6
C_SOLID_M
100
AcDbLine
 10
-20.0
 20
-3.75
 30
0.0
 11
-20.0
 21
-2.202897999999999
 31
0.0
  0
LINE
  5
D3
330
1E
100
AcDbEntity
  8
MO_001_VIEW_PV
  6
C_SOLID_L
100
AcDbLine
 10
0.741622
 20
9.0
 30
0.0
 11
25.49883299999999
 21
9.0
 31
0.0
  0
TEXT
  5
D4
330
1E
100
AcDbEntity
  8
MO_001_VIEW_PV
  6
C_SOLID_L
100
AcDbText
 10
-69.90611300000001
 20
-76.010336
 30
0.0
 40
4.167187
  1
SK0420F
100
AcDbText
  0
TEXT
  5
D5
330
1E
100
AcDbEntity
  8
MO_001_VIEW_PV
  6
C_SOLID_L
100
AcDbText
 10
-50.648592
 20
-65.505127
 30
0.0
 40
3.0
  1
板厚1.0mm、ネジ突き出しは0.3mm以下
100
AcDbText
  0
TEXT
  5
D6
330
1E
100
AcDbEntity
  8
MO_001_VIEW_PV
  6
C_SOLID_L
100
AcDbText
 10
22.301071
 20
-76.010336
 30
0.0
 40
4.167187
  1
単位：mm
100
AcDbText
  0
TEXT
  5
D7
330
1E
100
AcDbEntity
  8
MO_001_VIEW_PV
  6
C_SOLID_L
100
AcDbText
 10
22.301071
 20
-84.01033599999999
 30
0.0
 40
4.167187
  1
図は励磁時を示す
100
AcDbText
  0
TEXT
  5
D8
330
1E
100
AcDbEntity
  8
MO_001_VIEW_PV
  6
C_SOLID_L
100
AcDbText
 10
4.928570999999999
 20
16.5
 30
0.0
 40
3.0
  1
UL1571AWG.28
100
AcDbText
  0
TEXT
  5
D9
330
1E
100
AcDbEntity
  8
MO_001_VIEW_PV
  6
C_SOLID_L
100
AcDbText
 10
1.170193
 20
9.75
 30
0.0
 40
3.0
  1
2-M2x0.4
100
AcDbText
  0
DIMENSION
  5
DB
330
1E
100
AcDbEntity
  8
MO_001_VIEW_PV
  6
C_SOLID_M
100
AcDbDimension
  2
*D0
 10
-11.961564
 20
15.0
 30
0.0
 11
-11.961564
 21
15.0
 31
0.0
  1
(4)
  3
STANDARD
100
AcDbAlignedDimension
 13
-4.0
 23
4.25
 33
0.0
 14
0.0
 24
3.75
 34
0.0
100
AcDbRotatedDimension
  0
DIMENSION
  5
DD
330
1E
100
AcDbEntity
  8
MO_001_VIEW_PV
  6
C_SOLID_M
100
AcDbDimension
  2
*D1
 10
20.249992
 20
21.0
 30
0.0
 11
20.249992
 21
21.0
 31
0.0
  1
長さ240以上
  3
STANDARD
100
AcDbAlignedDimension
 13
42.0
 23
5.050502999999999
 33
0.0
 14
0.0
 24
3.75
 34
0.0
100
AcDbRotatedDimension
  0
DIMENSION
  5
DF
330
1E
100
AcDbEntity
  8
MO_001_VIEW_PV
  6
C_SOLID_M
100
AcDbDimension
  2
*D2
 10
-10.0
 20
21.0
 30
0.0
 11
-10.0
 21
21.0
 31
0.0
  3
STANDARD
100
AcDbAlignedDimension
 13
-20.0
 23
3.75
 33
0.0
 14
0.0
 24
3.75
 34
0.0
100
AcDbRotatedDimension
  0
DIMENSION
  5
E1
330
1E
100
AcDbEntity
  8
MO_001_VIEW_PV
  6
C_SOLID_M
100
AcDbDimension
  2
*D3
 10
-12.15
 20
27.0
 30
0.0
 11
-12.15
 21
27.0
 31
0.0
  1
24
  3
STANDARD
100
AcDbAlignedDimension
 13
-24.299999
 23
2.0
 33
0.0
 14
0.0
 24
3.75
 34
0.0
100
AcDbRotatedDimension
  0
DIMENSION
  5
E3
330
1E
100
AcDbEntity
  8
MO_001_VIEW_PV
  6
C_SOLID_M
100
AcDbDimension
  2
*D4
 10
-30.0
 20
13.748712
 30
0.0
 11
-30.0
 21
13.748712
 31
0.0
  3
STANDARD
100
AcDbAlignedDimension
 13
-24.299999
 23
2.0
 33
0.0
 14
-24.299999
 24
-2.0
 34
0.0
 50
89.999523
100
AcDbRotatedDimension
  0
DIMENSION
  5
E5
330
1E
100
AcDbEntity
  8
MO_001_VIEW_PV
  6
C_SOLID_M
100
AcDbDimension
  2
*D5
 10
5.35149
 20
-18.0
 30
0.0
 11
5.35149
 21
-18.0
 31
0.0
  3
STANDARD
100
AcDbAlignedDimension
 13
-11.0
 23
-4.25
 33
0.0
 14
-4.0
 24
-0.75
 34
0.0
100
AcDbRotatedDimension
  0
DIMENSION
  5
E7
330
1E
100
AcDbEntity
  8
MO_001_VIEW_PV
  6
C_SOLID_M
100
AcDbDimension
  2
*D6
 10
-10.53021199999999
 20
-33.0
 30
0.0
 11
-10.53021199999999
 21
-33.0
 31
0.0
  3
STANDARD
100
AcDbAlignedDimension
 13
-23.299999
 23
-49.0
 33
0.0
 14
-22.60000199999999
 24
-49.0
 34
0.0
100
AcDbRotatedDimension
  0
DIMENSION
  5
E9
330
1E
100
AcDbEntity
  8
MO_001_VIEW_PV
  6
C_SOLID_M
100
AcDbDimension
  2
*D7
 10
-31.94623599999999
 20
-39.0
 30
0.0
 11
-31.94623599999999
 21
-39.0
 31
0.0
  3
STANDARD
100
AcDbAlignedDimension
 13
-24.299999
 23
-49.0
 33
0.0
 14
-23.299999
 24
-49.0
 34
0.0
100
AcDbRotatedDimension
  0
DIMENSION
  5
EB
330
1E
100
AcDbEntity
  8
MO_001_VIEW_PV
  6
C_SOLID_M
100
AcDbDimension
  2
*D8
 10
-34.75116699999999
 20
-27.0
 30
0.0
 11
-34.75116699999999
 21
-27.0
 31
0.0
  1
(4.3)
  3
STANDARD
100
AcDbAlignedDimension
 13
-19.700001
 23
-46.5
 33
0.0
 14
-24.299999
 24
-49.0
 34
0.0
100
AcDbRotatedDimension
  0
DIMENSION
  5
ED
330
1E
100
AcDbEntity
  8
MO_001_VIEW_PV
  6
C_SOLID_M
100
AcDbDimension
  2
*D9
 10
9.777313000000001
 20
-27.0
 30
0.0
 11
9.777313000000001
 21
-27.0
 31
0.0
  3
STANDARD
100
AcDbAlignedDimension
 13
0.0
 23
-46.5
 33
0.0
 14
-19.700001
 24
-46.5
 34
0.0
100
AcDbRotatedDimension
  0
DIMENSION
  5
EF
330
1E
100
AcDbEntity
  8
MO_001_VIEW_PV
  6
C_SOLID_M
100
AcDbDimension
  2
*D10
 10
-39.0
 20
-37.85182199999999
 30
0.0
 11
-39.0
 21
-37.85182199999999
 31
0.0
  3
STANDARD
100
AcDbAlignedDimension
 13
-23.299999
 23
-50.19999699999999
 33
0.0
 14
-23.299999
 24
-51.800003
 34
0.0
 50
89.999523
100
AcDbRotatedDimension
  0
DIMENSION
  5
F1
330
1E
100
AcDbEntity
  8
MO_001_VIEW_PV
  6
C_SOLID_M
100
AcDbDimension
  2
*D11
 10
-39.225159
 20
-12.0
 30
0.0
 11
-39.225159
 21
-12.0
 31
0.0
  3
STANDARD
100
AcDbAlignedDimension
 13
-48.5
 23
-3.75
 33
0.0
 14
-59.5
 24
-3.75
 34
0.0
100
AcDbRotatedDimension
  0
DIMENSION
  5
F3
330
1E
100
AcDbEntity
  8
MO_001_VIEW_PV
  6
C_SOLID_M
100
AcDbDimension
  2
*D12
 10
-65.0
 20
14.954039
 30
0.0
 11
-65.0
 21
14.954039
 31
0.0
  3
STANDARD
100
AcDbAlignedDimension
 13
-59.5
 23
3.75
 33
0.0
 14
-59.5
 24
-3.75
 34
0.0
 50
89.999523
100
AcDbRotatedDimension
  0
DIMENSION
  5
F5
330
1E
100
AcDbEntity
  8
MO_001_VIEW_PV
  6
C_SOLID_M
100
AcDbDimension
  2
*D13
 10
12.159997
 20
-12.0
 30
0.0
 11
12.159997
 21
-12.0
 31
0.0
  1
(0.7)
  3
STANDARD
100
AcDbAlignedDimension
 13
0.7
 23
-1.25
 33
0.0
 14
0.0
 24
-3.75
 34
0.0
 50
179.97571
100
AcDbRotatedDimension
  0
DIMENSION
  5
F7
330
1E
100
AcDbEntity
  8
MO_001_VIEW_PV
  6
C_SOLID_M
100
AcDbDimension
  2
*D14
 10
32.0
 20
-11.763107
 30
0.0
 11
32.0
 21
-11.763107
 31
0.0
  3
STANDARD
100
AcDbAlignedDimension
 13
-8.5
 23
-1.75
 33
0.0
 14
-1.5
 24
1.75
 34
0.0
 50
89.98785500000002
100
AcDbRotatedDimension
  0
DIMENSION
  5
F9
330
1E
100
AcDbEntity
  8
MO_001_VIEW_PV
  6
C_SOLID_M
100
AcDbDimension
  2
*D15
 10
-33.165199
 20
-18.0
 30
0.0
 11
-33.165199
 21
-18.0
 31
0.0
  3
STANDARD
100
AcDbAlignedDimension
 13
-23.299999
 23
-2.0
 33
0.0
 14
-11.0
 24
-4.25
 34
0.0
100
AcDbRotatedDimension
  0
LINE
  5
FA
330
1E
100
AcDbEntity
  8
MO_001_VIEW_PV
  6
C_SOLID_L
100
AcDbLine
 10
-3.45265
 20
2.586904
 30
0.0
 11
0.741622
 21
9.0
 31
0.0
  0
POLYLINE
  5
FB
330
1E
100
AcDbEntity
  8
MO_001_VIEW_PV
  6
C_SOLID_L
100
AcDb2dPolyline
 66
     1
 10
0.0
 20
0.0
 30
0.0
 70
     1
  0
VERTEX
  5
1BF
330
FB
100
AcDbEntity
  8
MO_001_VIEW_PV
  6
C_SOLID_L
100
AcDbVertex
100
AcDb2dVertex
 10
-2.124746
 20
5.683355
 30
0.0
  0
VERTEX
  5
1C0
330
FB
100
AcDbEntity
  8
MO_001_VIEW_PV
  6
C_SOLID_L
100
AcDbVertex
100
AcDb2dVertex
 10
-3.174597
 20
3.012051
 30
0.0
  0
VERTEX
  5
1C1
330
FB
100
AcDbEntity
  8
MO_001_VIEW_PV
  6
C_SOLID_L
100
AcDbVertex
100
AcDb2dVertex
 10
-1.148058999999999
 20
5.044584999999999
 30
0.0
  0
SEQEND
  5
1C2
330
FB
100
AcDbEntity
  8
MO_001_VIEW_PV
  6
C_SOLID_L
  0
ENDSEC
  0
SECTION
  2
OBJECTS
  0
DICTIONARY
  5
1A
330
0
100
AcDbDictionary
  3
ACAD_GROUP
350
1B
  3
ACAD_MLINESTYLE
350
1C
  3
ACAD_LAYOUT
350
1B5
  3
ACAD_PLOTSETTINGS
350
1B6
1001
ACAD
1000
TREAT_AS_HARD
1070
     0
  0
DICTIONARY
  5
1BB
330
1E
100
AcDbDictionary
  3
ACAD_LAYOUTSELFREF
350
1BC
  0
DICTIONARY
  5
1BD
330
1F
100
AcDbDictionary
  3
ACAD_LAYOUTSELFREF
350
1BE
  0
DICTIONARY
  5
1B
102
{ACAD_REACTORS
330
1A
102
}
330
1A
100
AcDbDictionary
1001
ACAD
1000
TREAT_AS_HARD
1070
     0
  0
DICTIONARY
  5
1C
102
{ACAD_REACTORS
330
1A
102
}
330
1A
100
AcDbDictionary
  3
STANDARD
350
1D
1001
ACAD
1000
TREAT_AS_HARD
1070
     0
  0
DICTIONARY
  5
1B5
102
{ACAD_REACTORS
330
1A
102
}
330
1A
100
AcDbDictionary
1001
ACAD
1000
TREAT_AS_HARD
1070
     0
  0
DICTIONARY
  5
1B6
102
{ACAD_REACTORS
330
1A
102
}
330
1A
100
AcDbDictionary
1001
ACAD
1000
TREAT_AS_HARD
1070
     0
  0
XRECORD
  5
1BC
102
{ACAD_REACTORS
330
1BB
102
}
330
1BB
100
AcDbXrecord
340
1E
  0
XRECORD
  5
1BE
102
{ACAD_REACTORS
330
1BD
102
}
330
1BD
100
AcDbXrecord
340
1F
  0
MLINESTYLE
  5
1D
102
{ACAD_REACTORS
330
1C
102
}
330
1C
100
AcDbMlineStyle
  2
STANDARD
 70
     0
  3

 62
     0
 51
90.0
 52
90.0
 71
     2
 49
0.5
 62
   256
  6
BYLAYER
 49
-0.5
 62
   256
  6
BYLAYER
  0
ENDSEC
  0
EOF
