  0
SECTION
  2
HEADER
  9
$ACADVER
  1
AC1012
  9
$DWGCODEPAGE
  3
dos932
  9
$INSBASE
 10
0.0
 20
0.0
 30
0.0
  9
$EXTMIN
 10
-85.13314230642754
 20
-87.08526698442449
 30
-0.0015258207003583
  9
$EXTMAX
 10
64.13747444596316
 20
27.75672043974742
 30
0.0000000349246037
  9
$LIMMIN
 10
-87.0
 20
-90.208984
  9
$LIMMAX
 10
58.998047
 20
30.0
  9
$ORTHOMODE
 70
     0
  9
$REGENMODE
 70
     1
  9
$FILLMODE
 70
     1
  9
$QTEXTMODE
 70
     0
  9
$MIRRTEXT
 70
     1
  9
$DRAGMODE
 70
     2
  9
$LTSCALE
 40
1.0
  9
$OSMODE
 70
    37
  9
$ATTMODE
 70
     1
  9
$TEXTSIZE
 40
4.1672
  9
$TRACEWID
 40
0.05
  9
$TEXTSTYLE
  7
STANDARD
  9
$CLAYER
  8
0
  9
$CELTYPE
  6
CONTINUOUS
  9
$CECOLOR
 62
   256
  9
$CELTSCALE
 40
1.0
  9
$DELOBJ
 70
     1
  9
$DISPSILH
 70
     0
  9
$DIMSCALE
 40
1.0
  9
$DIMASZ
 40
0.18
  9
$DIMEXO
 40
0.0625
  9
$DIMDLI
 40
0.38
  9
$DIMRND
 40
0.0
  9
$DIMDLE
 40
0.0
  9
$DIMEXE
 40
0.18
  9
$DIMTP
 40
0.0
  9
$DIMTM
 40
0.0
  9
$DIMTXT
 40
0.18
  9
$DIMCEN
 40
0.09
  9
$DIMTSZ
 40
0.0
  9
$DIMTOL
 70
     0
  9
$DIMLIM
 70
     0
  9
$DIMTIH
 70
     1
  9
$DIMTOH
 70
     1
  9
$DIMSE1
 70
     0
  9
$DIMSE2
 70
     0
  9
$DIMTAD
 70
     0
  9
$DIMZIN
 70
     0
  9
$DIMBLK
  1

  9
$DIMASO
 70
     1
  9
$DIMSHO
 70
     1
  9
$DIMPOST
  1

  9
$DIMAPOST
  1

  9
$DIMALT
 70
     0
  9
$DIMALTD
 70
     2
  9
$DIMALTF
 40
25.4
  9
$DIMLFAC
 40
1.0
  9
$DIMTOFL
 70
     0
  9
$DIMTVP
 40
0.0
  9
$DIMTIX
 70
     0
  9
$DIMSOXD
 70
     0
  9
$DIMSAH
 70
     0
  9
$DIMBLK1
  1

  9
$DIMBLK2
  1

  9
$DIMSTYLE
  2
STANDARD
  9
$DIMCLRD
 70
     0
  9
$DIMCLRE
 70
     0
  9
$DIMCLRT
 70
     0
  9
$DIMTFAC
 40
1.0
  9
$DIMGAP
 40
0.09
  9
$DIMJUST
 70
     0
  9
$DIMSD1
 70
     0
  9
$DIMSD2
 70
     0
  9
$DIMTOLJ
 70
     1
  9
$DIMTZIN
 70
     0
  9
$DIMALTZ
 70
     0
  9
$DIMALTTZ
 70
     0
  9
$DIMFIT
 70
     3
  9
$DIMUPT
 70
     0
  9
$DIMUNIT
 70
     2
  9
$DIMDEC
 70
     4
  9
$DIMTDEC
 70
     4
  9
$DIMALTU
 70
     2
  9
$DIMALTTD
 70
     2
  9
$DIMTXSTY
  7
STANDARD
  9
$DIMAUNIT
 70
     0
  9
$LUNITS
 70
     2
  9
$LUPREC
 70
     6
  9
$SKETCHINC
 40
0.1
  9
$FILLETRAD
 40
0.0
  9
$AUNITS
 70
     0
  9
$AUPREC
 70
     4
  9
$MENU
  1
acad
  9
$ELEVATION
 40
0.0
  9
$PELEVATION
 40
0.0
  9
$THICKNESS
 40
0.0
  9
$LIMCHECK
 70
     0
  9
$BLIPMODE
 70
     0
  9
$CHAMFERA
 40
0.0
  9
$CHAMFERB
 40
0.0
  9
$CHAMFERC
 40
0.0
  9
$CHAMFERD
 40
0.0
  9
$SKPOLY
 70
     0
  9
$TDCREATE
 40
2376126.114255335
  9
$TDUPDATE
 40
2451683.736061342
  9
$TDINDWG
 40
0.0008436343
  9
$TDUSRTIMER
 40
0.0008429398
  9
$USRTIMER
 70
     1
  9
$ANGBASE
 50
0.0
  9
$ANGDIR
 70
     0
  9
$PDMODE
 70
     0
  9
$PDSIZE
 40
0.0
  9
$PLINEWID
 40
0.0
  9
$COORDS
 70
     1
  9
$SPLFRAME
 70
     0
  9
$SPLINETYPE
 70
     6
  9
$SPLINESEGS
 70
     8
  9
$ATTDIA
 70
     0
  9
$ATTREQ
 70
     1
  9
$HANDLING
 70
 10241
  9
$HANDSEED
  5
341
  9
$SURFTAB1
 70
     6
  9
$SURFTAB2
 70
     6
  9
$SURFTYPE
 70
     6
  9
$SURFU
 70
     6
  9
$SURFV
 70
     6
  9
$UCSNAME
  2

  9
$UCSORG
 10
-28.0
 20
0.0000012320510017
 30
0.0
  9
$UCSXDIR
 10
1.0
 20
0.0
 30
0.0
  9
$UCSYDIR
 10
0.0
 20
1.0
 30
0.0
  9
$PUCSNAME
  2

  9
$PUCSORG
 10
0.0
 20
0.0
 30
0.0
  9
$PUCSXDIR
 10
1.0
 20
0.0
 30
0.0
  9
$PUCSYDIR
 10
0.0
 20
1.0
 30
0.0
  9
$USERI1
 70
     0
  9
$USERI2
 70
     0
  9
$USERI3
 70
     0
  9
$USERI4
 70
     0
  9
$USERI5
 70
     0
  9
$USERR1
 40
0.0
  9
$USERR2
 40
0.0
  9
$USERR3
 40
0.0
  9
$USERR4
 40
0.0
  9
$USERR5
 40
0.0
  9
$WORLDVIEW
 70
     1
  9
$SHADEDGE
 70
     3
  9
$SHADEDIF
 70
    70
  9
$TILEMODE
 70
     1
  9
$MAXACTVP
 70
    16
  9
$PINSBASE
 10
0.0
 20
0.0
 30
0.0
  9
$PLIMCHECK
 70
     0
  9
$PEXTMIN
 10
-87.0
 20
-90.208984
 30
1.000000000000000E+20
  9
$PEXTMAX
 10
58.998047
 20
30.0
 30
-1.000000000000000E+20
  9
$PLIMMIN
 10
0.0
 20
0.0
  9
$PLIMMAX
 10
12.0
 20
9.0
  9
$UNITMODE
 70
     0
  9
$VISRETAIN
 70
     0
  9
$PLINEGEN
 70
     0
  9
$PSLTSCALE
 70
     1
  9
$TREEDEPTH
 70
  3020
  9
$PICKSTYLE
 70
     1
  9
$CMLSTYLE
  2
STANDARD
  9
$CMLJUST
 70
     0
  9
$CMLSCALE
 40
1.0
  9
$SAVEIMAGES
 70
     1
  0
ENDSEC
  0
SECTION
  2
CLASSES
  0
CLASS
  1
ACDBDICTIONARYWDFLT
  2
AcDbDictionaryWithDefault
  3
AutoCAD 2000
 90
    32768
280
     0
281
     0
  0
CLASS
  1
ACDBPLACEHOLDER
  2
AcDbPlaceHolder
  3
AutoCAD 2000
 90
    32768
280
     0
281
     0
  0
CLASS
  1
LAYOUT
  2
AcDbLayout
  3
AutoCAD 2000
 90
    32768
280
     0
281
     0
  0
CLASS
  1
LONG_TRANSACTION
  2
AcDbLongTransaction
  3
AutoCAD 2000
 90
    32768
280
     0
281
     0
  0
CLASS
  1
LWPOLYLINE
  2
AcDbPolyline
  3
AutoCAD 2000
 90
    32768
280
     0
281
     1
  0
CLASS
  1
HATCH
  2
AcDbHatch
  3
AutoCAD 2000
 90
    32768
280
     0
281
     1
  0
CLASS
  1
XRECORD
  2
AcDbXrecord
  3
AutoCAD 2000
 90
    32768
280
     0
281
     0
  0
ENDSEC
  0
SECTION
  2
TABLES
  0
TABLE
  2
VPORT
  5
7
330
0
100
AcDbSymbolTable
 70
     2
  0
VPORT
  5
2A0
330
7
100
AcDbSymbolTableRecord
100
AcDbViewportTableRecord
  2
*ACTIVE
 70
     0
 10
0.0
 20
0.0
 11
1.0
 21
1.0
 12
-11.43126277701841
 22
-30.104492
 13
0.0
 23
0.0
 14
6.349999999999999
 24
6.349999999999999
 15
6.349999999999999
 25
6.349999999999999
 16
0.0
 26
0.0
 36
1.0
 17
0.0
 27
0.0
 37
0.0
 40
121.5275468957952
 41
1.727106227106227
 42
50.0
 43
0.0
 44
0.0
 50
0.0
 51
0.0
 71
     0
 72
   100
 73
     1
 74
     1
 75
     0
 76
     0
 77
     0
 78
     0
  0
ENDTAB
  0
TABLE
  2
LTYPE
  5
4
330
0
100
AcDbSymbolTable
 70
    37
  0
LTYPE
  5
12
330
4
100
AcDbSymbolTableRecord
100
AcDbLinetypeTableRecord
  2
BYBLOCK
 70
     0
  3

 72
    65
 73
     0
 40
0.0
  0
LTYPE
  5
13
330
4
100
AcDbSymbolTableRecord
100
AcDbLinetypeTableRecord
  2
BYLAYER
 70
     0
  3

 72
    65
 73
     0
 40
0.0
  0
LTYPE
  5
14
330
4
100
AcDbSymbolTableRecord
100
AcDbLinetypeTableRecord
  2
CONTINUOUS
 70
     0
  3
DXF Default line type
 72
    65
 73
     0
 40
0.0
  0
LTYPE
  5
20
330
4
100
AcDbSymbolTableRecord
100
AcDbLinetypeTableRecord
  2
DASHED
 70
     0
  3
DXF Dashed
 72
    65
 73
     2
 40
0.75
 49
0.5
 74
     0
 49
-0.25
 74
     0
  0
LTYPE
  5
21
330
4
100
AcDbSymbolTableRecord
100
AcDbLinetypeTableRecord
  2
HIDDEN
 70
     0
  3
DXF Hidden
 72
    65
 73
     2
 40
0.375
 49
0.25
 74
     0
 49
-0.125
 74
     0
  0
LTYPE
  5
22
330
4
100
AcDbSymbolTableRecord
100
AcDbLinetypeTableRecord
  2
CENTER
 70
     0
  3
DXF Center
 72
    65
 73
     4
 40
2.0
 49
1.25
 74
     0
 49
-0.25
 74
     0
 49
0.25
 74
     0
 49
-0.25
 74
     0
  0
LTYPE
  5
23
330
4
100
AcDbSymbolTableRecord
100
AcDbLinetypeTableRecord
  2
PHANTOM
 70
     0
  3
DXF Phantom
 72
    65
 73
     6
 40
2.5
 49
1.25
 74
     0
 49
-0.25
 74
     0
 49
0.25
 74
     0
 49
-0.25
 74
     0
 49
0.25
 74
     0
 49
-0.25
 74
     0
  0
LTYPE
  5
24
330
4
100
AcDbSymbolTableRecord
100
AcDbLinetypeTableRecord
  2
DOT
 70
     0
  3
DXF DOT
 72
    65
 73
     2
 40
0.25
 49
0.0
 74
     0
 49
-0.25
 74
     0
  0
LTYPE
  5
25
330
4
100
AcDbSymbolTableRecord
100
AcDbLinetypeTableRecord
  2
DASHDOT
 70
     0
  3
DXF Dash Dot
 72
    65
 73
     4
 40
1.0
 49
0.5
 74
     0
 49
-0.25
 74
     0
 49
0.0
 74
     0
 49
-0.25
 74
     0
  0
LTYPE
  5
26
330
4
100
AcDbSymbolTableRecord
100
AcDbLinetypeTableRecord
  2
BORDER
 70
     0
  3
DXF Border
 72
    65
 73
     6
 40
1.75
 49
0.5
 74
     0
 49
-0.25
 74
     0
 49
0.5
 74
     0
 49
-0.25
 74
     0
 49
0.0
 74
     0
 49
-0.25
 74
     0
  0
LTYPE
  5
27
330
4
100
AcDbSymbolTableRecord
100
AcDbLinetypeTableRecord
  2
DIVIDE
 70
     0
  3
DXF Divide
 72
    65
 73
     6
 40
1.25
 49
0.5
 74
     0
 49
-0.25
 74
     0
 49
0.0
 74
     0
 49
-0.25
 74
     0
 49
0.0
 74
     0
 49
-0.25
 74
     0
  0
LTYPE
  5
28
330
4
100
AcDbSymbolTableRecord
100
AcDbLinetypeTableRecord
  2
C_SOLID_L
 70
     0
  3
CADAM Solid Light
 72
    65
 73
     0
 40
0.0
  0
LTYPE
  5
29
330
4
100
AcDbSymbolTableRecord
100
AcDbLinetypeTableRecord
  2
C_SOLID_M
 70
     0
  3
CADAM Solid Medium
 72
    65
 73
     0
 40
0.0
  0
LTYPE
  5
2A
330
4
100
AcDbSymbolTableRecord
100
AcDbLinetypeTableRecord
  2
C_SOLID_H
 70
     0
  3
CADAM Solid Heavy
 72
    65
 73
     0
 40
0.0
  0
LTYPE
  5
2B
330
4
100
AcDbSymbolTableRecord
100
AcDbLinetypeTableRecord
  2
C_DASHED_L
 70
     0
  3
CADAM Dashed Light
 72
    65
 73
     2
 40
0.375
 49
0.25
 74
     0
 49
-0.125
 74
     0
  0
LTYPE
  5
2C
330
4
100
AcDbSymbolTableRecord
100
AcDbLinetypeTableRecord
  2
C_DASHED_M
 70
     0
  3
CADAM Dashed Medium
 72
    65
 73
     2
 40
0.5
 49
0.375
 74
     0
 49
-0.125
 74
     0
  0
LTYPE
  5
2D
330
4
100
AcDbSymbolTableRecord
100
AcDbLinetypeTableRecord
  2
C_CENTER_L
 70
     0
  3
CADAM Center Light
 72
    65
 73
     4
 40
2.0
 49
1.25
 74
     0
 49
-0.25
 74
     0
 49
0.25
 74
     0
 49
-0.25
 74
     0
  0
LTYPE
  5
2E
330
4
100
AcDbSymbolTableRecord
100
AcDbLinetypeTableRecord
  2
C_PHANTOM_L
 70
     0
  3
CADAM Phantom Light
 72
    65
 73
     6
 40
2.5
 49
1.25
 74
     0
 49
-0.25
 74
     0
 49
0.25
 74
     0
 49
-0.25
 74
     0
 49
0.25
 74
     0
 49
-0.25
 74
     0
  0
LTYPE
  5
2F
330
4
100
AcDbSymbolTableRecord
100
AcDbLinetypeTableRecord
  2
C_BREAK_M
 70
     0
  3
CADAM Break Medium
 72
    65
 73
     4
 40
1.0
 49
0.5
 74
     0
 49
-0.25
 74
     0
 49
0.0
 74
     0
 49
-0.25
 74
     0
  0
LTYPE
  5
30
330
4
100
AcDbSymbolTableRecord
100
AcDbLinetypeTableRecord
  2
C_NC
 70
     0
  3
CADAM NC
 72
    65
 73
     0
 40
0.0
  0
LTYPE
  5
31
330
4
100
AcDbSymbolTableRecord
100
AcDbLinetypeTableRecord
  2
DSH1
 70
     0
  3
CADAM Style2 Type 1 Dashed Line
 72
    65
 73
     2
 40
0.075
 49
0.04
 74
     0
 49
-0.035
 74
     0
  0
LTYPE
  5
32
330
4
100
AcDbSymbolTableRecord
100
AcDbLinetypeTableRecord
  2
DSH2
 70
     0
  3
CADAM Style2 Type 2 Dashed Line
 72
    65
 73
     2
 40
0.15
 49
0.11
 74
     0
 49
-0.04
 74
     0
  0
LTYPE
  5
33
330
4
100
AcDbSymbolTableRecord
100
AcDbLinetypeTableRecord
  2
DSH3
 70
     0
  3
CADAM Style2 Type 3 Dashed Line
 72
    65
 73
     2
 40
0.2
 49
0.15
 74
     0
 49
-0.05
 74
     0
  0
LTYPE
  5
34
330
4
100
AcDbSymbolTableRecord
100
AcDbLinetypeTableRecord
  2
DSH4
 70
     0
  3
CADAM Style2 Type 4 Dashed Line
 72
    65
 73
     2
 40
0.36
 49
0.28
 74
     0
 49
-0.08
 74
     0
  0
LTYPE
  5
35
330
4
100
AcDbSymbolTableRecord
100
AcDbLinetypeTableRecord
  2
DSH5
 70
     0
  3
CADAM Style2 Type 5 Dashed Line
 72
    65
 73
     2
 40
0.47
 49
0.39
 74
     0
 49
-0.08
 74
     0
  0
LTYPE
  5
36
330
4
100
AcDbSymbolTableRecord
100
AcDbLinetypeTableRecord
  2
DSH6
 70
     0
  3
CADAM Style2 Type 6 Dashed Line
 72
    65
 73
     2
 40
0.9
 49
0.8100000000000001
 74
     0
 49
-0.09
 74
     0
  0
LTYPE
  5
37
330
4
100
AcDbSymbolTableRecord
100
AcDbLinetypeTableRecord
  2
PL1
 70
     0
  3
Style 2 Type 1 Phantom Line
 72
    65
 73
     6
 40
1.0
 49
0.6
 74
     0
 49
-0.08
 74
     0
 49
0.08
 74
     0
 49
-0.08
 74
     0
 49
0.08
 74
     0
 49
-0.08
 74
     0
  0
LTYPE
  5
38
330
4
100
AcDbSymbolTableRecord
100
AcDbLinetypeTableRecord
  2
PL2
 70
     0
  3
Style 2 Type 2 Phantom Line
 72
    65
 73
     6
 40
1.08
 49
0.6
 74
     0
 49
-0.08
 74
     0
 49
0.12
 74
     0
 49
-0.08
 74
     0
 49
0.12
 74
     0
 49
-0.08
 74
     0
  0
LTYPE
  5
39
330
4
100
AcDbSymbolTableRecord
100
AcDbLinetypeTableRecord
  2
PL3
 70
     0
  3
Style 2 Type 3 Phantom Line
 72
    65
 73
     6
 40
2.0
 49
1.439999999999999
 74
     0
 49
-0.08
 74
     0
 49
0.16
 74
     0
 49
-0.08
 74
     0
 49
0.16
 74
     0
 49
-0.08
 74
     0
  0
LTYPE
  5
3A
330
4
100
AcDbSymbolTableRecord
100
AcDbLinetypeTableRecord
  2
CL1
 70
     0
  3
CADAM Style 2 Type 1 Center Line
 72
    65
 73
     4
 40
0.7
 49
0.45
 74
     0
 49
-0.06
 74
     0
 49
0.13
 74
     0
 49
-0.06
 74
     0
  0
LTYPE
  5
3B
330
4
100
AcDbSymbolTableRecord
100
AcDbLinetypeTableRecord
  2
CL2
 70
     0
  3
CADAM Style 2 Type 2 Center Line
 72
    65
 73
     4
 40
1.199999999999999
 49
1.01
 74
     0
 49
-0.06
 74
     0
 49
0.11
 74
     0
 49
-0.06
 74
     0
  0
LTYPE
  5
3C
330
4
100
AcDbSymbolTableRecord
100
AcDbLinetypeTableRecord
  2
CL3
 70
     0
  3
CADAM Style 2 Type 3 Center Line
 72
    65
 73
     4
 40
1.199999999999999
 49
0.98
 74
     0
 49
-0.06
 74
     0
 49
0.1
 74
     0
 49
-0.06
 74
     0
  0
LTYPE
  5
3D
330
4
100
AcDbSymbolTableRecord
100
AcDbLinetypeTableRecord
  2
CL4
 70
     0
  3
CADAM Style 2 Type 4 Center Line
 72
    65
 73
     4
 40
2.2
 49
1.929999999999999
 74
     0
 49
-0.07
 74
     0
 49
0.13
 74
     0
 49
-0.07
 74
     0
  0
LTYPE
  5
3E
330
4
100
AcDbSymbolTableRecord
100
AcDbLinetypeTableRecord
  2
CL5
 70
     0
  3
CADAM Style 2 Type 5 Center Line
 72
    65
 73
     4
 40
2.2
 49
1.879999999999999
 74
     0
 49
-0.07
 74
     0
 49
0.18
 74
     0
 49
-0.07
 74
     0
  0
LTYPE
  5
3F
330
4
100
AcDbSymbolTableRecord
100
AcDbLinetypeTableRecord
  2
SBK1
 70
     0
  3
CADAM Style 2 Type 1 SetBack Line
 72
    65
 73
     8
 40
2.7
 49
0.1
 74
     0
 49
-0.08
 74
     0
 49
0.1
 74
     0
 49
-0.8
 74
     0
 49
0.0
 74
     0
 49
0.0
 74
     0
 49
0.0
 74
     0
 49
0.0
 74
     0
  0
LTYPE
  5
40
330
4
100
AcDbSymbolTableRecord
100
AcDbLinetypeTableRecord
  2
SBK2
 70
     0
  3
CADAM Style 2 Type 2 SetBack Line
 72
    65
 73
     8
 40
3.709999999999999
 49
0.13
 74
     0
 49
-0.08
 74
     0
 49
0.13
 74
     0
 49
-0.8
 74
     0
 49
0.0
 74
     0
 49
0.0
 74
     0
 49
0.0
 74
     0
 49
0.0
 74
     0
  0
LTYPE
  5
41
330
4
100
AcDbSymbolTableRecord
100
AcDbLinetypeTableRecord
  2
STCH
 70
     0
  3
CADAM Style2 Stitch Line
 72
    65
 73
     2
 40
0.25
 49
0.0
 74
     0
 49
-0.25
 74
     0
  0
LTYPE
  5
42
330
4
100
AcDbSymbolTableRecord
100
AcDbLinetypeTableRecord
  2
MTCH
 70
     0
  3
CADAM Style2 Match Line
 72
    65
 73
     6
 40
2.0
 49
1.439999999999999
 74
     0
 49
-0.8
 74
     0
 49
0.16
 74
     0
 49
-0.08
 74
     0
 49
0.16
 74
     0
 49
-0.08
 74
     0
  0
LTYPE
  5
43
330
4
100
AcDbSymbolTableRecord
100
AcDbLinetypeTableRecord
  2
SLD
 70
     0
  3
CADAM Solid_EXT2
 72
    65
 73
     0
 40
0.0
  0
ENDTAB
  0
TABLE
  2
LAYER
  5
2
330
0
100
AcDbSymbolTable
 70
     7
  0
LAYER
  5
15
330
2
100
AcDbSymbolTableRecord
100
AcDbLayerTableRecord
  2
0
 70
     0
 62
     7
  6
CONTINUOUS
  0
LAYER
  5
44
330
2
100
AcDbSymbolTableRecord
100
AcDbLayerTableRecord
  2
MO_001_NOSHOW
 70
     1
 62
     7
  6
CONTINUOUS
  0
LAYER
  5
45
330
2
100
AcDbSymbolTableRecord
100
AcDbLayerTableRecord
  2
MO_001_VIEW_PV
 70
     0
 62
     7
  6
CONTINUOUS
  0
LAYER
  5
46
330
2
100
AcDbSymbolTableRecord
100
AcDbLayerTableRecord
  2
OVERLAY_MAP
 70
     1
 62
     7
  6
CONTINUOUS
  0
LAYER
  5
47
330
2
100
AcDbSymbolTableRecord
100
AcDbLayerTableRecord
  2
DITTOS
 70
     0
 62
     7
  6
CONTINUOUS
  0
LAYER
  5
48
330
2
100
AcDbSymbolTableRecord
100
AcDbLayerTableRecord
  2
SYMBOLS
 70
     0
 62
     7
  6
CONTINUOUS
  0
LAYER
  5
49
330
2
100
AcDbSymbolTableRecord
100
AcDbLayerTableRecord
  2
SETS
 70
     0
 62
     7
  6
CONTINUOUS
  0
ENDTAB
  0
TABLE
  2
STYLE
  5
3
330
0
100
AcDbSymbolTable
 70
     1
  0
STYLE
  5
18
330
3
100
AcDbSymbolTableRecord
100
AcDbTextStyleTableRecord
  2
STANDARD
 70
     0
 40
4.1672
 41
1.0
 50
0.0
 71
     0
 42
4.1672
  3
monotxt
  4
BIGFONT
  0
ENDTAB
  0
TABLE
  2
VIEW
  5
5
330
0
100
AcDbSymbolTable
 70
     0
  0
ENDTAB
  0
TABLE
  2
UCS
  5
6
330
0
100
AcDbSymbolTable
 70
     1
  0
UCS
  5
4A
330
6
100
AcDbSymbolTableRecord
100
AcDbUCSTableRecord
  2
MO_001_VIEW_PV_P
 70
     0
 10
0.0
 20
0.0
 30
0.0
 11
1.0
 21
0.0
 31
0.0
 12
-0.0000000002051034
 22
1.0
 32
0.0
  0
ENDTAB
  0
TABLE
  2
APPID
  5
8
330
0
100
AcDbSymbolTable
 70
     1
  0
APPID
  5
17
330
8
100
AcDbSymbolTableRecord
100
AcDbRegAppTableRecord
  2
ACAD
 70
     0
  0
ENDTAB
  0
TABLE
  2
DIMSTYLE
  5
9
330
0
100
AcDbSymbolTable
 70
     1
  0
DIMSTYLE
105
19
102
{ACAD_REACTORS
330
1D6
330
1D8
330
1DA
330
1DC
330
1DE
330
1E0
330
1E2
330
1E4
330
1E6
330
1E8
330
1EA
330
1EC
330
1EE
330
1F0
330
1F2
102
}
330
9
100
AcDbSymbolTableRecord
100
AcDbDimStyleTableRecord
  2
STANDARD
 70
     0
  3

  4

  5

  6

  7

 40
1.0
 41
0.18
 42
0.0625
 43
0.38
 44
0.18
 45
0.0
 46
0.0
 47
0.0
 48
0.0
140
0.18
141
0.09
142
0.0
143
25.4
144
1.0
145
0.0
146
1.0
147
0.09
 71
     0
 72
     0
 73
     1
 74
     1
 75
     0
 76
     0
 77
     0
 78
     0
170
     0
171
     2
172
     0
173
     0
174
     0
175
     0
176
     0
177
     0
178
     0
270
     2
271
     4
272
     4
273
     2
274
     2
340
18
275
     0
280
     0
281
     0
282
     0
283
     1
284
     0
285
     0
286
     0
287
     3
288
     0
  0
ENDTAB
  0
TABLE
  2
BLOCK_RECORD
  5
C
330
0
100
AcDbSymbolTable
 70
    15
  0
BLOCK_RECORD
  5
1E
102
{ACAD_XDICTIONARY
360
2A1
102
}
330
C
100
AcDbSymbolTableRecord
100
AcDbBlockTableRecord
  2
*MODEL_SPACE
  0
BLOCK_RECORD
  5
1F
102
{ACAD_XDICTIONARY
360
2A3
102
}
330
C
100
AcDbSymbolTableRecord
100
AcDbBlockTableRecord
  2
*PAPER_SPACE
  0
BLOCK_RECORD
  5
1D5
330
C
100
AcDbSymbolTableRecord
100
AcDbBlockTableRecord
  2
*D0
  0
BLOCK_RECORD
  5
1D7
330
C
100
AcDbSymbolTableRecord
100
AcDbBlockTableRecord
  2
*D1
  0
BLOCK_RECORD
  5
1D9
330
C
100
AcDbSymbolTableRecord
100
AcDbBlockTableRecord
  2
*D2
  0
BLOCK_RECORD
  5
1DB
330
C
100
AcDbSymbolTableRecord
100
AcDbBlockTableRecord
  2
*D3
  0
BLOCK_RECORD
  5
1DD
330
C
100
AcDbSymbolTableRecord
100
AcDbBlockTableRecord
  2
*D4
  0
BLOCK_RECORD
  5
1DF
330
C
100
AcDbSymbolTableRecord
100
AcDbBlockTableRecord
  2
*D5
  0
BLOCK_RECORD
  5
1E1
330
C
100
AcDbSymbolTableRecord
100
AcDbBlockTableRecord
  2
*D6
  0
BLOCK_RECORD
  5
1E3
330
C
100
AcDbSymbolTableRecord
100
AcDbBlockTableRecord
  2
*D7
  0
BLOCK_RECORD
  5
1E5
330
C
100
AcDbSymbolTableRecord
100
AcDbBlockTableRecord
  2
*D8
  0
BLOCK_RECORD
  5
1E7
330
C
100
AcDbSymbolTableRecord
100
AcDbBlockTableRecord
  2
*D9
  0
BLOCK_RECORD
  5
1E9
330
C
100
AcDbSymbolTableRecord
100
AcDbBlockTableRecord
  2
*D10
  0
BLOCK_RECORD
  5
1EB
330
C
100
AcDbSymbolTableRecord
100
AcDbBlockTableRecord
  2
*D11
  0
BLOCK_RECORD
  5
1ED
330
C
100
AcDbSymbolTableRecord
100
AcDbBlockTableRecord
  2
*D12
  0
BLOCK_RECORD
  5
1EF
330
C
100
AcDbSymbolTableRecord
100
AcDbBlockTableRecord
  2
*D13
  0
BLOCK_RECORD
  5
1F1
330
C
100
AcDbSymbolTableRecord
100
AcDbBlockTableRecord
  2
*D14
  0
ENDTAB
  0
ENDSEC
  0
SECTION
  2
BLOCKS
  0
BLOCK
  5
E
330
1E
100
AcDbEntity
  8
0
100
AcDbBlockBegin
  2
*MODEL_SPACE
 70
     0
 10
0.0
 20
0.0
 30
0.0
  3
*MODEL_SPACE
  1

  0
ENDBLK
  5
F
330
1E
100
AcDbEntity
  8
0
100
AcDbBlockEnd
  0
BLOCK
  5
10
330
1F
100
AcDbEntity
 67
     1
  8
0
100
AcDbBlockBegin
  2
*PAPER_SPACE
 70
     0
 10
0.0
 20
0.0
 30
0.0
  3
*PAPER_SPACE
  1

  0
ENDBLK
  5
11
330
1F
100
AcDbEntity
 67
     1
  8
0
100
AcDbBlockEnd
  0
BLOCK
  5
1F9
330
1D5
100
AcDbEntity
  8
0
100
AcDbBlockBegin
  2
*D0
 70
     1
 10
0.0
 20
0.0
 30
0.0
  3
*D0
  1

  0
TEXT
  5
1FA
330
1D5
100
AcDbEntity
  8
MO_001_VIEW_PV
  6
BYBLOCK
100
AcDbText
 10
12.375
 20
10.151507
 30
0.0
 40
1.5
  1
%%P0.2
 50
90.0
100
AcDbText
  0
TEXT
  5
1FB
330
1D5
100
AcDbEntity
  8
MO_001_VIEW_PV
  6
BYBLOCK
100
AcDbText
 10
14.25
 20
7.365792999999999
 30
0.0
 40
3.0
  1
7
 50
90.0
100
AcDbText
  0
LINE
  5
1FC
330
1D5
100
AcDbEntity
  8
MO_001_VIEW_PV
  6
BYBLOCK
100
AcDbLine
 10
15.0
 20
3.5
 30
0.0
 11
15.0
 21
-3.5
 31
0.0
  0
LINE
  5
1FD
330
1D5
100
AcDbEntity
  8
MO_001_VIEW_PV
  6
BYBLOCK
100
AcDbLine
 10
15.0
 20
3.5
 30
0.0
 11
15.0
 21
9.849999999999999
 31
0.0
  0
LINE
  5
1FE
330
1D5
100
AcDbEntity
  8
MO_001_VIEW_PV
  6
BYBLOCK
100
AcDbLine
 10
15.0
 20
-3.5
 30
0.0
 11
15.0
 21
-9.849999999999999
 31
0.0
  0
SOLID
  5
1FF
330
1D5
100
AcDbEntity
  8
MO_001_VIEW_PV
  6
BYBLOCK
100
AcDbTrace
 10
14.416488
 20
6.81826
 30
0.0
 11
15.0
 21
4.008
 31
0.0
 12
15.58351199999999
 22
6.81826
 32
0.0
 13
15.58351199999999
 23
6.81826
 33
0.0
  0
SOLID
  5
200
330
1D5
100
AcDbEntity
  8
MO_001_VIEW_PV
  6
BYBLOCK
100
AcDbTrace
 10
15.58351199999999
 20
-6.81826
 30
0.0
 11
15.0
 21
-4.008
 31
0.0
 12
14.416488
 22
-6.81826
 32
0.0
 13
14.416488
 23
-6.81826
 33
0.0
  0
LINE
  5
201
330
1D5
100
AcDbEntity
  8
MO_001_VIEW_PV
  6
BYBLOCK
100
AcDbLine
 10
-4.5
 20
3.5
 30
0.0
 11
17.285999
 21
3.5
 31
0.0
  0
LINE
  5
202
330
1D5
100
AcDbEntity
  8
MO_001_VIEW_PV
  6
BYBLOCK
100
AcDbLine
 10
-4.5
 20
-3.5
 30
0.0
 11
17.285999
 21
-3.5
 31
0.0
  0
LINE
  5
203
330
1D5
100
AcDbEntity
  8
MO_001_VIEW_PV
  6
BYBLOCK
100
AcDbLine
 10
15.0
 20
16.47293699999999
 30
0.0
 11
15.0
 21
3.5
 31
0.0
  0
ENDBLK
  5
204
330
1D5
100
AcDbEntity
  8
0
100
AcDbBlockEnd
  0
BLOCK
  5
205
330
1D7
100
AcDbEntity
  8
0
100
AcDbBlockBegin
  2
*D1
 70
     1
 10
0.0
 20
0.0
 30
0.0
  3
*D1
  1

  0
TEXT
  5
206
330
1D7
100
AcDbEntity
  8
MO_001_VIEW_PV
  6
BYBLOCK
100
AcDbText
 10
-24.949946
 20
12.75
 30
0.0
 40
3.0
  1
(6.5)
100
AcDbText
  0
LINE
  5
207
330
1D7
100
AcDbEntity
  8
MO_001_VIEW_PV
  6
BYBLOCK
100
AcDbLine
 10
-6.5
 20
12.0
 30
0.0
 11
0.0
 21
12.0
 31
0.0
  0
LINE
  5
208
330
1D7
100
AcDbEntity
  8
MO_001_VIEW_PV
  6
BYBLOCK
100
AcDbLine
 10
-6.5
 20
12.0
 30
0.0
 11
-12.85
 21
12.0
 31
0.0
  0
LINE
  5
209
330
1D7
100
AcDbEntity
  8
MO_001_VIEW_PV
  6
BYBLOCK
100
AcDbLine
 10
0.0
 20
12.0
 30
0.0
 11
6.349999999999999
 21
12.0
 31
0.0
  0
SOLID
  5
20A
330
1D7
100
AcDbEntity
  8
MO_001_VIEW_PV
  6
BYBLOCK
100
AcDbTrace
 10
-9.81826
 20
11.416488
 30
0.0
 11
-7.007999999999999
 21
12.0
 31
0.0
 12
-9.81826
 22
12.58351199999999
 32
0.0
 13
-9.81826
 23
12.58351199999999
 33
0.0
  0
SOLID
  5
20B
330
1D7
100
AcDbEntity
  8
MO_001_VIEW_PV
  6
BYBLOCK
100
AcDbTrace
 10
3.318259999999999
 20
12.58351199999999
 30
0.0
 11
0.508
 21
12.0
 31
0.0
 12
3.318259999999999
 22
11.416488
 32
0.0
 13
3.318259999999999
 23
11.416488
 33
0.0
  0
LINE
  5
20C
330
1D7
100
AcDbEntity
  8
MO_001_VIEW_PV
  6
BYBLOCK
100
AcDbLine
 10
-6.5
 20
5.5
 30
0.0
 11
-6.5
 21
14.286
 31
0.0
  0
LINE
  5
20D
330
1D7
100
AcDbEntity
  8
MO_001_VIEW_PV
  6
BYBLOCK
100
AcDbLine
 10
0.0
 20
7.0
 30
0.0
 11
0.0
 21
14.286
 31
0.0
  0
LINE
  5
20E
330
1D7
100
AcDbEntity
  8
MO_001_VIEW_PV
  6
BYBLOCK
100
AcDbLine
 10
-25.914232
 20
12.0
 30
0.0
 11
-6.5
 21
12.0
 31
0.0
  0
ENDBLK
  5
20F
330
1D7
100
AcDbEntity
  8
0
100
AcDbBlockEnd
  0
BLOCK
  5
210
330
1D9
100
AcDbEntity
  8
0
100
AcDbBlockBegin
  2
*D2
 70
     1
 10
0.0
 20
0.0
 30
0.0
  3
*D2
  1

  0
TEXT
  5
211
330
1D9
100
AcDbEntity
  8
MO_001_VIEW_PV
  6
BYBLOCK
100
AcDbText
 10
-10.285714
 20
20.625
 30
0.0
 40
1.5
  1
%%P0.3
100
AcDbText
  0
TEXT
  5
212
330
1D9
100
AcDbEntity
  8
MO_001_VIEW_PV
  6
BYBLOCK
100
AcDbText
 10
-16.071429
 20
18.75
 30
0.0
 40
3.0
  1
21
100
AcDbText
  0
LINE
  5
213
330
1D9
100
AcDbEntity
  8
MO_001_VIEW_PV
  6
BYBLOCK
100
AcDbLine
 10
-21.0
 20
18.0
 30
0.0
 11
0.0
 21
18.0
 31
0.0
  0
SOLID
  5
214
330
1D9
100
AcDbEntity
  8
MO_001_VIEW_PV
  6
BYBLOCK
100
AcDbTrace
 10
-17.68173999999999
 20
18.58351199999999
 30
0.0
 11
-20.49199999999999
 21
18.0
 31
0.0
 12
-17.68173999999999
 22
17.416488
 32
0.0
 13
-17.68173999999999
 23
17.416488
 33
0.0
  0
SOLID
  5
215
330
1D9
100
AcDbEntity
  8
MO_001_VIEW_PV
  6
BYBLOCK
100
AcDbTrace
 10
-3.318259999999999
 20
17.416488
 30
0.0
 11
-0.508
 21
18.0
 31
0.0
 12
-3.318259999999999
 22
18.58351199999999
 32
0.0
 13
-3.318259999999999
 23
18.58351199999999
 33
0.0
  0
LINE
  5
216
330
1D9
100
AcDbEntity
  8
MO_001_VIEW_PV
  6
BYBLOCK
100
AcDbLine
 10
-21.0
 20
16.418619
 30
0.0
 11
-21.0
 21
20.285999
 31
0.0
  0
LINE
  5
217
330
1D9
100
AcDbEntity
  8
MO_001_VIEW_PV
  6
BYBLOCK
100
AcDbLine
 10
0.0
 20
7.0
 30
0.0
 11
0.0
 21
20.285999
 31
0.0
  0
LINE
  5
218
330
1D9
100
AcDbEntity
  8
MO_001_VIEW_PV
  6
BYBLOCK
100
AcDbLine
 10
-21.0
 20
7.0
 30
0.0
 11
-21.0
 21
10.94577499999999
 31
0.0
  0
ENDBLK
  5
219
330
1D9
100
AcDbEntity
  8
0
100
AcDbBlockEnd
  0
BLOCK
  5
21A
330
1DB
100
AcDbEntity
  8
0
100
AcDbBlockBegin
  2
*D3
 70
     1
 10
0.0
 20
0.0
 30
0.0
  3
*D3
  1

  0
TEXT
  5
21B
330
1DB
100
AcDbEntity
  8
MO_001_VIEW_PV
  6
BYBLOCK
100
AcDbText
 10
-20.821429
 20
24.75
 30
0.0
 40
3.0
  1
30.5
100
AcDbText
  0
LINE
  5
21C
330
1DB
100
AcDbEntity
  8
MO_001_VIEW_PV
  6
BYBLOCK
100
AcDbLine
 10
0.0
 20
24.0
 30
0.0
 11
-30.5
 21
24.0
 31
0.0
  0
SOLID
  5
21D
330
1DB
100
AcDbEntity
  8
MO_001_VIEW_PV
  6
BYBLOCK
100
AcDbTrace
 10
-3.318259999999999
 20
23.416488
 30
0.0
 11
-0.508
 21
24.0
 31
0.0
 12
-3.318259999999999
 22
24.583512
 32
0.0
 13
-3.318259999999999
 23
24.583512
 33
0.0
  0
SOLID
  5
21E
330
1DB
100
AcDbEntity
  8
MO_001_VIEW_PV
  6
BYBLOCK
100
AcDbTrace
 10
-27.18174
 20
24.583512
 30
0.0
 11
-29.992
 21
24.0
 31
0.0
 12
-27.18174
 22
23.416488
 32
0.0
 13
-27.18174
 23
23.416488
 33
0.0
  0
LINE
  5
21F
330
1DB
100
AcDbEntity
  8
MO_001_VIEW_PV
  6
BYBLOCK
100
AcDbLine
 10
0.0
 20
7.0
 30
0.0
 11
0.0
 21
26.285999
 31
0.0
  0
LINE
  5
220
330
1DB
100
AcDbEntity
  8
MO_001_VIEW_PV
  6
BYBLOCK
100
AcDbLine
 10
-30.5
 20
2.199997
 30
0.0
 11
-30.5
 21
26.285999
 31
0.0
  0
ENDBLK
  5
221
330
1DB
100
AcDbEntity
  8
0
100
AcDbBlockEnd
  0
BLOCK
  5
222
330
1DD
100
AcDbEntity
  8
0
100
AcDbBlockBegin
  2
*D4
 70
     1
 10
0.0
 20
0.0
 30
0.0
  3
*D4
  1

  0
TEXT
  5
223
330
1DD
100
AcDbEntity
  8
MO_001_VIEW_PV
  6
BYBLOCK
100
AcDbText
 10
-38.625
 20
12.79392899999999
 30
0.0
 40
1.5
  1
%%P0.05
 50
90.0
100
AcDbText
  0
TEXT
  5
224
330
1DD
100
AcDbEntity
  8
MO_001_VIEW_PV
  6
BYBLOCK
100
AcDbText
 10
-36.75
 20
7.008214999999999
 30
0.0
 40
3.0
  1
%%C5
 50
90.0
100
AcDbText
  0
LINE
  5
225
330
1DD
100
AcDbEntity
  8
MO_001_VIEW_PV
  6
BYBLOCK
100
AcDbLine
 10
-36.0
 20
2.5
 30
0.0
 11
-36.0
 21
-2.5
 31
0.0
  0
LINE
  5
226
330
1DD
100
AcDbEntity
  8
MO_001_VIEW_PV
  6
BYBLOCK
100
AcDbLine
 10
-36.0
 20
2.5
 30
0.0
 11
-36.0
 21
8.849999999999999
 31
0.0
  0
LINE
  5
227
330
1DD
100
AcDbEntity
  8
MO_001_VIEW_PV
  6
BYBLOCK
100
AcDbLine
 10
-36.0
 20
-2.5
 30
0.0
 11
-36.0
 21
-8.849999999999999
 31
0.0
  0
SOLID
  5
228
330
1DD
100
AcDbEntity
  8
MO_001_VIEW_PV
  6
BYBLOCK
100
AcDbTrace
 10
-36.583512
 20
5.818259999999999
 30
0.0
 11
-36.0
 21
3.008
 31
0.0
 12
-35.416488
 22
5.818259999999999
 32
0.0
 13
-35.416488
 23
5.818259999999999
 33
0.0
  0
SOLID
  5
229
330
1DD
100
AcDbEntity
  8
MO_001_VIEW_PV
  6
BYBLOCK
100
AcDbTrace
 10
-35.416488
 20
-5.818259999999999
 30
0.0
 11
-36.0
 21
-3.008
 31
0.0
 12
-36.583512
 22
-5.818259999999999
 32
0.0
 13
-36.583512
 23
-5.818259999999999
 33
0.0
  0
LINE
  5
22A
330
1DD
100
AcDbEntity
  8
MO_001_VIEW_PV
  6
BYBLOCK
100
AcDbLine
 10
-30.200001
 20
2.5
 30
0.0
 11
-38.285999
 21
2.5
 31
0.0
  0
LINE
  5
22B
330
1DD
100
AcDbEntity
  8
MO_001_VIEW_PV
  6
BYBLOCK
100
AcDbLine
 10
-30.200001
 20
-2.5
 30
0.0
 11
-38.285999
 21
-2.5
 31
0.0
  0
LINE
  5
22C
330
1DD
100
AcDbEntity
  8
MO_001_VIEW_PV
  6
BYBLOCK
100
AcDbLine
 10
-36.0
 20
20.61535799999999
 30
0.0
 11
-36.0
 21
2.5
 31
0.0
  0
ENDBLK
  5
22D
330
1DD
100
AcDbEntity
  8
0
100
AcDbBlockEnd
  0
BLOCK
  5
22E
330
1DF
100
AcDbEntity
  8
0
100
AcDbBlockBegin
  2
*D5
 70
     1
 10
0.0
 20
0.0
 30
0.0
  3
*D5
  1

  0
TEXT
  5
22F
330
1DF
100
AcDbEntity
  8
MO_001_VIEW_PV
  6
BYBLOCK
100
AcDbText
 10
-37.54832899999999
 20
-18.375
 30
0.0
 40
1.5
  1
%%P0.2
100
AcDbText
  0
TEXT
  5
230
330
1DF
100
AcDbEntity
  8
MO_001_VIEW_PV
  6
BYBLOCK
100
AcDbText
 10
-46.33404399999999
 20
-20.24999999999999
 30
0.0
 40
3.0
  1
2.5
100
AcDbText
  0
LINE
  5
231
330
1DF
100
AcDbEntity
  8
MO_001_VIEW_PV
  6
BYBLOCK
100
AcDbLine
 10
-28.0
 20
-21.0
 30
0.0
 11
-30.5
 21
-21.0
 31
0.0
  0
LINE
  5
232
330
1DF
100
AcDbEntity
  8
MO_001_VIEW_PV
  6
BYBLOCK
100
AcDbLine
 10
-28.0
 20
-21.0
 30
0.0
 11
-21.65
 21
-21.0
 31
0.0
  0
LINE
  5
233
330
1DF
100
AcDbEntity
  8
MO_001_VIEW_PV
  6
BYBLOCK
100
AcDbLine
 10
-30.5
 20
-21.0
 30
0.0
 11
-36.85
 21
-21.0
 31
0.0
  0
SOLID
  5
234
330
1DF
100
AcDbEntity
  8
MO_001_VIEW_PV
  6
BYBLOCK
100
AcDbTrace
 10
-24.68173999999999
 20
-20.416488
 30
0.0
 11
-27.492
 21
-21.0
 31
0.0
 12
-24.68173999999999
 22
-21.58351199999999
 32
0.0
 13
-24.68173999999999
 23
-21.58351199999999
 33
0.0
  0
SOLID
  5
235
330
1DF
100
AcDbEntity
  8
MO_001_VIEW_PV
  6
BYBLOCK
100
AcDbTrace
 10
-33.81825999999999
 20
-21.58351199999999
 30
0.0
 11
-31.008
 21
-21.0
 31
0.0
 12
-33.81825999999999
 22
-20.416488
 32
0.0
 13
-33.81825999999999
 23
-20.416488
 33
0.0
  0
LINE
  5
236
330
1DF
100
AcDbEntity
  8
MO_001_VIEW_PV
  6
BYBLOCK
100
AcDbLine
 10
-28.0
 20
-2.039613
 30
0.0
 11
-28.0
 21
-23.28599899999999
 31
0.0
  0
LINE
  5
237
330
1DF
100
AcDbEntity
  8
MO_001_VIEW_PV
  6
BYBLOCK
100
AcDbLine
 10
-30.5
 20
-2.199997
 30
0.0
 11
-30.5
 21
-23.28599899999999
 31
0.0
  0
LINE
  5
238
330
1DF
100
AcDbEntity
  8
MO_001_VIEW_PV
  6
BYBLOCK
100
AcDbLine
 10
-30.5
 20
-21.0
 30
0.0
 11
-47.298328
 21
-21.0
 31
0.0
  0
ENDBLK
  5
239
330
1DF
100
AcDbEntity
  8
0
100
AcDbBlockEnd
  0
BLOCK
  5
23A
330
1E1
100
AcDbEntity
  8
0
100
AcDbBlockBegin
  2
*D6
 70
     1
 10
0.0
 20
0.0
 30
0.0
  3
*D6
  1

  0
TEXT
  5
23B
330
1E1
100
AcDbEntity
  8
MO_001_VIEW_PV
  6
BYBLOCK
100
AcDbText
 10
4.928570999999999
 20
-14.25
 30
0.0
 40
3.0
  1
(0.5)
100
AcDbText
  0
LINE
  5
23C
330
1E1
100
AcDbEntity
  8
MO_001_VIEW_PV
  6
BYBLOCK
100
AcDbLine
 10
0.5000010000000001
 20
-15.0
 30
0.0
 11
0.0
 21
-15.0
 31
0.0
  0
LINE
  5
23D
330
1E1
100
AcDbEntity
  8
MO_001_VIEW_PV
  6
BYBLOCK
100
AcDbLine
 10
0.5000010000000001
 20
-15.0
 30
0.0
 11
6.850000999999999
 21
-15.0
 31
0.0
  0
LINE
  5
23E
330
1E1
100
AcDbEntity
  8
MO_001_VIEW_PV
  6
BYBLOCK
100
AcDbLine
 10
0.0
 20
-15.0
 30
0.0
 11
-6.349999999999999
 21
-15.0
 31
0.0
  0
SOLID
  5
23F
330
1E1
100
AcDbEntity
  8
MO_001_VIEW_PV
  6
BYBLOCK
100
AcDbTrace
 10
3.818261
 20
-14.416488
 30
0.0
 11
1.008000999999999
 21
-15.0
 31
0.0
 12
3.818261
 22
-15.58351199999999
 32
0.0
 13
3.818261
 23
-15.58351199999999
 33
0.0
  0
SOLID
  5
240
330
1E1
100
AcDbEntity
  8
MO_001_VIEW_PV
  6
BYBLOCK
100
AcDbTrace
 10
-3.318259999999999
 20
-15.58351199999999
 30
0.0
 11
-0.508
 21
-15.0
 31
0.0
 12
-3.318259999999999
 22
-14.416488
 32
0.0
 13
-3.318259999999999
 23
-14.416488
 33
0.0
  0
LINE
  5
241
330
1E1
100
AcDbEntity
  8
MO_001_VIEW_PV
  6
BYBLOCK
100
AcDbLine
 10
0.5000010000000001
 20
-1.0
 30
0.0
 11
0.5000010000000001
 21
-17.285999
 31
0.0
  0
LINE
  5
242
330
1E1
100
AcDbEntity
  8
MO_001_VIEW_PV
  6
BYBLOCK
100
AcDbLine
 10
0.0
 20
-7.0
 30
0.0
 11
0.0
 21
-17.285999
 31
0.0
  0
LINE
  5
243
330
1E1
100
AcDbEntity
  8
MO_001_VIEW_PV
  6
BYBLOCK
100
AcDbLine
 10
20.035715
 20
-15.0
 30
0.0
 11
0.5000010000000001
 21
-15.0
 31
0.0
  0
ENDBLK
  5
244
330
1E1
100
AcDbEntity
  8
0
100
AcDbBlockEnd
  0
BLOCK
  5
245
330
1E3
100
AcDbEntity
  8
0
100
AcDbBlockBegin
  2
*D7
 70
     1
 10
0.0
 20
0.0
 30
0.0
  3
*D7
  1

  0
TEXT
  5
246
330
1E3
100
AcDbEntity
  8
MO_001_VIEW_PV
  6
BYBLOCK
100
AcDbText
 10
0.8954229999999999
 20
-27.375
 30
0.0
 40
1.5
  1
%%P0.2
100
AcDbText
  0
TEXT
  5
247
330
1E3
100
AcDbEntity
  8
MO_001_VIEW_PV
  6
BYBLOCK
100
AcDbText
 10
-1.890290999999999
 20
-29.25
 30
0.0
 40
3.0
  1
8
100
AcDbText
  0
LINE
  5
248
330
1E3
100
AcDbEntity
  8
MO_001_VIEW_PV
  6
BYBLOCK
100
AcDbLine
 10
-6.5
 20
-30.0
 30
0.0
 11
-14.5
 21
-30.0
 31
0.0
  0
LINE
  5
249
330
1E3
100
AcDbEntity
  8
MO_001_VIEW_PV
  6
BYBLOCK
100
AcDbLine
 10
-6.5
 20
-30.0
 30
0.0
 11
-0.15
 21
-30.0
 31
0.0
  0
LINE
  5
24A
330
1E3
100
AcDbEntity
  8
MO_001_VIEW_PV
  6
BYBLOCK
100
AcDbLine
 10
-14.5
 20
-30.0
 30
0.0
 11
-20.85
 21
-30.0
 31
0.0
  0
SOLID
  5
24B
330
1E3
100
AcDbEntity
  8
MO_001_VIEW_PV
  6
BYBLOCK
100
AcDbTrace
 10
-3.18174
 20
-29.416488
 30
0.0
 11
-5.992
 21
-30.0
 31
0.0
 12
-3.18174
 22
-30.583512
 32
0.0
 13
-3.18174
 23
-30.583512
 33
0.0
  0
SOLID
  5
24C
330
1E3
100
AcDbEntity
  8
MO_001_VIEW_PV
  6
BYBLOCK
100
AcDbTrace
 10
-17.81826
 20
-30.583512
 30
0.0
 11
-15.00799999999999
 21
-30.0
 31
0.0
 12
-17.81826
 22
-29.416488
 32
0.0
 13
-17.81826
 23
-29.416488
 33
0.0
  0
LINE
  5
24D
330
1E3
100
AcDbEntity
  8
MO_001_VIEW_PV
  6
BYBLOCK
100
AcDbLine
 10
-6.5
 20
-5.5
 30
0.0
 11
-6.5
 21
-32.28599899999999
 31
0.0
  0
LINE
  5
24E
330
1E3
100
AcDbEntity
  8
MO_001_VIEW_PV
  6
BYBLOCK
100
AcDbLine
 10
-14.5
 20
-5.5
 30
0.0
 11
-14.5
 21
-32.28599899999999
 31
0.0
  0
LINE
  5
24F
330
1E3
100
AcDbEntity
  8
MO_001_VIEW_PV
  6
BYBLOCK
100
AcDbLine
 10
7.216850999999999
 20
-30.0
 30
0.0
 11
-6.5
 21
-30.0
 31
0.0
  0
ENDBLK
  5
250
330
1E3
100
AcDbEntity
  8
0
100
AcDbBlockEnd
  0
BLOCK
  5
251
330
1E5
100
AcDbEntity
  8
0
100
AcDbBlockBegin
  2
*D8
 70
     1
 10
0.0
 20
0.0
 30
0.0
  3
*D8
  1

  0
TEXT
  5
252
330
1E5
100
AcDbEntity
  8
MO_001_VIEW_PV
  6
BYBLOCK
100
AcDbText
 10
-34.534646
 20
-27.375
 30
0.0
 40
1.5
  1
%%P0.5
100
AcDbText
  0
TEXT
  5
253
330
1E5
100
AcDbEntity
  8
MO_001_VIEW_PV
  6
BYBLOCK
100
AcDbText
 10
-46.32036
 20
-29.25
 30
0.0
 40
3.0
  1
13.5
100
AcDbText
  0
LINE
  5
254
330
1E5
100
AcDbEntity
  8
MO_001_VIEW_PV
  6
BYBLOCK
100
AcDbLine
 10
-28.0
 20
-30.0
 30
0.0
 11
-14.5
 21
-30.0
 31
0.0
  0
SOLID
  5
255
330
1E5
100
AcDbEntity
  8
MO_001_VIEW_PV
  6
BYBLOCK
100
AcDbTrace
 10
-24.68173999999999
 20
-29.416488
 30
0.0
 11
-27.492
 21
-30.0
 31
0.0
 12
-24.68173999999999
 22
-30.583512
 32
0.0
 13
-24.68173999999999
 23
-30.583512
 33
0.0
  0
SOLID
  5
256
330
1E5
100
AcDbEntity
  8
MO_001_VIEW_PV
  6
BYBLOCK
100
AcDbTrace
 10
-17.81826
 20
-30.583512
 30
0.0
 11
-15.00799999999999
 21
-30.0
 31
0.0
 12
-17.81826
 22
-29.416488
 32
0.0
 13
-17.81826
 23
-29.416488
 33
0.0
  0
LINE
  5
257
330
1E5
100
AcDbEntity
  8
MO_001_VIEW_PV
  6
BYBLOCK
100
AcDbLine
 10
-28.0
 20
-2.039613
 30
0.0
 11
-28.0
 21
-32.28599899999999
 31
0.0
  0
LINE
  5
258
330
1E5
100
AcDbEntity
  8
MO_001_VIEW_PV
  6
BYBLOCK
100
AcDbLine
 10
-14.5
 20
-5.5
 30
0.0
 11
-14.5
 21
-32.28599899999999
 31
0.0
  0
LINE
  5
259
330
1E5
100
AcDbEntity
  8
MO_001_VIEW_PV
  6
BYBLOCK
100
AcDbLine
 10
-47.284645
 20
-30.0
 30
0.0
 11
-28.0
 21
-30.0
 31
0.0
  0
ENDBLK
  5
25A
330
1E5
100
AcDbEntity
  8
0
100
AcDbBlockEnd
  0
BLOCK
  5
25B
330
1E7
100
AcDbEntity
  8
0
100
AcDbBlockBegin
  2
*D9
 70
     1
 10
0.0
 20
0.0
 30
0.0
  3
*D9
  1

  0
LINE
  5
25C
330
1E7
100
AcDbEntity
  8
MO_001_VIEW_PV
  6
BYBLOCK
100
AcDbLine
 10
0.0
 20
-21.0
 30
0.0
 11
44.0
 21
-21.0
 31
0.0
  0
SOLID
  5
25D
330
1E7
100
AcDbEntity
  8
MO_001_VIEW_PV
  6
BYBLOCK
100
AcDbTrace
 10
3.318259999999999
 20
-20.416488
 30
0.0
 11
0.508
 21
-21.0
 31
0.0
 12
3.318259999999999
 22
-21.58351199999999
 32
0.0
 13
3.318259999999999
 23
-21.58351199999999
 33
0.0
  0
SOLID
  5
25E
330
1E7
100
AcDbEntity
  8
MO_001_VIEW_PV
  6
BYBLOCK
100
AcDbTrace
 10
40.68174
 20
-21.58351199999999
 30
0.0
 11
43.49199999999999
 21
-21.0
 31
0.0
 12
40.68174
 22
-20.416488
 32
0.0
 13
40.68174
 23
-20.416488
 33
0.0
  0
LINE
  5
25F
330
1E7
100
AcDbEntity
  8
MO_001_VIEW_PV
  6
BYBLOCK
100
AcDbLine
 10
0.0
 20
-7.0
 30
0.0
 11
0.0
 21
-23.28599899999999
 31
0.0
  0
LINE
  5
260
330
1E7
100
AcDbEntity
  8
MO_001_VIEW_PV
  6
BYBLOCK
100
AcDbLine
 10
44.0
 20
-8.300499
 30
0.0
 11
44.0
 21
-23.28599899999999
 31
0.0
  0
TEXT
  5
261
330
1E7
100
AcDbEntity
  8
MO_001_VIEW_PV
  6
BYBLOCK
100
AcDbText
 10
11.142856
 20
-20.24999999999999
 30
0.0
 40
3.0
  1
長さ240以上
100
AcDbText
  0
ENDBLK
  5
262
330
1E7
100
AcDbEntity
  8
0
100
AcDbBlockEnd
  0
BLOCK
  5
263
330
1E9
100
AcDbEntity
  8
0
100
AcDbBlockBegin
  2
*D10
 70
     1
 10
0.0
 20
0.0
 30
0.0
  3
*D10
  1

  0
LINE
  5
264
330
1E9
100
AcDbEntity
  8
MO_001_VIEW_PV
  6
BYBLOCK
100
AcDbLine
 10
-20.0
 20
-41.0
 30
0.0
 11
0.0
 21
-41.0
 31
0.0
  0
SOLID
  5
265
330
1E9
100
AcDbEntity
  8
MO_001_VIEW_PV
  6
BYBLOCK
100
AcDbTrace
 10
-16.68173999999999
 20
-40.41648799999999
 30
0.0
 11
-19.492
 21
-41.0
 31
0.0
 12
-16.68173999999999
 22
-41.583512
 32
0.0
 13
-16.68173999999999
 23
-41.583512
 33
0.0
  0
SOLID
  5
266
330
1E9
100
AcDbEntity
  8
MO_001_VIEW_PV
  6
BYBLOCK
100
AcDbTrace
 10
-3.318259999999999
 20
-41.583512
 30
0.0
 11
-0.508
 21
-41.0
 31
0.0
 12
-3.318259999999999
 22
-40.41648799999999
 32
0.0
 13
-3.318259999999999
 23
-40.41648799999999
 33
0.0
  0
LINE
  5
267
330
1E9
100
AcDbEntity
  8
MO_001_VIEW_PV
  6
BYBLOCK
100
AcDbLine
 10
-20.0
 20
-48.300003
 30
0.0
 11
-20.0
 21
-38.71399699999999
 31
0.0
  0
LINE
  5
268
330
1E9
100
AcDbEntity
  8
MO_001_VIEW_PV
  6
BYBLOCK
100
AcDbLine
 10
0.0
 20
-48.300003
 30
0.0
 11
0.0
 21
-38.71399699999999
 31
0.0
  0
TEXT
  5
269
330
1E9
100
AcDbEntity
  8
MO_001_VIEW_PV
  6
BYBLOCK
100
AcDbText
 10
-9.785714
 20
-38.375
 30
0.0
 40
1.5
  1
%%P0.5
100
AcDbText
  0
TEXT
  5
26A
330
1E9
100
AcDbEntity
  8
MO_001_VIEW_PV
  6
BYBLOCK
100
AcDbText
 10
-15.571429
 20
-40.25
 30
0.0
 40
3.0
  1
20
100
AcDbText
  0
ENDBLK
  5
26B
330
1E9
100
AcDbEntity
  8
0
100
AcDbBlockEnd
  0
BLOCK
  5
26C
330
1EB
100
AcDbEntity
  8
0
100
AcDbBlockBegin
  2
*D11
 70
     1
 10
0.0
 20
0.0
 30
0.0
  3
*D11
  1

  0
LINE
  5
26D
330
1EB
100
AcDbEntity
  8
MO_001_VIEW_PV
  6
BYBLOCK
100
AcDbLine
 10
-57.099998
 20
-18.0
 30
0.0
 11
-74.89999399999999
 21
-18.0
 31
0.0
  0
LINE
  5
26E
330
1EB
100
AcDbEntity
  8
MO_001_VIEW_PV
  6
BYBLOCK
100
AcDbLine
 10
-57.099998
 20
-18.0
 30
0.0
 11
-50.749999
 21
-18.0
 31
0.0
  0
LINE
  5
26F
330
1EB
100
AcDbEntity
  8
MO_001_VIEW_PV
  6
BYBLOCK
100
AcDbLine
 10
-74.89999399999999
 20
-18.0
 30
0.0
 11
-81.249994
 21
-18.0
 31
0.0
  0
SOLID
  5
270
330
1EB
100
AcDbEntity
  8
MO_001_VIEW_PV
  6
BYBLOCK
100
AcDbTrace
 10
-53.78173799999999
 20
-17.416488
 30
0.0
 11
-56.59199799999999
 21
-18.0
 31
0.0
 12
-53.78173799999999
 22
-18.58351199999999
 32
0.0
 13
-53.78173799999999
 23
-18.58351199999999
 33
0.0
  0
SOLID
  5
271
330
1EB
100
AcDbEntity
  8
MO_001_VIEW_PV
  6
BYBLOCK
100
AcDbTrace
 10
-78.218254
 20
-18.58351199999999
 30
0.0
 11
-75.40799399999999
 21
-18.0
 31
0.0
 12
-78.218254
 22
-17.416488
 32
0.0
 13
-78.218254
 23
-17.416488
 33
0.0
  0
LINE
  5
272
330
1EB
100
AcDbEntity
  8
MO_001_VIEW_PV
  6
BYBLOCK
100
AcDbLine
 10
-57.099998
 20
-7.0
 30
0.0
 11
-57.099998
 21
-20.285999
 31
0.0
  0
LINE
  5
273
330
1EB
100
AcDbEntity
  8
MO_001_VIEW_PV
  6
BYBLOCK
100
AcDbLine
 10
-74.89999399999999
 20
-7.0
 30
0.0
 11
-74.89999399999999
 21
-20.285999
 31
0.0
  0
TEXT
  5
274
330
1EB
100
AcDbEntity
  8
MO_001_VIEW_PV
  6
BYBLOCK
100
AcDbText
 10
-63.173272
 20
-15.375
 30
0.0
 40
1.5
  1
%%P0.3
100
AcDbText
  0
TEXT
  5
275
330
1EB
100
AcDbEntity
  8
MO_001_VIEW_PV
  6
BYBLOCK
100
AcDbText
 10
-74.95898699999999
 20
-17.25
 30
0.0
 40
3.0
  1
17.8
100
AcDbText
  0
LINE
  5
276
330
1EB
100
AcDbEntity
  8
MO_001_VIEW_PV
  6
BYBLOCK
100
AcDbLine
 10
-56.851845
 20
-18.0
 30
0.0
 11
-57.099998
 21
-18.0
 31
0.0
  0
LINE
  5
277
330
1EB
100
AcDbEntity
  8
MO_001_VIEW_PV
  6
BYBLOCK
100
AcDbLine
 10
-74.89999399999999
 20
-18.0
 30
0.0
 11
-75.923271
 21
-18.0
 31
0.0
  0
ENDBLK
  5
278
330
1EB
100
AcDbEntity
  8
0
100
AcDbBlockEnd
  0
BLOCK
  5
279
330
1ED
100
AcDbEntity
  8
0
100
AcDbBlockBegin
  2
*D12
 70
     1
 10
0.0
 20
0.0
 30
0.0
  3
*D12
  1

  0
LINE
  5
27A
330
1ED
100
AcDbEntity
  8
MO_001_VIEW_PV
  6
BYBLOCK
100
AcDbLine
 10
-81.0
 20
-7.0
 30
0.0
 11
-81.0
 21
7.0
 31
0.0
  0
SOLID
  5
27B
330
1ED
100
AcDbEntity
  8
MO_001_VIEW_PV
  6
BYBLOCK
100
AcDbTrace
 10
-81.583512
 20
-3.68174
 30
0.0
 11
-81.0
 21
-6.492
 31
0.0
 12
-80.416488
 22
-3.68174
 32
0.0
 13
-80.416488
 23
-3.68174
 33
0.0
  0
SOLID
  5
27C
330
1ED
100
AcDbEntity
  8
MO_001_VIEW_PV
  6
BYBLOCK
100
AcDbTrace
 10
-80.416488
 20
3.68174
 30
0.0
 11
-81.0
 21
6.492
 31
0.0
 12
-81.583512
 22
3.68174
 32
0.0
 13
-81.583512
 23
3.68174
 33
0.0
  0
LINE
  5
27D
330
1ED
100
AcDbEntity
  8
MO_001_VIEW_PV
  6
BYBLOCK
100
AcDbLine
 10
-74.89999399999999
 20
-7.0
 30
0.0
 11
-83.28599500000001
 21
-7.0
 31
0.0
  0
LINE
  5
27E
330
1ED
100
AcDbEntity
  8
MO_001_VIEW_PV
  6
BYBLOCK
100
AcDbLine
 10
-74.89999399999999
 20
7.0
 30
0.0
 11
-83.28599500000001
 21
7.0
 31
0.0
  0
TEXT
  5
27F
330
1ED
100
AcDbEntity
  8
MO_001_VIEW_PV
  6
BYBLOCK
100
AcDbText
 10
-83.625
 20
14.85552
 30
0.0
 40
1.5
  1
%%P0.3
 50
90.0
100
AcDbText
  0
TEXT
  5
280
330
1ED
100
AcDbEntity
  8
MO_001_VIEW_PV
  6
BYBLOCK
100
AcDbText
 10
-81.75
 20
9.069805999999999
 30
0.0
 40
3.0
  1
14
 50
90.0
100
AcDbText
  0
LINE
  5
281
330
1ED
100
AcDbEntity
  8
MO_001_VIEW_PV
  6
BYBLOCK
100
AcDbLine
 10
-81.0
 20
7.0
 30
0.0
 11
-81.0
 21
21.176949
 31
0.0
  0
ENDBLK
  5
282
330
1ED
100
AcDbEntity
  8
0
100
AcDbBlockEnd
  0
BLOCK
  5
283
330
1EF
100
AcDbEntity
  8
0
100
AcDbBlockBegin
  2
*D13
 70
     1
 10
0.0
 20
0.0
 30
0.0
  3
*D13
  1

  0
LINE
  5
284
330
1EF
100
AcDbEntity
  8
MO_001_VIEW_PV
  6
BYBLOCK
100
AcDbLine
 10
-27.500001
 20
0.8660250000000001
 30
0.0
 11
-28.500001
 21
-0.866026
 31
0.0
  0
LINE
  5
285
330
1EF
100
AcDbEntity
  8
MO_001_VIEW_PV
  6
BYBLOCK
100
AcDbLine
 10
-27.500001
 20
0.8660250000000001
 30
0.0
 11
-24.325
 21
6.365286
 31
0.0
  0
LINE
  5
286
330
1EF
100
AcDbEntity
  8
MO_001_VIEW_PV
  6
BYBLOCK
100
AcDbLine
 10
-28.500001
 20
-0.866026
 30
0.0
 11
-31.675001
 21
-6.365287
 31
0.0
  0
SOLID
  5
287
330
1EF
100
AcDbEntity
  8
MO_001_VIEW_PV
  6
BYBLOCK
100
AcDbTrace
 10
-26.34620599999999
 20
4.031477999999999
 30
0.0
 11
-27.24600099999999
 21
1.305965999999999
 31
0.0
 12
-25.335535
 22
3.447966999999999
 32
0.0
 13
-25.335535
 23
3.447966999999999
 33
0.0
  0
SOLID
  5
288
330
1EF
100
AcDbEntity
  8
MO_001_VIEW_PV
  6
BYBLOCK
100
AcDbTrace
 10
-29.653795
 20
-4.031479
 30
0.0
 11
-28.754001
 21
-1.305967
 31
0.0
 12
-30.664467
 22
-3.447966999999999
 32
0.0
 13
-30.664467
 23
-3.447966999999999
 33
0.0
  0
LINE
  5
289
330
1EF
100
AcDbEntity
  8
MO_001_VIEW_PV
  6
BYBLOCK
100
AcDbLine
 10
-28.500001
 20
-0.866026
 30
0.0
 11
-36.663726
 21
-15.00601
 31
0.0
  0
ENDBLK
  5
28A
330
1EF
100
AcDbEntity
  8
0
100
AcDbBlockEnd
  0
BLOCK
  5
28B
330
1F1
100
AcDbEntity
  8
0
100
AcDbBlockBegin
  2
*D14
 70
     1
 10
0.0
 20
0.0
 30
0.0
  3
*D14
  1

  0
LINE
  5
28C
330
1F1
100
AcDbEntity
  8
MO_001_VIEW_PV
  6
BYBLOCK
100
AcDbLine
 10
-20.0
 20
-41.0
 30
0.0
 11
-30.5
 21
-41.0
 31
0.0
  0
SOLID
  5
28D
330
1F1
100
AcDbEntity
  8
MO_001_VIEW_PV
  6
BYBLOCK
100
AcDbTrace
 10
-23.31826
 20
-41.583512
 30
0.0
 11
-20.508
 21
-41.0
 31
0.0
 12
-23.31826
 22
-40.41648799999999
 32
0.0
 13
-23.31826
 23
-40.41648799999999
 33
0.0
  0
SOLID
  5
28E
330
1F1
100
AcDbEntity
  8
MO_001_VIEW_PV
  6
BYBLOCK
100
AcDbTrace
 10
-27.18174
 20
-40.41648799999999
 30
0.0
 11
-29.992
 21
-41.0
 31
0.0
 12
-27.18174
 22
-41.583512
 32
0.0
 13
-27.18174
 23
-41.583512
 33
0.0
  0
LINE
  5
28F
330
1F1
100
AcDbEntity
  8
MO_001_VIEW_PV
  6
BYBLOCK
100
AcDbLine
 10
-20.0
 20
-48.300003
 30
0.0
 11
-20.0
 21
-38.71399699999999
 31
0.0
  0
LINE
  5
290
330
1F1
100
AcDbEntity
  8
MO_001_VIEW_PV
  6
BYBLOCK
100
AcDbLine
 10
-30.5
 20
-53.800003
 30
0.0
 11
-30.5
 21
-38.71399699999999
 31
0.0
  0
TEXT
  5
291
330
1F1
100
AcDbEntity
  8
MO_001_VIEW_PV
  6
BYBLOCK
100
AcDbText
 10
-48.404498
 20
-40.25
 30
0.0
 40
3.0
  1
(10.5)
100
AcDbText
  0
LINE
  5
292
330
1F1
100
AcDbEntity
  8
MO_001_VIEW_PV
  6
BYBLOCK
100
AcDbLine
 10
-30.5
 20
-41.0
 30
0.0
 11
-49.368782
 21
-41.0
 31
0.0
  0
ENDBLK
  5
293
330
1F1
100
AcDbEntity
  8
0
100
AcDbBlockEnd
  0
ENDSEC
  0
SECTION
  2
ENTITIES
  0
TEXT
  5
4B
330
1E
100
AcDbEntity
  8
OVERLAY_MAP
  6
C_SOLID_L
100
AcDbText
 10
0.0
 20
6.349999999999999
 30
0.0
 40
4.1672
  1
Model Overlay Name
100
AcDbText
  0
TEXT
  5
4C
330
1E
100
AcDbEntity
  8
OVERLAY_MAP
  6
C_SOLID_L
100
AcDbText
 10
126.999998
 20
0.0
 30
0.0
 40
4.1672
  1
Number
100
AcDbText
  0
TEXT
  5
4D
330
1E
100
AcDbEntity
  8
OVERLAY_MAP
  6
C_SOLID_L
100
AcDbText
 10
177.7999969999999
 20
0.0
 30
0.0
 40
4.1672
  1
File Text
100
AcDbText
  0
TEXT
  5
4E
330
1E
100
AcDbEntity
  8
OVERLAY_MAP
  6
C_SOLID_L
100
AcDbText
 10
0.0
 20
-6.349999999999999
 30
0.0
 40
4.1672
  1
op sk0520a 
100
AcDbText
  0
TEXT
  5
4F
330
1E
100
AcDbEntity
  8
OVERLAY_MAP
  6
C_SOLID_L
100
AcDbText
 10
126.999998
 20
-6.349999999999999
 30
0.0
 40
4.1672
  1
001
100
AcDbText
  0
TEXT
  5
50
330
1E
100
AcDbEntity
  8
OVERLAY_MAP
  6
C_SOLID_L
100
AcDbText
 10
177.7999969999999
 20
-6.349999999999999
 30
0.0
 40
4.1672
  1
                                                                   00139
100
AcDbText
  0
LINE
  5
51
330
1E
100
AcDbEntity
  8
MO_001_VIEW_PV
  6
C_SOLID_M
100
AcDbLine
 10
-21.0
 20
-63.699997
 30
0.0
 11
-21.0
 21
-64.900002
 31
0.0
  0
LINE
  5
52
330
1E
100
AcDbEntity
  8
MO_001_VIEW_PV
  6
C_SOLID_M
100
AcDbLine
 10
0.0
 20
-57.720001
 30
0.0
 11
0.0
 21
-63.699997
 31
0.0
  0
LINE
  5
53
330
1E
100
AcDbEntity
  8
MO_001_VIEW_PV
  6
C_SOLID_M
100
AcDbLine
 10
-21.0
 20
-48.300003
 30
0.0
 11
-1.199999
 21
-48.300003
 31
0.0
  0
LINE
  5
54
330
1E
100
AcDbEntity
  8
MO_001_VIEW_PV
  6
C_SOLID_M
100
AcDbLine
 10
-21.0
 20
-63.699997
 30
0.0
 11
-1.199999
 21
-63.699997
 31
0.0
  0
LINE
  5
55
330
1E
100
AcDbEntity
  8
MO_001_VIEW_PV
  6
C_SOLID_M
100
AcDbLine
 10
-21.0
 20
-47.099998
 30
0.0
 11
-1.199999999999999
 21
-47.099998
 31
0.0
  0
LINE
  5
56
330
1E
100
AcDbEntity
  8
MO_001_VIEW_PV
  6
C_SOLID_M
100
AcDbLine
 10
-21.0
 20
-64.900002
 30
0.0
 11
-1.199999999999999
 21
-64.900002
 31
0.0
  0
LINE
  5
57
330
1E
100
AcDbEntity
  8
MO_001_VIEW_PV
  6
C_SOLID_M
100
AcDbLine
 10
-18.39999999999999
 20
-48.300003
 30
0.0
 11
-18.39999999999999
 21
-63.699997
 31
0.0
  0
LINE
  5
58
330
1E
100
AcDbEntity
  8
MO_001_VIEW_PV
  6
C_SOLID_M
100
AcDbLine
 10
-21.0
 20
-47.099998
 30
0.0
 11
-21.0
 21
-48.300003
 31
0.0
  0
ARC
  5
59
330
1E
100
AcDbEntity
  8
MO_001_VIEW_PV
  6
C_SOLID_M
100
AcDbCircle
 10
-1.199999999999999
 20
-48.300003
 30
0.0
 40
1.199999999999999
100
AcDbArc
 50
0.0
 51
89.99998900000001
  0
ARC
  5
5A
330
1E
100
AcDbEntity
  8
MO_001_VIEW_PV
  6
C_SOLID_M
100
AcDbCircle
 10
-1.199999999999999
 20
-63.699997
 30
0.0
 40
1.199999999999999
100
AcDbArc
 50
269.999998
 51
0.0
  0
LINE
  5
5B
330
1E
100
AcDbEntity
  8
MO_001_VIEW_PV
  6
C_CENTER_L
100
AcDbLine
 10
-31.65313499999999
 20
-56.0
 30
0.0
 11
3.0
 21
-56.0
 31
0.0
  0
LINE
  5
5C
330
1E
100
AcDbEntity
  8
MO_001_VIEW_PV
  6
C_SOLID_M
100
AcDbLine
 10
-1.199999
 20
-50.19999699999999
 30
0.0
 11
0.0
 21
-50.19999699999999
 31
0.0
  0
LINE
  5
5D
330
1E
100
AcDbEntity
  8
MO_001_VIEW_PV
  6
C_SOLID_M
100
AcDbLine
 10
-1.199999
 20
-51.0
 30
0.0
 11
0.0
 21
-51.0
 31
0.0
  0
LINE
  5
5E
330
1E
100
AcDbEntity
  8
MO_001_VIEW_PV
  6
C_SOLID_M
100
AcDbLine
 10
-1.199999
 20
-61.0
 30
0.0
 11
0.0
 21
-61.0
 31
0.0
  0
LINE
  5
5F
330
1E
100
AcDbEntity
  8
MO_001_VIEW_PV
  6
C_SOLID_M
100
AcDbLine
 10
-1.199999
 20
-61.800003
 30
0.0
 11
0.0
 21
-61.800003
 31
0.0
  0
LINE
  5
60
330
1E
100
AcDbEntity
  8
MO_001_VIEW_PV
  6
C_SOLID_M
100
AcDbLine
 10
0.0
 20
7.0
 30
0.0
 11
0.0
 21
-7.0
 31
0.0
  0
LINE
  5
61
330
1E
100
AcDbEntity
  8
MO_001_VIEW_PV
  6
C_SOLID_M
100
AcDbLine
 10
-18.39999999999999
 20
3.600001999999999
 30
0.0
 11
-18.39999999999999
 21
-3.599998
 31
0.0
  0
LINE
  5
62
330
1E
100
AcDbEntity
  8
MO_001_VIEW_PV
  6
C_CENTER_L
100
AcDbLine
 10
8.0
 20
0.0
 30
0.0
 11
-31.951214
 21
0.0
 31
0.0
  0
LINE
  5
63
330
1E
100
AcDbEntity
  8
MO_001_VIEW_PV
  6
C_SOLID_M
100
AcDbLine
 10
0.0
 20
-7.0
 30
0.0
 11
-21.0
 21
-7.0
 31
0.0
  0
LINE
  5
64
330
1E
100
AcDbEntity
  8
MO_001_VIEW_PV
  6
C_SOLID_M
100
AcDbLine
 10
0.0
 20
7.0
 30
0.0
 11
-21.0
 21
7.0
 31
0.0
  0
LINE
  5
65
330
1E
100
AcDbEntity
  8
MO_001_VIEW_PV
  6
C_SOLID_M
100
AcDbLine
 10
-21.0
 20
3.922648999999999
 30
0.0
 11
-21.0
 21
2.922649999999999
 31
0.0
  0
CIRCLE
  5
66
330
1E
100
AcDbEntity
  8
MO_001_VIEW_PV
  6
C_SOLID_L
100
AcDbCircle
 10
-14.5
 20
3.5
 30
0.0
 40
1.3
  0
CIRCLE
  5
67
330
1E
100
AcDbEntity
  8
MO_001_VIEW_PV
  6
C_SOLID_M
100
AcDbCircle
 10
-14.5
 20
3.5
 30
0.0
 40
1.1
  0
CIRCLE
  5
68
330
1E
100
AcDbEntity
  8
MO_001_VIEW_PV
  6
C_SOLID_M
100
AcDbCircle
 10
-14.5
 20
-3.5
 30
0.0
 40
1.1
  0
CIRCLE
  5
69
330
1E
100
AcDbEntity
  8
MO_001_VIEW_PV
  6
C_SOLID_L
100
AcDbCircle
 10
-14.5
 20
-3.5
 30
0.0
 40
1.3
  0
CIRCLE
  5
6A
330
1E
100
AcDbEntity
  8
MO_001_VIEW_PV
  6
C_SOLID_M
100
AcDbCircle
 10
-6.5
 20
3.5
 30
0.0
 40
1.1
  0
CIRCLE
  5
6B
330
1E
100
AcDbEntity
  8
MO_001_VIEW_PV
  6
C_SOLID_L
100
AcDbCircle
 10
-6.5
 20
3.5
 30
0.0
 40
1.3
  0
CIRCLE
  5
6C
330
1E
100
AcDbEntity
  8
MO_001_VIEW_PV
  6
C_SOLID_M
100
AcDbCircle
 10
-6.5
 20
-3.5
 30
0.0
 40
1.1
  0
CIRCLE
  5
6D
330
1E
100
AcDbEntity
  8
MO_001_VIEW_PV
  6
C_SOLID_L
100
AcDbCircle
 10
-6.5
 20
-3.5
 30
0.0
 40
1.3
  0
LINE
  5
6E
330
1E
100
AcDbEntity
  8
MO_001_VIEW_PV
  6
C_SOLID_M
100
AcDbLine
 10
-57.099998
 20
7.0
 30
0.0
 11
-57.099998
 21
-7.0
 31
0.0
  0
LINE
  5
6F
330
1E
100
AcDbEntity
  8
MO_001_VIEW_PV
  6
C_SOLID_M
100
AcDbLine
 10
-74.89999399999999
 20
7.0
 30
0.0
 11
-74.89999399999999
 21
-7.0
 31
0.0
  0
LINE
  5
70
330
1E
100
AcDbEntity
  8
MO_001_VIEW_PV
  6
C_CENTER_L
100
AcDbLine
 10
-66.0
 20
-8.799998999999999
 30
0.0
 11
-66.0
 21
8.799998999999999
 31
0.0
  0
LINE
  5
71
330
1E
100
AcDbEntity
  8
MO_001_VIEW_PV
  6
C_CENTER_L
100
AcDbLine
 10
-54.0
 20
0.0
 30
0.0
 11
-78.0
 21
0.0
 31
0.0
  0
LINE
  5
72
330
1E
100
AcDbEntity
  8
MO_001_VIEW_PV
  6
C_SOLID_M
100
AcDbLine
 10
-57.099998
 20
-7.0
 30
0.0
 11
-74.89999399999999
 21
-7.0
 31
0.0
  0
LINE
  5
73
330
1E
100
AcDbEntity
  8
MO_001_VIEW_PV
  6
C_SOLID_M
100
AcDbLine
 10
-63.300003
 20
7.0
 30
0.0
 11
-74.89999399999999
 21
7.0
 31
0.0
  0
LINE
  5
74
330
1E
100
AcDbEntity
  8
MO_001_VIEW_PV
  6
C_SOLID_M
100
AcDbLine
 10
-19.928625
 20
3.541208
 30
0.0
 11
-18.39999999999999
 21
3.600003
 31
0.0
  0
LINE
  5
75
330
1E
100
AcDbEntity
  8
MO_001_VIEW_PV
  6
C_SOLID_M
100
AcDbLine
 10
-20.0
 20
-48.300003
 30
0.0
 11
-20.0
 21
-63.699997
 31
0.0
  0
LINE
  5
76
330
1E
100
AcDbEntity
  8
MO_001_VIEW_PV
  6
C_SOLID_M
100
AcDbLine
 10
-20.0
 20
3.5
 30
0.0
 11
-20.0
 21
-3.5
 31
0.0
  0
LINE
  5
77
330
1E
100
AcDbEntity
  8
MO_001_VIEW_PV
  6
C_SOLID_M
100
AcDbLine
 10
-58.300003
 20
2.922649999999999
 30
0.0
 11
-58.300003
 21
7.0
 31
0.0
  0
ARC
  5
78
330
1E
100
AcDbEntity
  8
MO_001_VIEW_PV
  6
C_SOLID_M
100
AcDbCircle
 10
-62.300003
 20
7.0
 30
0.0
 40
1.0
100
AcDbArc
 50
180.000009
 51
0.00001
  0
CIRCLE
  5
79
330
1E
100
AcDbEntity
  8
MO_001_VIEW_PV
  6
C_SOLID_M
100
AcDbCircle
 10
-66.0
 20
0.0
 30
0.0
 40
3.2
  0
LINE
  5
7A
330
1E
100
AcDbEntity
  8
MO_001_VIEW_PV
  6
C_SOLID_M
100
AcDbLine
 10
-20.0
 20
3.5
 30
0.0
 11
-18.39999999999999
 21
3.5
 31
0.0
  0
LINE
  5
7B
330
1E
100
AcDbEntity
  8
MO_001_VIEW_PV
  6
C_SOLID_M
100
AcDbLine
 10
-20.0
 20
-3.5
 30
0.0
 11
-18.39999999999999
 21
-3.5
 31
0.0
  0
LINE
  5
7C
330
1E
100
AcDbEntity
  8
MO_001_VIEW_PV
  6
C_SOLID_M
100
AcDbLine
 10
0.5000010000000001
 20
-55.5
 30
0.0
 11
0.5000010000000001
 21
-56.5
 31
0.0
  0
LINE
  5
7D
330
1E
100
AcDbEntity
  8
MO_001_VIEW_PV
  6
C_SOLID_M
100
AcDbLine
 10
-29.200001
 20
-58.5
 30
0.0
 11
-30.200005
 21
-58.5
 31
0.0
  0
LINE
  5
7E
330
1E
100
AcDbEntity
  8
MO_001_VIEW_PV
  6
C_SOLID_M
100
AcDbLine
 10
-29.200001
 20
-53.5
 30
0.0
 11
-30.19999699999999
 21
-53.5
 31
0.0
  0
LINE
  5
7F
330
1E
100
AcDbEntity
  8
MO_001_VIEW_PV
  6
C_CENTER_L
100
AcDbLine
 10
-28.0
 20
-59.673431
 30
0.0
 11
-28.0
 21
-52.59138499999999
 31
0.0
  0
LINE
  5
80
330
1E
100
AcDbEntity
  8
MO_001_VIEW_PV
  6
C_DASHED_M
100
AcDbLine
 10
-27.0
 20
-58.199997
 30
0.0
 11
-27.0
 21
-53.800003
 31
0.0
  0
LINE
  5
81
330
1E
100
AcDbEntity
  8
MO_001_VIEW_PV
  6
C_DASHED_M
100
AcDbLine
 10
-29.0
 20
-58.199997
 30
0.0
 11
-29.0
 21
-53.800003
 31
0.0
  0
LINE
  5
82
330
1E
100
AcDbEntity
  8
MO_001_VIEW_PV
  6
C_SOLID_M
100
AcDbLine
 10
-30.5
 20
-58.199997
 30
0.0
 11
-30.5
 21
-53.800003
 31
0.0
  0
LINE
  5
83
330
1E
100
AcDbEntity
  8
MO_001_VIEW_PV
  6
C_SOLID_M
100
AcDbLine
 10
-30.500003
 20
-58.199994
 30
0.0
 11
-30.20000599999999
 21
-58.499995
 31
0.0
  0
LINE
  5
84
330
1E
100
AcDbEntity
  8
MO_001_VIEW_PV
  6
C_SOLID_M
100
AcDbLine
 10
-30.499993
 20
-53.799999
 30
0.0
 11
-30.199986
 21
-53.499997
 31
0.0
  0
LINE
  5
85
330
1E
100
AcDbEntity
  8
MO_001_VIEW_PV
  6
C_SOLID_M
100
AcDbLine
 10
-30.200001
 20
-58.5
 30
0.0
 11
-30.200001
 21
-53.5
 31
0.0
  0
POLYLINE
  5
86
330
1E
100
AcDbEntity
  8
MO_001_VIEW_PV
  6
C_SOLID_M
100
AcDb2dPolyline
 66
     1
 10
0.0
 20
0.0
 30
0.0
 70
     1
  0
VERTEX
  5
2A5
330
86
100
AcDbEntity
  8
MO_001_VIEW_PV
  6
C_SOLID_M
100
AcDbVertex
100
AcDb2dVertex
 10
-29.200001
 20
-58.5
 30
0.0
  0
VERTEX
  5
2A6
330
86
100
AcDbEntity
  8
MO_001_VIEW_PV
  6
C_SOLID_M
100
AcDbVertex
100
AcDb2dVertex
 10
-29.19380499999999
 20
-58.496554
 30
0.0
  0
VERTEX
  5
2A7
330
86
100
AcDbEntity
  8
MO_001_VIEW_PV
  6
C_SOLID_M
100
AcDbVertex
100
AcDb2dVertex
 10
-29.154478
 20
-58.475923
 30
0.0
  0
VERTEX
  5
2A8
330
86
100
AcDbEntity
  8
MO_001_VIEW_PV
  6
C_SOLID_M
100
AcDbVertex
100
AcDb2dVertex
 10
-29.102833
 20
-58.450702
 30
0.0
  0
VERTEX
  5
2A9
330
86
100
AcDbEntity
  8
MO_001_VIEW_PV
  6
C_SOLID_M
100
AcDbVertex
100
AcDb2dVertex
 10
-28.993034
 20
-58.402073
 30
0.0
  0
VERTEX
  5
2AA
330
86
100
AcDbEntity
  8
MO_001_VIEW_PV
  6
C_SOLID_M
100
AcDbVertex
100
AcDb2dVertex
 10
-28.84853
 20
-58.346584
 30
0.0
  0
VERTEX
  5
2AB
330
86
100
AcDbEntity
  8
MO_001_VIEW_PV
  6
C_SOLID_M
100
AcDbVertex
100
AcDb2dVertex
 10
-28.670933
 20
-58.290252
 30
0.0
  0
VERTEX
  5
2AC
330
86
100
AcDbEntity
  8
MO_001_VIEW_PV
  6
C_SOLID_M
100
AcDbVertex
100
AcDb2dVertex
 10
-28.520251
 20
-58.252329
 30
0.0
  0
VERTEX
  5
2AD
330
86
100
AcDbEntity
  8
MO_001_VIEW_PV
  6
C_SOLID_M
100
AcDbVertex
100
AcDb2dVertex
 10
-28.27100599999999
 20
-58.209665
 30
0.0
  0
VERTEX
  5
2AE
330
86
100
AcDbEntity
  8
MO_001_VIEW_PV
  6
C_SOLID_M
100
AcDbVertex
100
AcDb2dVertex
 10
-28.0
 20
-58.193169
 30
0.0
  0
VERTEX
  5
2AF
330
86
100
AcDbEntity
  8
MO_001_VIEW_PV
  6
C_SOLID_M
100
AcDbVertex
100
AcDb2dVertex
 10
-27.758157
 20
-58.206353
 30
0.0
  0
VERTEX
  5
2B0
330
86
100
AcDbEntity
  8
MO_001_VIEW_PV
  6
C_SOLID_M
100
AcDbVertex
100
AcDb2dVertex
 10
-27.58739799999999
 20
-58.230792
 30
0.0
  0
VERTEX
  5
2B1
330
86
100
AcDbEntity
  8
MO_001_VIEW_PV
  6
C_SOLID_M
100
AcDbVertex
100
AcDb2dVertex
 10
-27.35320999999999
 20
-58.28356899999999
 30
0.0
  0
VERTEX
  5
2B2
330
86
100
AcDbEntity
  8
MO_001_VIEW_PV
  6
C_SOLID_M
100
AcDbVertex
100
AcDb2dVertex
 10
-27.15146999999999
 20
-58.346584
 30
0.0
  0
VERTEX
  5
2B3
330
86
100
AcDbEntity
  8
MO_001_VIEW_PV
  6
C_SOLID_M
100
AcDbVertex
100
AcDb2dVertex
 10
-27.00494
 20
-58.402917
 30
0.0
  0
VERTEX
  5
2B4
330
86
100
AcDbEntity
  8
MO_001_VIEW_PV
  6
C_SOLID_M
100
AcDbVertex
100
AcDb2dVertex
 10
-26.918332
 20
-58.44084
 30
0.0
  0
VERTEX
  5
2B5
330
86
100
AcDbEntity
  8
MO_001_VIEW_PV
  6
C_SOLID_M
100
AcDbVertex
100
AcDb2dVertex
 10
-26.86785
 20
-58.464803
 30
0.0
  0
VERTEX
  5
2B6
330
86
100
AcDbEntity
  8
MO_001_VIEW_PV
  6
C_SOLID_M
100
AcDbVertex
100
AcDb2dVertex
 10
-26.817445
 20
-58.490481
 30
0.0
  0
VERTEX
  5
2B7
330
86
100
AcDbEntity
  8
MO_001_VIEW_PV
  6
C_SOLID_M
100
AcDbVertex
100
AcDb2dVertex
 10
-26.799999
 20
-58.5
 30
0.0
  0
VERTEX
  5
2B8
330
86
100
AcDbEntity
  8
MO_001_VIEW_PV
  6
C_SOLID_M
100
AcDbVertex
100
AcDb2dVertex
 10
-26.806195
 20
-58.496554
 30
0.0
  0
VERTEX
  5
2B9
330
86
100
AcDbEntity
  8
MO_001_VIEW_PV
  6
C_SOLID_M
100
AcDbVertex
100
AcDb2dVertex
 10
-26.84552199999999
 20
-58.475923
 30
0.0
  0
VERTEX
  5
2BA
330
86
100
AcDbEntity
  8
MO_001_VIEW_PV
  6
C_SOLID_M
100
AcDbVertex
100
AcDb2dVertex
 10
-26.89716699999999
 20
-58.450702
 30
0.0
  0
VERTEX
  5
2BB
330
86
100
AcDbEntity
  8
MO_001_VIEW_PV
  6
C_SOLID_M
100
AcDbVertex
100
AcDb2dVertex
 10
-27.006966
 20
-58.402073
 30
0.0
  0
VERTEX
  5
2BC
330
86
100
AcDbEntity
  8
MO_001_VIEW_PV
  6
C_SOLID_M
100
AcDbVertex
100
AcDb2dVertex
 10
-27.15146999999999
 20
-58.346584
 30
0.0
  0
VERTEX
  5
2BD
330
86
100
AcDbEntity
  8
MO_001_VIEW_PV
  6
C_SOLID_M
100
AcDbVertex
100
AcDb2dVertex
 10
-27.329067
 20
-58.290252
 30
0.0
  0
VERTEX
  5
2BE
330
86
100
AcDbEntity
  8
MO_001_VIEW_PV
  6
C_SOLID_M
100
AcDbVertex
100
AcDb2dVertex
 10
-27.47974899999999
 20
-58.252329
 30
0.0
  0
VERTEX
  5
2BF
330
86
100
AcDbEntity
  8
MO_001_VIEW_PV
  6
C_SOLID_M
100
AcDbVertex
100
AcDb2dVertex
 10
-27.728994
 20
-58.209665
 30
0.0
  0
VERTEX
  5
2C0
330
86
100
AcDbEntity
  8
MO_001_VIEW_PV
  6
C_SOLID_M
100
AcDbVertex
100
AcDb2dVertex
 10
-28.0
 20
-58.193169
 30
0.0
  0
VERTEX
  5
2C1
330
86
100
AcDbEntity
  8
MO_001_VIEW_PV
  6
C_SOLID_M
100
AcDbVertex
100
AcDb2dVertex
 10
-28.241843
 20
-58.206353
 30
0.0
  0
VERTEX
  5
2C2
330
86
100
AcDbEntity
  8
MO_001_VIEW_PV
  6
C_SOLID_M
100
AcDbVertex
100
AcDb2dVertex
 10
-28.412602
 20
-58.230792
 30
0.0
  0
VERTEX
  5
2C3
330
86
100
AcDbEntity
  8
MO_001_VIEW_PV
  6
C_SOLID_M
100
AcDbVertex
100
AcDb2dVertex
 10
-28.64679
 20
-58.28356899999999
 30
0.0
  0
VERTEX
  5
2C4
330
86
100
AcDbEntity
  8
MO_001_VIEW_PV
  6
C_SOLID_M
100
AcDbVertex
100
AcDb2dVertex
 10
-28.84853
 20
-58.346584
 30
0.0
  0
VERTEX
  5
2C5
330
86
100
AcDbEntity
  8
MO_001_VIEW_PV
  6
C_SOLID_M
100
AcDbVertex
100
AcDb2dVertex
 10
-28.99506
 20
-58.402917
 30
0.0
  0
VERTEX
  5
2C6
330
86
100
AcDbEntity
  8
MO_001_VIEW_PV
  6
C_SOLID_M
100
AcDbVertex
100
AcDb2dVertex
 10
-29.081668
 20
-58.44084
 30
0.0
  0
VERTEX
  5
2C7
330
86
100
AcDbEntity
  8
MO_001_VIEW_PV
  6
C_SOLID_M
100
AcDbVertex
100
AcDb2dVertex
 10
-29.13215
 20
-58.464803
 30
0.0
  0
VERTEX
  5
2C8
330
86
100
AcDbEntity
  8
MO_001_VIEW_PV
  6
C_SOLID_M
100
AcDbVertex
100
AcDb2dVertex
 10
-29.18255499999999
 20
-58.490481
 30
0.0
  0
VERTEX
  5
2C9
330
86
100
AcDbEntity
  8
MO_001_VIEW_PV
  6
C_SOLID_M
100
AcDbVertex
100
AcDb2dVertex
 10
-29.200001
 20
-58.5
 30
0.0
  0
SEQEND
  5
2CA
330
86
100
AcDbEntity
  8
MO_001_VIEW_PV
  6
C_SOLID_M
  0
POLYLINE
  5
AD
330
1E
100
AcDbEntity
  8
MO_001_VIEW_PV
  6
C_SOLID_M
100
AcDb2dPolyline
 66
     1
 10
0.0
 20
0.0
 30
0.0
 70
     1
  0
VERTEX
  5
2CB
330
AD
100
AcDbEntity
  8
MO_001_VIEW_PV
  6
C_SOLID_M
100
AcDbVertex
100
AcDb2dVertex
 10
-29.200001
 20
-53.5
 30
0.0
  0
VERTEX
  5
2CC
330
AD
100
AcDbEntity
  8
MO_001_VIEW_PV
  6
C_SOLID_M
100
AcDbVertex
100
AcDb2dVertex
 10
-29.19380499999999
 20
-53.50344599999999
 30
0.0
  0
VERTEX
  5
2CD
330
AD
100
AcDbEntity
  8
MO_001_VIEW_PV
  6
C_SOLID_M
100
AcDbVertex
100
AcDb2dVertex
 10
-29.154478
 20
-53.524077
 30
0.0
  0
VERTEX
  5
2CE
330
AD
100
AcDbEntity
  8
MO_001_VIEW_PV
  6
C_SOLID_M
100
AcDbVertex
100
AcDb2dVertex
 10
-29.102833
 20
-53.549298
 30
0.0
  0
VERTEX
  5
2CF
330
AD
100
AcDbEntity
  8
MO_001_VIEW_PV
  6
C_SOLID_M
100
AcDbVertex
100
AcDb2dVertex
 10
-28.993034
 20
-53.59792699999999
 30
0.0
  0
VERTEX
  5
2D0
330
AD
100
AcDbEntity
  8
MO_001_VIEW_PV
  6
C_SOLID_M
100
AcDbVertex
100
AcDb2dVertex
 10
-28.84853
 20
-53.653416
 30
0.0
  0
VERTEX
  5
2D1
330
AD
100
AcDbEntity
  8
MO_001_VIEW_PV
  6
C_SOLID_M
100
AcDbVertex
100
AcDb2dVertex
 10
-28.670933
 20
-53.70974799999999
 30
0.0
  0
VERTEX
  5
2D2
330
AD
100
AcDbEntity
  8
MO_001_VIEW_PV
  6
C_SOLID_M
100
AcDbVertex
100
AcDb2dVertex
 10
-28.520251
 20
-53.74767099999999
 30
0.0
  0
VERTEX
  5
2D3
330
AD
100
AcDbEntity
  8
MO_001_VIEW_PV
  6
C_SOLID_M
100
AcDbVertex
100
AcDb2dVertex
 10
-28.27100599999999
 20
-53.790335
 30
0.0
  0
VERTEX
  5
2D4
330
AD
100
AcDbEntity
  8
MO_001_VIEW_PV
  6
C_SOLID_M
100
AcDbVertex
100
AcDb2dVertex
 10
-28.0
 20
-53.806831
 30
0.0
  0
VERTEX
  5
2D5
330
AD
100
AcDbEntity
  8
MO_001_VIEW_PV
  6
C_SOLID_M
100
AcDbVertex
100
AcDb2dVertex
 10
-27.758157
 20
-53.79364699999999
 30
0.0
  0
VERTEX
  5
2D6
330
AD
100
AcDbEntity
  8
MO_001_VIEW_PV
  6
C_SOLID_M
100
AcDbVertex
100
AcDb2dVertex
 10
-27.58739799999999
 20
-53.769208
 30
0.0
  0
VERTEX
  5
2D7
330
AD
100
AcDbEntity
  8
MO_001_VIEW_PV
  6
C_SOLID_M
100
AcDbVertex
100
AcDb2dVertex
 10
-27.35320999999999
 20
-53.716431
 30
0.0
  0
VERTEX
  5
2D8
330
AD
100
AcDbEntity
  8
MO_001_VIEW_PV
  6
C_SOLID_M
100
AcDbVertex
100
AcDb2dVertex
 10
-27.15146999999999
 20
-53.653416
 30
0.0
  0
VERTEX
  5
2D9
330
AD
100
AcDbEntity
  8
MO_001_VIEW_PV
  6
C_SOLID_M
100
AcDbVertex
100
AcDb2dVertex
 10
-27.00494
 20
-53.597083
 30
0.0
  0
VERTEX
  5
2DA
330
AD
100
AcDbEntity
  8
MO_001_VIEW_PV
  6
C_SOLID_M
100
AcDbVertex
100
AcDb2dVertex
 10
-26.918332
 20
-53.55916
 30
0.0
  0
VERTEX
  5
2DB
330
AD
100
AcDbEntity
  8
MO_001_VIEW_PV
  6
C_SOLID_M
100
AcDbVertex
100
AcDb2dVertex
 10
-26.867849
 20
-53.53519699999999
 30
0.0
  0
VERTEX
  5
2DC
330
AD
100
AcDbEntity
  8
MO_001_VIEW_PV
  6
C_SOLID_M
100
AcDbVertex
100
AcDb2dVertex
 10
-26.817445
 20
-53.509519
 30
0.0
  0
VERTEX
  5
2DD
330
AD
100
AcDbEntity
  8
MO_001_VIEW_PV
  6
C_SOLID_M
100
AcDbVertex
100
AcDb2dVertex
 10
-26.799999
 20
-53.5
 30
0.0
  0
VERTEX
  5
2DE
330
AD
100
AcDbEntity
  8
MO_001_VIEW_PV
  6
C_SOLID_M
100
AcDbVertex
100
AcDb2dVertex
 10
-26.806195
 20
-53.50344599999999
 30
0.0
  0
VERTEX
  5
2DF
330
AD
100
AcDbEntity
  8
MO_001_VIEW_PV
  6
C_SOLID_M
100
AcDbVertex
100
AcDb2dVertex
 10
-26.84552199999999
 20
-53.524077
 30
0.0
  0
VERTEX
  5
2E0
330
AD
100
AcDbEntity
  8
MO_001_VIEW_PV
  6
C_SOLID_M
100
AcDbVertex
100
AcDb2dVertex
 10
-26.89716699999999
 20
-53.549298
 30
0.0
  0
VERTEX
  5
2E1
330
AD
100
AcDbEntity
  8
MO_001_VIEW_PV
  6
C_SOLID_M
100
AcDbVertex
100
AcDb2dVertex
 10
-27.006966
 20
-53.59792699999999
 30
0.0
  0
VERTEX
  5
2E2
330
AD
100
AcDbEntity
  8
MO_001_VIEW_PV
  6
C_SOLID_M
100
AcDbVertex
100
AcDb2dVertex
 10
-27.15146999999999
 20
-53.653416
 30
0.0
  0
VERTEX
  5
2E3
330
AD
100
AcDbEntity
  8
MO_001_VIEW_PV
  6
C_SOLID_M
100
AcDbVertex
100
AcDb2dVertex
 10
-27.329067
 20
-53.70974799999999
 30
0.0
  0
VERTEX
  5
2E4
330
AD
100
AcDbEntity
  8
MO_001_VIEW_PV
  6
C_SOLID_M
100
AcDbVertex
100
AcDb2dVertex
 10
-27.47974899999999
 20
-53.74767099999999
 30
0.0
  0
VERTEX
  5
2E5
330
AD
100
AcDbEntity
  8
MO_001_VIEW_PV
  6
C_SOLID_M
100
AcDbVertex
100
AcDb2dVertex
 10
-27.728994
 20
-53.790335
 30
0.0
  0
VERTEX
  5
2E6
330
AD
100
AcDbEntity
  8
MO_001_VIEW_PV
  6
C_SOLID_M
100
AcDbVertex
100
AcDb2dVertex
 10
-28.0
 20
-53.806831
 30
0.0
  0
VERTEX
  5
2E7
330
AD
100
AcDbEntity
  8
MO_001_VIEW_PV
  6
C_SOLID_M
100
AcDbVertex
100
AcDb2dVertex
 10
-28.241843
 20
-53.79364699999999
 30
0.0
  0
VERTEX
  5
2E8
330
AD
100
AcDbEntity
  8
MO_001_VIEW_PV
  6
C_SOLID_M
100
AcDbVertex
100
AcDb2dVertex
 10
-28.412602
 20
-53.769208
 30
0.0
  0
VERTEX
  5
2E9
330
AD
100
AcDbEntity
  8
MO_001_VIEW_PV
  6
C_SOLID_M
100
AcDbVertex
100
AcDb2dVertex
 10
-28.64679
 20
-53.716431
 30
0.0
  0
VERTEX
  5
2EA
330
AD
100
AcDbEntity
  8
MO_001_VIEW_PV
  6
C_SOLID_M
100
AcDbVertex
100
AcDb2dVertex
 10
-28.84853
 20
-53.653416
 30
0.0
  0
VERTEX
  5
2EB
330
AD
100
AcDbEntity
  8
MO_001_VIEW_PV
  6
C_SOLID_M
100
AcDbVertex
100
AcDb2dVertex
 10
-28.99506
 20
-53.597083
 30
0.0
  0
VERTEX
  5
2EC
330
AD
100
AcDbEntity
  8
MO_001_VIEW_PV
  6
C_SOLID_M
100
AcDbVertex
100
AcDb2dVertex
 10
-29.081668
 20
-53.55916
 30
0.0
  0
VERTEX
  5
2ED
330
AD
100
AcDbEntity
  8
MO_001_VIEW_PV
  6
C_SOLID_M
100
AcDbVertex
100
AcDb2dVertex
 10
-29.132151
 20
-53.53519699999999
 30
0.0
  0
VERTEX
  5
2EE
330
AD
100
AcDbEntity
  8
MO_001_VIEW_PV
  6
C_SOLID_M
100
AcDbVertex
100
AcDb2dVertex
 10
-29.18255499999999
 20
-53.509519
 30
0.0
  0
VERTEX
  5
2EF
330
AD
100
AcDbEntity
  8
MO_001_VIEW_PV
  6
C_SOLID_M
100
AcDbVertex
100
AcDb2dVertex
 10
-29.200001
 20
-53.5
 30
0.0
  0
SEQEND
  5
2F0
330
AD
100
AcDbEntity
  8
MO_001_VIEW_PV
  6
C_SOLID_M
  0
POLYLINE
  5
D4
330
1E
100
AcDbEntity
  8
MO_001_VIEW_PV
  6
C_DASHED_M
100
AcDb2dPolyline
 66
     1
 10
0.0
 20
0.0
 30
0.0
 70
     1
  0
VERTEX
  5
2F1
330
D4
100
AcDbEntity
  8
MO_001_VIEW_PV
  6
C_DASHED_M
100
AcDbVertex
100
AcDb2dVertex
 10
-29.0
 20
-58.199997
 30
0.0
  0
VERTEX
  5
2F2
330
D4
100
AcDbEntity
  8
MO_001_VIEW_PV
  6
C_DASHED_M
100
AcDbVertex
100
AcDb2dVertex
 10
-28.994837
 20
-58.19729699999999
 30
0.0
  0
VERTEX
  5
2F3
330
D4
100
AcDbEntity
  8
MO_001_VIEW_PV
  6
C_DASHED_M
100
AcDbVertex
100
AcDb2dVertex
 10
-28.962065
 20
-58.181133
 30
0.0
  0
VERTEX
  5
2F4
330
D4
100
AcDbEntity
  8
MO_001_VIEW_PV
  6
C_DASHED_M
100
AcDbVertex
100
AcDb2dVertex
 10
-28.919027
 20
-58.161372
 30
0.0
  0
VERTEX
  5
2F5
330
D4
100
AcDbEntity
  8
MO_001_VIEW_PV
  6
C_DASHED_M
100
AcDbVertex
100
AcDb2dVertex
 10
-28.827528
 20
-58.123271
 30
0.0
  0
VERTEX
  5
2F6
330
D4
100
AcDbEntity
  8
MO_001_VIEW_PV
  6
C_DASHED_M
100
AcDbVertex
100
AcDb2dVertex
 10
-28.707107
 20
-58.07979599999999
 30
0.0
  0
VERTEX
  5
2F7
330
D4
100
AcDbEntity
  8
MO_001_VIEW_PV
  6
C_DASHED_M
100
AcDbVertex
100
AcDb2dVertex
 10
-28.55910999999999
 20
-58.03566
 30
0.0
  0
VERTEX
  5
2F8
330
D4
100
AcDbEntity
  8
MO_001_VIEW_PV
  6
C_DASHED_M
100
AcDbVertex
100
AcDb2dVertex
 10
-28.433542
 20
-58.005947
 30
0.0
  0
VERTEX
  5
2F9
330
D4
100
AcDbEntity
  8
MO_001_VIEW_PV
  6
C_DASHED_M
100
AcDbVertex
100
AcDb2dVertex
 10
-28.225838
 20
-57.97252
 30
0.0
  0
VERTEX
  5
2FA
330
D4
100
AcDbEntity
  8
MO_001_VIEW_PV
  6
C_DASHED_M
100
AcDbVertex
100
AcDb2dVertex
 10
-28.0
 20
-57.95959499999999
 30
0.0
  0
VERTEX
  5
2FB
330
D4
100
AcDbEntity
  8
MO_001_VIEW_PV
  6
C_DASHED_M
100
AcDbVertex
100
AcDb2dVertex
 10
-27.798465
 20
-57.969924
 30
0.0
  0
VERTEX
  5
2FC
330
D4
100
AcDbEntity
  8
MO_001_VIEW_PV
  6
C_DASHED_M
100
AcDbVertex
100
AcDb2dVertex
 10
-27.65616599999999
 20
-57.98907299999999
 30
0.0
  0
VERTEX
  5
2FD
330
D4
100
AcDbEntity
  8
MO_001_VIEW_PV
  6
C_DASHED_M
100
AcDbVertex
100
AcDb2dVertex
 10
-27.461009
 20
-58.030423
 30
0.0
  0
VERTEX
  5
2FE
330
D4
100
AcDbEntity
  8
MO_001_VIEW_PV
  6
C_DASHED_M
100
AcDbVertex
100
AcDb2dVertex
 10
-27.292893
 20
-58.07979599999999
 30
0.0
  0
VERTEX
  5
2FF
330
D4
100
AcDbEntity
  8
MO_001_VIEW_PV
  6
C_DASHED_M
100
AcDbVertex
100
AcDb2dVertex
 10
-27.170784
 20
-58.12393199999999
 30
0.0
  0
VERTEX
  5
300
330
D4
100
AcDbEntity
  8
MO_001_VIEW_PV
  6
C_DASHED_M
100
AcDbVertex
100
AcDb2dVertex
 10
-27.09861099999999
 20
-58.153645
 30
0.0
  0
VERTEX
  5
301
330
D4
100
AcDbEntity
  8
MO_001_VIEW_PV
  6
C_DASHED_M
100
AcDbVertex
100
AcDb2dVertex
 10
-27.05654199999999
 20
-58.17242
 30
0.0
  0
VERTEX
  5
302
330
D4
100
AcDbEntity
  8
MO_001_VIEW_PV
  6
C_DASHED_M
100
AcDbVertex
100
AcDb2dVertex
 10
-27.014538
 20
-58.192539
 30
0.0
  0
VERTEX
  5
303
330
D4
100
AcDbEntity
  8
MO_001_VIEW_PV
  6
C_DASHED_M
100
AcDbVertex
100
AcDb2dVertex
 10
-27.0
 20
-58.199997
 30
0.0
  0
VERTEX
  5
304
330
D4
100
AcDbEntity
  8
MO_001_VIEW_PV
  6
C_DASHED_M
100
AcDbVertex
100
AcDb2dVertex
 10
-27.005163
 20
-58.19729699999999
 30
0.0
  0
VERTEX
  5
305
330
D4
100
AcDbEntity
  8
MO_001_VIEW_PV
  6
C_DASHED_M
100
AcDbVertex
100
AcDb2dVertex
 10
-27.03793499999999
 20
-58.181133
 30
0.0
  0
VERTEX
  5
306
330
D4
100
AcDbEntity
  8
MO_001_VIEW_PV
  6
C_DASHED_M
100
AcDbVertex
100
AcDb2dVertex
 10
-27.08097299999999
 20
-58.161372
 30
0.0
  0
VERTEX
  5
307
330
D4
100
AcDbEntity
  8
MO_001_VIEW_PV
  6
C_DASHED_M
100
AcDbVertex
100
AcDb2dVertex
 10
-27.17247199999999
 20
-58.123271
 30
0.0
  0
VERTEX
  5
308
330
D4
100
AcDbEntity
  8
MO_001_VIEW_PV
  6
C_DASHED_M
100
AcDbVertex
100
AcDb2dVertex
 10
-27.292893
 20
-58.07979599999999
 30
0.0
  0
VERTEX
  5
309
330
D4
100
AcDbEntity
  8
MO_001_VIEW_PV
  6
C_DASHED_M
100
AcDbVertex
100
AcDb2dVertex
 10
-27.44089
 20
-58.03565899999999
 30
0.0
  0
VERTEX
  5
30A
330
D4
100
AcDbEntity
  8
MO_001_VIEW_PV
  6
C_DASHED_M
100
AcDbVertex
100
AcDb2dVertex
 10
-27.566458
 20
-58.005947
 30
0.0
  0
VERTEX
  5
30B
330
D4
100
AcDbEntity
  8
MO_001_VIEW_PV
  6
C_DASHED_M
100
AcDbVertex
100
AcDb2dVertex
 10
-27.774162
 20
-57.97252
 30
0.0
  0
VERTEX
  5
30C
330
D4
100
AcDbEntity
  8
MO_001_VIEW_PV
  6
C_DASHED_M
100
AcDbVertex
100
AcDb2dVertex
 10
-28.0
 20
-57.95959499999999
 30
0.0
  0
VERTEX
  5
30D
330
D4
100
AcDbEntity
  8
MO_001_VIEW_PV
  6
C_DASHED_M
100
AcDbVertex
100
AcDb2dVertex
 10
-28.20153499999999
 20
-57.969925
 30
0.0
  0
VERTEX
  5
30E
330
D4
100
AcDbEntity
  8
MO_001_VIEW_PV
  6
C_DASHED_M
100
AcDbVertex
100
AcDb2dVertex
 10
-28.343834
 20
-57.98907299999999
 30
0.0
  0
VERTEX
  5
30F
330
D4
100
AcDbEntity
  8
MO_001_VIEW_PV
  6
C_DASHED_M
100
AcDbVertex
100
AcDb2dVertex
 10
-28.53899099999999
 20
-58.030423
 30
0.0
  0
VERTEX
  5
310
330
D4
100
AcDbEntity
  8
MO_001_VIEW_PV
  6
C_DASHED_M
100
AcDbVertex
100
AcDb2dVertex
 10
-28.707107
 20
-58.07979599999999
 30
0.0
  0
VERTEX
  5
311
330
D4
100
AcDbEntity
  8
MO_001_VIEW_PV
  6
C_DASHED_M
100
AcDbVertex
100
AcDb2dVertex
 10
-28.82921599999999
 20
-58.12393199999999
 30
0.0
  0
VERTEX
  5
312
330
D4
100
AcDbEntity
  8
MO_001_VIEW_PV
  6
C_DASHED_M
100
AcDbVertex
100
AcDb2dVertex
 10
-28.901389
 20
-58.153645
 30
0.0
  0
VERTEX
  5
313
330
D4
100
AcDbEntity
  8
MO_001_VIEW_PV
  6
C_DASHED_M
100
AcDbVertex
100
AcDb2dVertex
 10
-28.943458
 20
-58.17242
 30
0.0
  0
VERTEX
  5
314
330
D4
100
AcDbEntity
  8
MO_001_VIEW_PV
  6
C_DASHED_M
100
AcDbVertex
100
AcDb2dVertex
 10
-28.985462
 20
-58.192539
 30
0.0
  0
VERTEX
  5
315
330
D4
100
AcDbEntity
  8
MO_001_VIEW_PV
  6
C_DASHED_M
100
AcDbVertex
100
AcDb2dVertex
 10
-29.0
 20
-58.199997
 30
0.0
  0
SEQEND
  5
316
330
D4
100
AcDbEntity
  8
MO_001_VIEW_PV
  6
C_DASHED_M
  0
POLYLINE
  5
FB
330
1E
100
AcDbEntity
  8
MO_001_VIEW_PV
  6
C_DASHED_M
100
AcDb2dPolyline
 66
     1
 10
0.0
 20
0.0
 30
0.0
 70
     1
  0
VERTEX
  5
317
330
FB
100
AcDbEntity
  8
MO_001_VIEW_PV
  6
C_DASHED_M
100
AcDbVertex
100
AcDb2dVertex
 10
-29.0
 20
-53.800003
 30
0.0
  0
VERTEX
  5
318
330
FB
100
AcDbEntity
  8
MO_001_VIEW_PV
  6
C_DASHED_M
100
AcDbVertex
100
AcDb2dVertex
 10
-28.994837
 20
-53.802703
 30
0.0
  0
VERTEX
  5
319
330
FB
100
AcDbEntity
  8
MO_001_VIEW_PV
  6
C_DASHED_M
100
AcDbVertex
100
AcDb2dVertex
 10
-28.962065
 20
-53.818867
 30
0.0
  0
VERTEX
  5
31A
330
FB
100
AcDbEntity
  8
MO_001_VIEW_PV
  6
C_DASHED_M
100
AcDbVertex
100
AcDb2dVertex
 10
-28.919027
 20
-53.838628
 30
0.0
  0
VERTEX
  5
31B
330
FB
100
AcDbEntity
  8
MO_001_VIEW_PV
  6
C_DASHED_M
100
AcDbVertex
100
AcDb2dVertex
 10
-28.827528
 20
-53.876729
 30
0.0
  0
VERTEX
  5
31C
330
FB
100
AcDbEntity
  8
MO_001_VIEW_PV
  6
C_DASHED_M
100
AcDbVertex
100
AcDb2dVertex
 10
-28.707107
 20
-53.920204
 30
0.0
  0
VERTEX
  5
31D
330
FB
100
AcDbEntity
  8
MO_001_VIEW_PV
  6
C_DASHED_M
100
AcDbVertex
100
AcDb2dVertex
 10
-28.55910999999999
 20
-53.96434
 30
0.0
  0
VERTEX
  5
31E
330
FB
100
AcDbEntity
  8
MO_001_VIEW_PV
  6
C_DASHED_M
100
AcDbVertex
100
AcDb2dVertex
 10
-28.433542
 20
-53.994053
 30
0.0
  0
VERTEX
  5
31F
330
FB
100
AcDbEntity
  8
MO_001_VIEW_PV
  6
C_DASHED_M
100
AcDbVertex
100
AcDb2dVertex
 10
-28.225838
 20
-54.02748
 30
0.0
  0
VERTEX
  5
320
330
FB
100
AcDbEntity
  8
MO_001_VIEW_PV
  6
C_DASHED_M
100
AcDbVertex
100
AcDb2dVertex
 10
-28.0
 20
-54.040405
 30
0.0
  0
VERTEX
  5
321
330
FB
100
AcDbEntity
  8
MO_001_VIEW_PV
  6
C_DASHED_M
100
AcDbVertex
100
AcDb2dVertex
 10
-27.798465
 20
-54.030075
 30
0.0
  0
VERTEX
  5
322
330
FB
100
AcDbEntity
  8
MO_001_VIEW_PV
  6
C_DASHED_M
100
AcDbVertex
100
AcDb2dVertex
 10
-27.65616599999999
 20
-54.010927
 30
0.0
  0
VERTEX
  5
323
330
FB
100
AcDbEntity
  8
MO_001_VIEW_PV
  6
C_DASHED_M
100
AcDbVertex
100
AcDb2dVertex
 10
-27.461009
 20
-53.969577
 30
0.0
  0
VERTEX
  5
324
330
FB
100
AcDbEntity
  8
MO_001_VIEW_PV
  6
C_DASHED_M
100
AcDbVertex
100
AcDb2dVertex
 10
-27.292893
 20
-53.920204
 30
0.0
  0
VERTEX
  5
325
330
FB
100
AcDbEntity
  8
MO_001_VIEW_PV
  6
C_DASHED_M
100
AcDbVertex
100
AcDb2dVertex
 10
-27.170784
 20
-53.876068
 30
0.0
  0
VERTEX
  5
326
330
FB
100
AcDbEntity
  8
MO_001_VIEW_PV
  6
C_DASHED_M
100
AcDbVertex
100
AcDb2dVertex
 10
-27.09861099999999
 20
-53.846355
 30
0.0
  0
VERTEX
  5
327
330
FB
100
AcDbEntity
  8
MO_001_VIEW_PV
  6
C_DASHED_M
100
AcDbVertex
100
AcDb2dVertex
 10
-27.05654199999999
 20
-53.82758
 30
0.0
  0
VERTEX
  5
328
330
FB
100
AcDbEntity
  8
MO_001_VIEW_PV
  6
C_DASHED_M
100
AcDbVertex
100
AcDb2dVertex
 10
-27.014538
 20
-53.80746099999999
 30
0.0
  0
VERTEX
  5
329
330
FB
100
AcDbEntity
  8
MO_001_VIEW_PV
  6
C_DASHED_M
100
AcDbVertex
100
AcDb2dVertex
 10
-27.0
 20
-53.800003
 30
0.0
  0
VERTEX
  5
32A
330
FB
100
AcDbEntity
  8
MO_001_VIEW_PV
  6
C_DASHED_M
100
AcDbVertex
100
AcDb2dVertex
 10
-27.005163
 20
-53.802703
 30
0.0
  0
VERTEX
  5
32B
330
FB
100
AcDbEntity
  8
MO_001_VIEW_PV
  6
C_DASHED_M
100
AcDbVertex
100
AcDb2dVertex
 10
-27.037936
 20
-53.818867
 30
0.0
  0
VERTEX
  5
32C
330
FB
100
AcDbEntity
  8
MO_001_VIEW_PV
  6
C_DASHED_M
100
AcDbVertex
100
AcDb2dVertex
 10
-27.08097299999999
 20
-53.838628
 30
0.0
  0
VERTEX
  5
32D
330
FB
100
AcDbEntity
  8
MO_001_VIEW_PV
  6
C_DASHED_M
100
AcDbVertex
100
AcDb2dVertex
 10
-27.17247199999999
 20
-53.876729
 30
0.0
  0
VERTEX
  5
32E
330
FB
100
AcDbEntity
  8
MO_001_VIEW_PV
  6
C_DASHED_M
100
AcDbVertex
100
AcDb2dVertex
 10
-27.292893
 20
-53.920204
 30
0.0
  0
VERTEX
  5
32F
330
FB
100
AcDbEntity
  8
MO_001_VIEW_PV
  6
C_DASHED_M
100
AcDbVertex
100
AcDb2dVertex
 10
-27.44089
 20
-53.964341
 30
0.0
  0
VERTEX
  5
330
330
FB
100
AcDbEntity
  8
MO_001_VIEW_PV
  6
C_DASHED_M
100
AcDbVertex
100
AcDb2dVertex
 10
-27.566458
 20
-53.994053
 30
0.0
  0
VERTEX
  5
331
330
FB
100
AcDbEntity
  8
MO_001_VIEW_PV
  6
C_DASHED_M
100
AcDbVertex
100
AcDb2dVertex
 10
-27.774162
 20
-54.02748
 30
0.0
  0
VERTEX
  5
332
330
FB
100
AcDbEntity
  8
MO_001_VIEW_PV
  6
C_DASHED_M
100
AcDbVertex
100
AcDb2dVertex
 10
-28.0
 20
-54.040405
 30
0.0
  0
VERTEX
  5
333
330
FB
100
AcDbEntity
  8
MO_001_VIEW_PV
  6
C_DASHED_M
100
AcDbVertex
100
AcDb2dVertex
 10
-28.20153499999999
 20
-54.030075
 30
0.0
  0
VERTEX
  5
334
330
FB
100
AcDbEntity
  8
MO_001_VIEW_PV
  6
C_DASHED_M
100
AcDbVertex
100
AcDb2dVertex
 10
-28.343834
 20
-54.010927
 30
0.0
  0
VERTEX
  5
335
330
FB
100
AcDbEntity
  8
MO_001_VIEW_PV
  6
C_DASHED_M
100
AcDbVertex
100
AcDb2dVertex
 10
-28.53899099999999
 20
-53.969577
 30
0.0
  0
VERTEX
  5
336
330
FB
100
AcDbEntity
  8
MO_001_VIEW_PV
  6
C_DASHED_M
100
AcDbVertex
100
AcDb2dVertex
 10
-28.707107
 20
-53.920204
 30
0.0
  0
VERTEX
  5
337
330
FB
100
AcDbEntity
  8
MO_001_VIEW_PV
  6
C_DASHED_M
100
AcDbVertex
100
AcDb2dVertex
 10
-28.82921599999999
 20
-53.876068
 30
0.0
  0
VERTEX
  5
338
330
FB
100
AcDbEntity
  8
MO_001_VIEW_PV
  6
C_DASHED_M
100
AcDbVertex
100
AcDb2dVertex
 10
-28.901389
 20
-53.846355
 30
0.0
  0
VERTEX
  5
339
330
FB
100
AcDbEntity
  8
MO_001_VIEW_PV
  6
C_DASHED_M
100
AcDbVertex
100
AcDb2dVertex
 10
-28.943458
 20
-53.82758
 30
0.0
  0
VERTEX
  5
33A
330
FB
100
AcDbEntity
  8
MO_001_VIEW_PV
  6
C_DASHED_M
100
AcDbVertex
100
AcDb2dVertex
 10
-28.985462
 20
-53.80746099999999
 30
0.0
  0
VERTEX
  5
33B
330
FB
100
AcDbEntity
  8
MO_001_VIEW_PV
  6
C_DASHED_M
100
AcDbVertex
100
AcDb2dVertex
 10
-29.0
 20
-53.800003
 30
0.0
  0
SEQEND
  5
33C
330
FB
100
AcDbEntity
  8
MO_001_VIEW_PV
  6
C_DASHED_M
  0
LINE
  5
122
330
1E
100
AcDbEntity
  8
MO_001_VIEW_PV
  6
C_DASHED_M
100
AcDbLine
 10
-26.79999699999999
 20
-58.499999
 30
0.0
 11
-26.999995
 21
-58.20000400000001
 31
0.0
  0
LINE
  5
123
330
1E
100
AcDbEntity
  8
MO_001_VIEW_PV
  6
C_SOLID_M
100
AcDbLine
 10
-20.0
 20
-53.5
 30
0.0
 11
-26.79999699999999
 21
-53.5
 31
0.0
  0
LINE
  5
124
330
1E
100
AcDbEntity
  8
MO_001_VIEW_PV
  6
C_SOLID_M
100
AcDbLine
 10
-20.0
 20
-58.5
 30
0.0
 11
-26.799999
 21
-58.5
 31
0.0
  0
LINE
  5
125
330
1E
100
AcDbEntity
  8
MO_001_VIEW_PV
  6
C_DASHED_M
100
AcDbLine
 10
-29.199996
 20
-58.499989
 30
0.0
 11
-28.999994
 21
-58.199987
 31
0.0
  0
LINE
  5
126
330
1E
100
AcDbEntity
  8
MO_001_VIEW_PV
  6
C_DASHED_M
100
AcDbLine
 10
-26.799994
 20
-53.499989
 30
0.0
 11
-26.999992
 21
-53.799985
 31
0.0
  0
LINE
  5
127
330
1E
100
AcDbEntity
  8
MO_001_VIEW_PV
  6
C_DASHED_M
100
AcDbLine
 10
-29.199999
 20
-53.5
 30
0.0
 11
-28.999999
 21
-53.799998
 31
0.0
  0
LINE
  5
128
330
1E
100
AcDbEntity
  8
MO_001_VIEW_PV
  6
C_CENTER_L
100
AcDbLine
 10
-28.0
 20
-2.039613
 30
0.0
 11
-28.0
 21
2.018866999999999
 31
0.0
  0
LINE
  5
129
330
1E
100
AcDbEntity
  8
MO_001_VIEW_PV
  6
C_SOLID_M
100
AcDbLine
 10
-30.5
 20
-2.199997
 30
0.0
 11
-30.5
 21
2.199997
 31
0.0
  0
LINE
  5
12A
330
1E
100
AcDbEntity
  8
MO_001_VIEW_PV
  6
C_SOLID_M
100
AcDbLine
 10
-30.500001
 20
-2.199997
 30
0.0
 11
-30.200003
 21
-2.499998
 31
0.0
  0
LINE
  5
12B
330
1E
100
AcDbEntity
  8
MO_001_VIEW_PV
  6
C_SOLID_M
100
AcDbLine
 10
-30.499992
 20
2.199999
 30
0.0
 11
-30.19998499999999
 21
2.500000999999999
 31
0.0
  0
LINE
  5
12C
330
1E
100
AcDbEntity
  8
MO_001_VIEW_PV
  6
C_SOLID_M
100
AcDbLine
 10
-30.200001
 20
-2.5
 30
0.0
 11
-30.200001
 21
2.5
 31
0.0
  0
LINE
  5
12D
330
1E
100
AcDbEntity
  8
MO_001_VIEW_PV
  6
C_SOLID_M
100
AcDbLine
 10
-20.0
 20
2.5
 30
0.0
 11
-30.200001
 21
2.5
 31
0.0
  0
LINE
  5
12E
330
1E
100
AcDbEntity
  8
MO_001_VIEW_PV
  6
C_SOLID_M
100
AcDbLine
 10
-20.0
 20
-2.5
 30
0.0
 11
-30.200001
 21
-2.5
 31
0.0
  0
CIRCLE
  5
12F
330
1E
100
AcDbEntity
  8
MO_001_VIEW_PV
  6
C_SOLID_M
100
AcDbCircle
 10
-28.0
 20
0.0
 30
0.0
 40
1.0
  0
CIRCLE
  5
130
330
1E
100
AcDbEntity
  8
MO_001_VIEW_PV
  6
C_SOLID_M
100
AcDbCircle
 10
-28.0
 20
0.0
 30
0.0
 40
1.200001
  0
LINE
  5
131
330
1E
100
AcDbEntity
  8
MO_001_VIEW_PV
  6
C_SOLID_M
100
AcDbLine
 10
0.5000010000000001
 20
1.0
 30
0.0
 11
0.5000010000000001
 21
-1.0
 31
0.0
  0
LINE
  5
132
330
1E
100
AcDbEntity
  8
MO_001_VIEW_PV
  6
C_SOLID_M
100
AcDbLine
 10
0.0
 20
1.0
 30
0.0
 11
0.5000010000000001
 21
1.0
 31
0.0
  0
LINE
  5
133
330
1E
100
AcDbEntity
  8
MO_001_VIEW_PV
  6
C_SOLID_M
100
AcDbLine
 10
0.0
 20
-1.0
 30
0.0
 11
0.5000010000000001
 21
-1.0
 31
0.0
  0
LINE
  5
134
330
1E
100
AcDbEntity
  8
MO_001_VIEW_PV
  6
C_SOLID_M
100
AcDbLine
 10
-4.089691
 20
-55.5
 30
0.0
 11
39.5
 21
-55.5
 31
0.0
  0
LINE
  5
135
330
1E
100
AcDbEntity
  8
MO_001_VIEW_PV
  6
C_SOLID_M
100
AcDbLine
 10
-4.089691
 20
-54.27999899999999
 30
0.0
 11
39.5
 21
-54.27999899999999
 31
0.0
  0
LINE
  5
136
330
1E
100
AcDbEntity
  8
MO_001_VIEW_PV
  6
C_SOLID_M
100
AcDbLine
 10
39.5
 20
-54.27999899999999
 30
0.0
 11
39.5
 21
-55.5
 31
0.0
  0
LINE
  5
137
330
1E
100
AcDbEntity
  8
MO_001_VIEW_PV
  6
C_SOLID_M
100
AcDbLine
 10
39.5
 20
-54.699501
 30
0.0
 11
44.5
 21
-54.699501
 31
0.0
  0
LINE
  5
138
330
1E
100
AcDbEntity
  8
MO_001_VIEW_PV
  6
C_SOLID_M
100
AcDbLine
 10
39.5
 20
-55.080498
 30
0.0
 11
44.5
 21
-55.080498
 31
0.0
  0
LINE
  5
139
330
1E
100
AcDbEntity
  8
MO_001_VIEW_PV
  6
C_SOLID_M
100
AcDbLine
 10
44.5
 20
-54.699501
 30
0.0
 11
44.5
 21
-55.080498
 31
0.0
  0
LINE
  5
13A
330
1E
100
AcDbEntity
  8
MO_001_VIEW_PV
  6
C_SOLID_M
100
AcDbLine
 10
39.5
 20
-54.27999899999999
 30
0.0
 11
39.5
 21
-55.5
 31
0.0
  0
LINE
  5
13B
330
1E
100
AcDbEntity
  8
MO_001_VIEW_PV
  6
C_SOLID_M
100
AcDbLine
 10
-4.089691
 20
-56.5
 30
0.0
 11
39.5
 21
-56.5
 31
0.0
  0
LINE
  5
13C
330
1E
100
AcDbEntity
  8
MO_001_VIEW_PV
  6
C_SOLID_M
100
AcDbLine
 10
-4.089691
 20
-57.720001
 30
0.0
 11
39.5
 21
-57.720001
 31
0.0
  0
LINE
  5
13D
330
1E
100
AcDbEntity
  8
MO_001_VIEW_PV
  6
C_SOLID_M
100
AcDbLine
 10
39.5
 20
-57.720001
 30
0.0
 11
39.5
 21
-56.5
 31
0.0
  0
LINE
  5
13E
330
1E
100
AcDbEntity
  8
MO_001_VIEW_PV
  6
C_SOLID_M
100
AcDbLine
 10
39.5
 20
-57.300499
 30
0.0
 11
44.5
 21
-57.300499
 31
0.0
  0
LINE
  5
13F
330
1E
100
AcDbEntity
  8
MO_001_VIEW_PV
  6
C_SOLID_M
100
AcDbLine
 10
39.5
 20
-56.919502
 30
0.0
 11
44.5
 21
-56.919502
 31
0.0
  0
LINE
  5
140
330
1E
100
AcDbEntity
  8
MO_001_VIEW_PV
  6
C_SOLID_M
100
AcDbLine
 10
44.5
 20
-57.300499
 30
0.0
 11
44.5
 21
-56.919502
 31
0.0
  0
LINE
  5
141
330
1E
100
AcDbEntity
  8
MO_001_VIEW_PV
  6
C_SOLID_M
100
AcDbLine
 10
39.5
 20
-57.720001
 30
0.0
 11
39.5
 21
-56.5
 31
0.0
  0
LINE
  5
142
330
1E
100
AcDbEntity
  8
MO_001_VIEW_PV
  6
C_SOLID_M
100
AcDbLine
 10
-1.199999
 20
-7.5
 30
0.0
 11
39.0
 21
-7.5
 31
0.0
  0
LINE
  5
143
330
1E
100
AcDbEntity
  8
MO_001_VIEW_PV
  6
C_SOLID_M
100
AcDbLine
 10
-2.099998999999999
 20
-8.720000999999999
 30
0.0
 11
39.0
 21
-8.720000999999999
 31
0.0
  0
LINE
  5
144
330
1E
100
AcDbEntity
  8
MO_001_VIEW_PV
  6
C_SOLID_M
100
AcDbLine
 10
39.0
 20
-8.300499
 30
0.0
 11
44.0
 21
-8.300499
 31
0.0
  0
LINE
  5
145
330
1E
100
AcDbEntity
  8
MO_001_VIEW_PV
  6
C_SOLID_M
100
AcDbLine
 10
39.0
 20
-7.919502
 30
0.0
 11
44.0
 21
-7.919502
 31
0.0
  0
LINE
  5
146
330
1E
100
AcDbEntity
  8
MO_001_VIEW_PV
  6
C_SOLID_M
100
AcDbLine
 10
44.0
 20
-8.300499
 30
0.0
 11
44.0
 21
-7.919502
 31
0.0
  0
LINE
  5
147
330
1E
100
AcDbEntity
  8
MO_001_VIEW_PV
  6
C_SOLID_M
100
AcDbLine
 10
39.0
 20
-8.720000999999999
 30
0.0
 11
39.0
 21
-7.5
 31
0.0
  0
ARC
  5
148
330
1E
100
AcDbEntity
  8
MO_001_VIEW_PV
  6
C_SOLID_M
100
AcDbCircle
 10
-2.099998999999999
 20
-6.5
 30
0.0
 40
1.0
100
AcDbArc
 50
209.9998799999999
 51
233.13011
  0
ARC
  5
149
330
1E
100
AcDbEntity
  8
MO_001_VIEW_PV
  6
C_SOLID_M
100
AcDbCircle
 10
-2.099998999999999
 20
-6.5
 30
0.0
 40
2.219999
100
AcDbArc
 50
197.104647
 51
269.999998
  0
LINE
  5
14A
330
1E
100
AcDbEntity
  8
MO_001_VIEW_PV
  6
C_SOLID_M
100
AcDbLine
 10
-1.199999
 20
-57.720001
 30
0.0
 11
-1.199999
 21
-63.699997
 31
0.0
  0
LINE
  5
14B
330
1E
100
AcDbEntity
  8
MO_001_VIEW_PV
  6
C_SOLID_M
100
AcDbLine
 10
-2.699999
 20
-57.720001
 30
0.0
 11
-2.699999
 21
-63.650002
 31
0.0
  0
LINE
  5
14C
330
1E
100
AcDbEntity
  8
MO_001_VIEW_PV
  6
C_SOLID_M
100
AcDbLine
 10
-17.79999899999999
 20
-48.699997
 30
0.0
 11
-17.79999899999999
 21
-63.300003
 31
0.0
  0
LINE
  5
14D
330
1E
100
AcDbEntity
  8
MO_001_VIEW_PV
  6
C_SOLID_M
100
AcDbLine
 10
-2.699999
 20
-48.349998
 30
0.0
 11
-1.199999
 21
-48.349998
 31
0.0
  0
LINE
  5
14E
330
1E
100
AcDbEntity
  8
MO_001_VIEW_PV
  6
C_SOLID_M
100
AcDbLine
 10
-2.699999
 20
-63.650002
 30
0.0
 11
-1.199999
 21
-63.650002
 31
0.0
  0
LINE
  5
14F
330
1E
100
AcDbEntity
  8
MO_001_VIEW_PV
  6
C_SOLID_M
100
AcDbLine
 10
-18.39999999999999
 20
-48.699997
 30
0.0
 11
-17.79999899999999
 21
-48.699997
 31
0.0
  0
LINE
  5
150
330
1E
100
AcDbEntity
  8
MO_001_VIEW_PV
  6
C_SOLID_M
100
AcDbLine
 10
-18.39999999999999
 20
-63.300003
 30
0.0
 11
-17.79999899999999
 21
-63.300003
 31
0.0
  0
LINE
  5
151
330
1E
100
AcDbEntity
  8
MO_001_VIEW_PV
  6
C_SOLID_M
100
AcDbLine
 10
-2.699999
 20
-51.0
 30
0.0
 11
-1.199999
 21
-51.0
 31
0.0
  0
LINE
  5
152
330
1E
100
AcDbEntity
  8
MO_001_VIEW_PV
  6
C_SOLID_M
100
AcDbLine
 10
-2.399999
 20
-52.5
 30
0.0
 11
-1.199999
 21
-52.5
 31
0.0
  0
LINE
  5
153
330
1E
100
AcDbEntity
  8
MO_001_VIEW_PV
  6
C_SOLID_M
100
AcDbLine
 10
-2.699999
 20
-58.75
 30
0.0
 11
-1.199999
 21
-58.75
 31
0.0
  0
LINE
  5
154
330
1E
100
AcDbEntity
  8
MO_001_VIEW_PV
  6
C_SOLID_M
100
AcDbLine
 10
-2.699999
 20
-61.25
 30
0.0
 11
-1.199999
 21
-61.25
 31
0.0
  0
CIRCLE
  5
155
330
1E
100
AcDbEntity
  8
MO_001_VIEW_PV
  6
C_SOLID_M
100
AcDbCircle
 10
-1.799999
 20
-52.0
 30
0.0
 40
0.34
  0
CIRCLE
  5
156
330
1E
100
AcDbEntity
  8
MO_001_VIEW_PV
  6
C_SOLID_M
100
AcDbCircle
 10
-1.799999
 20
-60.0
 30
0.0
 40
0.34
  0
LINE
  5
157
330
1E
100
AcDbEntity
  8
MO_001_VIEW_PV
  6
C_SOLID_M
100
AcDbLine
 10
-2.399999
 20
-52.449997
 30
0.0
 11
-2.399999
 21
-53.050003
 31
0.0
  0
LINE
  5
158
330
1E
100
AcDbEntity
  8
MO_001_VIEW_PV
  6
C_SOLID_M
100
AcDbLine
 10
-2.699999
 20
-52.449997
 30
0.0
 11
-2.399999
 21
-52.449997
 31
0.0
  0
LINE
  5
159
330
1E
100
AcDbEntity
  8
MO_001_VIEW_PV
  6
C_SOLID_M
100
AcDbLine
 10
-2.699999
 20
-53.050003
 30
0.0
 11
-2.399999
 21
-53.050003
 31
0.0
  0
LINE
  5
15A
330
1E
100
AcDbEntity
  8
MO_001_VIEW_PV
  6
C_SOLID_M
100
AcDbLine
 10
-2.699999
 20
-48.349998
 30
0.0
 11
-2.699999
 21
-53.050003
 31
0.0
  0
LINE
  5
15B
330
1E
100
AcDbEntity
  8
MO_001_VIEW_PV
  6
C_SOLID_M
100
AcDbLine
 10
0.0
 20
-48.300003
 30
0.0
 11
0.0
 21
-54.27999899999999
 31
0.0
  0
LINE
  5
15C
330
1E
100
AcDbEntity
  8
MO_001_VIEW_PV
  6
C_SOLID_M
100
AcDbLine
 10
-1.199999
 20
-48.300003
 30
0.0
 11
-1.199999
 21
-54.27999899999999
 31
0.0
  0
LINE
  5
15D
330
1E
100
AcDbEntity
  8
MO_001_VIEW_PV
  6
C_SOLID_M
100
AcDbLine
 10
-2.699999
 20
-53.050003
 30
0.0
 11
-2.699999
 21
-54.27999899999999
 31
0.0
  0
LINE
  5
15E
330
1E
100
AcDbEntity
  8
MO_001_VIEW_PV
  6
C_SOLID_M
100
AcDbLine
 10
-2.699999
 20
-55.5
 30
0.0
 11
-2.699999
 21
-56.5
 31
0.0
  0
LINE
  5
15F
330
1E
100
AcDbEntity
  8
MO_001_VIEW_PV
  6
C_SOLID_M
100
AcDbLine
 10
-1.199999
 20
-55.5
 30
0.0
 11
-1.199999
 21
-56.5
 31
0.0
  0
LINE
  5
160
330
1E
100
AcDbEntity
  8
MO_001_VIEW_PV
  6
C_SOLID_M
100
AcDbLine
 10
0.0
 20
-55.5
 30
0.0
 11
0.0
 21
-56.5
 31
0.0
  0
ARC
  5
161
330
1E
100
AcDbEntity
  8
MO_001_VIEW_PV
  6
C_SOLID_M
100
AcDbCircle
 10
-4.089691
 20
-54.88999899999999
 30
0.0
 40
0.61
100
AcDbArc
 50
90.000002
 51
270.000001
  0
ARC
  5
162
330
1E
100
AcDbEntity
  8
MO_001_VIEW_PV
  6
C_SOLID_M
100
AcDbCircle
 10
-4.089691
 20
-57.110001
 30
0.0
 40
0.61
100
AcDbArc
 50
90.000002
 51
270.000001
  0
ARC
  5
163
330
1E
100
AcDbEntity
  8
MO_001_VIEW_PV
  6
C_SOLID_M
100
AcDbCircle
 10
-4.699691
 20
-7.299999999999999
 30
0.0
 40
0.5
100
AcDbArc
 50
17.104653
 51
36.869925
  0
LINE
  5
164
330
1E
100
AcDbEntity
  8
MO_001_VIEW_PV
  6
C_SOLID_M
100
AcDbLine
 10
-17.79999899999999
 20
-49.5
 30
0.0
 11
-2.699999
 21
-49.5
 31
0.0
  0
LINE
  5
165
330
1E
100
AcDbEntity
  8
MO_001_VIEW_PV
  6
C_SOLID_M
100
AcDbLine
 10
-17.79999899999999
 20
-62.5
 30
0.0
 11
-2.699999
 21
-62.5
 31
0.0
  0
CIRCLE
  5
166
330
1E
100
AcDbEntity
  8
MO_001_VIEW_PV
  6
C_SOLID_M
100
AcDbCircle
 10
-66.0
 20
0.0
 30
0.0
 40
2.5
  0
CIRCLE
  5
167
330
1E
100
AcDbEntity
  8
MO_001_VIEW_PV
  6
C_SOLID_M
100
AcDbCircle
 10
-66.0
 20
0.0
 30
0.0
 40
2.199997
  0
LINE
  5
168
330
1E
100
AcDbEntity
  8
MO_001_VIEW_PV
  6
C_SOLID_M
100
AcDbLine
 10
-17.79999899999999
 20
7.299999999999999
 30
0.0
 11
-18.39999999999999
 21
7.299999999999999
 31
0.0
  0
LINE
  5
169
330
1E
100
AcDbEntity
  8
MO_001_VIEW_PV
  6
C_SOLID_M
100
AcDbLine
 10
-17.79999899999999
 20
7.299999999999999
 30
0.0
 11
-17.79999899999999
 21
7.0
 31
0.0
  0
LINE
  5
16A
330
1E
100
AcDbEntity
  8
MO_001_VIEW_PV
  6
C_SOLID_M
100
AcDbLine
 10
-18.39999999999999
 20
7.299999999999999
 30
0.0
 11
-18.39999999999999
 21
7.0
 31
0.0
  0
LINE
  5
16B
330
1E
100
AcDbEntity
  8
MO_001_VIEW_PV
  6
C_SOLID_M
100
AcDbLine
 10
-1.199999
 20
7.299999999999999
 30
0.0
 11
-1.199999
 21
7.0
 31
0.0
  0
LINE
  5
16C
330
1E
100
AcDbEntity
  8
MO_001_VIEW_PV
  6
C_SOLID_M
100
AcDbLine
 10
-2.699999
 20
7.299999999999999
 30
0.0
 11
-2.699999
 21
7.0
 31
0.0
  0
LINE
  5
16D
330
1E
100
AcDbEntity
  8
MO_001_VIEW_PV
  6
C_SOLID_M
100
AcDbLine
 10
-2.699999
 20
7.299999999999999
 30
0.0
 11
-1.199999
 21
7.299999999999999
 31
0.0
  0
LINE
  5
16E
330
1E
100
AcDbEntity
  8
MO_001_VIEW_PV
  6
C_SOLID_M
100
AcDbLine
 10
-17.79999899999999
 20
-7.299999999999999
 30
0.0
 11
-18.39999999999999
 21
-7.299999999999999
 31
0.0
  0
LINE
  5
16F
330
1E
100
AcDbEntity
  8
MO_001_VIEW_PV
  6
C_SOLID_M
100
AcDbLine
 10
-17.79999899999999
 20
-7.299999999999999
 30
0.0
 11
-17.79999899999999
 21
-7.0
 31
0.0
  0
LINE
  5
170
330
1E
100
AcDbEntity
  8
MO_001_VIEW_PV
  6
C_SOLID_M
100
AcDbLine
 10
-18.39999999999999
 20
-7.299999999999999
 30
0.0
 11
-18.39999999999999
 21
-7.0
 31
0.0
  0
LINE
  5
171
330
1E
100
AcDbEntity
  8
MO_001_VIEW_PV
  6
C_SOLID_M
100
AcDbLine
 10
-1.199999
 20
-7.7
 30
0.0
 11
-1.199999
 21
-7.0
 31
0.0
  0
LINE
  5
172
330
1E
100
AcDbEntity
  8
MO_001_VIEW_PV
  6
C_SOLID_M
100
AcDbLine
 10
-2.699999
 20
-7.7
 30
0.0
 11
-2.699999
 21
-7.0
 31
0.0
  0
LINE
  5
173
330
1E
100
AcDbEntity
  8
MO_001_VIEW_PV
  6
C_SOLID_M
100
AcDbLine
 10
-2.699999
 20
-7.299999999999999
 30
0.0
 11
-1.199999
 21
-7.299999999999999
 31
0.0
  0
LINE
  5
174
330
1E
100
AcDbEntity
  8
MO_001_VIEW_PV
  6
C_SOLID_M
100
AcDbLine
 10
-2.699999
 20
-7.7
 30
0.0
 11
-1.199999
 21
-7.7
 31
0.0
  0
ARC
  5
175
330
1E
100
AcDbEntity
  8
MO_001_VIEW_PV
  6
C_SOLID_M
100
AcDbCircle
 10
-66.0
 20
0.0
 30
0.0
 40
7.299999999999999
100
AcDbArc
 50
73.51702799999999
 51
106.482977
  0
LINE
  5
176
330
1E
100
AcDbEntity
  8
MO_001_VIEW_PV
  6
C_SOLID_M
100
AcDbLine
 10
-61.0
 20
-7.299999
 30
0.0
 11
-59.34999799999999
 21
-7.299999
 31
0.0
  0
LINE
  5
177
330
1E
100
AcDbEntity
  8
MO_001_VIEW_PV
  6
C_SOLID_M
100
AcDbLine
 10
-59.34999799999999
 20
7.300003
 30
0.0
 11
-72.650002
 21
7.300003
 31
0.0
  0
ARC
  5
178
330
1E
100
AcDbEntity
  8
MO_001_VIEW_PV
  6
C_SOLID_M
100
AcDbCircle
 10
-72.650002
 20
-6.299998999999999
 30
0.0
 40
1.0
100
AcDbArc
 50
224.42707
 51
269.999998
  0
ARC
  5
179
330
1E
100
AcDbEntity
  8
MO_001_VIEW_PV
  6
C_SOLID_M
100
AcDbCircle
 10
-59.34999799999999
 20
-6.299998999999999
 30
0.0
 40
1.0
100
AcDbArc
 50
269.999998
 51
315.5729359999999
  0
ARC
  5
17A
330
1E
100
AcDbEntity
  8
MO_001_VIEW_PV
  6
C_SOLID_M
100
AcDbCircle
 10
-59.34999799999999
 20
6.300003
 30
0.0
 40
1.0
100
AcDbArc
 50
44.42676099999999
 51
89.99998900000001
  0
ARC
  5
17B
330
1E
100
AcDbEntity
  8
MO_001_VIEW_PV
  6
C_SOLID_M
100
AcDbCircle
 10
-72.650002
 20
6.300003
 30
0.0
 40
1.0
100
AcDbArc
 50
90.00000899999999
 51
135.5732439999999
  0
LINE
  5
17C
330
1E
100
AcDbEntity
  8
MO_001_VIEW_PV
  6
C_SOLID_M
100
AcDbLine
 10
-62.5
 20
-7.700000999999999
 30
0.0
 11
-61.0
 21
-7.700000999999999
 31
0.0
  0
LINE
  5
17D
330
1E
100
AcDbEntity
  8
MO_001_VIEW_PV
  6
C_SOLID_M
100
AcDbLine
 10
-68.75
 20
-7.700000999999999
 30
0.0
 11
-68.75
 21
-7.299999
 31
0.0
  0
LINE
  5
17E
330
1E
100
AcDbEntity
  8
MO_001_VIEW_PV
  6
C_SOLID_M
100
AcDbLine
 10
-71.25
 20
-7.700000999999999
 30
0.0
 11
-71.25
 21
-7.299999
 31
0.0
  0
LINE
  5
17F
330
1E
100
AcDbEntity
  8
MO_001_VIEW_PV
  6
C_SOLID_M
100
AcDbLine
 10
-62.5
 20
-7.700000999999999
 30
0.0
 11
-62.5
 21
-7.299999
 31
0.0
  0
LINE
  5
180
330
1E
100
AcDbEntity
  8
MO_001_VIEW_PV
  6
C_SOLID_M
100
AcDbLine
 10
-61.0
 20
-7.700000999999999
 30
0.0
 11
-61.0
 21
-7.299999
 31
0.0
  0
LINE
  5
181
330
1E
100
AcDbEntity
  8
MO_001_VIEW_PV
  6
C_SOLID_M
100
AcDbLine
 10
-71.25
 20
-7.700000999999999
 30
0.0
 11
-68.75
 21
-7.700000999999999
 31
0.0
  0
LINE
  5
182
330
1E
100
AcDbEntity
  8
MO_001_VIEW_PV
  6
C_SOLID_M
100
AcDbLine
 10
-68.75
 20
-7.299999
 30
0.0
 11
-62.5
 21
-7.299999
 31
0.0
  0
LINE
  5
183
330
1E
100
AcDbEntity
  8
MO_001_VIEW_PV
  6
C_SOLID_M
100
AcDbLine
 10
-72.650002
 20
-7.299999
 30
0.0
 11
-71.25
 21
-7.299999
 31
0.0
  0
LINE
  5
184
330
1E
100
AcDbEntity
  8
MO_001_VIEW_PV
  6
C_SOLID_M
100
AcDbLine
 10
-62.449997
 20
-7.0
 30
0.0
 11
-62.449997
 21
-7.700000999999999
 31
0.0
  0
LINE
  5
185
330
1E
100
AcDbEntity
  8
MO_001_VIEW_PV
  6
C_SOLID_M
100
AcDbLine
 10
-63.050003
 20
-7.0
 30
0.0
 11
-63.050003
 21
-7.299999
 31
0.0
  0
ARC
  5
186
330
1E
100
AcDbEntity
  8
MO_001_VIEW_PV
  6
C_SOLID_M
100
AcDbCircle
 10
-66.0
 20
0.0
 30
0.0
 40
7.299999999999999
100
AcDbArc
 50
253.517023
 51
286.4829649999999
  0
ARC
  5
187
330
1E
100
AcDbEntity
  8
MO_001_VIEW_PV
  6
C_SOLID_M
100
AcDbCircle
 10
-66.0
 20
0.0
 30
0.0
 40
7.299999999999999
100
AcDbArc
 50
56.211012
 51
68.069679
  0
LINE
  5
188
330
1E
100
AcDbEntity
  8
MO_001_VIEW_PV
  6
C_SOLID_M
100
AcDbLine
 10
-57.099998
 20
7.0
 30
0.0
 11
-61.300003
 21
7.0
 31
0.0
  0
LINE
  5
189
330
1E
100
AcDbEntity
  8
MO_001_VIEW_PV
  6
C_CENTER_L
100
AcDbLine
 10
-16.5
 20
3.5
 30
0.0
 11
-12.5
 21
3.5
 31
0.0
  0
LINE
  5
18A
330
1E
100
AcDbEntity
  8
MO_001_VIEW_PV
  6
C_CENTER_L
100
AcDbLine
 10
-8.5
 20
3.5
 30
0.0
 11
-4.5
 21
3.5
 31
0.0
  0
LINE
  5
18B
330
1E
100
AcDbEntity
  8
MO_001_VIEW_PV
  6
C_CENTER_L
100
AcDbLine
 10
-16.5
 20
-3.5
 30
0.0
 11
-12.5
 21
-3.5
 31
0.0
  0
LINE
  5
18C
330
1E
100
AcDbEntity
  8
MO_001_VIEW_PV
  6
C_CENTER_L
100
AcDbLine
 10
-8.5
 20
-3.5
 30
0.0
 11
-4.5
 21
-3.5
 31
0.0
  0
LINE
  5
18D
330
1E
100
AcDbEntity
  8
MO_001_VIEW_PV
  6
C_CENTER_L
100
AcDbLine
 10
-14.5
 20
-1.5
 30
0.0
 11
-14.5
 21
-5.5
 31
0.0
  0
LINE
  5
18E
330
1E
100
AcDbEntity
  8
MO_001_VIEW_PV
  6
C_CENTER_L
100
AcDbLine
 10
-14.5
 20
5.5
 30
0.0
 11
-14.5
 21
1.5
 31
0.0
  0
LINE
  5
18F
330
1E
100
AcDbEntity
  8
MO_001_VIEW_PV
  6
C_CENTER_L
100
AcDbLine
 10
-6.5
 20
5.5
 30
0.0
 11
-6.5
 21
1.5
 31
0.0
  0
LINE
  5
190
330
1E
100
AcDbEntity
  8
MO_001_VIEW_PV
  6
C_CENTER_L
100
AcDbLine
 10
-6.5
 20
-1.5
 30
0.0
 11
-6.5
 21
-5.5
 31
0.0
  0
LINE
  5
191
330
1E
100
AcDbEntity
  8
MO_001_VIEW_PV
  6
C_SOLID_M
100
AcDbLine
 10
-20.99999899999999
 20
2.922649999999999
 30
0.0
 11
-19.928625
 21
3.541208
 31
0.0
  0
LINE
  5
192
330
1E
100
AcDbEntity
  8
MO_001_VIEW_PV
  6
C_SOLID_M
100
AcDbLine
 10
-20.99999899999999
 20
3.922648999999999
 30
0.0
 11
-19.99999899999999
 21
4.5
 31
0.0
  0
LINE
  5
193
330
1E
100
AcDbEntity
  8
MO_001_VIEW_PV
  6
C_SOLID_M
100
AcDbLine
 10
-19.99999899999999
 20
4.5
 30
0.0
 11
-20.99999899999999
 21
4.676326999999999
 31
0.0
  0
LINE
  5
194
330
1E
100
AcDbEntity
  8
MO_001_VIEW_PV
  6
C_SOLID_M
100
AcDbLine
 10
-21.0
 20
7.0
 30
0.0
 11
-21.0
 21
4.676326999999999
 31
0.0
  0
LINE
  5
195
330
1E
100
AcDbEntity
  8
MO_001_VIEW_PV
  6
C_SOLID_M
100
AcDbLine
 10
-20.99999899999999
 20
-2.922649999999999
 30
0.0
 11
-19.928625
 21
-3.541208
 31
0.0
  0
LINE
  5
196
330
1E
100
AcDbEntity
  8
MO_001_VIEW_PV
  6
C_SOLID_M
100
AcDbLine
 10
-19.928625
 20
-3.541208
 30
0.0
 11
-18.39999999999999
 21
-3.600003
 31
0.0
  0
LINE
  5
197
330
1E
100
AcDbEntity
  8
MO_001_VIEW_PV
  6
C_SOLID_M
100
AcDbLine
 10
-21.0
 20
-3.922648999999999
 30
0.0
 11
-21.0
 21
-2.922649999999999
 31
0.0
  0
LINE
  5
198
330
1E
100
AcDbEntity
  8
MO_001_VIEW_PV
  6
C_SOLID_M
100
AcDbLine
 10
-20.99999899999999
 20
-3.922648999999999
 30
0.0
 11
-19.99999899999999
 21
-4.5
 31
0.0
  0
LINE
  5
199
330
1E
100
AcDbEntity
  8
MO_001_VIEW_PV
  6
C_SOLID_M
100
AcDbLine
 10
-19.99999899999999
 20
-4.5
 30
0.0
 11
-20.99999899999999
 21
-4.676326999999999
 31
0.0
  0
LINE
  5
19A
330
1E
100
AcDbEntity
  8
MO_001_VIEW_PV
  6
C_SOLID_M
100
AcDbLine
 10
-21.0
 20
-7.0
 30
0.0
 11
-21.0
 21
-4.676326999999999
 31
0.0
  0
LINE
  5
19B
330
1E
100
AcDbEntity
  8
MO_001_VIEW_PV
  6
C_SOLID_M
100
AcDbLine
 10
-58.300003
 20
2.922649999999999
 30
0.0
 11
-57.099998
 21
2.922649999999999
 31
0.0
  0
LINE
  5
19C
330
1E
100
AcDbEntity
  8
MO_001_VIEW_PV
  6
C_SOLID_M
100
AcDbLine
 10
-58.300003
 20
3.922648999999999
 30
0.0
 11
-57.099998
 21
3.922648999999999
 31
0.0
  0
LINE
  5
19D
330
1E
100
AcDbEntity
  8
MO_001_VIEW_PV
  6
C_SOLID_M
100
AcDbLine
 10
-58.300003
 20
4.5
 30
0.0
 11
-57.099998
 21
4.5
 31
0.0
  0
LINE
  5
19E
330
1E
100
AcDbEntity
  8
MO_001_VIEW_PV
  6
C_SOLID_M
100
AcDbLine
 10
-58.300003
 20
4.676326999999999
 30
0.0
 11
-57.099998
 21
4.676326999999999
 31
0.0
  0
LINE
  5
19F
330
1E
100
AcDbEntity
  8
MO_001_VIEW_PV
  6
C_SOLID_M
100
AcDbLine
 10
-73.699997
 20
2.922649999999999
 30
0.0
 11
-73.699997
 21
7.0
 31
0.0
  0
LINE
  5
1A0
330
1E
100
AcDbEntity
  8
MO_001_VIEW_PV
  6
C_SOLID_M
100
AcDbLine
 10
-73.699997
 20
2.922649999999999
 30
0.0
 11
-74.89999399999999
 21
2.922649999999999
 31
0.0
  0
LINE
  5
1A1
330
1E
100
AcDbEntity
  8
MO_001_VIEW_PV
  6
C_SOLID_M
100
AcDbLine
 10
-73.699997
 20
3.922648999999999
 30
0.0
 11
-74.89999399999999
 21
3.922648999999999
 31
0.0
  0
LINE
  5
1A2
330
1E
100
AcDbEntity
  8
MO_001_VIEW_PV
  6
C_SOLID_M
100
AcDbLine
 10
-73.699997
 20
4.5
 30
0.0
 11
-74.89999399999999
 21
4.5
 31
0.0
  0
LINE
  5
1A3
330
1E
100
AcDbEntity
  8
MO_001_VIEW_PV
  6
C_SOLID_M
100
AcDbLine
 10
-73.699997
 20
4.676326999999999
 30
0.0
 11
-74.89999399999999
 21
4.676326999999999
 31
0.0
  0
LINE
  5
1A4
330
1E
100
AcDbEntity
  8
MO_001_VIEW_PV
  6
C_SOLID_M
100
AcDbLine
 10
-58.300003
 20
-2.922649999999999
 30
0.0
 11
-58.300003
 21
-7.0
 31
0.0
  0
LINE
  5
1A5
330
1E
100
AcDbEntity
  8
MO_001_VIEW_PV
  6
C_SOLID_M
100
AcDbLine
 10
-58.300003
 20
-2.922649999999999
 30
0.0
 11
-57.099998
 21
-2.922649999999999
 31
0.0
  0
LINE
  5
1A6
330
1E
100
AcDbEntity
  8
MO_001_VIEW_PV
  6
C_SOLID_M
100
AcDbLine
 10
-58.300003
 20
-3.922648999999999
 30
0.0
 11
-57.099998
 21
-3.922648999999999
 31
0.0
  0
LINE
  5
1A7
330
1E
100
AcDbEntity
  8
MO_001_VIEW_PV
  6
C_SOLID_M
100
AcDbLine
 10
-58.300003
 20
-4.5
 30
0.0
 11
-57.099998
 21
-4.5
 31
0.0
  0
LINE
  5
1A8
330
1E
100
AcDbEntity
  8
MO_001_VIEW_PV
  6
C_SOLID_M
100
AcDbLine
 10
-58.300003
 20
-4.676326999999999
 30
0.0
 11
-57.099998
 21
-4.676326999999999
 31
0.0
  0
LINE
  5
1A9
330
1E
100
AcDbEntity
  8
MO_001_VIEW_PV
  6
C_SOLID_M
100
AcDbLine
 10
-73.699997
 20
-2.922649999999999
 30
0.0
 11
-73.699997
 21
-7.0
 31
0.0
  0
LINE
  5
1AA
330
1E
100
AcDbEntity
  8
MO_001_VIEW_PV
  6
C_SOLID_M
100
AcDbLine
 10
-73.699997
 20
-2.922649999999999
 30
0.0
 11
-74.89999399999999
 21
-2.922649999999999
 31
0.0
  0
LINE
  5
1AB
330
1E
100
AcDbEntity
  8
MO_001_VIEW_PV
  6
C_SOLID_M
100
AcDbLine
 10
-73.699997
 20
-3.922648999999999
 30
0.0
 11
-74.89999399999999
 21
-3.922648999999999
 31
0.0
  0
LINE
  5
1AC
330
1E
100
AcDbEntity
  8
MO_001_VIEW_PV
  6
C_SOLID_M
100
AcDbLine
 10
-73.699997
 20
-4.5
 30
0.0
 11
-74.89999399999999
 21
-4.5
 31
0.0
  0
LINE
  5
1AD
330
1E
100
AcDbEntity
  8
MO_001_VIEW_PV
  6
C_SOLID_M
100
AcDbLine
 10
-73.699997
 20
-4.676326999999999
 30
0.0
 11
-74.89999399999999
 21
-4.676326999999999
 31
0.0
  0
LINE
  5
1AE
330
1E
100
AcDbEntity
  8
MO_001_VIEW_PV
  6
C_SOLID_L
100
AcDbLine
 10
9.751825999999999
 20
21.0
 30
0.0
 11
43.58509799999999
 21
21.0
 31
0.0
  0
LINE
  5
1AF
330
1E
100
AcDbEntity
  8
MO_001_VIEW_PV
  6
C_SOLID_L
100
AcDbLine
 10
-50.266239
 20
-15.0
 30
0.0
 11
-36.66025499999999
 21
-15.0
 31
0.0
  0
TEXT
  5
1B0
330
1E
100
AcDbEntity
  8
MO_001_VIEW_PV
  6
C_SOLID_L
100
AcDbText
 10
-79.488281
 20
-81.08359399999999
 30
0.0
 40
4.167187
  1
SK0520A
100
AcDbText
  0
TEXT
  5
1B1
330
1E
100
AcDbEntity
  8
MO_001_VIEW_PV
  6
C_SOLID_L
100
AcDbText
 10
-46.07142899999999
 20
-73.5
 30
0.0
 40
3.0
  1
板厚1.2mm、ネジ突き出しは0.3mm以下
100
AcDbText
  0
TEXT
  5
1B2
330
1E
100
AcDbEntity
  8
MO_001_VIEW_PV
  6
C_SOLID_L
100
AcDbText
 10
25.51171899999999
 20
-81.08359399999999
 30
0.0
 40
4.167187
  1
単位：mm
100
AcDbText
  0
TEXT
  5
1B3
330
1E
100
AcDbEntity
  8
MO_001_VIEW_PV
  6
C_SOLID_L
100
AcDbText
 10
25.51171899999999
 20
-87.08359399999999
 30
0.0
 40
4.167187
  1
図は励磁時を示す
100
AcDbText
  0
TEXT
  5
1B4
330
1E
100
AcDbEntity
  8
MO_001_VIEW_PV
  6
C_SOLID_L
100
AcDbText
 10
4.428570999999999
 20
-24.75
 30
0.0
 40
3.0
  1
UL1007 AWG28
100
AcDbText
  0
TEXT
  5
1B5
330
1E
100
AcDbEntity
  8
MO_001_VIEW_PV
  6
C_SOLID_L
100
AcDbText
 10
10.180398
 20
21.75
 30
0.0
 40
3.0
  1
4-M2.6x0.45
100
AcDbText
  0
TEXT
  5
1B6
330
1E
100
AcDbEntity
  8
MO_001_VIEW_PV
  6
C_SOLID_L
100
AcDbText
 10
-42.44597
 20
-12.375
 30
0.0
 40
1.5
  1
+0.1
100
AcDbText
  0
TEXT
  5
1B7
330
1E
100
AcDbEntity
  8
MO_001_VIEW_PV
  6
C_SOLID_L
100
AcDbText
 10
-42.44597
 20
-14.625
 30
0.0
 40
1.5
  1
 0
100
AcDbText
  0
TEXT
  5
1B8
330
1E
100
AcDbEntity
  8
MO_001_VIEW_PV
  6
C_SOLID_L
100
AcDbText
 10
-48.231684
 20
-14.25
 30
0.0
 40
3.0
  1
%%C2
100
AcDbText
  0
POLYLINE
  5
1B9
330
1E
100
AcDbEntity
  8
MO_001_NOSHOW
  6
C_SOLID_M
100
AcDb2dPolyline
 66
     1
 10
0.0
 20
0.0
 30
0.0
 70
     5
 75
     6
  0
VERTEX
  5
1BA
330
1B9
100
AcDbEntity
  8
MO_001_NOSHOW
  6
C_SOLID_M
100
AcDbVertex
100
AcDb2dVertex
 10
-29.200001
 20
-58.5
 30
0.0
 50
193.8537399999999
  0
VERTEX
  5
1BB
330
1B9
100
AcDbEntity
  8
MO_001_NOSHOW
  6
C_SOLID_M
100
AcDbVertex
100
AcDb2dVertex
 10
-28.0
 20
-58.193169
 30
0.0
 50
0.000004
  0
VERTEX
  5
1BC
330
1B9
100
AcDbEntity
  8
MO_001_NOSHOW
  6
C_SOLID_M
100
AcDbVertex
100
AcDb2dVertex
 10
-26.799999
 20
-58.5
 30
0.0
 50
26.565051
  0
VERTEX
  5
1BD
330
1B9
100
AcDbEntity
  8
MO_001_NOSHOW
  6
C_SOLID_M
100
AcDbVertex
100
AcDb2dVertex
 10
-28.0
 20
-58.193169
 30
0.0
 50
179.999999
  0
VERTEX
  5
1BE
330
1B9
100
AcDbEntity
  8
MO_001_NOSHOW
  6
C_SOLID_M
100
AcDbVertex
100
AcDb2dVertex
 10
-29.200001
 20
-58.5
 30
0.0
 50
269.8175819999999
  0
SEQEND
  5
1BF
330
1B9
100
AcDbEntity
  8
0
  0
POLYLINE
  5
1C0
330
1E
100
AcDbEntity
  8
MO_001_NOSHOW
  6
C_SOLID_M
100
AcDb2dPolyline
 66
     1
 10
0.0
 20
0.0
 30
0.0
 70
     5
 75
     6
  0
VERTEX
  5
1C1
330
1C0
100
AcDbEntity
  8
MO_001_NOSHOW
  6
C_SOLID_M
100
AcDbVertex
100
AcDb2dVertex
 10
-29.200001
 20
-53.5
 30
0.0
 50
90.0
  0
VERTEX
  5
1C2
330
1C0
100
AcDbEntity
  8
MO_001_NOSHOW
  6
C_SOLID_M
100
AcDbVertex
100
AcDb2dVertex
 10
-28.0
 20
-53.806831
 30
0.0
 50
0.000001
  0
VERTEX
  5
1C3
330
1C0
100
AcDbEntity
  8
MO_001_NOSHOW
  6
C_SOLID_M
100
AcDbVertex
100
AcDb2dVertex
 10
-26.799999
 20
-53.5
 30
0.0
 50
236.1274279999999
  0
VERTEX
  5
1C4
330
1C0
100
AcDbEntity
  8
MO_001_NOSHOW
  6
C_SOLID_M
100
AcDbVertex
100
AcDb2dVertex
 10
-28.0
 20
-53.806831
 30
0.0
 50
179.999996
  0
VERTEX
  5
1C5
330
1C0
100
AcDbEntity
  8
MO_001_NOSHOW
  6
C_SOLID_M
100
AcDbVertex
100
AcDb2dVertex
 10
-29.200001
 20
-53.5
 30
0.0
 50
36.869894
  0
SEQEND
  5
1C6
330
1C0
100
AcDbEntity
  8
0
  0
POLYLINE
  5
1C7
330
1E
100
AcDbEntity
  8
MO_001_NOSHOW
  6
C_SOLID_M
100
AcDb2dPolyline
 66
     1
 10
0.0
 20
0.0
 30
0.0
 70
     5
 75
     6
  0
VERTEX
  5
1C8
330
1C7
100
AcDbEntity
  8
MO_001_NOSHOW
  6
C_SOLID_M
100
AcDbVertex
100
AcDb2dVertex
 10
-29.0
 20
-58.199997
 30
0.0
 50
193.853739
  0
VERTEX
  5
1C9
330
1C7
100
AcDbEntity
  8
MO_001_NOSHOW
  6
C_SOLID_M
100
AcDbVertex
100
AcDb2dVertex
 10
-28.0
 20
-57.95959499999999
 30
0.0
 50
0.000004
  0
VERTEX
  5
1CA
330
1C7
100
AcDbEntity
  8
MO_001_NOSHOW
  6
C_SOLID_M
100
AcDbVertex
100
AcDb2dVertex
 10
-27.0
 20
-58.199997
 30
0.0
 50
26.565051
  0
VERTEX
  5
1CB
330
1C7
100
AcDbEntity
  8
MO_001_NOSHOW
  6
C_SOLID_M
100
AcDbVertex
100
AcDb2dVertex
 10
-28.0
 20
-57.95959499999999
 30
0.0
 50
179.999999
  0
VERTEX
  5
1CC
330
1C7
100
AcDbEntity
  8
MO_001_NOSHOW
  6
C_SOLID_M
100
AcDbVertex
100
AcDb2dVertex
 10
-29.0
 20
-58.199997
 30
0.0
 50
269.8175019999999
  0
SEQEND
  5
1CD
330
1C7
100
AcDbEntity
  8
0
  0
POLYLINE
  5
1CE
330
1E
100
AcDbEntity
  8
MO_001_NOSHOW
  6
C_SOLID_M
100
AcDb2dPolyline
 66
     1
 10
0.0
 20
0.0
 30
0.0
 70
     5
 75
     6
  0
VERTEX
  5
1CF
330
1CE
100
AcDbEntity
  8
MO_001_NOSHOW
  6
C_SOLID_M
100
AcDbVertex
100
AcDb2dVertex
 10
-29.0
 20
-53.800003
 30
0.0
 50
89.999999
  0
VERTEX
  5
1D0
330
1CE
100
AcDbEntity
  8
MO_001_NOSHOW
  6
C_SOLID_M
100
AcDbVertex
100
AcDb2dVertex
 10
-28.0
 20
-54.040405
 30
0.0
 50
0.000001
  0
VERTEX
  5
1D1
330
1CE
100
AcDbEntity
  8
MO_001_NOSHOW
  6
C_SOLID_M
100
AcDbVertex
100
AcDb2dVertex
 10
-27.0
 20
-53.800003
 30
0.0
 50
236.127429
  0
VERTEX
  5
1D2
330
1CE
100
AcDbEntity
  8
MO_001_NOSHOW
  6
C_SOLID_M
100
AcDbVertex
100
AcDb2dVertex
 10
-28.0
 20
-54.040405
 30
0.0
 50
179.999996
  0
VERTEX
  5
1D3
330
1CE
100
AcDbEntity
  8
MO_001_NOSHOW
  6
C_SOLID_M
100
AcDbVertex
100
AcDb2dVertex
 10
-29.0
 20
-53.800003
 30
0.0
 50
36.869894
  0
SEQEND
  5
1D4
330
1CE
100
AcDbEntity
  8
0
  0
DIMENSION
  5
1D6
330
1E
100
AcDbEntity
  8
MO_001_VIEW_PV
  6
C_SOLID_M
100
AcDbDimension
  2
*D0
 10
15.0
 20
11.437222
 30
0.0
 11
15.0
 21
11.437222
 31
0.0
  3
STANDARD
100
AcDbAlignedDimension
 13
-4.5
 23
3.5
 33
0.0
 14
-4.5
 24
-3.5
 34
0.0
 50
270.012145
100
AcDbRotatedDimension
  0
DIMENSION
  5
1D8
330
1E
100
AcDbEntity
  8
MO_001_VIEW_PV
  6
C_SOLID_M
100
AcDbDimension
  2
*D1
 10
-17.878517
 20
12.0
 30
0.0
 11
-17.878517
 21
12.0
 31
0.0
  1
(6.5)
  3
STANDARD
100
AcDbAlignedDimension
 13
-6.5
 23
5.5
 33
0.0
 14
0.0
 24
7.0
 34
0.0
100
AcDbRotatedDimension
  0
DIMENSION
  5
1DA
330
1E
100
AcDbEntity
  8
MO_001_VIEW_PV
  6
C_SOLID_M
100
AcDbDimension
  2
*D2
 10
-10.5
 20
18.0
 30
0.0
 11
-10.5
 21
18.0
 31
0.0
  3
STANDARD
100
AcDbAlignedDimension
 13
-21.0
 23
7.0
 33
0.0
 14
0.0
 24
7.0
 34
0.0
100
AcDbRotatedDimension
  0
DIMENSION
  5
1DC
330
1E
100
AcDbEntity
  8
MO_001_VIEW_PV
  6
C_SOLID_M
100
AcDbDimension
  2
*D3
 10
-15.25
 20
24.0
 30
0.0
 11
-15.25
 21
24.0
 31
0.0
  1
30.5
  3
STANDARD
100
AcDbAlignedDimension
 13
0.0
 23
7.0
 33
0.0
 14
-30.5
 24
2.199997
 34
0.0
 50
179.97571
100
AcDbRotatedDimension
  0
DIMENSION
  5
1DE
330
1E
100
AcDbEntity
  8
MO_001_VIEW_PV
  6
C_SOLID_M
100
AcDbDimension
  2
*D4
 10
-36.0
 20
13.32964299999999
 30
0.0
 11
-36.0
 21
13.32964299999999
 31
0.0
  3
STANDARD
100
AcDbAlignedDimension
 13
-30.200001
 23
2.5
 33
0.0
 14
-30.200001
 24
-2.5
 34
0.0
 50
270.012145
100
AcDbRotatedDimension
  0
DIMENSION
  5
1E0
330
1E
100
AcDbEntity
  8
MO_001_VIEW_PV
  6
C_SOLID_M
100
AcDbDimension
  2
*D5
 10
-39.262615
 20
-21.0
 30
0.0
 11
-39.262615
 21
-21.0
 31
0.0
  3
STANDARD
100
AcDbAlignedDimension
 13
-28.0
 23
-2.039613
 33
0.0
 14
-30.5
 24
-2.199997
 34
0.0
 50
179.97571
100
AcDbRotatedDimension
  0
DIMENSION
  5
1E2
330
1E
100
AcDbEntity
  8
MO_001_VIEW_PV
  6
C_SOLID_M
100
AcDbDimension
  2
*D6
 10
12.0
 20
-15.0
 30
0.0
 11
12.0
 21
-15.0
 31
0.0
  1
(0.5)
  3
STANDARD
100
AcDbAlignedDimension
 13
0.5000010000000001
 23
-1.0
 33
0.0
 14
0.0
 24
-7.0
 34
0.0
 50
179.97571
100
AcDbRotatedDimension
  0
DIMENSION
  5
1E4
330
1E
100
AcDbEntity
  8
MO_001_VIEW_PV
  6
C_SOLID_M
100
AcDbDimension
  2
*D7
 10
2.181137
 20
-30.0
 30
0.0
 11
2.181137
 21
-30.0
 31
0.0
  3
STANDARD
100
AcDbAlignedDimension
 13
-6.5
 23
-5.5
 33
0.0
 14
-14.5
 24
-5.5
 34
0.0
 50
179.97571
100
AcDbRotatedDimension
  0
DIMENSION
  5
1E6
330
1E
100
AcDbEntity
  8
MO_001_VIEW_PV
  6
C_SOLID_M
100
AcDbDimension
  2
*D8
 10
-37.748932
 20
-30.0
 30
0.0
 11
-37.748932
 21
-30.0
 31
0.0
  3
STANDARD
100
AcDbAlignedDimension
 13
-28.0
 23
-2.039613
 33
0.0
 14
-14.5
 24
-5.5
 34
0.0
100
AcDbRotatedDimension
  0
DIMENSION
  5
1E8
330
1E
100
AcDbEntity
  8
MO_001_VIEW_PV
  6
C_SOLID_M
100
AcDbDimension
  2
*D9
 10
21.21428499999999
 20
-21.0
 30
0.0
 11
21.21428499999999
 21
-21.0
 31
0.0
  1
長さ240以上
  3
STANDARD
100
AcDbAlignedDimension
 13
44.0
 23
-8.300499
 33
0.0
 14
0.0
 24
-7.0
 34
0.0
100
AcDbRotatedDimension
  0
DIMENSION
  5
1EA
330
1E
100
AcDbEntity
  8
MO_001_VIEW_PV
  6
C_SOLID_M
100
AcDbDimension
  2
*D10
 10
-10.0
 20
-41.0
 30
0.0
 11
-10.0
 21
-41.0
 31
0.0
  3
STANDARD
100
AcDbAlignedDimension
 13
0.0
 23
-48.300003
 33
0.0
 14
-20.0
 24
-48.300003
 34
0.0
100
AcDbRotatedDimension
  0
DIMENSION
  5
1EC
330
1E
100
AcDbEntity
  8
MO_001_VIEW_PV
  6
C_SOLID_M
100
AcDbDimension
  2
*D11
 10
-66.387558
 20
-18.0
 30
0.0
 11
-66.387558
 21
-18.0
 31
0.0
  3
STANDARD
100
AcDbAlignedDimension
 13
-74.89999399999999
 23
-7.0
 33
0.0
 14
-57.099998
 24
-7.0
 34
0.0
100
AcDbRotatedDimension
  0
DIMENSION
  5
1EE
330
1E
100
AcDbEntity
  8
MO_001_VIEW_PV
  6
C_SOLID_M
100
AcDbDimension
  2
*D12
 10
-81.0
 20
14.641234
 30
0.0
 11
-81.0
 21
14.641234
 31
0.0
  3
STANDARD
100
AcDbAlignedDimension
 13
-74.89999399999999
 23
7.0
 33
0.0
 14
-74.89999399999999
 24
-7.0
 34
0.0
 50
89.999523
100
AcDbRotatedDimension
  0
DIMENSION
  5
1F0
330
1E
100
AcDbEntity
  8
MO_001_VIEW_PV
  6
C_SOLID_M
100
AcDbDimension
  2
*D13
 10
-28.416147
 20
0.9092969999999999
 30
0.0
 11
-36.66025499999999
 21
-15.0
 31
0.0
 70
     3
  1
<>
  3
STANDARD
100
AcDbDiametricDimension
 15
-27.583853
 25
-0.9092969999999999
 35
0.0
 40
0.0
  0
DIMENSION
  5
1F2
330
1E
100
AcDbEntity
  8
MO_001_VIEW_PV
  6
C_SOLID_M
100
AcDbDimension
  2
*D14
 10
-39.833069
 20
-41.0
 30
0.0
 11
-39.833069
 21
-41.0
 31
0.0
  1
(10.5)
  3
STANDARD
100
AcDbAlignedDimension
 13
-30.5
 23
-53.800003
 33
0.0
 14
-20.0
 24
-48.300003
 34
0.0
100
AcDbRotatedDimension
  0
LINE
  5
1F3
330
1E
100
AcDbEntity
  8
MO_001_VIEW_PV
  6
C_SOLID_L
100
AcDbLine
 10
-5.615359999999999
 20
4.452581999999999
 30
0.0
 11
9.751827
 21
21.000001
 31
0.0
  0
POLYLINE
  5
1F4
330
1E
100
AcDbEntity
  8
MO_001_VIEW_PV
  6
C_SOLID_L
100
AcDb2dPolyline
 66
     1
 10
0.0
 20
0.0
 30
0.0
 70
     1
  0
VERTEX
  5
33D
330
1F4
100
AcDbEntity
  8
MO_001_VIEW_PV
  6
C_SOLID_L
100
AcDbVertex
100
AcDb2dVertex
 10
-3.784882
 20
7.28113
 30
0.0
  0
VERTEX
  5
33E
330
1F4
100
AcDbEntity
  8
MO_001_VIEW_PV
  6
C_SOLID_L
100
AcDbVertex
100
AcDb2dVertex
 10
-5.269669999999999
 20
4.824822
 30
0.0
  0
VERTEX
  5
33F
330
1F4
100
AcDbEntity
  8
MO_001_VIEW_PV
  6
C_SOLID_L
100
AcDbVertex
100
AcDb2dVertex
 10
-2.929739
 20
6.486979999999999
 30
0.0
  0
SEQEND
  5
340
330
1F4
100
AcDbEntity
  8
MO_001_VIEW_PV
  6
C_SOLID_L
  0
ENDSEC
  0
SECTION
  2
OBJECTS
  0
DICTIONARY
  5
1A
330
0
100
AcDbDictionary
  3
ACAD_GROUP
350
1B
  3
ACAD_MLINESTYLE
350
1C
  3
ACAD_LAYOUT
350
29B
  3
ACAD_PLOTSETTINGS
350
29C
1001
ACAD
1000
TREAT_AS_HARD
1070
     0
  0
DICTIONARY
  5
2A1
330
1E
100
AcDbDictionary
  3
ACAD_LAYOUTSELFREF
350
2A2
  0
DICTIONARY
  5
2A3
330
1F
100
AcDbDictionary
  3
ACAD_LAYOUTSELFREF
350
2A4
  0
DICTIONARY
  5
1B
102
{ACAD_REACTORS
330
1A
102
}
330
1A
100
AcDbDictionary
1001
ACAD
1000
TREAT_AS_HARD
1070
     0
  0
DICTIONARY
  5
1C
102
{ACAD_REACTORS
330
1A
102
}
330
1A
100
AcDbDictionary
  3
STANDARD
350
1D
1001
ACAD
1000
TREAT_AS_HARD
1070
     0
  0
DICTIONARY
  5
29B
102
{ACAD_REACTORS
330
1A
102
}
330
1A
100
AcDbDictionary
1001
ACAD
1000
TREAT_AS_HARD
1070
     0
  0
DICTIONARY
  5
29C
102
{ACAD_REACTORS
330
1A
102
}
330
1A
100
AcDbDictionary
1001
ACAD
1000
TREAT_AS_HARD
1070
     0
  0
XRECORD
  5
2A2
102
{ACAD_REACTORS
330
2A1
102
}
330
2A1
100
AcDbXrecord
340
1E
  0
XRECORD
  5
2A4
102
{ACAD_REACTORS
330
2A3
102
}
330
2A3
100
AcDbXrecord
340
1F
  0
MLINESTYLE
  5
1D
102
{ACAD_REACTORS
330
1C
102
}
330
1C
100
AcDbMlineStyle
  2
STANDARD
 70
     0
  3

 62
     0
 51
90.0
 52
90.0
 71
     2
 49
0.5
 62
   256
  6
BYLAYER
 49
-0.5
 62
   256
  6
BYLAYER
  0
ENDSEC
  0
EOF
