  0
SECTION
  2
HEADER
  9
$ACADVER
  1
AC1012
  9
$DWGCODEPAGE
  3
dos932
  9
$INSBASE
 10
0.0
 20
0.0
 30
0.0
  9
$EXTMIN
 10
-91.49244572877677
 20
-81.084339133403
 30
-0.0015258207003583
  9
$EXTMAX
 10
61.13482593443172
 20
27.75541451818333
 30
0.0000000349246037
  9
$LIMMIN
 10
-92.827736
 20
-84.208984
  9
$LIMMAX
 10
55.99804699999999
 20
30.0
  9
$ORTHOMODE
 70
     0
  9
$REGENMODE
 70
     1
  9
$FILLMODE
 70
     1
  9
$QTEXTMODE
 70
     0
  9
$MIRRTEXT
 70
     1
  9
$DRAGMODE
 70
     2
  9
$LTSCALE
 40
1.0
  9
$OSMODE
 70
    37
  9
$ATTMODE
 70
     1
  9
$TEXTSIZE
 40
4.1672
  9
$TRACEWID
 40
0.05
  9
$TEXTSTYLE
  7
STANDARD
  9
$CLAYER
  8
0
  9
$CELTYPE
  6
CONTINUOUS
  9
$CECOLOR
 62
   256
  9
$CELTSCALE
 40
1.0
  9
$DELOBJ
 70
     1
  9
$DISPSILH
 70
     0
  9
$DIMSCALE
 40
1.0
  9
$DIMASZ
 40
0.18
  9
$DIMEXO
 40
0.0625
  9
$DIMDLI
 40
0.38
  9
$DIMRND
 40
0.0
  9
$DIMDLE
 40
0.0
  9
$DIMEXE
 40
0.18
  9
$DIMTP
 40
0.0
  9
$DIMTM
 40
0.0
  9
$DIMTXT
 40
0.18
  9
$DIMCEN
 40
0.09
  9
$DIMTSZ
 40
0.0
  9
$DIMTOL
 70
     0
  9
$DIMLIM
 70
     0
  9
$DIMTIH
 70
     1
  9
$DIMTOH
 70
     1
  9
$DIMSE1
 70
     0
  9
$DIMSE2
 70
     0
  9
$DIMTAD
 70
     0
  9
$DIMZIN
 70
     0
  9
$DIMBLK
  1

  9
$DIMASO
 70
     1
  9
$DIMSHO
 70
     1
  9
$DIMPOST
  1

  9
$DIMAPOST
  1

  9
$DIMALT
 70
     0
  9
$DIMALTD
 70
     2
  9
$DIMALTF
 40
25.4
  9
$DIMLFAC
 40
1.0
  9
$DIMTOFL
 70
     0
  9
$DIMTVP
 40
0.0
  9
$DIMTIX
 70
     0
  9
$DIMSOXD
 70
     0
  9
$DIMSAH
 70
     0
  9
$DIMBLK1
  1

  9
$DIMBLK2
  1

  9
$DIMSTYLE
  2
STANDARD
  9
$DIMCLRD
 70
     0
  9
$DIMCLRE
 70
     0
  9
$DIMCLRT
 70
     0
  9
$DIMTFAC
 40
1.0
  9
$DIMGAP
 40
0.09
  9
$DIMJUST
 70
     0
  9
$DIMSD1
 70
     0
  9
$DIMSD2
 70
     0
  9
$DIMTOLJ
 70
     1
  9
$DIMTZIN
 70
     0
  9
$DIMALTZ
 70
     0
  9
$DIMALTTZ
 70
     0
  9
$DIMFIT
 70
     3
  9
$DIMUPT
 70
     0
  9
$DIMUNIT
 70
     2
  9
$DIMDEC
 70
     4
  9
$DIMTDEC
 70
     4
  9
$DIMALTU
 70
     2
  9
$DIMALTTD
 70
     2
  9
$DIMTXSTY
  7
STANDARD
  9
$DIMAUNIT
 70
     0
  9
$LUNITS
 70
     2
  9
$LUPREC
 70
     6
  9
$SKETCHINC
 40
0.1
  9
$FILLETRAD
 40
0.0
  9
$AUNITS
 70
     0
  9
$AUPREC
 70
     4
  9
$MENU
  1
acad
  9
$ELEVATION
 40
0.0
  9
$PELEVATION
 40
0.0
  9
$THICKNESS
 40
0.0
  9
$LIMCHECK
 70
     0
  9
$BLIPMODE
 70
     0
  9
$CHAMFERA
 40
0.0
  9
$CHAMFERB
 40
0.0
  9
$CHAMFERC
 40
0.0
  9
$CHAMFERD
 40
0.0
  9
$SKPOLY
 70
     0
  9
$TDCREATE
 40
2376126.114255983
  9
$TDUPDATE
 40
2451683.737140162
  9
$TDINDWG
 40
0.0009388889
  9
$TDUSRTIMER
 40
0.0009388889
  9
$USRTIMER
 70
     1
  9
$ANGBASE
 50
0.0
  9
$ANGDIR
 70
     0
  9
$PDMODE
 70
     0
  9
$PDSIZE
 40
0.0
  9
$PLINEWID
 40
0.0
  9
$COORDS
 70
     1
  9
$SPLFRAME
 70
     0
  9
$SPLINETYPE
 70
     6
  9
$SPLINESEGS
 70
     8
  9
$ATTDIA
 70
     0
  9
$ATTREQ
 70
     1
  9
$HANDLING
 70
 10241
  9
$HANDSEED
  5
210
  9
$SURFTAB1
 70
     6
  9
$SURFTAB2
 70
     6
  9
$SURFTYPE
 70
     6
  9
$SURFU
 70
     6
  9
$SURFV
 70
     6
  9
$UCSNAME
  2

  9
$UCSORG
 10
-35.00000622304117
 20
0.0
 30
0.0
  9
$UCSXDIR
 10
1.0
 20
0.0
 30
0.0
  9
$UCSYDIR
 10
0.0
 20
1.0
 30
0.0
  9
$PUCSNAME
  2

  9
$PUCSORG
 10
0.0
 20
0.0
 30
0.0
  9
$PUCSXDIR
 10
1.0
 20
0.0
 30
0.0
  9
$PUCSYDIR
 10
0.0
 20
1.0
 30
0.0
  9
$USERI1
 70
     0
  9
$USERI2
 70
     0
  9
$USERI3
 70
     0
  9
$USERI4
 70
     0
  9
$USERI5
 70
     0
  9
$USERR1
 40
0.0
  9
$USERR2
 40
0.0
  9
$USERR3
 40
0.0
  9
$USERR4
 40
0.0
  9
$USERR5
 40
0.0
  9
$WORLDVIEW
 70
     1
  9
$SHADEDGE
 70
     3
  9
$SHADEDIF
 70
    70
  9
$TILEMODE
 70
     1
  9
$MAXACTVP
 70
    16
  9
$PINSBASE
 10
0.0
 20
0.0
 30
0.0
  9
$PLIMCHECK
 70
     0
  9
$PEXTMIN
 10
-92.827736
 20
-84.208984
 30
1.000000000000000E+20
  9
$PEXTMAX
 10
55.99804699999999
 20
30.0
 30
-1.000000000000000E+20
  9
$PLIMMIN
 10
0.0
 20
0.0
  9
$PLIMMAX
 10
12.0
 20
9.0
  9
$UNITMODE
 70
     0
  9
$VISRETAIN
 70
     0
  9
$PLINEGEN
 70
     0
  9
$PSLTSCALE
 70
     1
  9
$TREEDEPTH
 70
  3020
  9
$PICKSTYLE
 70
     1
  9
$CMLSTYLE
  2
STANDARD
  9
$CMLJUST
 70
     0
  9
$CMLSCALE
 40
1.0
  9
$SAVEIMAGES
 70
     1
  0
ENDSEC
  0
SECTION
  2
CLASSES
  0
CLASS
  1
ACDBDICTIONARYWDFLT
  2
AcDbDictionaryWithDefault
  3
AutoCAD 2000
 90
    32768
280
     0
281
     0
  0
CLASS
  1
ACDBPLACEHOLDER
  2
AcDbPlaceHolder
  3
AutoCAD 2000
 90
    32768
280
     0
281
     0
  0
CLASS
  1
LAYOUT
  2
AcDbLayout
  3
AutoCAD 2000
 90
    32768
280
     0
281
     0
  0
CLASS
  1
LONG_TRANSACTION
  2
AcDbLongTransaction
  3
AutoCAD 2000
 90
    32768
280
     0
281
     0
  0
CLASS
  1
LWPOLYLINE
  2
AcDbPolyline
  3
AutoCAD 2000
 90
    32768
280
     0
281
     1
  0
CLASS
  1
HATCH
  2
AcDbHatch
  3
AutoCAD 2000
 90
    32768
280
     0
281
     1
  0
CLASS
  1
XRECORD
  2
AcDbXrecord
  3
AutoCAD 2000
 90
    32768
280
     0
281
     0
  0
ENDSEC
  0
SECTION
  2
TABLES
  0
TABLE
  2
VPORT
  5
7
330
0
100
AcDbSymbolTable
 70
     2
  0
VPORT
  5
207
330
7
100
AcDbSymbolTableRecord
100
AcDbViewportTableRecord
  2
*ACTIVE
 70
     0
 10
0.0
 20
0.0
 11
1.0
 21
1.0
 12
-15.84645503278416
 22
-27.104492
 13
0.0
 23
0.0
 14
6.349999999999999
 24
6.349999999999999
 15
6.349999999999999
 25
6.349999999999999
 16
0.0
 26
0.0
 36
1.0
 17
0.0
 27
0.0
 37
0.0
 40
115.4617333674588
 41
1.727106227106227
 42
50.0
 43
0.0
 44
0.0
 50
0.0
 51
0.0
 71
     0
 72
   100
 73
     1
 74
     1
 75
     0
 76
     0
 77
     0
 78
     0
  0
ENDTAB
  0
TABLE
  2
LTYPE
  5
4
330
0
100
AcDbSymbolTable
 70
    37
  0
LTYPE
  5
12
330
4
100
AcDbSymbolTableRecord
100
AcDbLinetypeTableRecord
  2
BYBLOCK
 70
     0
  3

 72
    65
 73
     0
 40
0.0
  0
LTYPE
  5
13
330
4
100
AcDbSymbolTableRecord
100
AcDbLinetypeTableRecord
  2
BYLAYER
 70
     0
  3

 72
    65
 73
     0
 40
0.0
  0
LTYPE
  5
14
330
4
100
AcDbSymbolTableRecord
100
AcDbLinetypeTableRecord
  2
CONTINUOUS
 70
     0
  3
DXF Default line type
 72
    65
 73
     0
 40
0.0
  0
LTYPE
  5
20
330
4
100
AcDbSymbolTableRecord
100
AcDbLinetypeTableRecord
  2
DASHED
 70
     0
  3
DXF Dashed
 72
    65
 73
     2
 40
0.75
 49
0.5
 74
     0
 49
-0.25
 74
     0
  0
LTYPE
  5
21
330
4
100
AcDbSymbolTableRecord
100
AcDbLinetypeTableRecord
  2
HIDDEN
 70
     0
  3
DXF Hidden
 72
    65
 73
     2
 40
0.375
 49
0.25
 74
     0
 49
-0.125
 74
     0
  0
LTYPE
  5
22
330
4
100
AcDbSymbolTableRecord
100
AcDbLinetypeTableRecord
  2
CENTER
 70
     0
  3
DXF Center
 72
    65
 73
     4
 40
2.0
 49
1.25
 74
     0
 49
-0.25
 74
     0
 49
0.25
 74
     0
 49
-0.25
 74
     0
  0
LTYPE
  5
23
330
4
100
AcDbSymbolTableRecord
100
AcDbLinetypeTableRecord
  2
PHANTOM
 70
     0
  3
DXF Phantom
 72
    65
 73
     6
 40
2.5
 49
1.25
 74
     0
 49
-0.25
 74
     0
 49
0.25
 74
     0
 49
-0.25
 74
     0
 49
0.25
 74
     0
 49
-0.25
 74
     0
  0
LTYPE
  5
24
330
4
100
AcDbSymbolTableRecord
100
AcDbLinetypeTableRecord
  2
DOT
 70
     0
  3
DXF DOT
 72
    65
 73
     2
 40
0.25
 49
0.0
 74
     0
 49
-0.25
 74
     0
  0
LTYPE
  5
25
330
4
100
AcDbSymbolTableRecord
100
AcDbLinetypeTableRecord
  2
DASHDOT
 70
     0
  3
DXF Dash Dot
 72
    65
 73
     4
 40
1.0
 49
0.5
 74
     0
 49
-0.25
 74
     0
 49
0.0
 74
     0
 49
-0.25
 74
     0
  0
LTYPE
  5
26
330
4
100
AcDbSymbolTableRecord
100
AcDbLinetypeTableRecord
  2
BORDER
 70
     0
  3
DXF Border
 72
    65
 73
     6
 40
1.75
 49
0.5
 74
     0
 49
-0.25
 74
     0
 49
0.5
 74
     0
 49
-0.25
 74
     0
 49
0.0
 74
     0
 49
-0.25
 74
     0
  0
LTYPE
  5
27
330
4
100
AcDbSymbolTableRecord
100
AcDbLinetypeTableRecord
  2
DIVIDE
 70
     0
  3
DXF Divide
 72
    65
 73
     6
 40
1.25
 49
0.5
 74
     0
 49
-0.25
 74
     0
 49
0.0
 74
     0
 49
-0.25
 74
     0
 49
0.0
 74
     0
 49
-0.25
 74
     0
  0
LTYPE
  5
28
330
4
100
AcDbSymbolTableRecord
100
AcDbLinetypeTableRecord
  2
C_SOLID_L
 70
     0
  3
CADAM Solid Light
 72
    65
 73
     0
 40
0.0
  0
LTYPE
  5
29
330
4
100
AcDbSymbolTableRecord
100
AcDbLinetypeTableRecord
  2
C_SOLID_M
 70
     0
  3
CADAM Solid Medium
 72
    65
 73
     0
 40
0.0
  0
LTYPE
  5
2A
330
4
100
AcDbSymbolTableRecord
100
AcDbLinetypeTableRecord
  2
C_SOLID_H
 70
     0
  3
CADAM Solid Heavy
 72
    65
 73
     0
 40
0.0
  0
LTYPE
  5
2B
330
4
100
AcDbSymbolTableRecord
100
AcDbLinetypeTableRecord
  2
C_DASHED_L
 70
     0
  3
CADAM Dashed Light
 72
    65
 73
     2
 40
0.375
 49
0.25
 74
     0
 49
-0.125
 74
     0
  0
LTYPE
  5
2C
330
4
100
AcDbSymbolTableRecord
100
AcDbLinetypeTableRecord
  2
C_DASHED_M
 70
     0
  3
CADAM Dashed Medium
 72
    65
 73
     2
 40
0.5
 49
0.375
 74
     0
 49
-0.125
 74
     0
  0
LTYPE
  5
2D
330
4
100
AcDbSymbolTableRecord
100
AcDbLinetypeTableRecord
  2
C_CENTER_L
 70
     0
  3
CADAM Center Light
 72
    65
 73
     4
 40
2.0
 49
1.25
 74
     0
 49
-0.25
 74
     0
 49
0.25
 74
     0
 49
-0.25
 74
     0
  0
LTYPE
  5
2E
330
4
100
AcDbSymbolTableRecord
100
AcDbLinetypeTableRecord
  2
C_PHANTOM_L
 70
     0
  3
CADAM Phantom Light
 72
    65
 73
     6
 40
2.5
 49
1.25
 74
     0
 49
-0.25
 74
     0
 49
0.25
 74
     0
 49
-0.25
 74
     0
 49
0.25
 74
     0
 49
-0.25
 74
     0
  0
LTYPE
  5
2F
330
4
100
AcDbSymbolTableRecord
100
AcDbLinetypeTableRecord
  2
C_BREAK_M
 70
     0
  3
CADAM Break Medium
 72
    65
 73
     4
 40
1.0
 49
0.5
 74
     0
 49
-0.25
 74
     0
 49
0.0
 74
     0
 49
-0.25
 74
     0
  0
LTYPE
  5
30
330
4
100
AcDbSymbolTableRecord
100
AcDbLinetypeTableRecord
  2
C_NC
 70
     0
  3
CADAM NC
 72
    65
 73
     0
 40
0.0
  0
LTYPE
  5
31
330
4
100
AcDbSymbolTableRecord
100
AcDbLinetypeTableRecord
  2
DSH1
 70
     0
  3
CADAM Style2 Type 1 Dashed Line
 72
    65
 73
     2
 40
0.075
 49
0.04
 74
     0
 49
-0.035
 74
     0
  0
LTYPE
  5
32
330
4
100
AcDbSymbolTableRecord
100
AcDbLinetypeTableRecord
  2
DSH2
 70
     0
  3
CADAM Style2 Type 2 Dashed Line
 72
    65
 73
     2
 40
0.15
 49
0.11
 74
     0
 49
-0.04
 74
     0
  0
LTYPE
  5
33
330
4
100
AcDbSymbolTableRecord
100
AcDbLinetypeTableRecord
  2
DSH3
 70
     0
  3
CADAM Style2 Type 3 Dashed Line
 72
    65
 73
     2
 40
0.2
 49
0.15
 74
     0
 49
-0.05
 74
     0
  0
LTYPE
  5
34
330
4
100
AcDbSymbolTableRecord
100
AcDbLinetypeTableRecord
  2
DSH4
 70
     0
  3
CADAM Style2 Type 4 Dashed Line
 72
    65
 73
     2
 40
0.36
 49
0.28
 74
     0
 49
-0.08
 74
     0
  0
LTYPE
  5
35
330
4
100
AcDbSymbolTableRecord
100
AcDbLinetypeTableRecord
  2
DSH5
 70
     0
  3
CADAM Style2 Type 5 Dashed Line
 72
    65
 73
     2
 40
0.47
 49
0.39
 74
     0
 49
-0.08
 74
     0
  0
LTYPE
  5
36
330
4
100
AcDbSymbolTableRecord
100
AcDbLinetypeTableRecord
  2
DSH6
 70
     0
  3
CADAM Style2 Type 6 Dashed Line
 72
    65
 73
     2
 40
0.9
 49
0.8100000000000001
 74
     0
 49
-0.09
 74
     0
  0
LTYPE
  5
37
330
4
100
AcDbSymbolTableRecord
100
AcDbLinetypeTableRecord
  2
PL1
 70
     0
  3
Style 2 Type 1 Phantom Line
 72
    65
 73
     6
 40
1.0
 49
0.6
 74
     0
 49
-0.08
 74
     0
 49
0.08
 74
     0
 49
-0.08
 74
     0
 49
0.08
 74
     0
 49
-0.08
 74
     0
  0
LTYPE
  5
38
330
4
100
AcDbSymbolTableRecord
100
AcDbLinetypeTableRecord
  2
PL2
 70
     0
  3
Style 2 Type 2 Phantom Line
 72
    65
 73
     6
 40
1.08
 49
0.6
 74
     0
 49
-0.08
 74
     0
 49
0.12
 74
     0
 49
-0.08
 74
     0
 49
0.12
 74
     0
 49
-0.08
 74
     0
  0
LTYPE
  5
39
330
4
100
AcDbSymbolTableRecord
100
AcDbLinetypeTableRecord
  2
PL3
 70
     0
  3
Style 2 Type 3 Phantom Line
 72
    65
 73
     6
 40
2.0
 49
1.439999999999999
 74
     0
 49
-0.08
 74
     0
 49
0.16
 74
     0
 49
-0.08
 74
     0
 49
0.16
 74
     0
 49
-0.08
 74
     0
  0
LTYPE
  5
3A
330
4
100
AcDbSymbolTableRecord
100
AcDbLinetypeTableRecord
  2
CL1
 70
     0
  3
CADAM Style 2 Type 1 Center Line
 72
    65
 73
     4
 40
0.7
 49
0.45
 74
     0
 49
-0.06
 74
     0
 49
0.13
 74
     0
 49
-0.06
 74
     0
  0
LTYPE
  5
3B
330
4
100
AcDbSymbolTableRecord
100
AcDbLinetypeTableRecord
  2
CL2
 70
     0
  3
CADAM Style 2 Type 2 Center Line
 72
    65
 73
     4
 40
1.199999999999999
 49
1.01
 74
     0
 49
-0.06
 74
     0
 49
0.11
 74
     0
 49
-0.06
 74
     0
  0
LTYPE
  5
3C
330
4
100
AcDbSymbolTableRecord
100
AcDbLinetypeTableRecord
  2
CL3
 70
     0
  3
CADAM Style 2 Type 3 Center Line
 72
    65
 73
     4
 40
1.199999999999999
 49
0.98
 74
     0
 49
-0.06
 74
     0
 49
0.1
 74
     0
 49
-0.06
 74
     0
  0
LTYPE
  5
3D
330
4
100
AcDbSymbolTableRecord
100
AcDbLinetypeTableRecord
  2
CL4
 70
     0
  3
CADAM Style 2 Type 4 Center Line
 72
    65
 73
     4
 40
2.2
 49
1.929999999999999
 74
     0
 49
-0.07
 74
     0
 49
0.13
 74
     0
 49
-0.07
 74
     0
  0
LTYPE
  5
3E
330
4
100
AcDbSymbolTableRecord
100
AcDbLinetypeTableRecord
  2
CL5
 70
     0
  3
CADAM Style 2 Type 5 Center Line
 72
    65
 73
     4
 40
2.2
 49
1.879999999999999
 74
     0
 49
-0.07
 74
     0
 49
0.18
 74
     0
 49
-0.07
 74
     0
  0
LTYPE
  5
3F
330
4
100
AcDbSymbolTableRecord
100
AcDbLinetypeTableRecord
  2
SBK1
 70
     0
  3
CADAM Style 2 Type 1 SetBack Line
 72
    65
 73
     8
 40
2.7
 49
0.1
 74
     0
 49
-0.08
 74
     0
 49
0.1
 74
     0
 49
-0.8
 74
     0
 49
0.0
 74
     0
 49
0.0
 74
     0
 49
0.0
 74
     0
 49
0.0
 74
     0
  0
LTYPE
  5
40
330
4
100
AcDbSymbolTableRecord
100
AcDbLinetypeTableRecord
  2
SBK2
 70
     0
  3
CADAM Style 2 Type 2 SetBack Line
 72
    65
 73
     8
 40
3.709999999999999
 49
0.13
 74
     0
 49
-0.08
 74
     0
 49
0.13
 74
     0
 49
-0.8
 74
     0
 49
0.0
 74
     0
 49
0.0
 74
     0
 49
0.0
 74
     0
 49
0.0
 74
     0
  0
LTYPE
  5
41
330
4
100
AcDbSymbolTableRecord
100
AcDbLinetypeTableRecord
  2
STCH
 70
     0
  3
CADAM Style2 Stitch Line
 72
    65
 73
     2
 40
0.25
 49
0.0
 74
     0
 49
-0.25
 74
     0
  0
LTYPE
  5
42
330
4
100
AcDbSymbolTableRecord
100
AcDbLinetypeTableRecord
  2
MTCH
 70
     0
  3
CADAM Style2 Match Line
 72
    65
 73
     6
 40
2.0
 49
1.439999999999999
 74
     0
 49
-0.8
 74
     0
 49
0.16
 74
     0
 49
-0.08
 74
     0
 49
0.16
 74
     0
 49
-0.08
 74
     0
  0
LTYPE
  5
43
330
4
100
AcDbSymbolTableRecord
100
AcDbLinetypeTableRecord
  2
SLD
 70
     0
  3
CADAM Solid_EXT2
 72
    65
 73
     0
 40
0.0
  0
ENDTAB
  0
TABLE
  2
LAYER
  5
2
330
0
100
AcDbSymbolTable
 70
     7
  0
LAYER
  5
15
330
2
100
AcDbSymbolTableRecord
100
AcDbLayerTableRecord
  2
0
 70
     0
 62
     7
  6
CONTINUOUS
  0
LAYER
  5
44
330
2
100
AcDbSymbolTableRecord
100
AcDbLayerTableRecord
  2
MO_001_NOSHOW
 70
     1
 62
     7
  6
CONTINUOUS
  0
LAYER
  5
45
330
2
100
AcDbSymbolTableRecord
100
AcDbLayerTableRecord
  2
MO_001_VIEW_PV
 70
     0
 62
     7
  6
CONTINUOUS
  0
LAYER
  5
46
330
2
100
AcDbSymbolTableRecord
100
AcDbLayerTableRecord
  2
OVERLAY_MAP
 70
     1
 62
     7
  6
CONTINUOUS
  0
LAYER
  5
47
330
2
100
AcDbSymbolTableRecord
100
AcDbLayerTableRecord
  2
DITTOS
 70
     0
 62
     7
  6
CONTINUOUS
  0
LAYER
  5
48
330
2
100
AcDbSymbolTableRecord
100
AcDbLayerTableRecord
  2
SYMBOLS
 70
     0
 62
     7
  6
CONTINUOUS
  0
LAYER
  5
49
330
2
100
AcDbSymbolTableRecord
100
AcDbLayerTableRecord
  2
SETS
 70
     0
 62
     7
  6
CONTINUOUS
  0
ENDTAB
  0
TABLE
  2
STYLE
  5
3
330
0
100
AcDbSymbolTable
 70
     1
  0
STYLE
  5
18
330
3
100
AcDbSymbolTableRecord
100
AcDbTextStyleTableRecord
  2
STANDARD
 70
     0
 40
4.1672
 41
1.0
 50
0.0
 71
     0
 42
4.1672
  3
monotxt
  4
BIGFONT
  0
ENDTAB
  0
TABLE
  2
VIEW
  5
5
330
0
100
AcDbSymbolTable
 70
     0
  0
ENDTAB
  0
TABLE
  2
UCS
  5
6
330
0
100
AcDbSymbolTable
 70
     1
  0
UCS
  5
4A
330
6
100
AcDbSymbolTableRecord
100
AcDbUCSTableRecord
  2
MO_001_VIEW_PV_P
 70
     0
 10
0.0
 20
0.0
 30
0.0
 11
1.0
 21
0.0
 31
0.0
 12
-0.0000000002051034
 22
1.0
 32
0.0
  0
ENDTAB
  0
TABLE
  2
APPID
  5
8
330
0
100
AcDbSymbolTable
 70
     1
  0
APPID
  5
17
330
8
100
AcDbSymbolTableRecord
100
AcDbRegAppTableRecord
  2
ACAD
 70
     0
  0
ENDTAB
  0
TABLE
  2
DIMSTYLE
  5
9
330
0
100
AcDbSymbolTable
 70
     1
  0
DIMSTYLE
105
19
102
{ACAD_REACTORS
330
129
330
12B
330
12D
330
12F
330
131
330
133
330
135
330
137
330
139
330
13B
330
13D
330
13F
330
141
330
143
330
145
330
147
330
149
102
}
330
9
100
AcDbSymbolTableRecord
100
AcDbDimStyleTableRecord
  2
STANDARD
 70
     0
  3

  4

  5

  6

  7

 40
1.0
 41
0.18
 42
0.0625
 43
0.38
 44
0.18
 45
0.0
 46
0.0
 47
0.0
 48
0.0
140
0.18
141
0.09
142
0.0
143
25.4
144
1.0
145
0.0
146
1.0
147
0.09
 71
     0
 72
     0
 73
     1
 74
     1
 75
     0
 76
     0
 77
     0
 78
     0
170
     0
171
     2
172
     0
173
     0
174
     0
175
     0
176
     0
177
     0
178
     0
270
     2
271
     4
272
     4
273
     2
274
     2
340
18
275
     0
280
     0
281
     0
282
     0
283
     1
284
     0
285
     0
286
     0
287
     3
288
     0
  0
ENDTAB
  0
TABLE
  2
BLOCK_RECORD
  5
C
330
0
100
AcDbSymbolTable
 70
    17
  0
BLOCK_RECORD
  5
1E
102
{ACAD_XDICTIONARY
360
208
102
}
330
C
100
AcDbSymbolTableRecord
100
AcDbBlockTableRecord
  2
*MODEL_SPACE
  0
BLOCK_RECORD
  5
1F
102
{ACAD_XDICTIONARY
360
20A
102
}
330
C
100
AcDbSymbolTableRecord
100
AcDbBlockTableRecord
  2
*PAPER_SPACE
  0
BLOCK_RECORD
  5
128
330
C
100
AcDbSymbolTableRecord
100
AcDbBlockTableRecord
  2
*D0
  0
BLOCK_RECORD
  5
12A
330
C
100
AcDbSymbolTableRecord
100
AcDbBlockTableRecord
  2
*D1
  0
BLOCK_RECORD
  5
12C
330
C
100
AcDbSymbolTableRecord
100
AcDbBlockTableRecord
  2
*D2
  0
BLOCK_RECORD
  5
12E
330
C
100
AcDbSymbolTableRecord
100
AcDbBlockTableRecord
  2
*D3
  0
BLOCK_RECORD
  5
130
330
C
100
AcDbSymbolTableRecord
100
AcDbBlockTableRecord
  2
*D4
  0
BLOCK_RECORD
  5
132
330
C
100
AcDbSymbolTableRecord
100
AcDbBlockTableRecord
  2
*D5
  0
BLOCK_RECORD
  5
134
330
C
100
AcDbSymbolTableRecord
100
AcDbBlockTableRecord
  2
*D6
  0
BLOCK_RECORD
  5
136
330
C
100
AcDbSymbolTableRecord
100
AcDbBlockTableRecord
  2
*D7
  0
BLOCK_RECORD
  5
138
330
C
100
AcDbSymbolTableRecord
100
AcDbBlockTableRecord
  2
*D8
  0
BLOCK_RECORD
  5
13A
330
C
100
AcDbSymbolTableRecord
100
AcDbBlockTableRecord
  2
*D9
  0
BLOCK_RECORD
  5
13C
330
C
100
AcDbSymbolTableRecord
100
AcDbBlockTableRecord
  2
*D10
  0
BLOCK_RECORD
  5
13E
330
C
100
AcDbSymbolTableRecord
100
AcDbBlockTableRecord
  2
*D11
  0
BLOCK_RECORD
  5
140
330
C
100
AcDbSymbolTableRecord
100
AcDbBlockTableRecord
  2
*D12
  0
BLOCK_RECORD
  5
142
330
C
100
AcDbSymbolTableRecord
100
AcDbBlockTableRecord
  2
*D13
  0
BLOCK_RECORD
  5
144
330
C
100
AcDbSymbolTableRecord
100
AcDbBlockTableRecord
  2
*D14
  0
BLOCK_RECORD
  5
146
330
C
100
AcDbSymbolTableRecord
100
AcDbBlockTableRecord
  2
*D15
  0
BLOCK_RECORD
  5
148
330
C
100
AcDbSymbolTableRecord
100
AcDbBlockTableRecord
  2
*D16
  0
ENDTAB
  0
ENDSEC
  0
SECTION
  2
BLOCKS
  0
BLOCK
  5
E
330
1E
100
AcDbEntity
  8
0
100
AcDbBlockBegin
  2
*MODEL_SPACE
 70
     0
 10
0.0
 20
0.0
 30
0.0
  3
*MODEL_SPACE
  1

  0
ENDBLK
  5
F
330
1E
100
AcDbEntity
  8
0
100
AcDbBlockEnd
  0
BLOCK
  5
10
330
1F
100
AcDbEntity
 67
     1
  8
0
100
AcDbBlockBegin
  2
*PAPER_SPACE
 70
     0
 10
0.0
 20
0.0
 30
0.0
  3
*PAPER_SPACE
  1

  0
ENDBLK
  5
11
330
1F
100
AcDbEntity
 67
     1
  8
0
100
AcDbBlockEnd
  0
BLOCK
  5
150
330
128
100
AcDbEntity
  8
0
100
AcDbBlockBegin
  2
*D0
 70
     1
 10
0.0
 20
0.0
 30
0.0
  3
*D0
  1

  0
TEXT
  5
151
330
128
100
AcDbEntity
  8
MO_001_VIEW_PV
  6
BYBLOCK
100
AcDbText
 10
-18.07154299999999
 20
12.75
 30
0.0
 40
3.0
  1
(5)
100
AcDbText
  0
LINE
  5
152
330
128
100
AcDbEntity
  8
MO_001_VIEW_PV
  6
BYBLOCK
100
AcDbLine
 10
-5.0
 20
12.0
 30
0.0
 11
0.0
 21
12.0
 31
0.0
  0
LINE
  5
153
330
128
100
AcDbEntity
  8
MO_001_VIEW_PV
  6
BYBLOCK
100
AcDbLine
 10
-5.0
 20
12.0
 30
0.0
 11
-11.35
 21
12.0
 31
0.0
  0
LINE
  5
154
330
128
100
AcDbEntity
  8
MO_001_VIEW_PV
  6
BYBLOCK
100
AcDbLine
 10
0.0
 20
12.0
 30
0.0
 11
6.349999999999999
 21
12.0
 31
0.0
  0
SOLID
  5
155
330
128
100
AcDbEntity
  8
MO_001_VIEW_PV
  6
BYBLOCK
100
AcDbTrace
 10
-8.31826
 20
11.416488
 30
0.0
 11
-5.507999999999999
 21
12.0
 31
0.0
 12
-8.31826
 22
12.58351199999999
 32
0.0
 13
-8.31826
 23
12.58351199999999
 33
0.0
  0
SOLID
  5
156
330
128
100
AcDbEntity
  8
MO_001_VIEW_PV
  6
BYBLOCK
100
AcDbTrace
 10
3.318259999999999
 20
12.58351199999999
 30
0.0
 11
0.508
 21
12.0
 31
0.0
 12
3.318259999999999
 22
11.416488
 32
0.0
 13
3.318259999999999
 23
11.416488
 33
0.0
  0
LINE
  5
157
330
128
100
AcDbEntity
  8
MO_001_VIEW_PV
  6
BYBLOCK
100
AcDbLine
 10
-5.0
 20
6.0
 30
0.0
 11
-5.0
 21
14.286
 31
0.0
  0
LINE
  5
158
330
128
100
AcDbEntity
  8
MO_001_VIEW_PV
  6
BYBLOCK
100
AcDbLine
 10
0.0
 20
8.0
 30
0.0
 11
0.0
 21
14.286
 31
0.0
  0
LINE
  5
159
330
128
100
AcDbEntity
  8
MO_001_VIEW_PV
  6
BYBLOCK
100
AcDbLine
 10
-19.03582999999999
 20
12.0
 30
0.0
 11
-5.0
 21
12.0
 31
0.0
  0
ENDBLK
  5
15A
330
128
100
AcDbEntity
  8
0
100
AcDbBlockEnd
  0
BLOCK
  5
15B
330
12A
100
AcDbEntity
  8
0
100
AcDbBlockBegin
  2
*D1
 70
     1
 10
0.0
 20
0.0
 30
0.0
  3
*D1
  1

  0
TEXT
  5
15C
330
12A
100
AcDbEntity
  8
MO_001_VIEW_PV
  6
BYBLOCK
100
AcDbText
 10
-10.185716
 20
20.625
 30
0.0
 40
1.5
  1
%%P0.3
100
AcDbText
  0
TEXT
  5
15D
330
12A
100
AcDbEntity
  8
MO_001_VIEW_PV
  6
BYBLOCK
100
AcDbText
 10
-21.97143
 20
18.75
 30
0.0
 40
3.0
  1
26.8
100
AcDbText
  0
LINE
  5
15E
330
12A
100
AcDbEntity
  8
MO_001_VIEW_PV
  6
BYBLOCK
100
AcDbLine
 10
0.0
 20
18.0
 30
0.0
 11
-26.800003
 21
18.0
 31
0.0
  0
SOLID
  5
15F
330
12A
100
AcDbEntity
  8
MO_001_VIEW_PV
  6
BYBLOCK
100
AcDbTrace
 10
-3.318259999999999
 20
17.416488
 30
0.0
 11
-0.508
 21
18.0
 31
0.0
 12
-3.318259999999999
 22
18.58351199999999
 32
0.0
 13
-3.318259999999999
 23
18.58351199999999
 33
0.0
  0
SOLID
  5
160
330
12A
100
AcDbEntity
  8
MO_001_VIEW_PV
  6
BYBLOCK
100
AcDbTrace
 10
-23.48174299999999
 20
18.58351199999999
 30
0.0
 11
-26.292003
 21
18.0
 31
0.0
 12
-23.48174299999999
 22
17.416488
 32
0.0
 13
-23.48174299999999
 23
17.416488
 33
0.0
  0
LINE
  5
161
330
12A
100
AcDbEntity
  8
MO_001_VIEW_PV
  6
BYBLOCK
100
AcDbLine
 10
0.0
 20
8.0
 30
0.0
 11
0.0
 21
20.285999
 31
0.0
  0
LINE
  5
162
330
12A
100
AcDbEntity
  8
MO_001_VIEW_PV
  6
BYBLOCK
100
AcDbLine
 10
-26.800003
 20
4.011881999999999
 30
0.0
 11
-26.800003
 21
20.285999
 31
0.0
  0
ENDBLK
  5
163
330
12A
100
AcDbEntity
  8
0
100
AcDbBlockEnd
  0
BLOCK
  5
164
330
12C
100
AcDbEntity
  8
0
100
AcDbBlockBegin
  2
*D2
 70
     1
 10
0.0
 20
0.0
 30
0.0
  3
*D2
  1

  0
TEXT
  5
165
330
12C
100
AcDbEntity
  8
MO_001_VIEW_PV
  6
BYBLOCK
100
AcDbText
 10
-21.571432
 20
24.75
 30
0.0
 40
3.0
  1
38
100
AcDbText
  0
LINE
  5
166
330
12C
100
AcDbEntity
  8
MO_001_VIEW_PV
  6
BYBLOCK
100
AcDbLine
 10
-38.000008
 20
24.0
 30
0.0
 11
0.0
 21
24.0
 31
0.0
  0
SOLID
  5
167
330
12C
100
AcDbEntity
  8
MO_001_VIEW_PV
  6
BYBLOCK
100
AcDbTrace
 10
-34.68174799999999
 20
24.583512
 30
0.0
 11
-37.492008
 21
24.0
 31
0.0
 12
-34.68174799999999
 22
23.416488
 32
0.0
 13
-34.68174799999999
 23
23.416488
 33
0.0
  0
SOLID
  5
168
330
12C
100
AcDbEntity
  8
MO_001_VIEW_PV
  6
BYBLOCK
100
AcDbTrace
 10
-3.318259999999999
 20
23.416488
 30
0.0
 11
-0.508
 21
24.0
 31
0.0
 12
-3.318259999999999
 22
24.583512
 32
0.0
 13
-3.318259999999999
 23
24.583512
 33
0.0
  0
LINE
  5
169
330
12C
100
AcDbEntity
  8
MO_001_VIEW_PV
  6
BYBLOCK
100
AcDbLine
 10
-38.000008
 20
2.699997
 30
0.0
 11
-38.000008
 21
26.285999
 31
0.0
  0
LINE
  5
16A
330
12C
100
AcDbEntity
  8
MO_001_VIEW_PV
  6
BYBLOCK
100
AcDbLine
 10
0.0
 20
8.0
 30
0.0
 11
0.0
 21
26.285999
 31
0.0
  0
ENDBLK
  5
16B
330
12C
100
AcDbEntity
  8
0
100
AcDbBlockEnd
  0
BLOCK
  5
16C
330
12E
100
AcDbEntity
  8
0
100
AcDbBlockBegin
  2
*D3
 70
     1
 10
0.0
 20
0.0
 30
0.0
  3
*D3
  1

  0
TEXT
  5
16D
330
12E
100
AcDbEntity
  8
MO_001_VIEW_PV
  6
BYBLOCK
100
AcDbText
 10
4.928570999999999
 20
-14.25
 30
0.0
 40
3.0
  1
(0.6)
100
AcDbText
  0
LINE
  5
16E
330
12E
100
AcDbEntity
  8
MO_001_VIEW_PV
  6
BYBLOCK
100
AcDbLine
 10
0.5999939999999999
 20
-15.0
 30
0.0
 11
0.0
 21
-15.0
 31
0.0
  0
LINE
  5
16F
330
12E
100
AcDbEntity
  8
MO_001_VIEW_PV
  6
BYBLOCK
100
AcDbLine
 10
0.5999939999999999
 20
-15.0
 30
0.0
 11
6.949994
 21
-15.0
 31
0.0
  0
LINE
  5
170
330
12E
100
AcDbEntity
  8
MO_001_VIEW_PV
  6
BYBLOCK
100
AcDbLine
 10
0.0
 20
-15.0
 30
0.0
 11
-6.349999999999999
 21
-15.0
 31
0.0
  0
SOLID
  5
171
330
12E
100
AcDbEntity
  8
MO_001_VIEW_PV
  6
BYBLOCK
100
AcDbTrace
 10
3.918254
 20
-14.416488
 30
0.0
 11
1.107994
 21
-15.0
 31
0.0
 12
3.918254
 22
-15.58351199999999
 32
0.0
 13
3.918254
 23
-15.58351199999999
 33
0.0
  0
SOLID
  5
172
330
12E
100
AcDbEntity
  8
MO_001_VIEW_PV
  6
BYBLOCK
100
AcDbTrace
 10
-3.318259999999999
 20
-15.58351199999999
 30
0.0
 11
-0.508
 21
-15.0
 31
0.0
 12
-3.318259999999999
 22
-14.416488
 32
0.0
 13
-3.318259999999999
 23
-14.416488
 33
0.0
  0
LINE
  5
173
330
12E
100
AcDbEntity
  8
MO_001_VIEW_PV
  6
BYBLOCK
100
AcDbLine
 10
0.5999939999999999
 20
-1.299998999999999
 30
0.0
 11
0.5999939999999999
 21
-17.285999
 31
0.0
  0
LINE
  5
174
330
12E
100
AcDbEntity
  8
MO_001_VIEW_PV
  6
BYBLOCK
100
AcDbLine
 10
0.0
 20
-8.0
 30
0.0
 11
0.0
 21
-17.285999
 31
0.0
  0
LINE
  5
175
330
12E
100
AcDbEntity
  8
MO_001_VIEW_PV
  6
BYBLOCK
100
AcDbLine
 10
20.035715
 20
-15.0
 30
0.0
 11
0.5999939999999999
 21
-15.0
 31
0.0
  0
ENDBLK
  5
176
330
12E
100
AcDbEntity
  8
0
100
AcDbBlockEnd
  0
BLOCK
  5
177
330
130
100
AcDbEntity
  8
0
100
AcDbBlockBegin
  2
*D4
 70
     1
 10
0.0
 20
0.0
 30
0.0
  3
*D4
  1

  0
TEXT
  5
178
330
130
100
AcDbEntity
  8
MO_001_VIEW_PV
  6
BYBLOCK
100
AcDbText
 10
-11.785714
 20
-18.375
 30
0.0
 40
1.5
  1
%%P0.2
100
AcDbText
  0
TEXT
  5
179
330
130
100
AcDbEntity
  8
MO_001_VIEW_PV
  6
BYBLOCK
100
AcDbText
 10
-17.571429
 20
-20.24999999999999
 30
0.0
 40
3.0
  1
16
100
AcDbText
  0
LINE
  5
17A
330
130
100
AcDbEntity
  8
MO_001_VIEW_PV
  6
BYBLOCK
100
AcDbLine
 10
-21.0
 20
-21.0
 30
0.0
 11
-5.0
 21
-21.0
 31
0.0
  0
SOLID
  5
17B
330
130
100
AcDbEntity
  8
MO_001_VIEW_PV
  6
BYBLOCK
100
AcDbTrace
 10
-17.68173999999999
 20
-20.416488
 30
0.0
 11
-20.49199999999999
 21
-21.0
 31
0.0
 12
-17.68173999999999
 22
-21.58351199999999
 32
0.0
 13
-17.68173999999999
 23
-21.58351199999999
 33
0.0
  0
SOLID
  5
17C
330
130
100
AcDbEntity
  8
MO_001_VIEW_PV
  6
BYBLOCK
100
AcDbTrace
 10
-8.31826
 20
-21.58351199999999
 30
0.0
 11
-5.507999999999999
 21
-21.0
 31
0.0
 12
-8.31826
 22
-20.416488
 32
0.0
 13
-8.31826
 23
-20.416488
 33
0.0
  0
LINE
  5
17D
330
130
100
AcDbEntity
  8
MO_001_VIEW_PV
  6
BYBLOCK
100
AcDbLine
 10
-21.0
 20
-6.0
 30
0.0
 11
-21.0
 21
-23.28599899999999
 31
0.0
  0
LINE
  5
17E
330
130
100
AcDbEntity
  8
MO_001_VIEW_PV
  6
BYBLOCK
100
AcDbLine
 10
-5.0
 20
1.0
 30
0.0
 11
-5.0
 21
-23.28599899999999
 31
0.0
  0
ENDBLK
  5
17F
330
130
100
AcDbEntity
  8
0
100
AcDbBlockEnd
  0
BLOCK
  5
180
330
132
100
AcDbEntity
  8
0
100
AcDbBlockBegin
  2
*D5
 70
     1
 10
0.0
 20
0.0
 30
0.0
  3
*D5
  1

  0
TEXT
  5
181
330
132
100
AcDbEntity
  8
MO_001_VIEW_PV
  6
BYBLOCK
100
AcDbText
 10
-27.78571799999999
 20
-18.375
 30
0.0
 40
1.5
  1
%%P0.5
100
AcDbText
  0
TEXT
  5
182
330
132
100
AcDbEntity
  8
MO_001_VIEW_PV
  6
BYBLOCK
100
AcDbText
 10
-33.571432
 20
-20.24999999999999
 30
0.0
 40
3.0
  1
14
100
AcDbText
  0
LINE
  5
183
330
132
100
AcDbEntity
  8
MO_001_VIEW_PV
  6
BYBLOCK
100
AcDbLine
 10
-21.0
 20
-21.0
 30
0.0
 11
-35.000008
 21
-21.0
 31
0.0
  0
SOLID
  5
184
330
132
100
AcDbEntity
  8
MO_001_VIEW_PV
  6
BYBLOCK
100
AcDbTrace
 10
-24.31826
 20
-21.58351199999999
 30
0.0
 11
-21.508
 21
-21.0
 31
0.0
 12
-24.31826
 22
-20.416488
 32
0.0
 13
-24.31826
 23
-20.416488
 33
0.0
  0
SOLID
  5
185
330
132
100
AcDbEntity
  8
MO_001_VIEW_PV
  6
BYBLOCK
100
AcDbTrace
 10
-31.681748
 20
-20.416488
 30
0.0
 11
-34.49200799999999
 21
-21.0
 31
0.0
 12
-31.681748
 22
-21.58351199999999
 32
0.0
 13
-31.681748
 23
-21.58351199999999
 33
0.0
  0
LINE
  5
186
330
132
100
AcDbEntity
  8
MO_001_NOSHOW
  6
BYBLOCK
100
AcDbLine
 10
-21.0
 20
-6.0
 30
0.0
 11
-21.0
 21
-23.28599899999999
 31
0.0
  0
LINE
  5
187
330
132
100
AcDbEntity
  8
MO_001_VIEW_PV
  6
BYBLOCK
100
AcDbLine
 10
-35.000008
 20
-1.920147
 30
0.0
 11
-35.000008
 21
-23.28599899999999
 31
0.0
  0
ENDBLK
  5
188
330
132
100
AcDbEntity
  8
0
100
AcDbBlockEnd
  0
BLOCK
  5
189
330
134
100
AcDbEntity
  8
0
100
AcDbBlockBegin
  2
*D6
 70
     1
 10
0.0
 20
0.0
 30
0.0
  3
*D6
  1

  0
TEXT
  5
18A
330
134
100
AcDbEntity
  8
MO_001_VIEW_PV
  6
BYBLOCK
100
AcDbText
 10
-28.285714
 20
-12.375
 30
0.0
 40
1.5
  1
%%P0.2
100
AcDbText
  0
TEXT
  5
18B
330
134
100
AcDbEntity
  8
MO_001_VIEW_PV
  6
BYBLOCK
100
AcDbText
 10
-31.07142899999999
 20
-14.25
 30
0.0
 40
3.0
  1
3
100
AcDbText
  0
LINE
  5
18C
330
134
100
AcDbEntity
  8
MO_001_VIEW_PV
  6
BYBLOCK
100
AcDbLine
 10
-35.000008
 20
-15.0
 30
0.0
 11
-38.000008
 21
-15.0
 31
0.0
  0
LINE
  5
18D
330
134
100
AcDbEntity
  8
MO_001_VIEW_PV
  6
BYBLOCK
100
AcDbLine
 10
-35.000008
 20
-15.0
 30
0.0
 11
-28.650008
 21
-15.0
 31
0.0
  0
LINE
  5
18E
330
134
100
AcDbEntity
  8
MO_001_VIEW_PV
  6
BYBLOCK
100
AcDbLine
 10
-38.000008
 20
-15.0
 30
0.0
 11
-44.350008
 21
-15.0
 31
0.0
  0
SOLID
  5
18F
330
134
100
AcDbEntity
  8
MO_001_VIEW_PV
  6
BYBLOCK
100
AcDbTrace
 10
-31.681748
 20
-14.416488
 30
0.0
 11
-34.49200799999999
 21
-15.0
 31
0.0
 12
-31.681748
 22
-15.58351199999999
 32
0.0
 13
-31.681748
 23
-15.58351199999999
 33
0.0
  0
SOLID
  5
190
330
134
100
AcDbEntity
  8
MO_001_VIEW_PV
  6
BYBLOCK
100
AcDbTrace
 10
-41.31826799999999
 20
-15.58351199999999
 30
0.0
 11
-38.508008
 21
-15.0
 31
0.0
 12
-41.31826799999999
 22
-14.416488
 32
0.0
 13
-41.31826799999999
 23
-14.416488
 33
0.0
  0
LINE
  5
191
330
134
100
AcDbEntity
  8
MO_001_VIEW_PV
  6
BYBLOCK
100
AcDbLine
 10
-35.000008
 20
-1.920147
 30
0.0
 11
-35.000008
 21
-17.285999
 31
0.0
  0
LINE
  5
192
330
134
100
AcDbEntity
  8
MO_001_VIEW_PV
  6
BYBLOCK
100
AcDbLine
 10
-38.000008
 20
-2.699996
 30
0.0
 11
-38.000008
 21
-17.285999
 31
0.0
  0
LINE
  5
193
330
134
100
AcDbEntity
  8
MO_001_VIEW_PV
  6
BYBLOCK
100
AcDbLine
 10
-21.964285
 20
-15.0
 30
0.0
 11
-35.000008
 21
-15.0
 31
0.0
  0
ENDBLK
  5
194
330
134
100
AcDbEntity
  8
0
100
AcDbBlockEnd
  0
BLOCK
  5
195
330
136
100
AcDbEntity
  8
0
100
AcDbBlockBegin
  2
*D7
 70
     1
 10
0.0
 20
0.0
 30
0.0
  3
*D7
  1

  0
TEXT
  5
196
330
136
100
AcDbEntity
  8
MO_001_VIEW_PV
  6
BYBLOCK
100
AcDbText
 10
-47.625
 20
12.899859
 30
0.0
 40
1.5
  1
%%P0.05
 50
90.0
100
AcDbText
  0
TEXT
  5
197
330
136
100
AcDbEntity
  8
MO_001_VIEW_PV
  6
BYBLOCK
100
AcDbText
 10
-45.75
 20
7.114144999999999
 30
0.0
 40
3.0
  1
%%C6
 50
90.0
100
AcDbText
  0
LINE
  5
198
330
136
100
AcDbEntity
  8
MO_001_VIEW_PV
  6
BYBLOCK
100
AcDbLine
 10
-45.0
 20
3.0
 30
0.0
 11
-45.0
 21
-3.0
 31
0.0
  0
LINE
  5
199
330
136
100
AcDbEntity
  8
MO_001_VIEW_PV
  6
BYBLOCK
100
AcDbLine
 10
-45.0
 20
3.0
 30
0.0
 11
-45.0
 21
9.349999999999999
 31
0.0
  0
LINE
  5
19A
330
136
100
AcDbEntity
  8
MO_001_VIEW_PV
  6
BYBLOCK
100
AcDbLine
 10
-45.0
 20
-3.0
 30
0.0
 11
-45.0
 21
-9.349999999999999
 31
0.0
  0
SOLID
  5
19B
330
136
100
AcDbEntity
  8
MO_001_VIEW_PV
  6
BYBLOCK
100
AcDbTrace
 10
-45.58351199999999
 20
6.318259999999999
 30
0.0
 11
-45.0
 21
3.508
 31
0.0
 12
-44.416488
 22
6.318259999999999
 32
0.0
 13
-44.416488
 23
6.318259999999999
 33
0.0
  0
SOLID
  5
19C
330
136
100
AcDbEntity
  8
MO_001_VIEW_PV
  6
BYBLOCK
100
AcDbTrace
 10
-44.416488
 20
-6.318259999999999
 30
0.0
 11
-45.0
 21
-3.508
 31
0.0
 12
-45.58351199999999
 22
-6.318259999999999
 32
0.0
 13
-45.58351199999999
 23
-6.318259999999999
 33
0.0
  0
LINE
  5
19D
330
136
100
AcDbEntity
  8
MO_001_VIEW_PV
  6
BYBLOCK
100
AcDbLine
 10
-31.00000399999999
 20
3.0
 30
0.0
 11
-47.28599899999999
 21
3.0
 31
0.0
  0
LINE
  5
19E
330
136
100
AcDbEntity
  8
MO_001_VIEW_PV
  6
BYBLOCK
100
AcDbLine
 10
-31.00000399999999
 20
-3.0
 30
0.0
 11
-47.28599899999999
 21
-3.0
 31
0.0
  0
LINE
  5
19F
330
136
100
AcDbEntity
  8
MO_001_VIEW_PV
  6
BYBLOCK
100
AcDbLine
 10
-45.0
 20
20.72128699999999
 30
0.0
 11
-45.0
 21
3.0
 31
0.0
  0
ENDBLK
  5
1A0
330
136
100
AcDbEntity
  8
0
100
AcDbBlockEnd
  0
BLOCK
  5
1A1
330
138
100
AcDbEntity
  8
0
100
AcDbBlockBegin
  2
*D8
 70
     1
 10
0.0
 20
0.0
 30
0.0
  3
*D8
  1

  0
LINE
  5
1A2
330
138
100
AcDbEntity
  8
MO_001_VIEW_PV
  6
BYBLOCK
100
AcDbLine
 10
-34.515459
 20
0.874764
 30
0.0
 11
-35.48455399999999
 21
-0.874765
 31
0.0
  0
LINE
  5
1A3
330
138
100
AcDbEntity
  8
MO_001_VIEW_PV
  6
BYBLOCK
100
AcDbLine
 10
-34.515459
 20
0.874764
 30
0.0
 11
-31.438583
 21
6.429522
 31
0.0
  0
LINE
  5
1A4
330
138
100
AcDbEntity
  8
MO_001_VIEW_PV
  6
BYBLOCK
100
AcDbLine
 10
-35.48455399999999
 20
-0.874765
 30
0.0
 11
-38.56143
 21
-6.429523
 31
0.0
  0
SOLID
  5
1A5
330
138
100
AcDbEntity
  8
MO_001_VIEW_PV
  6
BYBLOCK
100
AcDbTrace
 10
-33.41804099999999
 20
4.060201
 30
0.0
 11
-34.269309
 21
1.319145
 31
0.0
 12
-32.39716899999999
 22
3.494723
 32
0.0
 13
-32.39716899999999
 23
3.494723
 33
0.0
  0
SOLID
  5
1A6
330
138
100
AcDbEntity
  8
MO_001_VIEW_PV
  6
BYBLOCK
100
AcDbTrace
 10
-36.58197299999999
 20
-4.060201999999999
 30
0.0
 11
-35.73070399999999
 21
-1.319145999999999
 31
0.0
 12
-37.60284399999999
 22
-3.494723999999999
 32
0.0
 13
-37.60284399999999
 23
-3.494723999999999
 33
0.0
  0
LINE
  5
1A7
330
138
100
AcDbEntity
  8
MO_001_VIEW_PV
  6
BYBLOCK
100
AcDbLine
 10
-35.48455399999999
 20
-0.874765
 30
0.0
 11
-42.483553
 21
-13.510225
 31
0.0
  0
ENDBLK
  5
1A8
330
138
100
AcDbEntity
  8
0
100
AcDbBlockEnd
  0
BLOCK
  5
1A9
330
13A
100
AcDbEntity
  8
0
100
AcDbBlockBegin
  2
*D9
 70
     1
 10
0.0
 20
0.0
 30
0.0
  3
*D9
  1

  0
TEXT
  5
1AA
330
13A
100
AcDbEntity
  8
MO_001_VIEW_PV
  6
BYBLOCK
100
AcDbText
 10
-86.62499999999999
 20
0.214286
 30
0.0
 40
1.5
  1
%%P0.3
 50
90.0
100
AcDbText
  0
TEXT
  5
1AB
330
13A
100
AcDbEntity
  8
MO_001_VIEW_PV
  6
BYBLOCK
100
AcDbText
 10
-84.74999999999999
 20
-5.571429
 30
0.0
 40
3.0
  1
16
 50
90.0
100
AcDbText
  0
LINE
  5
1AC
330
13A
100
AcDbEntity
  8
MO_001_VIEW_PV
  6
BYBLOCK
100
AcDbLine
 10
-84.0
 20
-8.0
 30
0.0
 11
-84.0
 21
8.0
 31
0.0
  0
LINE
  5
1AD
330
13A
100
AcDbEntity
  8
MO_001_VIEW_PV
  6
BYBLOCK
100
AcDbLine
 10
-84.0
 20
-8.0
 30
0.0
 11
-84.0
 21
-14.35
 31
0.0
  0
LINE
  5
1AE
330
13A
100
AcDbEntity
  8
MO_001_VIEW_PV
  6
BYBLOCK
100
AcDbLine
 10
-84.0
 20
8.0
 30
0.0
 11
-84.0
 21
14.35
 31
0.0
  0
SOLID
  5
1AF
330
13A
100
AcDbEntity
  8
MO_001_VIEW_PV
  6
BYBLOCK
100
AcDbTrace
 10
-83.41648799999999
 20
-11.31825999999999
 30
0.0
 11
-84.0
 21
-8.507999999999999
 31
0.0
 12
-84.583512
 22
-11.31825999999999
 32
0.0
 13
-84.583512
 23
-11.31825999999999
 33
0.0
  0
SOLID
  5
1B0
330
13A
100
AcDbEntity
  8
MO_001_VIEW_PV
  6
BYBLOCK
100
AcDbTrace
 10
-84.583512
 20
11.31825999999999
 30
0.0
 11
-84.0
 21
8.507999999999999
 31
0.0
 12
-83.41648799999999
 22
11.31825999999999
 32
0.0
 13
-83.41648799999999
 23
11.31825999999999
 33
0.0
  0
LINE
  5
1B1
330
13A
100
AcDbEntity
  8
MO_001_VIEW_PV
  6
BYBLOCK
100
AcDbLine
 10
-79.0
 20
-8.0
 30
0.0
 11
-86.286003
 21
-8.0
 31
0.0
  0
LINE
  5
1B2
330
13A
100
AcDbEntity
  8
MO_001_VIEW_PV
  6
BYBLOCK
100
AcDbLine
 10
-79.0
 20
8.0
 30
0.0
 11
-86.286003
 21
8.0
 31
0.0
  0
ENDBLK
  5
1B3
330
13A
100
AcDbEntity
  8
0
100
AcDbBlockEnd
  0
BLOCK
  5
1B4
330
13C
100
AcDbEntity
  8
0
100
AcDbBlockBegin
  2
*D10
 70
     1
 10
0.0
 20
0.0
 30
0.0
  3
*D10
  1

  0
LINE
  5
1B5
330
13C
100
AcDbEntity
  8
MO_001_VIEW_PV
  6
BYBLOCK
100
AcDbLine
 10
-79.0
 20
-18.0
 30
0.0
 11
-59.0
 21
-18.0
 31
0.0
  0
SOLID
  5
1B6
330
13C
100
AcDbEntity
  8
MO_001_VIEW_PV
  6
BYBLOCK
100
AcDbTrace
 10
-75.68174
 20
-17.416488
 30
0.0
 11
-78.492
 21
-18.0
 31
0.0
 12
-75.68174
 22
-18.58351199999999
 32
0.0
 13
-75.68174
 23
-18.58351199999999
 33
0.0
  0
SOLID
  5
1B7
330
13C
100
AcDbEntity
  8
MO_001_VIEW_PV
  6
BYBLOCK
100
AcDbTrace
 10
-62.31825999999999
 20
-18.58351199999999
 30
0.0
 11
-59.508
 21
-18.0
 31
0.0
 12
-62.31825999999999
 22
-17.416488
 32
0.0
 13
-62.31825999999999
 23
-17.416488
 33
0.0
  0
LINE
  5
1B8
330
13C
100
AcDbEntity
  8
MO_001_VIEW_PV
  6
BYBLOCK
100
AcDbLine
 10
-79.0
 20
-8.0
 30
0.0
 11
-79.0
 21
-20.285999
 31
0.0
  0
LINE
  5
1B9
330
13C
100
AcDbEntity
  8
MO_001_VIEW_PV
  6
BYBLOCK
100
AcDbLine
 10
-59.0
 20
-8.0
 30
0.0
 11
-59.0
 21
-20.285999
 31
0.0
  0
TEXT
  5
1BA
330
13C
100
AcDbEntity
  8
MO_001_VIEW_PV
  6
BYBLOCK
100
AcDbText
 10
-68.785714
 20
-15.375
 30
0.0
 40
1.5
  1
%%P0.3
100
AcDbText
  0
TEXT
  5
1BB
330
13C
100
AcDbEntity
  8
MO_001_VIEW_PV
  6
BYBLOCK
100
AcDbText
 10
-74.571429
 20
-17.25
 30
0.0
 40
3.0
  1
20
100
AcDbText
  0
ENDBLK
  5
1BC
330
13C
100
AcDbEntity
  8
0
100
AcDbBlockEnd
  0
BLOCK
  5
1BD
330
13E
100
AcDbEntity
  8
0
100
AcDbBlockBegin
  2
*D11
 70
     1
 10
0.0
 20
0.0
 30
0.0
  3
*D11
  1

  0
LINE
  5
1BE
330
13E
100
AcDbEntity
  8
MO_001_VIEW_PV
  6
BYBLOCK
100
AcDbLine
 10
0.0
 20
-21.0
 30
0.0
 11
47.0
 21
-21.0
 31
0.0
  0
SOLID
  5
1BF
330
13E
100
AcDbEntity
  8
MO_001_VIEW_PV
  6
BYBLOCK
100
AcDbTrace
 10
3.318259999999999
 20
-20.416488
 30
0.0
 11
0.508
 21
-21.0
 31
0.0
 12
3.318259999999999
 22
-21.58351199999999
 32
0.0
 13
3.318259999999999
 23
-21.58351199999999
 33
0.0
  0
SOLID
  5
1C0
330
13E
100
AcDbEntity
  8
MO_001_VIEW_PV
  6
BYBLOCK
100
AcDbTrace
 10
43.68174
 20
-21.58351199999999
 30
0.0
 11
46.49199999999999
 21
-21.0
 31
0.0
 12
43.68174
 22
-20.416488
 32
0.0
 13
43.68174
 23
-20.416488
 33
0.0
  0
LINE
  5
1C1
330
13E
100
AcDbEntity
  8
MO_001_VIEW_PV
  6
BYBLOCK
100
AcDbLine
 10
0.0
 20
-8.0
 30
0.0
 11
0.0
 21
-23.28599899999999
 31
0.0
  0
LINE
  5
1C2
330
13E
100
AcDbEntity
  8
MO_001_VIEW_PV
  6
BYBLOCK
100
AcDbLine
 10
47.0
 20
-9.65
 30
0.0
 11
47.0
 21
-23.28599899999999
 31
0.0
  0
TEXT
  5
1C3
330
13E
100
AcDbEntity
  8
MO_001_VIEW_PV
  6
BYBLOCK
100
AcDbText
 10
13.428571
 20
-20.24999999999999
 30
0.0
 40
3.0
  1
長さ240以上
100
AcDbText
  0
ENDBLK
  5
1C4
330
13E
100
AcDbEntity
  8
0
100
AcDbBlockEnd
  0
BLOCK
  5
1C5
330
140
100
AcDbEntity
  8
0
100
AcDbBlockBegin
  2
*D12
 70
     1
 10
0.0
 20
0.0
 30
0.0
  3
*D12
  1

  0
LINE
  5
1C6
330
140
100
AcDbEntity
  8
MO_001_VIEW_PV
  6
BYBLOCK
100
AcDbLine
 10
-31.00000399999999
 20
-36.0
 30
0.0
 11
-38.000008
 21
-36.0
 31
0.0
  0
LINE
  5
1C7
330
140
100
AcDbEntity
  8
MO_001_VIEW_PV
  6
BYBLOCK
100
AcDbLine
 10
-31.00000399999999
 20
-36.0
 30
0.0
 11
-24.650004
 21
-36.0
 31
0.0
  0
LINE
  5
1C8
330
140
100
AcDbEntity
  8
MO_001_VIEW_PV
  6
BYBLOCK
100
AcDbLine
 10
-38.000008
 20
-36.0
 30
0.0
 11
-44.350008
 21
-36.0
 31
0.0
  0
SOLID
  5
1C9
330
140
100
AcDbEntity
  8
MO_001_VIEW_PV
  6
BYBLOCK
100
AcDbTrace
 10
-27.681744
 20
-35.416488
 30
0.0
 11
-30.492004
 21
-36.0
 31
0.0
 12
-27.681744
 22
-36.583512
 32
0.0
 13
-27.681744
 23
-36.583512
 33
0.0
  0
SOLID
  5
1CA
330
140
100
AcDbEntity
  8
MO_001_VIEW_PV
  6
BYBLOCK
100
AcDbTrace
 10
-41.31826799999999
 20
-36.583512
 30
0.0
 11
-38.508008
 21
-36.0
 31
0.0
 12
-41.31826799999999
 22
-35.416488
 32
0.0
 13
-41.31826799999999
 23
-35.416488
 33
0.0
  0
LINE
  5
1CB
330
140
100
AcDbEntity
  8
MO_001_VIEW_PV
  6
BYBLOCK
100
AcDbLine
 10
-31.00000399999999
 20
-50.100006
 30
0.0
 11
-31.00000399999999
 21
-33.71399699999999
 31
0.0
  0
LINE
  5
1CC
330
140
100
AcDbEntity
  8
MO_001_VIEW_PV
  6
BYBLOCK
100
AcDbLine
 10
-38.000008
 20
-48.300003
 30
0.0
 11
-38.000008
 21
-33.71399699999999
 31
0.0
  0
TEXT
  5
1CD
330
140
100
AcDbEntity
  8
MO_001_VIEW_PV
  6
BYBLOCK
100
AcDbText
 10
-46.507795
 20
-33.375
 30
0.0
 40
1.5
  1
%%P0.3
100
AcDbText
  0
TEXT
  5
1CE
330
140
100
AcDbEntity
  8
MO_001_VIEW_PV
  6
BYBLOCK
100
AcDbText
 10
-49.293509
 20
-35.25
 30
0.0
 40
3.0
  1
7
100
AcDbText
  0
LINE
  5
1CF
330
140
100
AcDbEntity
  8
MO_001_VIEW_PV
  6
BYBLOCK
100
AcDbLine
 10
-38.000008
 20
-36.0
 30
0.0
 11
-50.25779299999999
 21
-36.0
 31
0.0
  0
ENDBLK
  5
1D0
330
140
100
AcDbEntity
  8
0
100
AcDbBlockEnd
  0
BLOCK
  5
1D1
330
142
100
AcDbEntity
  8
0
100
AcDbBlockBegin
  2
*D13
 70
     1
 10
0.0
 20
0.0
 30
0.0
  3
*D13
  1

  0
LINE
  5
1D2
330
142
100
AcDbEntity
  8
MO_001_VIEW_PV
  6
BYBLOCK
100
AcDbLine
 10
-26.0
 20
-30.0
 30
0.0
 11
-38.000008
 21
-30.0
 31
0.0
  0
SOLID
  5
1D3
330
142
100
AcDbEntity
  8
MO_001_VIEW_PV
  6
BYBLOCK
100
AcDbTrace
 10
-29.31826
 20
-30.583512
 30
0.0
 11
-26.508
 21
-30.0
 31
0.0
 12
-29.31826
 22
-29.416488
 32
0.0
 13
-29.31826
 23
-29.416488
 33
0.0
  0
SOLID
  5
1D4
330
142
100
AcDbEntity
  8
MO_001_VIEW_PV
  6
BYBLOCK
100
AcDbTrace
 10
-34.68174799999999
 20
-29.416488
 30
0.0
 11
-37.492008
 21
-30.0
 31
0.0
 12
-34.68174799999999
 22
-30.583512
 32
0.0
 13
-34.68174799999999
 23
-30.583512
 33
0.0
  0
LINE
  5
1D5
330
142
100
AcDbEntity
  8
MO_001_VIEW_PV
  6
BYBLOCK
100
AcDbLine
 10
-26.0
 20
-41.0
 30
0.0
 11
-26.0
 21
-27.71399699999999
 31
0.0
  0
LINE
  5
1D6
330
142
100
AcDbEntity
  8
MO_001_VIEW_PV
  6
BYBLOCK
100
AcDbLine
 10
-38.000008
 20
-48.300003
 30
0.0
 11
-38.000008
 21
-27.71399699999999
 31
0.0
  0
TEXT
  5
1D7
330
142
100
AcDbEntity
  8
MO_001_VIEW_PV
  6
BYBLOCK
100
AcDbText
 10
-49.747809
 20
-29.25
 30
0.0
 40
3.0
  1
(12)
100
AcDbText
  0
LINE
  5
1D8
330
142
100
AcDbEntity
  8
MO_001_VIEW_PV
  6
BYBLOCK
100
AcDbLine
 10
-38.000008
 20
-30.0
 30
0.0
 11
-50.71209299999999
 21
-30.0
 31
0.0
  0
ENDBLK
  5
1D9
330
142
100
AcDbEntity
  8
0
100
AcDbBlockEnd
  0
BLOCK
  5
1DA
330
144
100
AcDbEntity
  8
0
100
AcDbBlockBegin
  2
*D14
 70
     1
 10
0.0
 20
0.0
 30
0.0
  3
*D14
  1

  0
LINE
  5
1DB
330
144
100
AcDbEntity
  8
MO_001_VIEW_PV
  6
BYBLOCK
100
AcDbLine
 10
-26.0
 20
-30.0
 30
0.0
 11
0.0
 21
-30.0
 31
0.0
  0
SOLID
  5
1DC
330
144
100
AcDbEntity
  8
MO_001_VIEW_PV
  6
BYBLOCK
100
AcDbTrace
 10
-22.68173999999999
 20
-29.416488
 30
0.0
 11
-25.49199999999999
 21
-30.0
 31
0.0
 12
-22.68173999999999
 22
-30.583512
 32
0.0
 13
-22.68173999999999
 23
-30.583512
 33
0.0
  0
SOLID
  5
1DD
330
144
100
AcDbEntity
  8
MO_001_VIEW_PV
  6
BYBLOCK
100
AcDbTrace
 10
-3.318259999999999
 20
-30.583512
 30
0.0
 11
-0.508
 21
-30.0
 31
0.0
 12
-3.318259999999999
 22
-29.416488
 32
0.0
 13
-3.318259999999999
 23
-29.416488
 33
0.0
  0
LINE
  5
1DE
330
144
100
AcDbEntity
  8
MO_001_VIEW_PV
  6
BYBLOCK
100
AcDbLine
 10
-26.0
 20
-41.0
 30
0.0
 11
-26.0
 21
-27.71399699999999
 31
0.0
  0
LINE
  5
1DF
330
144
100
AcDbEntity
  8
MO_001_VIEW_PV
  6
BYBLOCK
100
AcDbLine
 10
0.0
 20
-43.0
 30
0.0
 11
0.0
 21
-27.71399699999999
 31
0.0
  0
TEXT
  5
1E0
330
144
100
AcDbEntity
  8
MO_001_VIEW_PV
  6
BYBLOCK
100
AcDbText
 10
-11.785714
 20
-27.375
 30
0.0
 40
1.5
  1
%%P0.5
100
AcDbText
  0
TEXT
  5
1E1
330
144
100
AcDbEntity
  8
MO_001_VIEW_PV
  6
BYBLOCK
100
AcDbText
 10
-17.571429
 20
-29.25
 30
0.0
 40
3.0
  1
26
100
AcDbText
  0
ENDBLK
  5
1E2
330
144
100
AcDbEntity
  8
0
100
AcDbBlockEnd
  0
BLOCK
  5
1E3
330
146
100
AcDbEntity
  8
0
100
AcDbBlockBegin
  2
*D15
 70
     1
 10
0.0
 20
0.0
 30
0.0
  3
*D15
  1

  0
LINE
  5
1E4
330
146
100
AcDbEntity
  8
MO_001_VIEW_PV
  6
BYBLOCK
100
AcDbLine
 10
-54.0
 20
-50.100006
 30
0.0
 11
-54.0
 21
-51.899994
 31
0.0
  0
LINE
  5
1E5
330
146
100
AcDbEntity
  8
MO_001_VIEW_PV
  6
BYBLOCK
100
AcDbLine
 10
-54.0
 20
-50.100006
 30
0.0
 11
-54.0
 21
-43.75000599999999
 31
0.0
  0
LINE
  5
1E6
330
146
100
AcDbEntity
  8
MO_001_VIEW_PV
  6
BYBLOCK
100
AcDbLine
 10
-54.0
 20
-51.899994
 30
0.0
 11
-54.0
 21
-58.24999399999999
 31
0.0
  0
SOLID
  5
1E7
330
146
100
AcDbEntity
  8
MO_001_VIEW_PV
  6
BYBLOCK
100
AcDbTrace
 10
-54.583512
 20
-46.78174600000001
 30
0.0
 11
-54.0
 21
-49.59200599999999
 31
0.0
 12
-53.416488
 22
-46.78174600000001
 32
0.0
 13
-53.416488
 23
-46.78174600000001
 33
0.0
  0
SOLID
  5
1E8
330
146
100
AcDbEntity
  8
MO_001_VIEW_PV
  6
BYBLOCK
100
AcDbTrace
 10
-53.416488
 20
-55.218254
 30
0.0
 11
-54.0
 21
-52.407994
 31
0.0
 12
-54.583512
 22
-55.218254
 32
0.0
 13
-54.583512
 23
-55.218254
 33
0.0
  0
LINE
  5
1E9
330
146
100
AcDbEntity
  8
MO_001_VIEW_PV
  6
BYBLOCK
100
AcDbLine
 10
-38.000008
 20
-50.100006
 30
0.0
 11
-56.285999
 21
-50.100006
 31
0.0
  0
LINE
  5
1EA
330
146
100
AcDbEntity
  8
MO_001_VIEW_PV
  6
BYBLOCK
100
AcDbLine
 10
-38.000008
 20
-51.899994
 30
0.0
 11
-56.285999
 21
-51.899994
 31
0.0
  0
TEXT
  5
1EB
330
146
100
AcDbEntity
  8
MO_001_VIEW_PV
  6
BYBLOCK
100
AcDbText
 10
-56.625
 20
-36.43918699999999
 30
0.0
 40
1.5
  1
%%P0.3
 50
90.0
100
AcDbText
  0
TEXT
  5
1EC
330
146
100
AcDbEntity
  8
MO_001_VIEW_PV
  6
BYBLOCK
100
AcDbText
 10
-54.75
 20
-45.224902
 30
0.0
 40
3.0
  1
1.8
 50
90.0
100
AcDbText
  0
LINE
  5
1ED
330
146
100
AcDbEntity
  8
MO_001_VIEW_PV
  6
BYBLOCK
100
AcDbLine
 10
-54.0
 20
-30.11775999999999
 30
0.0
 11
-54.0
 21
-50.100006
 31
0.0
  0
ENDBLK
  5
1EE
330
146
100
AcDbEntity
  8
0
100
AcDbBlockEnd
  0
BLOCK
  5
1EF
330
148
100
AcDbEntity
  8
0
100
AcDbBlockBegin
  2
*D16
 70
     1
 10
0.0
 20
0.0
 30
0.0
  3
*D16
  1

  0
TEXT
  5
1F0
330
148
100
AcDbEntity
  8
MO_001_VIEW_PV
  6
BYBLOCK
100
AcDbText
 10
18.375
 20
9.733943
 30
0.0
 40
1.5
  1
%%P0.2
 50
90.0
100
AcDbText
  0
TEXT
  5
1F1
330
148
100
AcDbEntity
  8
MO_001_VIEW_PV
  6
BYBLOCK
100
AcDbText
 10
20.24999999999999
 20
6.948228
 30
0.0
 40
3.0
  1
7
 50
90.0
100
AcDbText
  0
LINE
  5
1F2
330
148
100
AcDbEntity
  8
MO_001_VIEW_PV
  6
BYBLOCK
100
AcDbLine
 10
21.0
 20
-3.5
 30
0.0
 11
21.0
 21
3.5
 31
0.0
  0
LINE
  5
1F3
330
148
100
AcDbEntity
  8
MO_001_VIEW_PV
  6
BYBLOCK
100
AcDbLine
 10
21.0
 20
-3.5
 30
0.0
 11
21.0
 21
-9.849999999999999
 31
0.0
  0
LINE
  5
1F4
330
148
100
AcDbEntity
  8
MO_001_VIEW_PV
  6
BYBLOCK
100
AcDbLine
 10
21.0
 20
3.5
 30
0.0
 11
21.0
 21
9.849999999999999
 31
0.0
  0
SOLID
  5
1F5
330
148
100
AcDbEntity
  8
MO_001_VIEW_PV
  6
BYBLOCK
100
AcDbTrace
 10
21.58351199999999
 20
-6.81826
 30
0.0
 11
21.0
 21
-4.008
 31
0.0
 12
20.416488
 22
-6.81826
 32
0.0
 13
20.416488
 23
-6.81826
 33
0.0
  0
SOLID
  5
1F6
330
148
100
AcDbEntity
  8
MO_001_VIEW_PV
  6
BYBLOCK
100
AcDbTrace
 10
20.416488
 20
6.81826
 30
0.0
 11
21.0
 21
4.008
 31
0.0
 12
21.58351199999999
 22
6.81826
 32
0.0
 13
21.58351199999999
 23
6.81826
 33
0.0
  0
LINE
  5
1F7
330
148
100
AcDbEntity
  8
MO_001_VIEW_PV
  6
BYBLOCK
100
AcDbLine
 10
-18.5
 20
-3.5
 30
0.0
 11
23.28599899999999
 21
-3.5
 31
0.0
  0
LINE
  5
1F8
330
148
100
AcDbEntity
  8
MO_001_VIEW_PV
  6
BYBLOCK
100
AcDbLine
 10
-2.5
 20
3.5
 30
0.0
 11
23.28599899999999
 21
3.5
 31
0.0
  0
LINE
  5
1F9
330
148
100
AcDbEntity
  8
MO_001_VIEW_PV
  6
BYBLOCK
100
AcDbLine
 10
21.0
 20
3.5
 30
0.0
 11
21.0
 21
16.05537199999999
 31
0.0
  0
ENDBLK
  5
1FA
330
148
100
AcDbEntity
  8
0
100
AcDbBlockEnd
  0
ENDSEC
  0
SECTION
  2
ENTITIES
  0
TEXT
  5
4B
330
1E
100
AcDbEntity
  8
OVERLAY_MAP
  6
C_SOLID_L
100
AcDbText
 10
0.0
 20
6.349999999999999
 30
0.0
 40
4.1672
  1
Model Overlay Name
100
AcDbText
  0
TEXT
  5
4C
330
1E
100
AcDbEntity
  8
OVERLAY_MAP
  6
C_SOLID_L
100
AcDbText
 10
126.999998
 20
0.0
 30
0.0
 40
4.1672
  1
Number
100
AcDbText
  0
TEXT
  5
4D
330
1E
100
AcDbEntity
  8
OVERLAY_MAP
  6
C_SOLID_L
100
AcDbText
 10
177.7999969999999
 20
0.0
 30
0.0
 40
4.1672
  1
File Text
100
AcDbText
  0
TEXT
  5
4E
330
1E
100
AcDbEntity
  8
OVERLAY_MAP
  6
C_SOLID_L
100
AcDbText
 10
0.0
 20
-6.349999999999999
 30
0.0
 40
4.1672
  1
op sk0626a 
100
AcDbText
  0
TEXT
  5
4F
330
1E
100
AcDbEntity
  8
OVERLAY_MAP
  6
C_SOLID_L
100
AcDbText
 10
126.999998
 20
-6.349999999999999
 30
0.0
 40
4.1672
  1
001
100
AcDbText
  0
TEXT
  5
50
330
1E
100
AcDbEntity
  8
OVERLAY_MAP
  6
C_SOLID_L
100
AcDbText
 10
177.7999969999999
 20
-6.349999999999999
 30
0.0
 40
4.1672
  1
                                                     890589050 152900139
100
AcDbText
  0
LINE
  5
51
330
1E
100
AcDbEntity
  8
MO_001_VIEW_PV
  6
C_SOLID_M
100
AcDbLine
 10
0.0
 20
8.0
 30
0.0
 11
0.0
 21
-8.0
 31
0.0
  0
LINE
  5
52
330
1E
100
AcDbEntity
  8
MO_001_VIEW_PV
  6
C_CENTER_L
100
AcDbLine
 10
-39.640182
 20
0.0
 30
0.0
 11
3.167908
 21
0.0
 31
0.0
  0
LINE
  5
53
330
1E
100
AcDbEntity
  8
MO_001_VIEW_PV
  6
C_SOLID_M
100
AcDbLine
 10
-24.0
 20
8.0
 30
0.0
 11
-24.0
 21
3.199997
 31
0.0
  0
LINE
  5
54
330
1E
100
AcDbEntity
  8
MO_001_VIEW_PV
  6
C_SOLID_M
100
AcDbLine
 10
-26.800003
 20
2.358938
 30
0.0
 11
-26.800003
 21
-2.358938
 31
0.0
  0
LINE
  5
55
330
1E
100
AcDbEntity
  8
MO_001_VIEW_PV
  6
C_SOLID_M
100
AcDbLine
 10
-26.0
 20
8.0
 30
0.0
 11
0.0
 21
8.0
 31
0.0
  0
LINE
  5
56
330
1E
100
AcDbEntity
  8
MO_001_VIEW_PV
  6
C_SOLID_M
100
AcDbLine
 10
-25.778842
 20
3.422315
 30
0.0
 11
-24.000014
 21
3.199958
 31
0.0
  0
LINE
  5
57
330
1E
100
AcDbEntity
  8
MO_001_VIEW_PV
  6
C_SOLID_M
100
AcDbLine
 10
-24.0
 20
-3.199981999999999
 30
0.0
 11
-24.0
 21
-8.0
 31
0.0
  0
LINE
  5
58
330
1E
100
AcDbEntity
  8
MO_001_VIEW_PV
  6
C_SOLID_M
100
AcDbLine
 10
-26.0
 20
-8.0
 30
0.0
 11
0.0
 21
-8.0
 31
0.0
  0
LINE
  5
59
330
1E
100
AcDbEntity
  8
MO_001_VIEW_PV
  6
C_CENTER_L
100
AcDbLine
 10
-21.0
 20
-1.0
 30
0.0
 11
-21.0
 21
-6.0
 31
0.0
  0
LINE
  5
5A
330
1E
100
AcDbEntity
  8
MO_001_VIEW_PV
  6
C_CENTER_L
100
AcDbLine
 10
-5.0
 20
6.0
 30
0.0
 11
-5.0
 21
1.0
 31
0.0
  0
LINE
  5
5B
330
1E
100
AcDbEntity
  8
MO_001_VIEW_PV
  6
C_CENTER_L
100
AcDbLine
 10
-7.5
 20
3.5
 30
0.0
 11
-2.5
 21
3.5
 31
0.0
  0
LINE
  5
5C
330
1E
100
AcDbEntity
  8
MO_001_VIEW_PV
  6
C_CENTER_L
100
AcDbLine
 10
-23.5
 20
-3.5
 30
0.0
 11
-18.5
 21
-3.5
 31
0.0
  0
CIRCLE
  5
5D
330
1E
100
AcDbEntity
  8
MO_001_VIEW_PV
  6
C_SOLID_M
100
AcDbCircle
 10
-5.0
 20
3.5
 30
0.0
 40
1.5
  0
CIRCLE
  5
5E
330
1E
100
AcDbEntity
  8
MO_001_VIEW_PV
  6
C_SOLID_M
100
AcDbCircle
 10
-21.0
 20
-3.5
 30
0.0
 40
1.5
  0
CIRCLE
  5
5F
330
1E
100
AcDbEntity
  8
MO_001_VIEW_PV
  6
C_SOLID_M
100
AcDbCircle
 10
-21.0
 20
-3.5
 30
0.0
 40
1.199999999999999
  0
CIRCLE
  5
60
330
1E
100
AcDbEntity
  8
MO_001_VIEW_PV
  6
C_SOLID_M
100
AcDbCircle
 10
-5.0
 20
3.5
 30
0.0
 40
1.199999999999999
  0
LINE
  5
61
330
1E
100
AcDbEntity
  8
MO_001_VIEW_PV
  6
C_SOLID_M
100
AcDbLine
 10
0.0
 20
-53.32
 30
0.0
 11
0.0
 21
-59.0
 31
0.0
  0
LINE
  5
62
330
1E
100
AcDbEntity
  8
MO_001_VIEW_PV
  6
C_SOLID_M
100
AcDbLine
 10
-24.0
 20
-42.600006
 30
0.0
 11
-2.0
 21
-42.600006
 31
0.0
  0
LINE
  5
63
330
1E
100
AcDbEntity
  8
MO_001_VIEW_PV
  6
C_SOLID_M
100
AcDbLine
 10
-24.0
 20
-59.39999399999999
 30
0.0
 11
-2.0
 21
-59.39999399999999
 31
0.0
  0
LINE
  5
64
330
1E
100
AcDbEntity
  8
MO_001_VIEW_PV
  6
C_SOLID_M
100
AcDbLine
 10
-26.800003
 20
-41.0
 30
0.0
 11
-2.0
 21
-41.0
 31
0.0
  0
LINE
  5
65
330
1E
100
AcDbEntity
  8
MO_001_VIEW_PV
  6
C_SOLID_M
100
AcDbLine
 10
-26.800003
 20
-61.0
 30
0.0
 11
-2.0
 21
-61.0
 31
0.0
  0
ARC
  5
66
330
1E
100
AcDbEntity
  8
MO_001_VIEW_PV
  6
C_SOLID_M
100
AcDbCircle
 10
-2.0
 20
-43.0
 30
0.0
 40
2.0
100
AcDbArc
 50
0.0
 51
89.99998199999998
  0
ARC
  5
67
330
1E
100
AcDbEntity
  8
MO_001_VIEW_PV
  6
C_SOLID_M
100
AcDbCircle
 10
-2.0
 20
-59.0
 30
0.0
 40
2.0
100
AcDbArc
 50
270.0000179999999
 51
0.0
  0
ARC
  5
68
330
1E
100
AcDbEntity
  8
MO_001_VIEW_PV
  6
C_SOLID_M
100
AcDbCircle
 10
-2.0
 20
-59.0
 30
0.0
 40
0.4
100
AcDbArc
 50
270.0000179999999
 51
0.0
  0
ARC
  5
69
330
1E
100
AcDbEntity
  8
MO_001_VIEW_PV
  6
C_SOLID_M
100
AcDbCircle
 10
-2.0
 20
-43.0
 30
0.0
 40
0.4
100
AcDbArc
 50
0.0
 51
89.99998199999998
  0
LINE
  5
6A
330
1E
100
AcDbEntity
  8
MO_001_VIEW_PV
  6
C_SOLID_M
100
AcDbLine
 10
-24.0
 20
-41.0
 30
0.0
 11
-24.0
 21
-61.0
 31
0.0
  0
LINE
  5
6B
330
1E
100
AcDbEntity
  8
MO_001_VIEW_PV
  6
C_SOLID_M
100
AcDbLine
 10
-26.800003
 20
-41.0
 30
0.0
 11
-26.800003
 21
-42.600006
 31
0.0
  0
LINE
  5
6C
330
1E
100
AcDbEntity
  8
MO_001_VIEW_PV
  6
C_SOLID_M
100
AcDbLine
 10
-26.800003
 20
-59.39999399999999
 30
0.0
 11
-26.800003
 21
-61.0
 31
0.0
  0
LINE
  5
6D
330
1E
100
AcDbEntity
  8
MO_001_VIEW_PV
  6
C_CENTER_L
100
AcDbLine
 10
-80.485886
 20
0.0
 30
0.0
 11
-57.389252
 21
0.0
 31
0.0
  0
LINE
  5
6E
330
1E
100
AcDbEntity
  8
MO_001_VIEW_PV
  6
C_CENTER_L
100
AcDbLine
 10
-69.0
 20
-9.507178999999998
 30
0.0
 11
-69.0
 21
9.424490999999999
 31
0.0
  0
LINE
  5
6F
330
1E
100
AcDbEntity
  8
MO_001_VIEW_PV
  6
C_SOLID_M
100
AcDbLine
 10
-79.0
 20
-8.0
 30
0.0
 11
-79.0
 21
8.0
 31
0.0
  0
LINE
  5
70
330
1E
100
AcDbEntity
  8
MO_001_VIEW_PV
  6
C_SOLID_M
100
AcDbLine
 10
-79.0
 20
8.0
 30
0.0
 11
-59.0
 21
8.0
 31
0.0
  0
LINE
  5
71
330
1E
100
AcDbEntity
  8
MO_001_VIEW_PV
  6
C_SOLID_M
100
AcDbLine
 10
-60.60000600000001
 20
-3.750008
 30
0.0
 11
-60.60000600000001
 21
3.750008
 31
0.0
  0
LINE
  5
72
330
1E
100
AcDbEntity
  8
MO_001_VIEW_PV
  6
C_SOLID_M
100
AcDbLine
 10
-59.0
 20
-8.0
 30
0.0
 11
-59.0
 21
8.0
 31
0.0
  0
LINE
  5
73
330
1E
100
AcDbEntity
  8
MO_001_VIEW_PV
  6
C_SOLID_M
100
AcDbLine
 10
-79.0
 20
-8.0
 30
0.0
 11
-59.0
 21
-8.0
 31
0.0
  0
LINE
  5
74
330
1E
100
AcDbEntity
  8
MO_001_VIEW_PV
  6
C_SOLID_M
100
AcDbLine
 10
-1.600006
 20
-48.0
 30
0.0
 11
0.0
 21
-48.0
 31
0.0
  0
LINE
  5
75
330
1E
100
AcDbEntity
  8
MO_001_VIEW_PV
  6
C_SOLID_M
100
AcDbLine
 10
-1.600006
 20
-47.0
 30
0.0
 11
0.0
 21
-47.0
 31
0.0
  0
LINE
  5
76
330
1E
100
AcDbEntity
  8
MO_001_VIEW_PV
  6
C_SOLID_M
100
AcDbLine
 10
-1.600006
 20
-46.800003
 30
0.0
 11
0.0
 21
-46.800003
 31
0.0
  0
LINE
  5
77
330
1E
100
AcDbEntity
  8
MO_001_VIEW_PV
  6
C_SOLID_M
100
AcDbLine
 10
-1.600006
 20
-54.0
 30
0.0
 11
0.0
 21
-54.0
 31
0.0
  0
LINE
  5
78
330
1E
100
AcDbEntity
  8
MO_001_VIEW_PV
  6
C_SOLID_M
100
AcDbLine
 10
-1.600006
 20
-55.0
 30
0.0
 11
0.0
 21
-55.0
 31
0.0
  0
LINE
  5
79
330
1E
100
AcDbEntity
  8
MO_001_VIEW_PV
  6
C_SOLID_M
100
AcDbLine
 10
-1.600006
 20
-55.19999699999999
 30
0.0
 11
0.0
 21
-55.19999699999999
 31
0.0
  0
LINE
  5
7A
330
1E
100
AcDbEntity
  8
MO_001_VIEW_PV
  6
C_SOLID_M
100
AcDbLine
 10
-60.60000600000001
 20
3.549964
 30
0.0
 11
-59.0
 21
3.549964
 31
0.0
  0
LINE
  5
7B
330
1E
100
AcDbEntity
  8
MO_001_VIEW_PV
  6
C_SOLID_M
100
AcDbLine
 10
-79.0
 20
8.0
 30
0.0
 11
-79.0
 21
3.549999999999999
 31
0.0
  0
LINE
  5
7C
330
1E
100
AcDbEntity
  8
MO_001_VIEW_PV
  6
C_SOLID_M
100
AcDbLine
 10
-60.59999799999999
 20
4.011881999999999
 30
0.0
 11
-60.59999799999999
 21
-4.011881999999999
 31
0.0
  0
CIRCLE
  5
7D
330
1E
100
AcDbEntity
  8
MO_001_VIEW_PV
  6
C_SOLID_M
100
AcDbCircle
 10
-69.0
 20
0.0
 30
0.0
 40
3.25
  0
LINE
  5
7E
330
1E
100
AcDbEntity
  8
MO_001_VIEW_PV
  6
C_SOLID_M
100
AcDbLine
 10
-79.0
 20
-8.0
 30
0.0
 11
-79.0
 21
-3.549999999999999
 31
0.0
  0
LINE
  5
7F
330
1E
100
AcDbEntity
  8
MO_001_VIEW_PV
  6
C_SOLID_M
100
AcDbLine
 10
-59.0
 20
8.0
 30
0.0
 11
-59.0
 21
3.549999999999999
 31
0.0
  0
LINE
  5
80
330
1E
100
AcDbEntity
  8
MO_001_VIEW_PV
  6
C_SOLID_M
100
AcDbLine
 10
-59.0
 20
-8.0
 30
0.0
 11
-59.0
 21
-3.549999999999999
 31
0.0
  0
LINE
  5
81
330
1E
100
AcDbEntity
  8
MO_001_VIEW_PV
  6
C_SOLID_M
100
AcDbLine
 10
-26.0
 20
8.0
 30
0.0
 11
-26.0
 21
3.549999999999999
 31
0.0
  0
LINE
  5
82
330
1E
100
AcDbEntity
  8
MO_001_VIEW_PV
  6
C_SOLID_M
100
AcDbLine
 10
-26.0
 20
-3.549999999999999
 30
0.0
 11
-26.0
 21
-8.0
 31
0.0
  0
LINE
  5
83
330
1E
100
AcDbEntity
  8
MO_001_VIEW_PV
  6
C_SOLID_M
100
AcDbLine
 10
-26.0
 20
3.549999999999999
 30
0.0
 11
-24.0
 21
3.549999999999999
 31
0.0
  0
LINE
  5
84
330
1E
100
AcDbEntity
  8
MO_001_VIEW_PV
  6
C_SOLID_M
100
AcDbLine
 10
-26.0
 20
-3.549999999999999
 30
0.0
 11
-24.0
 21
-3.549999999999999
 31
0.0
  0
LINE
  5
85
330
1E
100
AcDbEntity
  8
MO_001_VIEW_PV
  6
C_SOLID_M
100
AcDbLine
 10
-26.0
 20
-41.0
 30
0.0
 11
-26.0
 21
-61.0
 31
0.0
  0
LINE
  5
86
330
1E
100
AcDbEntity
  8
MO_001_VIEW_PV
  6
C_SOLID_M
100
AcDbLine
 10
-26.800003
 20
-42.600006
 30
0.0
 11
-26.0
 21
-42.600006
 31
0.0
  0
LINE
  5
87
330
1E
100
AcDbEntity
  8
MO_001_VIEW_PV
  6
C_SOLID_M
100
AcDbLine
 10
-26.800003
 20
-59.39999399999999
 30
0.0
 11
-26.0
 21
-59.39999399999999
 31
0.0
  0
LINE
  5
88
330
1E
100
AcDbEntity
  8
MO_001_VIEW_PV
  6
C_CENTER_L
100
AcDbLine
 10
3.043083
 20
-51.0
 30
0.0
 11
-39.078362
 21
-51.0
 31
0.0
  0
LINE
  5
89
330
1E
100
AcDbEntity
  8
MO_001_VIEW_PV
  6
C_SOLID_M
100
AcDbLine
 10
-36.000008
 20
-48.0
 30
0.0
 11
-37.69999699999999
 21
-48.0
 31
0.0
  0
LINE
  5
8A
330
1E
100
AcDbEntity
  8
MO_001_VIEW_PV
  6
C_SOLID_M
100
AcDbLine
 10
-38.000008
 20
-53.699997
 30
0.0
 11
-38.000008
 21
-51.899994
 31
0.0
  0
LINE
  5
8B
330
1E
100
AcDbEntity
  8
MO_001_VIEW_PV
  6
C_SOLID_M
100
AcDbLine
 10
-38.000028
 20
-53.700014
 30
0.0
 11
-37.700021
 21
-54.000016
 31
0.0
  0
LINE
  5
8C
330
1E
100
AcDbEntity
  8
MO_001_VIEW_PV
  6
C_SOLID_M
100
AcDbLine
 10
-38.00000999999999
 20
-48.29999
 30
0.0
 11
-37.7
 21
-47.99999
 31
0.0
  0
LINE
  5
8D
330
1E
100
AcDbEntity
  8
MO_001_VIEW_PV
  6
C_SOLID_M
100
AcDbLine
 10
-31.00000399999999
 20
-51.899994
 30
0.0
 11
-31.00000399999999
 21
-50.100006
 31
0.0
  0
LINE
  5
8E
330
1E
100
AcDbEntity
  8
MO_001_VIEW_PV
  6
C_SOLID_M
100
AcDbLine
 10
-37.700008
 20
-54.0
 30
0.0
 11
-37.700008
 21
-51.899994
 31
0.0
  0
LINE
  5
8F
330
1E
100
AcDbEntity
  8
MO_001_VIEW_PV
  6
C_SOLID_M
100
AcDbLine
 10
-37.700008
 20
-50.100006
 30
0.0
 11
-37.700008
 21
-48.0
 31
0.0
  0
LINE
  5
90
330
1E
100
AcDbEntity
  8
MO_001_VIEW_PV
  6
C_SOLID_M
100
AcDbLine
 10
-38.000008
 20
-50.100006
 30
0.0
 11
-38.000008
 21
-48.300003
 31
0.0
  0
LINE
  5
91
330
1E
100
AcDbEntity
  8
MO_001_VIEW_PV
  6
C_CENTER_L
100
AcDbLine
 10
-35.000008
 20
-55.47215300000001
 30
0.0
 11
-35.000008
 21
-46.73301699999999
 31
0.0
  0
LINE
  5
92
330
1E
100
AcDbEntity
  8
MO_001_VIEW_PV
  6
C_SOLID_M
100
AcDbLine
 10
-36.000008
 20
-52.621841
 30
0.0
 11
-36.000008
 21
-51.899994
 31
0.0
  0
LINE
  5
93
330
1E
100
AcDbEntity
  8
MO_001_VIEW_PV
  6
C_SOLID_M
100
AcDbLine
 10
-34.000008
 20
-52.559326
 30
0.0
 11
-34.000008
 21
-51.899994
 31
0.0
  0
LINE
  5
94
330
1E
100
AcDbEntity
  8
MO_001_VIEW_PV
  6
C_SOLID_M
100
AcDbLine
 10
-34.000008
 20
-48.62103300000001
 30
0.0
 11
-34.000008
 21
-48.0
 31
0.0
  0
LINE
  5
95
330
1E
100
AcDbEntity
  8
MO_001_VIEW_PV
  6
C_SOLID_M
100
AcDbLine
 10
-36.000008
 20
-48.55851699999999
 30
0.0
 11
-36.000008
 21
-48.0
 31
0.0
  0
LINE
  5
96
330
1E
100
AcDbEntity
  8
MO_001_VIEW_PV
  6
C_SOLID_M
100
AcDbLine
 10
-31.000002
 20
-51.899994
 30
0.0
 11
-38.000008
 21
-51.899994
 31
0.0
  0
LINE
  5
97
330
1E
100
AcDbEntity
  8
MO_001_VIEW_PV
  6
C_SOLID_M
100
AcDbLine
 10
-31.000002
 20
-50.100006
 30
0.0
 11
-38.000008
 21
-50.100006
 31
0.0
  0
LINE
  5
98
330
1E
100
AcDbEntity
  8
MO_001_VIEW_PV
  6
C_SOLID_M
100
AcDbLine
 10
-34.000008
 20
-54.0
 30
0.0
 11
-34.000008
 21
-53.196571
 31
0.0
  0
LINE
  5
99
330
1E
100
AcDbEntity
  8
MO_001_VIEW_PV
  6
C_SOLID_M
100
AcDbLine
 10
-36.000008
 20
-54.0
 30
0.0
 11
-36.000008
 21
-53.321594
 31
0.0
  0
LINE
  5
9A
330
1E
100
AcDbEntity
  8
MO_001_VIEW_PV
  6
C_SOLID_M
100
AcDbLine
 10
-34.000008
 20
-50.100006
 30
0.0
 11
-34.000008
 21
-49.433693
 31
0.0
  0
LINE
  5
9B
330
1E
100
AcDbEntity
  8
MO_001_VIEW_PV
  6
C_SOLID_M
100
AcDbLine
 10
-36.000008
 20
-50.100006
 30
0.0
 11
-36.000008
 21
-49.433693
 31
0.0
  0
LINE
  5
9C
330
1E
100
AcDbEntity
  8
MO_001_VIEW_PV
  6
C_SOLID_M
100
AcDbLine
 10
-26.800003
 20
-3.0
 30
0.0
 11
-31.00000399999999
 21
-3.0
 31
0.0
  0
LINE
  5
9D
330
1E
100
AcDbEntity
  8
MO_001_VIEW_PV
  6
C_SOLID_M
100
AcDbLine
 10
-26.800003
 20
3.0
 30
0.0
 11
-31.00000399999999
 21
3.0
 31
0.0
  0
LINE
  5
9E
330
1E
100
AcDbEntity
  8
MO_001_VIEW_PV
  6
C_SOLID_M
100
AcDbLine
 10
-31.00000399999999
 20
2.861816999999999
 30
0.0
 11
-31.00000399999999
 21
3.0
 31
0.0
  0
LINE
  5
9F
330
1E
100
AcDbEntity
  8
MO_001_VIEW_PV
  6
C_SOLID_M
100
AcDbLine
 10
-37.700008
 20
-2.861816999999999
 30
0.0
 11
-37.700008
 21
2.861816999999999
 31
0.0
  0
LINE
  5
A0
330
1E
100
AcDbEntity
  8
MO_001_VIEW_PV
  6
C_SOLID_M
100
AcDbLine
 10
-38.000008
 20
-2.699996
 30
0.0
 11
-38.000008
 21
2.699997
 31
0.0
  0
LINE
  5
A1
330
1E
100
AcDbEntity
  8
MO_001_VIEW_PV
  6
C_CENTER_L
100
AcDbLine
 10
-35.000008
 20
-1.920147
 30
0.0
 11
-35.000008
 21
1.998713
 31
0.0
  0
CIRCLE
  5
A2
330
1E
100
AcDbEntity
  8
MO_001_VIEW_PV
  6
C_SOLID_M
100
AcDbCircle
 10
-69.0
 20
0.0
 30
0.0
 40
3.0
  0
ARC
  5
A3
330
1E
100
AcDbEntity
  8
MO_001_VIEW_PV
  6
C_SOLID_M
100
AcDbCircle
 10
-69.0
 20
0.0
 30
0.0
 40
2.699997
100
AcDbArc
 50
109.47128
 51
250.5287159999999
  0
LINE
  5
A4
330
1E
100
AcDbEntity
  8
MO_001_VIEW_PV
  6
C_SOLID_M
100
AcDbLine
 10
-69.900002
 20
-2.861816999999999
 30
0.0
 11
-69.900002
 21
2.861816999999999
 31
0.0
  0
LINE
  5
A5
330
1E
100
AcDbEntity
  8
MO_001_VIEW_PV
  6
C_SOLID_M
100
AcDbLine
 10
-68.09999799999999
 20
-2.861816999999999
 30
0.0
 11
-68.09999799999999
 21
2.861816999999999
 31
0.0
  0
ARC
  5
A6
330
1E
100
AcDbEntity
  8
MO_001_VIEW_PV
  6
C_SOLID_M
100
AcDbCircle
 10
-69.0
 20
0.0
 30
0.0
 40
2.699997
100
AcDbArc
 50
289.471275
 51
70.52872499999999
  0
LINE
  5
A7
330
1E
100
AcDbEntity
  8
MO_001_VIEW_PV
  6
C_SOLID_M
100
AcDbLine
 10
-37.700008
 20
2.861816999999999
 30
0.0
 11
-31.00000399999999
 21
2.861816999999999
 31
0.0
  0
LINE
  5
A8
330
1E
100
AcDbEntity
  8
MO_001_VIEW_PV
  6
C_SOLID_M
100
AcDbLine
 10
-38.000007
 20
2.699994999999999
 30
0.0
 11
-37.700008
 21
2.861816
 31
0.0
  0
CIRCLE
  5
A9
330
1E
100
AcDbEntity
  8
MO_001_VIEW_PV
  6
C_SOLID_M
100
AcDbCircle
 10
-35.000008
 20
0.0
 30
0.0
 40
1.0
  0
LINE
  5
AA
330
1E
100
AcDbEntity
  8
MO_001_VIEW_PV
  6
C_SOLID_M
100
AcDbLine
 10
-37.700008
 20
-2.861816999999999
 30
0.0
 11
-31.00000399999999
 21
-2.861816999999999
 31
0.0
  0
LINE
  5
AB
330
1E
100
AcDbEntity
  8
MO_001_VIEW_PV
  6
C_SOLID_M
100
AcDbLine
 10
-38.000007
 20
-2.699994999999999
 30
0.0
 11
-37.700006
 21
-2.861816999999999
 31
0.0
  0
LINE
  5
AC
330
1E
100
AcDbEntity
  8
MO_001_VIEW_PV
  6
C_SOLID_M
100
AcDbLine
 10
-31.00000399999999
 20
-3.0
 30
0.0
 11
-31.00000399999999
 21
-2.861816999999999
 31
0.0
  0
LINE
  5
AD
330
1E
100
AcDbEntity
  8
MO_001_VIEW_PV
  6
C_SOLID_M
100
AcDbLine
 10
0.5999939999999999
 20
-50.0
 30
0.0
 11
0.5999939999999999
 21
-52.0
 31
0.0
  0
LINE
  5
AE
330
1E
100
AcDbEntity
  8
MO_001_VIEW_PV
  6
C_SOLID_M
100
AcDbLine
 10
-1.700000999999999
 20
-48.68
 30
0.0
 11
-1.700000999999999
 21
-42.735428
 31
0.0
  0
LINE
  5
AF
330
1E
100
AcDbEntity
  8
MO_001_VIEW_PV
  6
C_SOLID_M
100
AcDbLine
 10
-1.600006
 20
-53.32
 30
0.0
 11
-1.600006
 21
-59.0
 31
0.0
  0
LINE
  5
B0
330
1E
100
AcDbEntity
  8
MO_001_VIEW_PV
  6
C_SOLID_M
100
AcDbLine
 10
-1.735427999999999
 20
-59.300003
 30
0.0
 11
-2.500004
 21
-59.300003
 31
0.0
  0
LINE
  5
B1
330
1E
100
AcDbEntity
  8
MO_001_VIEW_PV
  6
C_SOLID_M
100
AcDbLine
 10
-23.200001
 20
-59.300003
 30
0.0
 11
-24.0
 21
-59.300003
 31
0.0
  0
LINE
  5
B2
330
1E
100
AcDbEntity
  8
MO_001_VIEW_PV
  6
C_SOLID_M
100
AcDbLine
 10
-23.200001
 20
-42.69999699999999
 30
0.0
 11
-23.200001
 21
-59.300003
 31
0.0
  0
LINE
  5
B3
330
1E
100
AcDbEntity
  8
MO_001_VIEW_PV
  6
C_SOLID_M
100
AcDbLine
 10
-2.500004
 20
-53.32
 30
0.0
 11
-2.500004
 21
-59.300003
 31
0.0
  0
LINE
  5
B4
330
1E
100
AcDbEntity
  8
MO_001_VIEW_PV
  6
C_SOLID_M
100
AcDbLine
 10
-1.735427999999999
 20
-42.69999699999999
 30
0.0
 11
-2.500004
 21
-42.69999699999999
 31
0.0
  0
LINE
  5
B5
330
1E
100
AcDbEntity
  8
MO_001_VIEW_PV
  6
C_SOLID_M
100
AcDbLine
 10
-23.200001
 20
-42.69999699999999
 30
0.0
 11
-24.0
 21
-42.69999699999999
 31
0.0
  0
LINE
  5
B6
330
1E
100
AcDbEntity
  8
MO_001_VIEW_PV
  6
C_SOLID_M
100
AcDbLine
 10
-1.699995999999999
 20
-56.864024
 30
0.0
 11
-1.600000999999999
 21
-57.11401600000001
 31
0.0
  0
LINE
  5
B7
330
1E
100
AcDbEntity
  8
MO_001_VIEW_PV
  6
C_SOLID_M
100
AcDbLine
 10
-1.600017999999999
 20
-57.614002
 30
0.0
 11
-1.700024
 21
-57.864022
 31
0.0
  0
LINE
  5
B8
330
1E
100
AcDbEntity
  8
MO_001_VIEW_PV
  6
C_SOLID_M
100
AcDbLine
 10
-1.700018999999999
 20
-45.136069
 30
0.0
 11
-1.600012999999999
 21
-44.886049
 31
0.0
  0
LINE
  5
B9
330
1E
100
AcDbEntity
  8
MO_001_VIEW_PV
  6
C_SOLID_M
100
AcDbLine
 10
-1.599998999999999
 20
-44.386076
 30
0.0
 11
-1.7
 21
-44.13607
 31
0.0
  0
LINE
  5
BA
330
1E
100
AcDbEntity
  8
MO_001_VIEW_PV
  6
C_SOLID_M
100
AcDbLine
 10
-1.600006
 20
-54.25
 30
0.0
 11
-1.700000999999999
 21
-54.25
 31
0.0
  0
LINE
  5
BB
330
1E
100
AcDbEntity
  8
MO_001_VIEW_PV
  6
C_SOLID_M
100
AcDbLine
 10
-1.600006
 20
-47.75
 30
0.0
 11
-1.700000999999999
 21
-47.75
 31
0.0
  0
LINE
  5
BC
330
1E
100
AcDbEntity
  8
MO_001_VIEW_PV
  6
C_SOLID_M
100
AcDbLine
 10
-2.500004
 20
-43.699997
 30
0.0
 11
-23.200001
 21
-43.699997
 31
0.0
  0
LINE
  5
BD
330
1E
100
AcDbEntity
  8
MO_001_VIEW_PV
  6
C_SOLID_M
100
AcDbLine
 10
-2.500004
 20
-58.300003
 30
0.0
 11
-23.200001
 21
-58.300003
 31
0.0
  0
ARC
  5
BE
330
1E
100
AcDbEntity
  8
MO_001_VIEW_PV
  6
C_SOLID_M
100
AcDbCircle
 10
-69.0
 20
0.0
 30
0.0
 40
8.3
100
AcDbArc
 50
74.54830499999999
 51
105.4517
  0
ARC
  5
BF
330
1E
100
AcDbEntity
  8
MO_001_VIEW_PV
  6
C_SOLID_M
100
AcDbCircle
 10
-75.30000300000001
 20
-6.5
 30
0.0
 40
2.0
100
AcDbArc
 50
228.5903839999999
 51
269.999998
  0
LINE
  5
C0
330
1E
100
AcDbEntity
  8
MO_001_VIEW_PV
  6
C_SOLID_M
100
AcDbLine
 10
-75.30000300000001
 20
-8.5
 30
0.0
 11
-62.69999699999999
 21
-8.5
 31
0.0
  0
ARC
  5
C1
330
1E
100
AcDbEntity
  8
MO_001_VIEW_PV
  6
C_SOLID_M
100
AcDbCircle
 10
-62.69999699999999
 20
-6.5
 30
0.0
 40
2.0
100
AcDbArc
 50
270.0000109999999
 51
311.409621
  0
ARC
  5
C2
330
1E
100
AcDbEntity
  8
MO_001_VIEW_PV
  6
C_SOLID_M
100
AcDbCircle
 10
-62.69999699999999
 20
6.5
 30
0.0
 40
2.0
100
AcDbArc
 50
48.590379
 51
89.99998199999998
  0
LINE
  5
C3
330
1E
100
AcDbEntity
  8
MO_001_VIEW_PV
  6
C_SOLID_M
100
AcDbLine
 10
-75.30000300000001
 20
8.5
 30
0.0
 11
-62.69999699999999
 21
8.5
 31
0.0
  0
ARC
  5
C4
330
1E
100
AcDbEntity
  8
MO_001_VIEW_PV
  6
C_SOLID_M
100
AcDbCircle
 10
-75.30000300000001
 20
6.5
 30
0.0
 40
2.0
100
AcDbArc
 50
89.99998199999998
 51
131.409616
  0
ARC
  5
C5
330
1E
100
AcDbEntity
  8
MO_001_VIEW_PV
  6
C_SOLID_M
100
AcDbCircle
 10
-69.0
 20
0.0
 30
0.0
 40
8.3
100
AcDbArc
 50
254.5483
 51
285.451695
  0
LINE
  5
C6
330
1E
100
AcDbEntity
  8
MO_001_VIEW_PV
  6
C_SOLID_M
100
AcDbLine
 10
-2.500004
 20
8.5
 30
0.0
 11
-1.700000999999999
 21
8.5
 31
0.0
  0
LINE
  5
C7
330
1E
100
AcDbEntity
  8
MO_001_VIEW_PV
  6
C_SOLID_M
100
AcDbLine
 10
-2.500004
 20
-8.5
 30
0.0
 11
-1.700000999999999
 21
-8.5
 31
0.0
  0
LINE
  5
C8
330
1E
100
AcDbEntity
  8
MO_001_VIEW_PV
  6
C_SOLID_M
100
AcDbLine
 10
-24.0
 20
8.5
 30
0.0
 11
-24.0
 21
8.0
 31
0.0
  0
LINE
  5
C9
330
1E
100
AcDbEntity
  8
MO_001_VIEW_PV
  6
C_SOLID_M
100
AcDbLine
 10
-23.200001
 20
8.5
 30
0.0
 11
-23.200001
 21
8.0
 31
0.0
  0
LINE
  5
CA
330
1E
100
AcDbEntity
  8
MO_001_VIEW_PV
  6
C_SOLID_M
100
AcDbLine
 10
-2.500004
 20
-8.0
 30
0.0
 11
-2.500004
 21
-8.5
 31
0.0
  0
LINE
  5
CB
330
1E
100
AcDbEntity
  8
MO_001_VIEW_PV
  6
C_SOLID_M
100
AcDbLine
 10
-1.700000999999999
 20
-8.0
 30
0.0
 11
-1.700000999999999
 21
-8.5
 31
0.0
  0
LINE
  5
CC
330
1E
100
AcDbEntity
  8
MO_001_VIEW_PV
  6
C_SOLID_M
100
AcDbLine
 10
-24.0
 20
8.5
 30
0.0
 11
-23.200001
 21
8.5
 31
0.0
  0
LINE
  5
CD
330
1E
100
AcDbEntity
  8
MO_001_VIEW_PV
  6
C_SOLID_M
100
AcDbLine
 10
-24.0
 20
-8.5
 30
0.0
 11
-23.200001
 21
-8.5
 31
0.0
  0
LINE
  5
CE
330
1E
100
AcDbEntity
  8
MO_001_VIEW_PV
  6
C_SOLID_M
100
AcDbLine
 10
-23.200001
 20
-8.0
 30
0.0
 11
-23.200001
 21
-8.5
 31
0.0
  0
LINE
  5
CF
330
1E
100
AcDbEntity
  8
MO_001_VIEW_PV
  6
C_SOLID_M
100
AcDbLine
 10
-24.0
 20
-8.0
 30
0.0
 11
-24.0
 21
-8.5
 31
0.0
  0
LINE
  5
D0
330
1E
100
AcDbEntity
  8
MO_001_VIEW_PV
  6
C_SOLID_M
100
AcDbLine
 10
-2.500004
 20
8.5
 30
0.0
 11
-2.500004
 21
8.0
 31
0.0
  0
LINE
  5
D1
330
1E
100
AcDbEntity
  8
MO_001_VIEW_PV
  6
C_SOLID_M
100
AcDbLine
 10
-1.700000999999999
 20
8.5
 30
0.0
 11
-1.700000999999999
 21
8.0
 31
0.0
  0
LINE
  5
D2
330
1E
100
AcDbEntity
  8
MO_001_VIEW_PV
  6
C_SOLID_M
100
AcDbLine
 10
0.5999939999999999
 20
1.299998999999999
 30
0.0
 11
0.5999939999999999
 21
-1.299998999999999
 31
0.0
  0
LINE
  5
D3
330
1E
100
AcDbEntity
  8
MO_001_VIEW_PV
  6
C_SOLID_M
100
AcDbLine
 10
0.5999939999999999
 20
-1.299998999999999
 30
0.0
 11
0.0
 21
-1.299998999999999
 31
0.0
  0
LINE
  5
D4
330
1E
100
AcDbEntity
  8
MO_001_VIEW_PV
  6
C_SOLID_M
100
AcDbLine
 10
0.5999939999999999
 20
1.299998999999999
 30
0.0
 11
0.0
 21
1.299998999999999
 31
0.0
  0
LINE
  5
D5
330
1E
100
AcDbEntity
  8
MO_001_VIEW_PV
  6
C_SOLID_M
100
AcDbLine
 10
-26.0
 20
-48.0
 30
0.0
 11
-34.000008
 21
-48.0
 31
0.0
  0
ARC
  5
D6
330
1E
100
AcDbEntity
  8
MO_001_VIEW_PV
  6
C_SOLID_M
100
AcDbCircle
 10
-35.000008
 20
-45.17158499999999
 30
0.0
 40
2.999986999999999
100
AcDbArc
 50
250.5287609999999
 51
289.4712279999999
  0
ARC
  5
D7
330
1E
100
AcDbEntity
  8
MO_001_VIEW_PV
  6
C_SOLID_M
100
AcDbCircle
 10
-35.000008
 20
-56.828415
 30
0.0
 40
2.999986999999999
100
AcDbArc
 50
70.52877200000001
 51
109.4712389999999
  0
LINE
  5
D8
330
1E
100
AcDbEntity
  8
MO_001_VIEW_PV
  6
C_SOLID_M
100
AcDbLine
 10
-26.0
 20
-54.0
 30
0.0
 11
-34.000008
 21
-54.0
 31
0.0
  0
LINE
  5
D9
330
1E
100
AcDbEntity
  8
MO_001_VIEW_PV
  6
C_SOLID_M
100
AcDbLine
 10
-36.000008
 20
-54.0
 30
0.0
 11
-37.69999699999999
 21
-54.0
 31
0.0
  0
LINE
  5
DA
330
1E
100
AcDbEntity
  8
MO_001_VIEW_PV
  6
C_SOLID_M
100
AcDbLine
 10
47.0
 20
-9.169999999999999
 30
0.0
 11
47.0
 21
-9.65
 31
0.0
  0
LINE
  5
DB
330
1E
100
AcDbEntity
  8
MO_001_VIEW_PV
  6
C_SOLID_M
100
AcDbLine
 10
42.0
 20
-8.75
 30
0.0
 11
42.0
 21
-10.07
 31
0.0
  0
LINE
  5
DC
330
1E
100
AcDbEntity
  8
MO_001_VIEW_PV
  6
C_SOLID_M
100
AcDbLine
 10
-1.838565999999999
 20
-8.75
 30
0.0
 11
42.0
 21
-8.75
 31
0.0
  0
LINE
  5
DD
330
1E
100
AcDbEntity
  8
MO_001_VIEW_PV
  6
C_SOLID_M
100
AcDbLine
 10
-1.838565999999999
 20
-10.07
 30
0.0
 11
42.0
 21
-10.07
 31
0.0
  0
LINE
  5
DE
330
1E
100
AcDbEntity
  8
MO_001_VIEW_PV
  6
C_SOLID_M
100
AcDbLine
 10
42.0
 20
-9.169999999999999
 30
0.0
 11
47.0
 21
-9.169999999999999
 31
0.0
  0
LINE
  5
DF
330
1E
100
AcDbEntity
  8
MO_001_VIEW_PV
  6
C_SOLID_M
100
AcDbLine
 10
42.0
 20
-9.65
 30
0.0
 11
47.0
 21
-9.65
 31
0.0
  0
ARC
  5
E0
330
1E
100
AcDbEntity
  8
MO_001_VIEW_PV
  6
C_SOLID_M
100
AcDbCircle
 10
-1.838565999999999
 20
-7.75
 30
0.0
 40
1.0
100
AcDbArc
 50
197.5299899999999
 51
269.999998
  0
ARC
  5
E1
330
1E
100
AcDbEntity
  8
MO_001_VIEW_PV
  6
C_SOLID_M
100
AcDbCircle
 10
-1.838565999999999
 20
-7.75
 30
0.0
 40
2.319999999999999
100
AcDbArc
 50
197.5299899999999
 51
269.999998
  0
ARC
  5
E2
330
1E
100
AcDbEntity
  8
MO_001_VIEW_PV
  6
C_SOLID_M
100
AcDbCircle
 10
-5.004382999999999
 20
-8.75
 30
0.0
 40
1.0
100
AcDbArc
 50
17.529976
 51
48.590379
  0
ARC
  5
E3
330
1E
100
AcDbEntity
  8
MO_001_VIEW_PV
  6
C_SOLID_M
100
AcDbCircle
 10
-5.004382999999999
 20
-8.75
 30
0.0
 40
2.319999999999999
100
AcDbArc
 50
17.529976
 51
18.861152
  0
LINE
  5
E4
330
1E
100
AcDbEntity
  8
MO_001_VIEW_PV
  6
C_SOLID_M
100
AcDbLine
 10
47.0
 20
-49.099998
 30
0.0
 11
47.0
 21
-49.580002
 31
0.0
  0
LINE
  5
E5
330
1E
100
AcDbEntity
  8
MO_001_VIEW_PV
  6
C_SOLID_M
100
AcDbLine
 10
42.0
 20
-48.68
 30
0.0
 11
42.0
 21
-50.0
 31
0.0
  0
LINE
  5
E6
330
1E
100
AcDbEntity
  8
MO_001_VIEW_PV
  6
C_SOLID_M
100
AcDbLine
 10
-3.160004
 20
-48.68
 30
0.0
 11
42.0
 21
-48.68
 31
0.0
  0
LINE
  5
E7
330
1E
100
AcDbEntity
  8
MO_001_VIEW_PV
  6
C_SOLID_M
100
AcDbLine
 10
-3.160004
 20
-50.0
 30
0.0
 11
42.0
 21
-50.0
 31
0.0
  0
LINE
  5
E8
330
1E
100
AcDbEntity
  8
MO_001_VIEW_PV
  6
C_SOLID_M
100
AcDbLine
 10
42.0
 20
-49.099998
 30
0.0
 11
47.0
 21
-49.099998
 31
0.0
  0
LINE
  5
E9
330
1E
100
AcDbEntity
  8
MO_001_VIEW_PV
  6
C_SOLID_M
100
AcDbLine
 10
42.0
 20
-49.580002
 30
0.0
 11
47.0
 21
-49.580002
 31
0.0
  0
LINE
  5
EA
330
1E
100
AcDbEntity
  8
MO_001_VIEW_PV
  6
C_SOLID_M
100
AcDbLine
 10
47.0
 20
-52.900002
 30
0.0
 11
47.0
 21
-52.419998
 31
0.0
  0
LINE
  5
EB
330
1E
100
AcDbEntity
  8
MO_001_VIEW_PV
  6
C_SOLID_M
100
AcDbLine
 10
42.0
 20
-53.32
 30
0.0
 11
42.0
 21
-52.0
 31
0.0
  0
LINE
  5
EC
330
1E
100
AcDbEntity
  8
MO_001_VIEW_PV
  6
C_SOLID_M
100
AcDbLine
 10
-3.160004
 20
-53.32
 30
0.0
 11
42.0
 21
-53.32
 31
0.0
  0
LINE
  5
ED
330
1E
100
AcDbEntity
  8
MO_001_VIEW_PV
  6
C_SOLID_M
100
AcDbLine
 10
-3.160004
 20
-52.0
 30
0.0
 11
42.0
 21
-52.0
 31
0.0
  0
LINE
  5
EE
330
1E
100
AcDbEntity
  8
MO_001_VIEW_PV
  6
C_SOLID_M
100
AcDbLine
 10
42.0
 20
-52.900002
 30
0.0
 11
47.0
 21
-52.900002
 31
0.0
  0
LINE
  5
EF
330
1E
100
AcDbEntity
  8
MO_001_VIEW_PV
  6
C_SOLID_M
100
AcDbLine
 10
42.0
 20
-52.419998
 30
0.0
 11
47.0
 21
-52.419998
 31
0.0
  0
LINE
  5
F0
330
1E
100
AcDbEntity
  8
MO_001_VIEW_PV
  6
C_SOLID_M
100
AcDbLine
 10
0.0
 20
-50.0
 30
0.0
 11
0.0
 21
-52.0
 31
0.0
  0
LINE
  5
F1
330
1E
100
AcDbEntity
  8
MO_001_VIEW_PV
  6
C_SOLID_M
100
AcDbLine
 10
-2.500004
 20
-50.0
 30
0.0
 11
-2.500004
 21
-52.0
 31
0.0
  0
LINE
  5
F2
330
1E
100
AcDbEntity
  8
MO_001_VIEW_PV
  6
C_SOLID_M
100
AcDbLine
 10
-1.700000999999999
 20
-59.26457199999999
 30
0.0
 11
-1.700000999999999
 21
-53.32
 31
0.0
  0
LINE
  5
F3
330
1E
100
AcDbEntity
  8
MO_001_VIEW_PV
  6
C_SOLID_M
100
AcDbLine
 10
-1.600006
 20
-50.0
 30
0.0
 11
-1.600006
 21
-52.0
 31
0.0
  0
LINE
  5
F4
330
1E
100
AcDbEntity
  8
MO_001_VIEW_PV
  6
C_SOLID_M
100
AcDbLine
 10
0.0
 20
-43.0
 30
0.0
 11
0.0
 21
-48.68
 31
0.0
  0
LINE
  5
F5
330
1E
100
AcDbEntity
  8
MO_001_VIEW_PV
  6
C_SOLID_M
100
AcDbLine
 10
-1.600006
 20
-43.0
 30
0.0
 11
-1.600006
 21
-48.68
 31
0.0
  0
LINE
  5
F6
330
1E
100
AcDbEntity
  8
MO_001_VIEW_PV
  6
C_SOLID_M
100
AcDbLine
 10
-1.700000999999999
 20
-52.0
 30
0.0
 11
-1.700000999999999
 21
-50.0
 31
0.0
  0
LINE
  5
F7
330
1E
100
AcDbEntity
  8
MO_001_VIEW_PV
  6
C_SOLID_M
100
AcDbLine
 10
-2.500004
 20
-42.69999699999999
 30
0.0
 11
-2.500004
 21
-48.68
 31
0.0
  0
ARC
  5
F8
330
1E
100
AcDbEntity
  8
MO_001_VIEW_PV
  6
C_SOLID_M
100
AcDbCircle
 10
-3.160004
 20
-52.660004
 30
0.0
 40
0.6600000000000001
100
AcDbArc
 50
90.000002
 51
270.000001
  0
ARC
  5
F9
330
1E
100
AcDbEntity
  8
MO_001_VIEW_PV
  6
C_SOLID_M
100
AcDbCircle
 10
-3.160004
 20
-49.33999599999999
 30
0.0
 40
0.6600000000000001
100
AcDbArc
 50
90.000002
 51
270.000001
  0
LINE
  5
FA
330
1E
100
AcDbEntity
  8
MO_001_VIEW_PV
  6
C_SOLID_M
100
AcDbLine
 10
-26.800002
 20
4.011881999999999
 30
0.0
 11
-25.778841
 21
3.422315
 31
0.0
  0
LINE
  5
FB
330
1E
100
AcDbEntity
  8
MO_001_VIEW_PV
  6
C_SOLID_M
100
AcDbLine
 10
-26.800002
 20
2.961882
 30
0.0
 11
-25.999998
 21
2.5
 31
0.0
  0
LINE
  5
FC
330
1E
100
AcDbEntity
  8
MO_001_VIEW_PV
  6
C_SOLID_M
100
AcDbLine
 10
-26.0
 20
2.5
 30
0.0
 11
-26.800002
 21
2.358938
 31
0.0
  0
LINE
  5
FD
330
1E
100
AcDbEntity
  8
MO_001_VIEW_PV
  6
C_SOLID_M
100
AcDbLine
 10
-26.800003
 20
4.011881999999999
 30
0.0
 11
-26.800003
 21
2.961882
 31
0.0
  0
LINE
  5
FE
330
1E
100
AcDbEntity
  8
MO_001_VIEW_PV
  6
C_SOLID_M
100
AcDbLine
 10
-25.999998
 20
-2.5
 30
0.0
 11
-26.8
 21
-2.358938
 31
0.0
  0
LINE
  5
FF
330
1E
100
AcDbEntity
  8
MO_001_VIEW_PV
  6
C_SOLID_M
100
AcDbLine
 10
-26.800002
 20
-2.961882
 30
0.0
 11
-25.999998
 21
-2.5
 31
0.0
  0
LINE
  5
100
330
1E
100
AcDbEntity
  8
MO_001_VIEW_PV
  6
C_SOLID_M
100
AcDbLine
 10
-26.800003
 20
-4.011881999999999
 30
0.0
 11
-26.800003
 21
-2.961882
 31
0.0
  0
LINE
  5
101
330
1E
100
AcDbEntity
  8
MO_001_VIEW_PV
  6
C_SOLID_M
100
AcDbLine
 10
-26.800002
 20
-4.011881999999999
 30
0.0
 11
-25.778841
 21
-3.422315
 31
0.0
  0
LINE
  5
102
330
1E
100
AcDbEntity
  8
MO_001_VIEW_PV
  6
C_SOLID_M
100
AcDbLine
 10
-25.778842
 20
-3.422315
 30
0.0
 11
-24.000014
 21
-3.199958
 31
0.0
  0
LINE
  5
103
330
1E
100
AcDbEntity
  8
MO_001_VIEW_PV
  6
C_SOLID_M
100
AcDbLine
 10
-60.60000600000001
 20
4.011881999999999
 30
0.0
 11
-59.0
 21
4.011881999999999
 31
0.0
  0
LINE
  5
104
330
1E
100
AcDbEntity
  8
MO_001_VIEW_PV
  6
C_SOLID_M
100
AcDbLine
 10
-60.60000600000001
 20
2.961882
 30
0.0
 11
-59.0
 21
2.961882
 31
0.0
  0
LINE
  5
105
330
1E
100
AcDbEntity
  8
MO_001_VIEW_PV
  6
C_SOLID_M
100
AcDbLine
 10
-60.60000600000001
 20
2.5
 30
0.0
 11
-59.0
 21
2.5
 31
0.0
  0
LINE
  5
106
330
1E
100
AcDbEntity
  8
MO_001_VIEW_PV
  6
C_SOLID_M
100
AcDbLine
 10
-60.60000600000001
 20
2.358938
 30
0.0
 11
-59.0
 21
2.358938
 31
0.0
  0
LINE
  5
107
330
1E
100
AcDbEntity
  8
MO_001_VIEW_PV
  6
C_SOLID_M
100
AcDbLine
 10
-25.999996
 20
2.499999
 30
0.0
 11
-26.799998
 21
2.358937
 31
0.0
  0
LINE
  5
108
330
1E
100
AcDbEntity
  8
MO_001_VIEW_PV
  6
C_SOLID_M
100
AcDbLine
 10
-26.800002
 20
2.961882
 30
0.0
 11
-25.999998
 21
2.5
 31
0.0
  0
LINE
  5
109
330
1E
100
AcDbEntity
  8
MO_001_VIEW_PV
  6
C_SOLID_M
100
AcDbLine
 10
-26.800003
 20
4.011881999999999
 30
0.0
 11
-26.800003
 21
2.961882
 31
0.0
  0
LINE
  5
10A
330
1E
100
AcDbEntity
  8
MO_001_VIEW_PV
  6
C_SOLID_M
100
AcDbLine
 10
-26.800002
 20
4.011881999999999
 30
0.0
 11
-25.778841
 21
3.422315
 31
0.0
  0
LINE
  5
10B
330
1E
100
AcDbEntity
  8
MO_001_VIEW_PV
  6
C_SOLID_M
100
AcDbLine
 10
-25.778842
 20
3.422315
 30
0.0
 11
-24.000014
 21
3.199958
 31
0.0
  0
LINE
  5
10C
330
1E
100
AcDbEntity
  8
MO_001_VIEW_PV
  6
C_SOLID_M
100
AcDbLine
 10
-60.60000600000001
 20
-2.358938
 30
0.0
 11
-59.0
 21
-2.358938
 31
0.0
  0
LINE
  5
10D
330
1E
100
AcDbEntity
  8
MO_001_VIEW_PV
  6
C_SOLID_M
100
AcDbLine
 10
-60.60000600000001
 20
-2.5
 30
0.0
 11
-59.0
 21
-2.5
 31
0.0
  0
LINE
  5
10E
330
1E
100
AcDbEntity
  8
MO_001_VIEW_PV
  6
C_SOLID_M
100
AcDbLine
 10
-60.60000600000001
 20
-2.961882
 30
0.0
 11
-59.0
 21
-2.961882
 31
0.0
  0
LINE
  5
10F
330
1E
100
AcDbEntity
  8
MO_001_VIEW_PV
  6
C_SOLID_M
100
AcDbLine
 10
-60.60000600000001
 20
-3.549964
 30
0.0
 11
-59.0
 21
-3.549964
 31
0.0
  0
LINE
  5
110
330
1E
100
AcDbEntity
  8
MO_001_VIEW_PV
  6
C_SOLID_M
100
AcDbLine
 10
-60.60000600000001
 20
-4.011881999999999
 30
0.0
 11
-59.0
 21
-4.011881999999999
 31
0.0
  0
LINE
  5
111
330
1E
100
AcDbEntity
  8
MO_001_VIEW_PV
  6
C_SOLID_M
100
AcDbLine
 10
-77.39999399999999
 20
-3.750008
 30
0.0
 11
-77.39999399999999
 21
3.750008
 31
0.0
  0
LINE
  5
112
330
1E
100
AcDbEntity
  8
MO_001_VIEW_PV
  6
C_SOLID_M
100
AcDbLine
 10
-77.39999399999999
 20
3.549964
 30
0.0
 11
-79.0
 21
3.549964
 31
0.0
  0
LINE
  5
113
330
1E
100
AcDbEntity
  8
MO_001_VIEW_PV
  6
C_SOLID_M
100
AcDbLine
 10
-77.39999399999999
 20
4.011881999999999
 30
0.0
 11
-77.39999399999999
 21
-4.011881999999999
 31
0.0
  0
LINE
  5
114
330
1E
100
AcDbEntity
  8
MO_001_VIEW_PV
  6
C_SOLID_M
100
AcDbLine
 10
-77.39999399999999
 20
4.011881999999999
 30
0.0
 11
-79.0
 21
4.011881999999999
 31
0.0
  0
LINE
  5
115
330
1E
100
AcDbEntity
  8
MO_001_VIEW_PV
  6
C_SOLID_M
100
AcDbLine
 10
-77.39999399999999
 20
2.961882
 30
0.0
 11
-79.0
 21
2.961882
 31
0.0
  0
LINE
  5
116
330
1E
100
AcDbEntity
  8
MO_001_VIEW_PV
  6
C_SOLID_M
100
AcDbLine
 10
-77.39999399999999
 20
2.5
 30
0.0
 11
-79.0
 21
2.5
 31
0.0
  0
LINE
  5
117
330
1E
100
AcDbEntity
  8
MO_001_VIEW_PV
  6
C_SOLID_M
100
AcDbLine
 10
-77.39999399999999
 20
2.358938
 30
0.0
 11
-79.0
 21
2.358938
 31
0.0
  0
LINE
  5
118
330
1E
100
AcDbEntity
  8
MO_001_VIEW_PV
  6
C_SOLID_M
100
AcDbLine
 10
-77.39999399999999
 20
-2.358938
 30
0.0
 11
-79.0
 21
-2.358938
 31
0.0
  0
LINE
  5
119
330
1E
100
AcDbEntity
  8
MO_001_VIEW_PV
  6
C_SOLID_M
100
AcDbLine
 10
-77.39999399999999
 20
-2.5
 30
0.0
 11
-79.0
 21
-2.5
 31
0.0
  0
LINE
  5
11A
330
1E
100
AcDbEntity
  8
MO_001_VIEW_PV
  6
C_SOLID_M
100
AcDbLine
 10
-77.39999399999999
 20
-2.961882
 30
0.0
 11
-79.0
 21
-2.961882
 31
0.0
  0
LINE
  5
11B
330
1E
100
AcDbEntity
  8
MO_001_VIEW_PV
  6
C_SOLID_M
100
AcDbLine
 10
-77.39999399999999
 20
-3.549964
 30
0.0
 11
-79.0
 21
-3.549964
 31
0.0
  0
LINE
  5
11C
330
1E
100
AcDbEntity
  8
MO_001_VIEW_PV
  6
C_SOLID_M
100
AcDbLine
 10
-77.39999399999999
 20
-4.011881999999999
 30
0.0
 11
-79.0
 21
-4.011881999999999
 31
0.0
  0
LINE
  5
11D
330
1E
100
AcDbEntity
  8
MO_001_VIEW_PV
  6
C_SOLID_L
100
AcDbLine
 10
6.0
 20
18.0
 30
0.0
 11
30.866096
 21
18.0
 31
0.0
  0
LINE
  5
11E
330
1E
100
AcDbEntity
  8
MO_001_VIEW_PV
  6
C_SOLID_L
100
AcDbLine
 10
-55.076702
 20
-13.504187
 30
0.0
 11
-42.480209
 21
-13.504187
 31
0.0
  0
TEXT
  5
11F
330
1E
100
AcDbEntity
  8
MO_001_VIEW_PV
  6
C_SOLID_L
100
AcDbText
 10
-91.48828100000001
 20
-75.08359399999999
 30
0.0
 40
4.167187
  1
SK0626A
100
AcDbText
  0
TEXT
  5
120
330
1E
100
AcDbEntity
  8
MO_001_VIEW_PV
  6
C_SOLID_L
100
AcDbText
 10
-52.071429
 20
-67.5
 30
0.0
 40
3.0
  1
板厚1.6mm、ネジ突き出しは0.5mm以下
100
AcDbText
  0
TEXT
  5
121
330
1E
100
AcDbEntity
  8
MO_001_VIEW_PV
  6
C_SOLID_L
100
AcDbText
 10
22.511719
 20
-75.08359399999999
 30
0.0
 40
4.167187
  1
単位：mm
100
AcDbText
  0
TEXT
  5
122
330
1E
100
AcDbEntity
  8
MO_001_VIEW_PV
  6
C_SOLID_L
100
AcDbText
 10
22.511719
 20
-81.08359399999999
 30
0.0
 40
4.167187
  1
図は励磁時を示す
100
AcDbText
  0
TEXT
  5
123
330
1E
100
AcDbEntity
  8
MO_001_VIEW_PV
  6
C_SOLID_L
100
AcDbText
 10
4.428570999999999
 20
-24.75
 30
0.0
 40
3.0
  1
UL1007 AWG.26
100
AcDbText
  0
TEXT
  5
124
330
1E
100
AcDbEntity
  8
MO_001_VIEW_PV
  6
C_SOLID_L
100
AcDbText
 10
6.428570999999999
 20
18.75
 30
0.0
 40
3.0
  1
2-M3x0.5
100
AcDbText
  0
TEXT
  5
125
330
1E
100
AcDbEntity
  8
MO_001_VIEW_PV
  6
C_SOLID_L
100
AcDbText
 10
-48.265924
 20
-10.879187
 30
0.0
 40
1.5
  1
+0.1
100
AcDbText
  0
TEXT
  5
126
330
1E
100
AcDbEntity
  8
MO_001_VIEW_PV
  6
C_SOLID_L
100
AcDbText
 10
-48.265924
 20
-13.12918699999999
 30
0.0
 40
1.5
  1
 0
100
AcDbText
  0
TEXT
  5
127
330
1E
100
AcDbEntity
  8
MO_001_VIEW_PV
  6
C_SOLID_L
100
AcDbText
 10
-54.051638
 20
-12.754187
 30
0.0
 40
3.0
  1
%%C2
100
AcDbText
  0
DIMENSION
  5
129
330
1E
100
AcDbEntity
  8
MO_001_VIEW_PV
  6
C_SOLID_M
100
AcDbDimension
  2
*D0
 10
-14.000114
 20
12.0
 30
0.0
 11
-14.000114
 21
12.0
 31
0.0
  1
(5)
  3
STANDARD
100
AcDbAlignedDimension
 13
-5.0
 23
6.0
 33
0.0
 14
0.0
 24
8.0
 34
0.0
100
AcDbRotatedDimension
  0
DIMENSION
  5
12B
330
1E
100
AcDbEntity
  8
MO_001_VIEW_PV
  6
C_SOLID_M
100
AcDbDimension
  2
*D1
 10
-13.40000199999999
 20
18.0
 30
0.0
 11
-13.40000199999999
 21
18.0
 31
0.0
  3
STANDARD
100
AcDbAlignedDimension
 13
0.0
 23
8.0
 33
0.0
 14
-26.800003
 24
4.011881999999999
 34
0.0
 50
179.97571
100
AcDbRotatedDimension
  0
DIMENSION
  5
12D
330
1E
100
AcDbEntity
  8
MO_001_VIEW_PV
  6
C_SOLID_M
100
AcDbDimension
  2
*D2
 10
-19.000004
 20
24.0
 30
0.0
 11
-19.000004
 21
24.0
 31
0.0
  1
38
  3
STANDARD
100
AcDbAlignedDimension
 13
-38.000008
 23
2.699997
 33
0.0
 14
0.0
 24
8.0
 34
0.0
100
AcDbRotatedDimension
  0
DIMENSION
  5
12F
330
1E
100
AcDbEntity
  8
MO_001_VIEW_PV
  6
C_SOLID_M
100
AcDbDimension
  2
*D3
 10
12.0
 20
-15.0
 30
0.0
 11
12.0
 21
-15.0
 31
0.0
  1
(0.6)
  3
STANDARD
100
AcDbAlignedDimension
 13
0.5999939999999999
 23
-1.299998999999999
 33
0.0
 14
0.0
 24
-8.0
 34
0.0
 50
179.97571
100
AcDbRotatedDimension
  0
DIMENSION
  5
131
330
1E
100
AcDbEntity
  8
MO_001_VIEW_PV
  6
C_SOLID_M
100
AcDbDimension
  2
*D4
 10
-12.0
 20
-21.0
 30
0.0
 11
-12.0
 21
-21.0
 31
0.0
  3
STANDARD
100
AcDbAlignedDimension
 13
-21.0
 23
-6.0
 33
0.0
 14
-5.0
 24
1.0
 34
0.0
100
AcDbRotatedDimension
  0
DIMENSION
  5
133
330
1E
100
AcDbEntity
  8
MO_001_VIEW_PV
  6
C_SOLID_M
100
AcDbDimension
  2
*D5
 10
-28.000004
 20
-21.0
 30
0.0
 11
-28.000004
 21
-21.0
 31
0.0
  3
STANDARD
100
AcDbAlignedDimension
 13
-21.0
 23
-6.0
 33
0.0
 14
-35.000008
 24
-1.920147
 34
0.0
 50
179.97571
100
AcDbRotatedDimension
  0
DIMENSION
  5
135
330
1E
100
AcDbEntity
  8
MO_001_VIEW_PV
  6
C_SOLID_M
100
AcDbDimension
  2
*D6
 10
-27.0
 20
-15.0
 30
0.0
 11
-27.0
 21
-15.0
 31
0.0
  3
STANDARD
100
AcDbAlignedDimension
 13
-35.000008
 23
-1.920147
 33
0.0
 14
-38.000008
 24
-2.699996
 34
0.0
 50
179.97571
100
AcDbRotatedDimension
  0
DIMENSION
  5
137
330
1E
100
AcDbEntity
  8
MO_001_VIEW_PV
  6
C_SOLID_M
100
AcDbDimension
  2
*D7
 10
-45.0
 20
13.43557399999999
 30
0.0
 11
-45.0
 21
13.43557399999999
 31
0.0
  3
STANDARD
100
AcDbAlignedDimension
 13
-31.00000399999999
 23
3.0
 33
0.0
 14
-31.00000399999999
 24
-3.0
 34
0.0
 50
270.012145
100
AcDbRotatedDimension
  0
DIMENSION
  5
139
330
1E
100
AcDbEntity
  8
MO_001_VIEW_PV
  6
C_SOLID_M
100
AcDbDimension
  2
*D8
 10
-35.41615399999999
 20
0.9092969999999999
 30
0.0
 11
-42.480209
 21
-13.504187
 31
0.0
 70
     3
  1
<>
  3
STANDARD
100
AcDbDiametricDimension
 15
-34.583861
 25
-0.9092969999999999
 35
0.0
 40
0.0
  0
DIMENSION
  5
13B
330
1E
100
AcDbEntity
  8
MO_001_VIEW_PV
  6
C_SOLID_M
100
AcDbDimension
  2
*D9
 10
-84.0
 20
0.0
 30
0.0
 11
-84.0
 21
0.0
 31
0.0
  3
STANDARD
100
AcDbAlignedDimension
 13
-79.0
 23
8.0
 33
0.0
 14
-79.0
 24
-8.0
 34
0.0
 50
89.999523
100
AcDbRotatedDimension
  0
DIMENSION
  5
13D
330
1E
100
AcDbEntity
  8
MO_001_VIEW_PV
  6
C_SOLID_M
100
AcDbDimension
  2
*D10
 10
-69.0
 20
-18.0
 30
0.0
 11
-69.0
 21
-18.0
 31
0.0
  3
STANDARD
100
AcDbAlignedDimension
 13
-59.0
 23
-8.0
 33
0.0
 14
-79.0
 24
-8.0
 34
0.0
100
AcDbRotatedDimension
  0
DIMENSION
  5
13F
330
1E
100
AcDbEntity
  8
MO_001_VIEW_PV
  6
C_SOLID_M
100
AcDbDimension
  2
*D11
 10
23.5
 20
-21.0
 30
0.0
 11
23.5
 21
-21.0
 31
0.0
  1
長さ240以上
  3
STANDARD
100
AcDbAlignedDimension
 13
47.0
 23
-9.65
 33
0.0
 14
0.0
 24
-8.0
 34
0.0
100
AcDbRotatedDimension
  0
DIMENSION
  5
141
330
1E
100
AcDbEntity
  8
MO_001_VIEW_PV
  6
C_SOLID_M
100
AcDbDimension
  2
*D12
 10
-45.22208
 20
-36.0
 30
0.0
 11
-45.22208
 21
-36.0
 31
0.0
  3
STANDARD
100
AcDbAlignedDimension
 13
-38.000008
 23
-48.300003
 33
0.0
 14
-31.00000399999999
 24
-50.100006
 34
0.0
100
AcDbRotatedDimension
  0
DIMENSION
  5
143
330
1E
100
AcDbEntity
  8
MO_001_VIEW_PV
  6
C_SOLID_M
100
AcDbDimension
  2
*D13
 10
-44.17638
 20
-30.0
 30
0.0
 11
-44.17638
 21
-30.0
 31
0.0
  1
(12)
  3
STANDARD
100
AcDbAlignedDimension
 13
-38.000008
 23
-48.300003
 33
0.0
 14
-26.0
 24
-41.0
 34
0.0
100
AcDbRotatedDimension
  0
DIMENSION
  5
145
330
1E
100
AcDbEntity
  8
MO_001_VIEW_PV
  6
C_SOLID_M
100
AcDbDimension
  2
*D14
 10
-12.0
 20
-30.0
 30
0.0
 11
-12.0
 21
-30.0
 31
0.0
  3
STANDARD
100
AcDbAlignedDimension
 13
0.0
 23
-43.0
 33
0.0
 14
-26.0
 24
-41.0
 34
0.0
100
AcDbRotatedDimension
  0
DIMENSION
  5
147
330
1E
100
AcDbEntity
  8
MO_001_VIEW_PV
  6
C_SOLID_M
100
AcDbDimension
  2
*D15
 10
-54.0
 20
-38.15347299999999
 30
0.0
 11
-54.0
 21
-38.15347299999999
 31
0.0
  3
STANDARD
100
AcDbAlignedDimension
 13
-38.000008
 23
-51.899994
 33
0.0
 14
-38.000008
 24
-50.100006
 34
0.0
 50
89.999523
100
AcDbRotatedDimension
  0
DIMENSION
  5
149
330
1E
100
AcDbEntity
  8
MO_001_VIEW_PV
  6
C_SOLID_M
100
AcDbDimension
  2
*D16
 10
21.0
 20
11.019657
 30
0.0
 11
21.0
 21
11.019657
 31
0.0
  3
STANDARD
100
AcDbAlignedDimension
 13
-18.5
 23
-3.5
 33
0.0
 14
-2.5
 24
3.5
 34
0.0
 50
89.98785500000002
100
AcDbRotatedDimension
  0
LINE
  5
14A
330
1E
100
AcDbEntity
  8
MO_001_VIEW_PV
  6
C_SOLID_L
100
AcDbLine
 10
-4.09342
 20
4.695037
 30
0.0
 11
6.0
 21
18.000001
 31
0.0
  0
POLYLINE
  5
14B
330
1E
100
AcDbEntity
  8
MO_001_VIEW_PV
  6
C_SOLID_L
100
AcDb2dPolyline
 66
     1
 10
0.0
 20
0.0
 30
0.0
 70
     1
  0
VERTEX
  5
20C
330
14B
100
AcDbEntity
  8
MO_001_VIEW_PV
  6
C_SOLID_L
100
AcDbVertex
100
AcDb2dVertex
 10
-2.552786999999999
 20
7.691332
 30
0.0
  0
VERTEX
  5
20D
330
14B
100
AcDbEntity
  8
MO_001_VIEW_PV
  6
C_SOLID_L
100
AcDbVertex
100
AcDb2dVertex
 10
-3.786391999999999
 20
5.099756
 30
0.0
  0
VERTEX
  5
20E
330
14B
100
AcDbEntity
  8
MO_001_VIEW_PV
  6
C_SOLID_L
100
AcDbVertex
100
AcDb2dVertex
 10
-1.623029999999999
 20
6.985999
 30
0.0
  0
SEQEND
  5
20F
330
14B
100
AcDbEntity
  8
MO_001_VIEW_PV
  6
C_SOLID_L
  0
ENDSEC
  0
SECTION
  2
OBJECTS
  0
DICTIONARY
  5
1A
330
0
100
AcDbDictionary
  3
ACAD_GROUP
350
1B
  3
ACAD_MLINESTYLE
350
1C
  3
ACAD_LAYOUT
350
202
  3
ACAD_PLOTSETTINGS
350
203
1001
ACAD
1000
TREAT_AS_HARD
1070
     0
  0
DICTIONARY
  5
208
330
1E
100
AcDbDictionary
  3
ACAD_LAYOUTSELFREF
350
209
  0
DICTIONARY
  5
20A
330
1F
100
AcDbDictionary
  3
ACAD_LAYOUTSELFREF
350
20B
  0
DICTIONARY
  5
1B
102
{ACAD_REACTORS
330
1A
102
}
330
1A
100
AcDbDictionary
1001
ACAD
1000
TREAT_AS_HARD
1070
     0
  0
DICTIONARY
  5
1C
102
{ACAD_REACTORS
330
1A
102
}
330
1A
100
AcDbDictionary
  3
STANDARD
350
1D
1001
ACAD
1000
TREAT_AS_HARD
1070
     0
  0
DICTIONARY
  5
202
102
{ACAD_REACTORS
330
1A
102
}
330
1A
100
AcDbDictionary
1001
ACAD
1000
TREAT_AS_HARD
1070
     0
  0
DICTIONARY
  5
203
102
{ACAD_REACTORS
330
1A
102
}
330
1A
100
AcDbDictionary
1001
ACAD
1000
TREAT_AS_HARD
1070
     0
  0
XRECORD
  5
209
102
{ACAD_REACTORS
330
208
102
}
330
208
100
AcDbXrecord
340
1E
  0
XRECORD
  5
20B
102
{ACAD_REACTORS
330
20A
102
}
330
20A
100
AcDbXrecord
340
1F
  0
MLINESTYLE
  5
1D
102
{ACAD_REACTORS
330
1C
102
}
330
1C
100
AcDbMlineStyle
  2
STANDARD
 70
     0
  3

 62
     0
 51
90.0
 52
90.0
 71
     2
 49
0.5
 62
   256
  6
BYLAYER
 49
-0.5
 62
   256
  6
BYLAYER
  0
ENDSEC
  0
EOF
