  0
SECTION
  2
HEADER
  9
$ACADVER
  1
AC1012
  9
$DWGCODEPAGE
  3
dos932
  9
$INSBASE
 10
0.0
 20
0.0
 30
0.0
  9
$EXTMIN
 10
-103.510299470775
 20
-83.086093586532
 30
-0.0015258207003583
  9
$EXTMAX
 10
70.13297385629153
 20
30.75672826797733
 30
0.0000000349246037
  9
$LIMMIN
 10
-104.2499999999999
 20
-86.20898399999999
  9
$LIMMAX
 10
64.998047
 20
85.34316999999999
  9
$ORTHOMODE
 70
     0
  9
$REGENMODE
 70
     1
  9
$FILLMODE
 70
     1
  9
$QTEXTMODE
 70
     0
  9
$MIRRTEXT
 70
     1
  9
$DRAGMODE
 70
     2
  9
$LTSCALE
 40
1.0
  9
$OSMODE
 70
    37
  9
$ATTMODE
 70
     1
  9
$TEXTSIZE
 40
4.1672
  9
$TRACEWID
 40
0.05
  9
$TEXTSTYLE
  7
STANDARD
  9
$CLAYER
  8
0
  9
$CELTYPE
  6
CONTINUOUS
  9
$CECOLOR
 62
   256
  9
$CELTSCALE
 40
1.0
  9
$DELOBJ
 70
     1
  9
$DISPSILH
 70
     0
  9
$DIMSCALE
 40
1.0
  9
$DIMASZ
 40
0.18
  9
$DIMEXO
 40
0.0625
  9
$DIMDLI
 40
0.38
  9
$DIMRND
 40
0.0
  9
$DIMDLE
 40
0.0
  9
$DIMEXE
 40
0.18
  9
$DIMTP
 40
0.0
  9
$DIMTM
 40
0.0
  9
$DIMTXT
 40
0.18
  9
$DIMCEN
 40
0.09
  9
$DIMTSZ
 40
0.0
  9
$DIMTOL
 70
     0
  9
$DIMLIM
 70
     0
  9
$DIMTIH
 70
     1
  9
$DIMTOH
 70
     1
  9
$DIMSE1
 70
     0
  9
$DIMSE2
 70
     0
  9
$DIMTAD
 70
     0
  9
$DIMZIN
 70
     0
  9
$DIMBLK
  1

  9
$DIMASO
 70
     1
  9
$DIMSHO
 70
     1
  9
$DIMPOST
  1

  9
$DIMAPOST
  1

  9
$DIMALT
 70
     0
  9
$DIMALTD
 70
     2
  9
$DIMALTF
 40
25.4
  9
$DIMLFAC
 40
1.0
  9
$DIMTOFL
 70
     0
  9
$DIMTVP
 40
0.0
  9
$DIMTIX
 70
     0
  9
$DIMSOXD
 70
     0
  9
$DIMSAH
 70
     0
  9
$DIMBLK1
  1

  9
$DIMBLK2
  1

  9
$DIMSTYLE
  2
STANDARD
  9
$DIMCLRD
 70
     0
  9
$DIMCLRE
 70
     0
  9
$DIMCLRT
 70
     0
  9
$DIMTFAC
 40
1.0
  9
$DIMGAP
 40
0.09
  9
$DIMJUST
 70
     0
  9
$DIMSD1
 70
     0
  9
$DIMSD2
 70
     0
  9
$DIMTOLJ
 70
     1
  9
$DIMTZIN
 70
     0
  9
$DIMALTZ
 70
     0
  9
$DIMALTTZ
 70
     0
  9
$DIMFIT
 70
     3
  9
$DIMUPT
 70
     0
  9
$DIMUNIT
 70
     2
  9
$DIMDEC
 70
     4
  9
$DIMTDEC
 70
     4
  9
$DIMALTU
 70
     2
  9
$DIMALTTD
 70
     2
  9
$DIMTXSTY
  7
STANDARD
  9
$DIMAUNIT
 70
     0
  9
$LUNITS
 70
     2
  9
$LUPREC
 70
     6
  9
$SKETCHINC
 40
0.1
  9
$FILLETRAD
 40
0.0
  9
$AUNITS
 70
     0
  9
$AUPREC
 70
     4
  9
$MENU
  1
acad
  9
$ELEVATION
 40
0.0
  9
$PELEVATION
 40
0.0
  9
$THICKNESS
 40
0.0
  9
$LIMCHECK
 70
     0
  9
$BLIPMODE
 70
     0
  9
$CHAMFERA
 40
0.0
  9
$CHAMFERB
 40
0.0
  9
$CHAMFERC
 40
0.0
  9
$CHAMFERD
 40
0.0
  9
$SKPOLY
 70
     0
  9
$TDCREATE
 40
2376126.114255810
  9
$TDUPDATE
 40
2451683.739196643
  9
$TDINDWG
 40
0.0018372685
  9
$TDUSRTIMER
 40
0.0018365741
  9
$USRTIMER
 70
     1
  9
$ANGBASE
 50
0.0
  9
$ANGDIR
 70
     0
  9
$PDMODE
 70
     0
  9
$PDSIZE
 40
0.0
  9
$PLINEWID
 40
0.0
  9
$COORDS
 70
     1
  9
$SPLFRAME
 70
     0
  9
$SPLINETYPE
 70
     6
  9
$SPLINESEGS
 70
     8
  9
$ATTDIA
 70
     0
  9
$ATTREQ
 70
     1
  9
$HANDLING
 70
 10241
  9
$HANDSEED
  5
2D8
  9
$SURFTAB1
 70
     6
  9
$SURFTAB2
 70
     6
  9
$SURFTYPE
 70
     6
  9
$SURFU
 70
     6
  9
$SURFV
 70
     6
  9
$UCSNAME
  2

  9
$UCSORG
 10
-46.99998899999999
 20
-0.0000010721398476
 30
0.0
  9
$UCSXDIR
 10
1.0
 20
0.0
 30
0.0
  9
$UCSYDIR
 10
0.0
 20
1.0
 30
0.0
  9
$PUCSNAME
  2

  9
$PUCSORG
 10
0.0
 20
0.0
 30
0.0
  9
$PUCSXDIR
 10
1.0
 20
0.0
 30
0.0
  9
$PUCSYDIR
 10
0.0
 20
1.0
 30
0.0
  9
$USERI1
 70
     0
  9
$USERI2
 70
     0
  9
$USERI3
 70
     0
  9
$USERI4
 70
     0
  9
$USERI5
 70
     0
  9
$USERR1
 40
0.0
  9
$USERR2
 40
0.0
  9
$USERR3
 40
0.0
  9
$USERR4
 40
0.0
  9
$USERR5
 40
0.0
  9
$WORLDVIEW
 70
     1
  9
$SHADEDGE
 70
     3
  9
$SHADEDIF
 70
    70
  9
$TILEMODE
 70
     1
  9
$MAXACTVP
 70
    16
  9
$PINSBASE
 10
0.0
 20
0.0
 30
0.0
  9
$PLIMCHECK
 70
     0
  9
$PEXTMIN
 10
-104.2499999999999
 20
-86.20898399999999
 30
1.000000000000000E+20
  9
$PEXTMAX
 10
64.998047
 20
85.34316999999999
 30
-1.000000000000000E+20
  9
$PLIMMIN
 10
0.0
 20
0.0
  9
$PLIMMAX
 10
12.0
 20
9.0
  9
$UNITMODE
 70
     0
  9
$VISRETAIN
 70
     0
  9
$PLINEGEN
 70
     0
  9
$PSLTSCALE
 70
     1
  9
$TREEDEPTH
 70
  3020
  9
$PICKSTYLE
 70
     1
  9
$CMLSTYLE
  2
STANDARD
  9
$CMLJUST
 70
     0
  9
$CMLSCALE
 40
1.0
  9
$SAVEIMAGES
 70
     1
  0
ENDSEC
  0
SECTION
  2
CLASSES
  0
CLASS
  1
ACDBDICTIONARYWDFLT
  2
AcDbDictionaryWithDefault
  3
AutoCAD 2000
 90
    32768
280
     0
281
     0
  0
CLASS
  1
ACDBPLACEHOLDER
  2
AcDbPlaceHolder
  3
AutoCAD 2000
 90
    32768
280
     0
281
     0
  0
CLASS
  1
LAYOUT
  2
AcDbLayout
  3
AutoCAD 2000
 90
    32768
280
     0
281
     0
  0
CLASS
  1
LONG_TRANSACTION
  2
AcDbLongTransaction
  3
AutoCAD 2000
 90
    32768
280
     0
281
     0
  0
CLASS
  1
LWPOLYLINE
  2
AcDbPolyline
  3
AutoCAD 2000
 90
    32768
280
     0
281
     1
  0
CLASS
  1
HATCH
  2
AcDbHatch
  3
AutoCAD 2000
 90
    32768
280
     0
281
     1
  0
CLASS
  1
XRECORD
  2
AcDbXrecord
  3
AutoCAD 2000
 90
    32768
280
     0
281
     0
  0
ENDSEC
  0
SECTION
  2
TABLES
  0
TABLE
  2
VPORT
  5
7
330
0
100
AcDbSymbolTable
 70
     3
  0
VPORT
  5
273
330
7
100
AcDbSymbolTableRecord
100
AcDbViewportTableRecord
  2
*ACTIVE
 70
     0
 10
0.0
 20
0.0
 11
1.0
 21
1.0
 12
-17.05851468628614
 22
-23.85862663427883
 13
0.0
 23
0.0
 14
6.349999999999999
 24
6.349999999999999
 15
6.349999999999999
 25
6.349999999999999
 16
0.0
 26
0.0
 36
1.0
 17
0.0
 27
0.0
 37
0.0
 40
128.9654450661019
 41
1.727106227106227
 42
50.0
 43
0.0
 44
0.0
 50
0.0
 51
0.0
 71
     0
 72
   100
 73
     1
 74
     1
 75
     0
 76
     0
 77
     0
 78
     0
  0
ENDTAB
  0
TABLE
  2
LTYPE
  5
4
330
0
100
AcDbSymbolTable
 70
    37
  0
LTYPE
  5
12
330
4
100
AcDbSymbolTableRecord
100
AcDbLinetypeTableRecord
  2
BYBLOCK
 70
     0
  3

 72
    65
 73
     0
 40
0.0
  0
LTYPE
  5
13
330
4
100
AcDbSymbolTableRecord
100
AcDbLinetypeTableRecord
  2
BYLAYER
 70
     0
  3

 72
    65
 73
     0
 40
0.0
  0
LTYPE
  5
14
330
4
100
AcDbSymbolTableRecord
100
AcDbLinetypeTableRecord
  2
CONTINUOUS
 70
     0
  3
DXF Default line type
 72
    65
 73
     0
 40
0.0
  0
LTYPE
  5
20
330
4
100
AcDbSymbolTableRecord
100
AcDbLinetypeTableRecord
  2
DASHED
 70
     0
  3
DXF Dashed
 72
    65
 73
     2
 40
0.75
 49
0.5
 74
     0
 49
-0.25
 74
     0
  0
LTYPE
  5
21
330
4
100
AcDbSymbolTableRecord
100
AcDbLinetypeTableRecord
  2
HIDDEN
 70
     0
  3
DXF Hidden
 72
    65
 73
     2
 40
0.375
 49
0.25
 74
     0
 49
-0.125
 74
     0
  0
LTYPE
  5
22
330
4
100
AcDbSymbolTableRecord
100
AcDbLinetypeTableRecord
  2
CENTER
 70
     0
  3
DXF Center
 72
    65
 73
     4
 40
2.0
 49
1.25
 74
     0
 49
-0.25
 74
     0
 49
0.25
 74
     0
 49
-0.25
 74
     0
  0
LTYPE
  5
23
330
4
100
AcDbSymbolTableRecord
100
AcDbLinetypeTableRecord
  2
PHANTOM
 70
     0
  3
DXF Phantom
 72
    65
 73
     6
 40
2.5
 49
1.25
 74
     0
 49
-0.25
 74
     0
 49
0.25
 74
     0
 49
-0.25
 74
     0
 49
0.25
 74
     0
 49
-0.25
 74
     0
  0
LTYPE
  5
24
330
4
100
AcDbSymbolTableRecord
100
AcDbLinetypeTableRecord
  2
DOT
 70
     0
  3
DXF DOT
 72
    65
 73
     2
 40
0.25
 49
0.0
 74
     0
 49
-0.25
 74
     0
  0
LTYPE
  5
25
330
4
100
AcDbSymbolTableRecord
100
AcDbLinetypeTableRecord
  2
DASHDOT
 70
     0
  3
DXF Dash Dot
 72
    65
 73
     4
 40
1.0
 49
0.5
 74
     0
 49
-0.25
 74
     0
 49
0.0
 74
     0
 49
-0.25
 74
     0
  0
LTYPE
  5
26
330
4
100
AcDbSymbolTableRecord
100
AcDbLinetypeTableRecord
  2
BORDER
 70
     0
  3
DXF Border
 72
    65
 73
     6
 40
1.75
 49
0.5
 74
     0
 49
-0.25
 74
     0
 49
0.5
 74
     0
 49
-0.25
 74
     0
 49
0.0
 74
     0
 49
-0.25
 74
     0
  0
LTYPE
  5
27
330
4
100
AcDbSymbolTableRecord
100
AcDbLinetypeTableRecord
  2
DIVIDE
 70
     0
  3
DXF Divide
 72
    65
 73
     6
 40
1.25
 49
0.5
 74
     0
 49
-0.25
 74
     0
 49
0.0
 74
     0
 49
-0.25
 74
     0
 49
0.0
 74
     0
 49
-0.25
 74
     0
  0
LTYPE
  5
28
330
4
100
AcDbSymbolTableRecord
100
AcDbLinetypeTableRecord
  2
C_SOLID_L
 70
     0
  3
CADAM Solid Light
 72
    65
 73
     0
 40
0.0
  0
LTYPE
  5
29
330
4
100
AcDbSymbolTableRecord
100
AcDbLinetypeTableRecord
  2
C_SOLID_M
 70
     0
  3
CADAM Solid Medium
 72
    65
 73
     0
 40
0.0
  0
LTYPE
  5
2A
330
4
100
AcDbSymbolTableRecord
100
AcDbLinetypeTableRecord
  2
C_SOLID_H
 70
     0
  3
CADAM Solid Heavy
 72
    65
 73
     0
 40
0.0
  0
LTYPE
  5
2B
330
4
100
AcDbSymbolTableRecord
100
AcDbLinetypeTableRecord
  2
C_DASHED_L
 70
     0
  3
CADAM Dashed Light
 72
    65
 73
     2
 40
0.375
 49
0.25
 74
     0
 49
-0.125
 74
     0
  0
LTYPE
  5
2C
330
4
100
AcDbSymbolTableRecord
100
AcDbLinetypeTableRecord
  2
C_DASHED_M
 70
     0
  3
CADAM Dashed Medium
 72
    65
 73
     2
 40
0.5
 49
0.375
 74
     0
 49
-0.125
 74
     0
  0
LTYPE
  5
2D
330
4
100
AcDbSymbolTableRecord
100
AcDbLinetypeTableRecord
  2
C_CENTER_L
 70
     0
  3
CADAM Center Light
 72
    65
 73
     4
 40
2.0
 49
1.25
 74
     0
 49
-0.25
 74
     0
 49
0.25
 74
     0
 49
-0.25
 74
     0
  0
LTYPE
  5
2E
330
4
100
AcDbSymbolTableRecord
100
AcDbLinetypeTableRecord
  2
C_PHANTOM_L
 70
     0
  3
CADAM Phantom Light
 72
    65
 73
     6
 40
2.5
 49
1.25
 74
     0
 49
-0.25
 74
     0
 49
0.25
 74
     0
 49
-0.25
 74
     0
 49
0.25
 74
     0
 49
-0.25
 74
     0
  0
LTYPE
  5
2F
330
4
100
AcDbSymbolTableRecord
100
AcDbLinetypeTableRecord
  2
C_BREAK_M
 70
     0
  3
CADAM Break Medium
 72
    65
 73
     4
 40
1.0
 49
0.5
 74
     0
 49
-0.25
 74
     0
 49
0.0
 74
     0
 49
-0.25
 74
     0
  0
LTYPE
  5
30
330
4
100
AcDbSymbolTableRecord
100
AcDbLinetypeTableRecord
  2
C_NC
 70
     0
  3
CADAM NC
 72
    65
 73
     0
 40
0.0
  0
LTYPE
  5
31
330
4
100
AcDbSymbolTableRecord
100
AcDbLinetypeTableRecord
  2
DSH1
 70
     0
  3
CADAM Style2 Type 1 Dashed Line
 72
    65
 73
     2
 40
0.075
 49
0.04
 74
     0
 49
-0.035
 74
     0
  0
LTYPE
  5
32
330
4
100
AcDbSymbolTableRecord
100
AcDbLinetypeTableRecord
  2
DSH2
 70
     0
  3
CADAM Style2 Type 2 Dashed Line
 72
    65
 73
     2
 40
0.15
 49
0.11
 74
     0
 49
-0.04
 74
     0
  0
LTYPE
  5
33
330
4
100
AcDbSymbolTableRecord
100
AcDbLinetypeTableRecord
  2
DSH3
 70
     0
  3
CADAM Style2 Type 3 Dashed Line
 72
    65
 73
     2
 40
0.2
 49
0.15
 74
     0
 49
-0.05
 74
     0
  0
LTYPE
  5
34
330
4
100
AcDbSymbolTableRecord
100
AcDbLinetypeTableRecord
  2
DSH4
 70
     0
  3
CADAM Style2 Type 4 Dashed Line
 72
    65
 73
     2
 40
0.36
 49
0.28
 74
     0
 49
-0.08
 74
     0
  0
LTYPE
  5
35
330
4
100
AcDbSymbolTableRecord
100
AcDbLinetypeTableRecord
  2
DSH5
 70
     0
  3
CADAM Style2 Type 5 Dashed Line
 72
    65
 73
     2
 40
0.47
 49
0.39
 74
     0
 49
-0.08
 74
     0
  0
LTYPE
  5
36
330
4
100
AcDbSymbolTableRecord
100
AcDbLinetypeTableRecord
  2
DSH6
 70
     0
  3
CADAM Style2 Type 6 Dashed Line
 72
    65
 73
     2
 40
0.9
 49
0.8100000000000001
 74
     0
 49
-0.09
 74
     0
  0
LTYPE
  5
37
330
4
100
AcDbSymbolTableRecord
100
AcDbLinetypeTableRecord
  2
PL1
 70
     0
  3
Style 2 Type 1 Phantom Line
 72
    65
 73
     6
 40
1.0
 49
0.6
 74
     0
 49
-0.08
 74
     0
 49
0.08
 74
     0
 49
-0.08
 74
     0
 49
0.08
 74
     0
 49
-0.08
 74
     0
  0
LTYPE
  5
38
330
4
100
AcDbSymbolTableRecord
100
AcDbLinetypeTableRecord
  2
PL2
 70
     0
  3
Style 2 Type 2 Phantom Line
 72
    65
 73
     6
 40
1.08
 49
0.6
 74
     0
 49
-0.08
 74
     0
 49
0.12
 74
     0
 49
-0.08
 74
     0
 49
0.12
 74
     0
 49
-0.08
 74
     0
  0
LTYPE
  5
39
330
4
100
AcDbSymbolTableRecord
100
AcDbLinetypeTableRecord
  2
PL3
 70
     0
  3
Style 2 Type 3 Phantom Line
 72
    65
 73
     6
 40
2.0
 49
1.439999999999999
 74
     0
 49
-0.08
 74
     0
 49
0.16
 74
     0
 49
-0.08
 74
     0
 49
0.16
 74
     0
 49
-0.08
 74
     0
  0
LTYPE
  5
3A
330
4
100
AcDbSymbolTableRecord
100
AcDbLinetypeTableRecord
  2
CL1
 70
     0
  3
CADAM Style 2 Type 1 Center Line
 72
    65
 73
     4
 40
0.7
 49
0.45
 74
     0
 49
-0.06
 74
     0
 49
0.13
 74
     0
 49
-0.06
 74
     0
  0
LTYPE
  5
3B
330
4
100
AcDbSymbolTableRecord
100
AcDbLinetypeTableRecord
  2
CL2
 70
     0
  3
CADAM Style 2 Type 2 Center Line
 72
    65
 73
     4
 40
1.199999999999999
 49
1.01
 74
     0
 49
-0.06
 74
     0
 49
0.11
 74
     0
 49
-0.06
 74
     0
  0
LTYPE
  5
3C
330
4
100
AcDbSymbolTableRecord
100
AcDbLinetypeTableRecord
  2
CL3
 70
     0
  3
CADAM Style 2 Type 3 Center Line
 72
    65
 73
     4
 40
1.199999999999999
 49
0.98
 74
     0
 49
-0.06
 74
     0
 49
0.1
 74
     0
 49
-0.06
 74
     0
  0
LTYPE
  5
3D
330
4
100
AcDbSymbolTableRecord
100
AcDbLinetypeTableRecord
  2
CL4
 70
     0
  3
CADAM Style 2 Type 4 Center Line
 72
    65
 73
     4
 40
2.2
 49
1.929999999999999
 74
     0
 49
-0.07
 74
     0
 49
0.13
 74
     0
 49
-0.07
 74
     0
  0
LTYPE
  5
3E
330
4
100
AcDbSymbolTableRecord
100
AcDbLinetypeTableRecord
  2
CL5
 70
     0
  3
CADAM Style 2 Type 5 Center Line
 72
    65
 73
     4
 40
2.2
 49
1.879999999999999
 74
     0
 49
-0.07
 74
     0
 49
0.18
 74
     0
 49
-0.07
 74
     0
  0
LTYPE
  5
3F
330
4
100
AcDbSymbolTableRecord
100
AcDbLinetypeTableRecord
  2
SBK1
 70
     0
  3
CADAM Style 2 Type 1 SetBack Line
 72
    65
 73
     8
 40
2.7
 49
0.1
 74
     0
 49
-0.08
 74
     0
 49
0.1
 74
     0
 49
-0.8
 74
     0
 49
0.0
 74
     0
 49
0.0
 74
     0
 49
0.0
 74
     0
 49
0.0
 74
     0
  0
LTYPE
  5
40
330
4
100
AcDbSymbolTableRecord
100
AcDbLinetypeTableRecord
  2
SBK2
 70
     0
  3
CADAM Style 2 Type 2 SetBack Line
 72
    65
 73
     8
 40
3.709999999999999
 49
0.13
 74
     0
 49
-0.08
 74
     0
 49
0.13
 74
     0
 49
-0.8
 74
     0
 49
0.0
 74
     0
 49
0.0
 74
     0
 49
0.0
 74
     0
 49
0.0
 74
     0
  0
LTYPE
  5
41
330
4
100
AcDbSymbolTableRecord
100
AcDbLinetypeTableRecord
  2
STCH
 70
     0
  3
CADAM Style2 Stitch Line
 72
    65
 73
     2
 40
0.25
 49
0.0
 74
     0
 49
-0.25
 74
     0
  0
LTYPE
  5
42
330
4
100
AcDbSymbolTableRecord
100
AcDbLinetypeTableRecord
  2
MTCH
 70
     0
  3
CADAM Style2 Match Line
 72
    65
 73
     6
 40
2.0
 49
1.439999999999999
 74
     0
 49
-0.8
 74
     0
 49
0.16
 74
     0
 49
-0.08
 74
     0
 49
0.16
 74
     0
 49
-0.08
 74
     0
  0
LTYPE
  5
43
330
4
100
AcDbSymbolTableRecord
100
AcDbLinetypeTableRecord
  2
SLD
 70
     0
  3
CADAM Solid_EXT2
 72
    65
 73
     0
 40
0.0
  0
ENDTAB
  0
TABLE
  2
LAYER
  5
2
330
0
100
AcDbSymbolTable
 70
     8
  0
LAYER
  5
15
330
2
100
AcDbSymbolTableRecord
100
AcDbLayerTableRecord
  2
0
 70
     0
 62
     7
  6
CONTINUOUS
  0
LAYER
  5
44
330
2
100
AcDbSymbolTableRecord
100
AcDbLayerTableRecord
  2
MO_001_NOSHOW
 70
     1
 62
     7
  6
CONTINUOUS
  0
LAYER
  5
45
330
2
100
AcDbSymbolTableRecord
100
AcDbLayerTableRecord
  2
MO_001_VIEW_PV
 70
     0
 62
     7
  6
CONTINUOUS
  0
LAYER
  5
46
330
2
100
AcDbSymbolTableRecord
100
AcDbLayerTableRecord
  2
MO_001_VIEW_EV
 70
     0
 62
     7
  6
CONTINUOUS
  0
LAYER
  5
47
330
2
100
AcDbSymbolTableRecord
100
AcDbLayerTableRecord
  2
OVERLAY_MAP
 70
     1
 62
     7
  6
CONTINUOUS
  0
LAYER
  5
48
330
2
100
AcDbSymbolTableRecord
100
AcDbLayerTableRecord
  2
DITTOS
 70
     0
 62
     7
  6
CONTINUOUS
  0
LAYER
  5
49
330
2
100
AcDbSymbolTableRecord
100
AcDbLayerTableRecord
  2
SYMBOLS
 70
     0
 62
     7
  6
CONTINUOUS
  0
LAYER
  5
4A
330
2
100
AcDbSymbolTableRecord
100
AcDbLayerTableRecord
  2
SETS
 70
     0
 62
     7
  6
CONTINUOUS
  0
ENDTAB
  0
TABLE
  2
STYLE
  5
3
330
0
100
AcDbSymbolTable
 70
     1
  0
STYLE
  5
18
330
3
100
AcDbSymbolTableRecord
100
AcDbTextStyleTableRecord
  2
STANDARD
 70
     0
 40
4.1672
 41
1.0
 50
0.0
 71
     0
 42
4.1672
  3
monotxt
  4
BIGFONT
  0
ENDTAB
  0
TABLE
  2
VIEW
  5
5
330
0
100
AcDbSymbolTable
 70
     0
  0
ENDTAB
  0
TABLE
  2
UCS
  5
6
330
0
100
AcDbSymbolTable
 70
     4
  0
UCS
  5
4B
330
6
100
AcDbSymbolTableRecord
100
AcDbUCSTableRecord
  2
MO_001_VIEW_PV_P
 70
     0
 10
0.0
 20
0.0
 30
0.0
 11
1.0
 21
0.0
 31
0.0
 12
-0.0000000002051034
 22
1.0
 32
0.0
  0
UCS
  5
4C
330
6
100
AcDbSymbolTableRecord
100
AcDbUCSTableRecord
  2
MO_001_VIEW_PV_NP_000826
 70
     0
 10
-16.33162117004394
 20
58.32277297973633
 30
0.0
 11
1.0
 21
0.0
 31
0.0
 12
-0.0000000002051034
 22
1.0
 32
0.0
  0
UCS
  5
4D
330
6
100
AcDbSymbolTableRecord
100
AcDbUCSTableRecord
  2
MO_001_VIEW_PV_NP_000705
 70
     0
 10
-70.79826354980468
 20
85.34317016601562
 30
0.0
 11
1.0
 21
0.0
 31
0.0
 12
-0.0000000002051034
 22
1.0
 32
0.0
  0
UCS
  5
4E
330
6
100
AcDbSymbolTableRecord
100
AcDbUCSTableRecord
  2
MO_001_VIEW_EV_P
 70
     0
 10
36.63769531250379
 20
64.07856143026098
 30
0.0
 11
-1.0
 21
-0.0000000000000003
 31
0.0
 12
0.0000000002051033
 22
-1.0
 32
0.0
  0
ENDTAB
  0
TABLE
  2
APPID
  5
8
330
0
100
AcDbSymbolTable
 70
     1
  0
APPID
  5
17
330
8
100
AcDbSymbolTableRecord
100
AcDbRegAppTableRecord
  2
ACAD
 70
     0
  0
ENDTAB
  0
TABLE
  2
DIMSTYLE
  5
9
330
0
100
AcDbSymbolTable
 70
     1
  0
DIMSTYLE
105
19
102
{ACAD_REACTORS
330
147
330
149
330
14B
330
14D
330
14F
330
151
330
153
330
155
330
157
330
159
330
15B
330
15D
330
15F
330
161
330
163
102
}
330
9
100
AcDbSymbolTableRecord
100
AcDbDimStyleTableRecord
  2
STANDARD
 70
     0
  3

  4

  5

  6

  7

 40
1.0
 41
0.18
 42
0.0625
 43
0.38
 44
0.18
 45
0.0
 46
0.0
 47
0.0
 48
0.0
140
0.18
141
0.09
142
0.0
143
25.4
144
1.0
145
0.0
146
1.0
147
0.09
 71
     0
 72
     0
 73
     1
 74
     1
 75
     0
 76
     0
 77
     0
 78
     0
170
     0
171
     2
172
     0
173
     0
174
     0
175
     0
176
     0
177
     0
178
     0
270
     2
271
     4
272
     4
273
     2
274
     2
340
18
275
     0
280
     0
281
     0
282
     0
283
     1
284
     0
285
     0
286
     0
287
     3
288
     0
  0
ENDTAB
  0
TABLE
  2
BLOCK_RECORD
  5
C
330
0
100
AcDbSymbolTable
 70
    15
  0
BLOCK_RECORD
  5
1E
102
{ACAD_XDICTIONARY
360
274
102
}
330
C
100
AcDbSymbolTableRecord
100
AcDbBlockTableRecord
  2
*MODEL_SPACE
  0
BLOCK_RECORD
  5
1F
102
{ACAD_XDICTIONARY
360
276
102
}
330
C
100
AcDbSymbolTableRecord
100
AcDbBlockTableRecord
  2
*PAPER_SPACE
  0
BLOCK_RECORD
  5
146
330
C
100
AcDbSymbolTableRecord
100
AcDbBlockTableRecord
  2
*D0
  0
BLOCK_RECORD
  5
148
330
C
100
AcDbSymbolTableRecord
100
AcDbBlockTableRecord
  2
*D1
  0
BLOCK_RECORD
  5
14A
330
C
100
AcDbSymbolTableRecord
100
AcDbBlockTableRecord
  2
*D2
  0
BLOCK_RECORD
  5
14C
330
C
100
AcDbSymbolTableRecord
100
AcDbBlockTableRecord
  2
*D3
  0
BLOCK_RECORD
  5
14E
330
C
100
AcDbSymbolTableRecord
100
AcDbBlockTableRecord
  2
*D4
  0
BLOCK_RECORD
  5
150
330
C
100
AcDbSymbolTableRecord
100
AcDbBlockTableRecord
  2
*D5
  0
BLOCK_RECORD
  5
152
330
C
100
AcDbSymbolTableRecord
100
AcDbBlockTableRecord
  2
*D6
  0
BLOCK_RECORD
  5
154
330
C
100
AcDbSymbolTableRecord
100
AcDbBlockTableRecord
  2
*D7
  0
BLOCK_RECORD
  5
156
330
C
100
AcDbSymbolTableRecord
100
AcDbBlockTableRecord
  2
*D8
  0
BLOCK_RECORD
  5
158
330
C
100
AcDbSymbolTableRecord
100
AcDbBlockTableRecord
  2
*D9
  0
BLOCK_RECORD
  5
15A
330
C
100
AcDbSymbolTableRecord
100
AcDbBlockTableRecord
  2
*D10
  0
BLOCK_RECORD
  5
15C
330
C
100
AcDbSymbolTableRecord
100
AcDbBlockTableRecord
  2
*D11
  0
BLOCK_RECORD
  5
15E
330
C
100
AcDbSymbolTableRecord
100
AcDbBlockTableRecord
  2
*D12
  0
BLOCK_RECORD
  5
160
330
C
100
AcDbSymbolTableRecord
100
AcDbBlockTableRecord
  2
*D13
  0
BLOCK_RECORD
  5
162
330
C
100
AcDbSymbolTableRecord
100
AcDbBlockTableRecord
  2
*D14
  0
ENDTAB
  0
ENDSEC
  0
SECTION
  2
BLOCKS
  0
BLOCK
  5
E
330
1E
100
AcDbEntity
  8
0
100
AcDbBlockBegin
  2
*MODEL_SPACE
 70
     0
 10
0.0
 20
0.0
 30
0.0
  3
*MODEL_SPACE
  1

  0
ENDBLK
  5
F
330
1E
100
AcDbEntity
  8
0
100
AcDbBlockEnd
  0
BLOCK
  5
10
330
1F
100
AcDbEntity
 67
     1
  8
0
100
AcDbBlockBegin
  2
*PAPER_SPACE
 70
     0
 10
0.0
 20
0.0
 30
0.0
  3
*PAPER_SPACE
  1

  0
ENDBLK
  5
11
330
1F
100
AcDbEntity
 67
     1
  8
0
100
AcDbBlockEnd
  0
BLOCK
  5
16A
330
146
100
AcDbEntity
  8
0
100
AcDbBlockBegin
  2
*D0
 70
     1
 10
0.0
 20
0.0
 30
0.0
  3
*D0
  1

  0
TEXT
  5
16B
330
146
100
AcDbEntity
  8
MO_001_VIEW_PV
  6
BYBLOCK
100
AcDbText
 10
-61.40723900000001
 20
10.153083
 30
0.0
 40
1.5
  1
%%P0.05
 50
90.0
100
AcDbText
  0
TEXT
  5
16C
330
146
100
AcDbEntity
  8
MO_001_VIEW_PV
  6
BYBLOCK
100
AcDbText
 10
-58.407238
 20
4.367367999999999
 30
0.0
 40
3.0
  1
%%C6
 50
90.0
100
AcDbText
  0
LINE
  5
16D
330
146
100
AcDbEntity
  8
MO_001_VIEW_PV
  6
BYBLOCK
100
AcDbLine
 10
-55.407238
 20
3.0
 30
0.0
 11
-55.407238
 21
-3.0
 31
0.0
  0
LINE
  5
16E
330
146
100
AcDbEntity
  8
MO_001_VIEW_PV
  6
BYBLOCK
100
AcDbLine
 10
-55.407238
 20
3.0
 30
0.0
 11
-55.407238
 21
9.349999999999999
 31
0.0
  0
LINE
  5
16F
330
146
100
AcDbEntity
  8
MO_001_VIEW_PV
  6
BYBLOCK
100
AcDbLine
 10
-55.407238
 20
-3.0
 30
0.0
 11
-55.407238
 21
-9.349999999999999
 31
0.0
  0
SOLID
  5
170
330
146
100
AcDbEntity
  8
MO_001_VIEW_PV
  6
BYBLOCK
100
AcDbTrace
 10
-55.99075
 20
6.318259999999999
 30
0.0
 11
-55.407238
 21
3.508
 31
0.0
 12
-54.823726
 22
6.318259999999999
 32
0.0
 13
-54.823726
 23
6.318259999999999
 33
0.0
  0
SOLID
  5
171
330
146
100
AcDbEntity
  8
MO_001_VIEW_PV
  6
BYBLOCK
100
AcDbTrace
 10
-54.823726
 20
-6.318259999999999
 30
0.0
 11
-55.407238
 21
-3.508
 31
0.0
 12
-55.99075
 22
-6.318259999999999
 32
0.0
 13
-55.99075
 23
-6.318259999999999
 33
0.0
  0
LINE
  5
172
330
146
100
AcDbEntity
  8
MO_001_VIEW_PV
  6
BYBLOCK
100
AcDbLine
 10
-50.19999699999999
 20
3.0
 30
0.0
 11
-57.693237
 21
3.0
 31
0.0
  0
LINE
  5
173
330
146
100
AcDbEntity
  8
MO_001_VIEW_PV
  6
BYBLOCK
100
AcDbLine
 10
-50.19999699999999
 20
-3.0
 30
0.0
 11
-57.693237
 21
-3.0
 31
0.0
  0
LINE
  5
174
330
146
100
AcDbEntity
  8
MO_001_VIEW_PV
  6
BYBLOCK
100
AcDbLine
 10
-55.407238
 20
17.97451
 30
0.0
 11
-55.407238
 21
3.0
 31
0.0
  0
ENDBLK
  5
175
330
146
100
AcDbEntity
  8
0
100
AcDbBlockEnd
  0
BLOCK
  5
176
330
148
100
AcDbEntity
  8
0
100
AcDbBlockBegin
  2
*D1
 70
     1
 10
0.0
 20
0.0
 30
0.0
  3
*D1
  1

  0
TEXT
  5
177
330
148
100
AcDbEntity
  8
MO_001_VIEW_PV
  6
BYBLOCK
100
AcDbText
 10
30.657913
 20
1.967691
 30
0.0
 40
3.0
  1
(%%C3.5)
 50
90.0
100
AcDbText
  0
LINE
  5
178
330
148
100
AcDbEntity
  8
MO_001_VIEW_PV
  6
BYBLOCK
100
AcDbLine
 10
33.657913
 20
1.5
 30
0.0
 11
33.657913
 21
-1.5
 31
0.0
  0
LINE
  5
179
330
148
100
AcDbEntity
  8
MO_001_VIEW_PV
  6
BYBLOCK
100
AcDbLine
 10
33.657913
 20
1.5
 30
0.0
 11
33.657913
 21
7.849999999999999
 31
0.0
  0
LINE
  5
17A
330
148
100
AcDbEntity
  8
MO_001_VIEW_PV
  6
BYBLOCK
100
AcDbLine
 10
33.657913
 20
-1.5
 30
0.0
 11
33.657913
 21
-7.849999999999999
 31
0.0
  0
SOLID
  5
17B
330
148
100
AcDbEntity
  8
MO_001_VIEW_PV
  6
BYBLOCK
100
AcDbTrace
 10
33.074402
 20
4.818259999999999
 30
0.0
 11
33.657913
 21
2.008
 31
0.0
 12
34.241425
 22
4.818259999999999
 32
0.0
 13
34.241425
 23
4.818259999999999
 33
0.0
  0
SOLID
  5
17C
330
148
100
AcDbEntity
  8
MO_001_VIEW_PV
  6
BYBLOCK
100
AcDbTrace
 10
34.241425
 20
-4.818259999999999
 30
0.0
 11
33.657913
 21
-2.008
 31
0.0
 12
33.074402
 22
-4.818259999999999
 32
0.0
 13
33.074402
 23
-4.818259999999999
 33
0.0
  0
LINE
  5
17D
330
148
100
AcDbEntity
  8
MO_001_VIEW_PV
  6
BYBLOCK
100
AcDbLine
 10
0.5
 20
1.5
 30
0.0
 11
35.943913
 21
1.5
 31
0.0
  0
LINE
  5
17E
330
148
100
AcDbEntity
  8
MO_001_VIEW_PV
  6
BYBLOCK
100
AcDbLine
 10
0.5
 20
-1.5
 30
0.0
 11
35.943913
 21
-1.5
 31
0.0
  0
LINE
  5
17F
330
148
100
AcDbEntity
  8
MO_001_VIEW_PV
  6
BYBLOCK
100
AcDbLine
 10
33.657913
 20
20.074833
 30
0.0
 11
33.657913
 21
1.5
 31
0.0
  0
ENDBLK
  5
180
330
148
100
AcDbEntity
  8
0
100
AcDbBlockEnd
  0
BLOCK
  5
181
330
14A
100
AcDbEntity
  8
0
100
AcDbBlockBegin
  2
*D2
 70
     1
 10
0.0
 20
0.0
 30
0.0
  3
*D2
  1

  0
TEXT
  5
182
330
14A
100
AcDbEntity
  8
MO_001_VIEW_PV
  6
BYBLOCK
100
AcDbText
 10
-19.785714
 20
23.625
 30
0.0
 40
1.5
  1
%%P0.3
100
AcDbText
  0
TEXT
  5
183
330
14A
100
AcDbEntity
  8
MO_001_VIEW_PV
  6
BYBLOCK
100
AcDbText
 10
-25.571429
 20
21.75
 30
0.0
 40
3.0
  1
40
100
AcDbText
  0
LINE
  5
184
330
14A
100
AcDbEntity
  8
MO_001_VIEW_PV
  6
BYBLOCK
100
AcDbLine
 10
-40.0
 20
21.0
 30
0.0
 11
0.0
 21
21.0
 31
0.0
  0
SOLID
  5
185
330
14A
100
AcDbEntity
  8
MO_001_VIEW_PV
  6
BYBLOCK
100
AcDbTrace
 10
-36.68174
 20
21.58351199999999
 30
0.0
 11
-39.49199999999999
 21
21.0
 31
0.0
 12
-36.68174
 22
20.416488
 32
0.0
 13
-36.68174
 23
20.416488
 33
0.0
  0
SOLID
  5
186
330
14A
100
AcDbEntity
  8
MO_001_VIEW_PV
  6
BYBLOCK
100
AcDbTrace
 10
-3.318259999999999
 20
20.416488
 30
0.0
 11
-0.508
 21
21.0
 31
0.0
 12
-3.318259999999999
 22
21.58351199999999
 32
0.0
 13
-3.318259999999999
 23
21.58351199999999
 33
0.0
  0
LINE
  5
187
330
14A
100
AcDbEntity
  8
MO_001_VIEW_PV
  6
BYBLOCK
100
AcDbLine
 10
-40.0
 20
6.75
 30
0.0
 11
-40.0
 21
23.28599899999999
 31
0.0
  0
LINE
  5
188
330
14A
100
AcDbEntity
  8
MO_001_VIEW_PV
  6
BYBLOCK
100
AcDbLine
 10
0.0
 20
6.75
 30
0.0
 11
0.0
 21
23.28599899999999
 31
0.0
  0
ENDBLK
  5
189
330
14A
100
AcDbEntity
  8
0
100
AcDbBlockEnd
  0
BLOCK
  5
18A
330
14C
100
AcDbEntity
  8
0
100
AcDbBlockBegin
  2
*D3
 70
     1
 10
0.0
 20
0.0
 30
0.0
  3
*D3
  1

  0
TEXT
  5
18B
330
14C
100
AcDbEntity
  8
MO_001_VIEW_PV
  6
BYBLOCK
100
AcDbText
 10
-68.57142900000001
 20
21.75
 30
0.0
 40
3.0
  1
(10.5)
100
AcDbText
  0
LINE
  5
18C
330
14C
100
AcDbEntity
  8
MO_001_VIEW_PV
  6
BYBLOCK
100
AcDbLine
 10
-50.5
 20
21.0
 30
0.0
 11
-40.0
 21
21.0
 31
0.0
  0
SOLID
  5
18D
330
14C
100
AcDbEntity
  8
MO_001_VIEW_PV
  6
BYBLOCK
100
AcDbTrace
 10
-47.18174
 20
21.58351199999999
 30
0.0
 11
-49.992
 21
21.0
 31
0.0
 12
-47.18174
 22
20.416488
 32
0.0
 13
-47.18174
 23
20.416488
 33
0.0
  0
SOLID
  5
18E
330
14C
100
AcDbEntity
  8
MO_001_VIEW_PV
  6
BYBLOCK
100
AcDbTrace
 10
-43.31825999999999
 20
20.416488
 30
0.0
 11
-40.508
 21
21.0
 31
0.0
 12
-43.31825999999999
 22
21.58351199999999
 32
0.0
 13
-43.31825999999999
 23
21.58351199999999
 33
0.0
  0
LINE
  5
18F
330
14C
100
AcDbEntity
  8
MO_001_VIEW_PV
  6
BYBLOCK
100
AcDbLine
 10
-50.5
 20
2.699997
 30
0.0
 11
-50.5
 21
23.28599899999999
 31
0.0
  0
LINE
  5
190
330
14C
100
AcDbEntity
  8
MO_001_VIEW_PV
  6
BYBLOCK
100
AcDbLine
 10
-40.0
 20
6.75
 30
0.0
 11
-40.0
 21
23.28599899999999
 31
0.0
  0
LINE
  5
191
330
14C
100
AcDbEntity
  8
MO_001_VIEW_PV
  6
BYBLOCK
100
AcDbLine
 10
-69.535713
 20
21.0
 30
0.0
 11
-50.5
 21
21.0
 31
0.0
  0
ENDBLK
  5
192
330
14C
100
AcDbEntity
  8
0
100
AcDbBlockEnd
  0
BLOCK
  5
193
330
14E
100
AcDbEntity
  8
0
100
AcDbBlockBegin
  2
*D4
 70
     1
 10
0.0
 20
0.0
 30
0.0
  3
*D4
  1

  0
TEXT
  5
194
330
14E
100
AcDbEntity
  8
MO_001_VIEW_PV
  6
BYBLOCK
100
AcDbText
 10
-30.821429
 20
27.75
 30
0.0
 40
3.0
  1
50.5
100
AcDbText
  0
LINE
  5
195
330
14E
100
AcDbEntity
  8
MO_001_VIEW_PV
  6
BYBLOCK
100
AcDbLine
 10
0.0
 20
27.0
 30
0.0
 11
-50.5
 21
27.0
 31
0.0
  0
SOLID
  5
196
330
14E
100
AcDbEntity
  8
MO_001_VIEW_PV
  6
BYBLOCK
100
AcDbTrace
 10
-3.318259999999999
 20
26.416488
 30
0.0
 11
-0.508
 21
27.0
 31
0.0
 12
-3.318259999999999
 22
27.58351199999999
 32
0.0
 13
-3.318259999999999
 23
27.58351199999999
 33
0.0
  0
SOLID
  5
197
330
14E
100
AcDbEntity
  8
MO_001_VIEW_PV
  6
BYBLOCK
100
AcDbTrace
 10
-47.18174
 20
27.58351199999999
 30
0.0
 11
-49.992
 21
27.0
 31
0.0
 12
-47.18174
 22
26.416488
 32
0.0
 13
-47.18174
 23
26.416488
 33
0.0
  0
LINE
  5
198
330
14E
100
AcDbEntity
  8
MO_001_VIEW_PV
  6
BYBLOCK
100
AcDbLine
 10
0.0
 20
6.75
 30
0.0
 11
0.0
 21
29.285999
 31
0.0
  0
LINE
  5
199
330
14E
100
AcDbEntity
  8
MO_001_VIEW_PV
  6
BYBLOCK
100
AcDbLine
 10
-50.5
 20
2.699997
 30
0.0
 11
-50.5
 21
29.285999
 31
0.0
  0
ENDBLK
  5
19A
330
14E
100
AcDbEntity
  8
0
100
AcDbBlockEnd
  0
BLOCK
  5
19B
330
150
100
AcDbEntity
  8
0
100
AcDbBlockBegin
  2
*D5
 70
     1
 10
0.0
 20
0.0
 30
0.0
  3
*D5
  1

  0
TEXT
  5
19C
330
150
100
AcDbEntity
  8
MO_001_VIEW_PV
  6
BYBLOCK
100
AcDbText
 10
-21.07879899999999
 20
16.75
 30
0.0
 40
3.0
  1
(9)
100
AcDbText
  0
LINE
  5
19D
330
150
100
AcDbEntity
  8
MO_001_VIEW_PV
  6
BYBLOCK
100
AcDbLine
 10
-9.0
 20
16.0
 30
0.0
 11
0.0
 21
16.0
 31
0.0
  0
LINE
  5
19E
330
150
100
AcDbEntity
  8
MO_001_VIEW_PV
  6
BYBLOCK
100
AcDbLine
 10
-9.0
 20
16.0
 30
0.0
 11
-15.35
 21
16.0
 31
0.0
  0
LINE
  5
19F
330
150
100
AcDbEntity
  8
MO_001_VIEW_PV
  6
BYBLOCK
100
AcDbLine
 10
0.0
 20
16.0
 30
0.0
 11
6.349999999999999
 21
16.0
 31
0.0
  0
SOLID
  5
1A0
330
150
100
AcDbEntity
  8
MO_001_VIEW_PV
  6
BYBLOCK
100
AcDbTrace
 10
-12.31826
 20
15.416488
 30
0.0
 11
-9.507999999999999
 21
16.0
 31
0.0
 12
-12.31826
 22
16.583512
 32
0.0
 13
-12.31826
 23
16.583512
 33
0.0
  0
SOLID
  5
1A1
330
150
100
AcDbEntity
  8
MO_001_VIEW_PV
  6
BYBLOCK
100
AcDbTrace
 10
3.318259999999999
 20
16.583512
 30
0.0
 11
0.508
 21
16.0
 31
0.0
 12
3.318259999999999
 22
15.416488
 32
0.0
 13
3.318259999999999
 23
15.416488
 33
0.0
  0
LINE
  5
1A2
330
150
100
AcDbEntity
  8
MO_001_VIEW_PV
  6
BYBLOCK
100
AcDbLine
 10
-9.0
 20
2.5
 30
0.0
 11
-9.0
 21
18.285999
 31
0.0
  0
LINE
  5
1A3
330
150
100
AcDbEntity
  8
MO_001_VIEW_PV
  6
BYBLOCK
100
AcDbLine
 10
0.0
 20
6.75
 30
0.0
 11
0.0
 21
18.285999
 31
0.0
  0
LINE
  5
1A4
330
150
100
AcDbEntity
  8
MO_001_VIEW_PV
  6
BYBLOCK
100
AcDbLine
 10
-22.043085
 20
16.0
 30
0.0
 11
-9.0
 21
16.0
 31
0.0
  0
ENDBLK
  5
1A5
330
150
100
AcDbEntity
  8
0
100
AcDbBlockEnd
  0
BLOCK
  5
1A6
330
152
100
AcDbEntity
  8
0
100
AcDbBlockBegin
  2
*D6
 70
     1
 10
0.0
 20
0.0
 30
0.0
  3
*D6
  1

  0
TEXT
  5
1A7
330
152
100
AcDbEntity
  8
MO_001_VIEW_PV
  6
BYBLOCK
100
AcDbText
 10
-18.785714
 20
-18.375
 30
0.0
 40
1.5
  1
%%P0.2
100
AcDbText
  0
TEXT
  5
1A8
330
152
100
AcDbEntity
  8
MO_001_VIEW_PV
  6
BYBLOCK
100
AcDbText
 10
-24.571429
 20
-20.24999999999999
 30
0.0
 40
3.0
  1
20
100
AcDbText
  0
LINE
  5
1A9
330
152
100
AcDbEntity
  8
MO_001_VIEW_PV
  6
BYBLOCK
100
AcDbLine
 10
-9.0
 20
-21.0
 30
0.0
 11
-29.0
 21
-21.0
 31
0.0
  0
SOLID
  5
1AA
330
152
100
AcDbEntity
  8
MO_001_VIEW_PV
  6
BYBLOCK
100
AcDbTrace
 10
-12.31826
 20
-21.58351199999999
 30
0.0
 11
-9.507999999999999
 21
-21.0
 31
0.0
 12
-12.31826
 22
-20.416488
 32
0.0
 13
-12.31826
 23
-20.416488
 33
0.0
  0
SOLID
  5
1AB
330
152
100
AcDbEntity
  8
MO_001_VIEW_PV
  6
BYBLOCK
100
AcDbTrace
 10
-25.68173999999999
 20
-20.416488
 30
0.0
 11
-28.49199999999999
 21
-21.0
 31
0.0
 12
-25.68173999999999
 22
-21.58351199999999
 32
0.0
 13
-25.68173999999999
 23
-21.58351199999999
 33
0.0
  0
LINE
  5
1AC
330
152
100
AcDbEntity
  8
MO_001_VIEW_PV
  6
BYBLOCK
100
AcDbLine
 10
-9.0
 20
-2.5
 30
0.0
 11
-9.0
 21
-23.28599899999999
 31
0.0
  0
LINE
  5
1AD
330
152
100
AcDbEntity
  8
MO_001_VIEW_PV
  6
BYBLOCK
100
AcDbLine
 10
-29.0
 20
-15.996223
 30
0.0
 11
-29.0
 21
-23.28599899999999
 31
0.0
  0
LINE
  5
1AE
330
152
100
AcDbEntity
  8
MO_001_VIEW_PV
  6
BYBLOCK
100
AcDbLine
 10
-29.0
 20
-2.5
 30
0.0
 11
-29.0
 21
-10.315132
 31
0.0
  0
ENDBLK
  5
1AF
330
152
100
AcDbEntity
  8
0
100
AcDbBlockEnd
  0
BLOCK
  5
1B0
330
154
100
AcDbEntity
  8
0
100
AcDbBlockBegin
  2
*D7
 70
     1
 10
0.0
 20
0.0
 30
0.0
  3
*D7
  1

  0
TEXT
  5
1B1
330
154
100
AcDbEntity
  8
MO_001_VIEW_PV
  6
BYBLOCK
100
AcDbText
 10
-37.785707
 20
-18.375
 30
0.0
 40
1.5
  1
%%P0.5
100
AcDbText
  0
TEXT
  5
1B2
330
154
100
AcDbEntity
  8
MO_001_VIEW_PV
  6
BYBLOCK
100
AcDbText
 10
-43.57142099999999
 20
-20.24999999999999
 30
0.0
 40
3.0
  1
18
100
AcDbText
  0
LINE
  5
1B3
330
154
100
AcDbEntity
  8
MO_001_VIEW_PV
  6
BYBLOCK
100
AcDbLine
 10
-46.99998899999999
 20
-21.0
 30
0.0
 11
-29.0
 21
-21.0
 31
0.0
  0
SOLID
  5
1B4
330
154
100
AcDbEntity
  8
MO_001_VIEW_PV
  6
BYBLOCK
100
AcDbTrace
 10
-43.68172799999999
 20
-20.416488
 30
0.0
 11
-46.491989
 21
-21.0
 31
0.0
 12
-43.68172799999999
 22
-21.58351199999999
 32
0.0
 13
-43.68172799999999
 23
-21.58351199999999
 33
0.0
  0
SOLID
  5
1B5
330
154
100
AcDbEntity
  8
MO_001_VIEW_PV
  6
BYBLOCK
100
AcDbTrace
 10
-32.31825999999999
 20
-21.58351199999999
 30
0.0
 11
-29.508
 21
-21.0
 31
0.0
 12
-32.31825999999999
 22
-20.416488
 32
0.0
 13
-32.31825999999999
 23
-20.416488
 33
0.0
  0
LINE
  5
1B6
330
154
100
AcDbEntity
  8
MO_001_VIEW_PV
  6
BYBLOCK
100
AcDbLine
 10
-46.99998899999999
 20
-5.227646
 30
0.0
 11
-46.99998899999999
 21
-23.28599899999999
 31
0.0
  0
LINE
  5
1B7
330
154
100
AcDbEntity
  8
MO_001_NOSHOW
  6
BYBLOCK
100
AcDbLine
 10
-29.0
 20
-2.5
 30
0.0
 11
-29.0
 21
-23.28599899999999
 31
0.0
  0
ENDBLK
  5
1B8
330
154
100
AcDbEntity
  8
0
100
AcDbBlockEnd
  0
BLOCK
  5
1B9
330
156
100
AcDbEntity
  8
0
100
AcDbBlockBegin
  2
*D8
 70
     1
 10
0.0
 20
0.0
 30
0.0
  3
*D8
  1

  0
TEXT
  5
1BA
330
156
100
AcDbEntity
  8
MO_001_VIEW_PV
  6
BYBLOCK
100
AcDbText
 10
-33.502309
 20
-12.375
 30
0.0
 40
1.5
  1
%%P0.2
100
AcDbText
  0
TEXT
  5
1BB
330
156
100
AcDbEntity
  8
MO_001_VIEW_PV
  6
BYBLOCK
100
AcDbText
 10
-42.28802299999999
 20
-14.25
 30
0.0
 40
3.0
  1
3.5
100
AcDbText
  0
LINE
  5
1BC
330
156
100
AcDbEntity
  8
MO_001_VIEW_PV
  6
BYBLOCK
100
AcDbLine
 10
-50.5
 20
-15.0
 30
0.0
 11
-46.99998899999999
 21
-15.0
 31
0.0
  0
LINE
  5
1BD
330
156
100
AcDbEntity
  8
MO_001_VIEW_PV
  6
BYBLOCK
100
AcDbLine
 10
-50.5
 20
-15.0
 30
0.0
 11
-56.85
 21
-15.0
 31
0.0
  0
LINE
  5
1BE
330
156
100
AcDbEntity
  8
MO_001_VIEW_PV
  6
BYBLOCK
100
AcDbLine
 10
-46.99998899999999
 20
-15.0
 30
0.0
 11
-40.64998899999999
 21
-15.0
 31
0.0
  0
SOLID
  5
1BF
330
156
100
AcDbEntity
  8
MO_001_VIEW_PV
  6
BYBLOCK
100
AcDbTrace
 10
-53.81826
 20
-15.58351199999999
 30
0.0
 11
-51.008
 21
-15.0
 31
0.0
 12
-53.81826
 22
-14.416488
 32
0.0
 13
-53.81826
 23
-14.416488
 33
0.0
  0
SOLID
  5
1C0
330
156
100
AcDbEntity
  8
MO_001_VIEW_PV
  6
BYBLOCK
100
AcDbTrace
 10
-43.68172799999999
 20
-14.416488
 30
0.0
 11
-46.491989
 21
-15.0
 31
0.0
 12
-43.68172799999999
 22
-15.58351199999999
 32
0.0
 13
-43.68172799999999
 23
-15.58351199999999
 33
0.0
  0
LINE
  5
1C1
330
156
100
AcDbEntity
  8
MO_001_VIEW_PV
  6
BYBLOCK
100
AcDbLine
 10
-50.5
 20
-2.700012
 30
0.0
 11
-50.5
 21
-17.285999
 31
0.0
  0
LINE
  5
1C2
330
156
100
AcDbEntity
  8
MO_001_VIEW_PV
  6
BYBLOCK
100
AcDbLine
 10
-46.99998899999999
 20
-5.227646
 30
0.0
 11
-46.99998899999999
 21
-17.285999
 31
0.0
  0
LINE
  5
1C3
330
156
100
AcDbEntity
  8
MO_001_VIEW_PV
  6
BYBLOCK
100
AcDbLine
 10
-46.99998899999999
 20
-15.0
 30
0.0
 11
-27.18087999999999
 21
-15.0
 31
0.0
  0
ENDBLK
  5
1C4
330
156
100
AcDbEntity
  8
0
100
AcDbBlockEnd
  0
BLOCK
  5
1C5
330
158
100
AcDbEntity
  8
0
100
AcDbBlockBegin
  2
*D9
 70
     1
 10
0.0
 20
0.0
 30
0.0
  3
*D9
  1

  0
TEXT
  5
1C6
330
158
100
AcDbEntity
  8
MO_001_VIEW_PV
  6
BYBLOCK
100
AcDbText
 10
4.928570999999999
 20
-14.25
 30
0.0
 40
3.0
  1
(0.5)
100
AcDbText
  0
LINE
  5
1C7
330
158
100
AcDbEntity
  8
MO_001_VIEW_PV
  6
BYBLOCK
100
AcDbLine
 10
0.5
 20
-15.0
 30
0.0
 11
0.0
 21
-15.0
 31
0.0
  0
LINE
  5
1C8
330
158
100
AcDbEntity
  8
MO_001_VIEW_PV
  6
BYBLOCK
100
AcDbLine
 10
0.5
 20
-15.0
 30
0.0
 11
6.849999999999999
 21
-15.0
 31
0.0
  0
LINE
  5
1C9
330
158
100
AcDbEntity
  8
MO_001_VIEW_PV
  6
BYBLOCK
100
AcDbLine
 10
0.0
 20
-15.0
 30
0.0
 11
-6.349999999999999
 21
-15.0
 31
0.0
  0
SOLID
  5
1CA
330
158
100
AcDbEntity
  8
MO_001_VIEW_PV
  6
BYBLOCK
100
AcDbTrace
 10
3.81826
 20
-14.416488
 30
0.0
 11
1.008
 21
-15.0
 31
0.0
 12
3.81826
 22
-15.58351199999999
 32
0.0
 13
3.81826
 23
-15.58351199999999
 33
0.0
  0
SOLID
  5
1CB
330
158
100
AcDbEntity
  8
MO_001_VIEW_PV
  6
BYBLOCK
100
AcDbTrace
 10
-3.318259999999999
 20
-15.58351199999999
 30
0.0
 11
-0.508
 21
-15.0
 31
0.0
 12
-3.318259999999999
 22
-14.416488
 32
0.0
 13
-3.318259999999999
 23
-14.416488
 33
0.0
  0
LINE
  5
1CC
330
158
100
AcDbEntity
  8
MO_001_VIEW_PV
  6
BYBLOCK
100
AcDbLine
 10
0.5
 20
-1.5
 30
0.0
 11
0.5
 21
-17.285999
 31
0.0
  0
LINE
  5
1CD
330
158
100
AcDbEntity
  8
MO_001_VIEW_PV
  6
BYBLOCK
100
AcDbLine
 10
0.0
 20
-6.75
 30
0.0
 11
0.0
 21
-17.285999
 31
0.0
  0
LINE
  5
1CE
330
158
100
AcDbEntity
  8
MO_001_VIEW_PV
  6
BYBLOCK
100
AcDbLine
 10
20.035715
 20
-15.0
 30
0.0
 11
0.5
 21
-15.0
 31
0.0
  0
ENDBLK
  5
1CF
330
158
100
AcDbEntity
  8
0
100
AcDbBlockEnd
  0
BLOCK
  5
1D0
330
15A
100
AcDbEntity
  8
0
100
AcDbBlockBegin
  2
*D10
 70
     1
 10
0.0
 20
0.0
 30
0.0
  3
*D10
  1

  0
LINE
  5
1D1
330
15A
100
AcDbEntity
  8
MO_001_VIEW_PV
  6
BYBLOCK
100
AcDbLine
 10
9.0
 20
-39.0
 30
0.0
 11
9.0
 21
-27.0
 31
0.0
  0
LINE
  5
1D2
330
15A
100
AcDbEntity
  8
MO_001_VIEW_PV
  6
BYBLOCK
100
AcDbLine
 10
9.0
 20
-39.0
 30
0.0
 11
9.0
 21
-45.35
 31
0.0
  0
LINE
  5
1D3
330
15A
100
AcDbEntity
  8
MO_001_VIEW_PV
  6
BYBLOCK
100
AcDbLine
 10
9.0
 20
-27.0
 30
0.0
 11
9.0
 21
-20.64999999999999
 31
0.0
  0
SOLID
  5
1D4
330
15A
100
AcDbEntity
  8
MO_001_VIEW_PV
  6
BYBLOCK
100
AcDbTrace
 10
9.583511999999998
 20
-42.31825999999999
 30
0.0
 11
9.0
 21
-39.508
 31
0.0
 12
8.416488000000001
 22
-42.31825999999999
 32
0.0
 13
8.416488000000001
 23
-42.31825999999999
 33
0.0
  0
SOLID
  5
1D5
330
15A
100
AcDbEntity
  8
MO_001_VIEW_PV
  6
BYBLOCK
100
AcDbTrace
 10
8.416488000000001
 20
-23.68173999999999
 30
0.0
 11
9.0
 21
-26.49199999999999
 31
0.0
 12
9.583511999999998
 22
-23.68173999999999
 32
0.0
 13
9.583511999999998
 23
-23.68173999999999
 33
0.0
  0
LINE
  5
1D6
330
15A
100
AcDbEntity
  8
MO_001_VIEW_PV
  6
BYBLOCK
100
AcDbLine
 10
2.515487999999999
 20
-39.0
 30
0.0
 11
11.286
 21
-39.0
 31
0.0
  0
LINE
  5
1D7
330
15A
100
AcDbEntity
  8
MO_001_VIEW_PV
  6
BYBLOCK
100
AcDbLine
 10
-2.0
 20
-27.0
 30
0.0
 11
11.286
 21
-27.0
 31
0.0
  0
TEXT
  5
1D8
330
15A
100
AcDbEntity
  8
MO_001_VIEW_PV
  6
BYBLOCK
100
AcDbText
 10
6.375
 20
-33.086084
 30
0.0
 40
1.5
  1
%%P0.2
 50
90.0
100
AcDbText
  0
TEXT
  5
1D9
330
15A
100
AcDbEntity
  8
MO_001_VIEW_PV
  6
BYBLOCK
100
AcDbText
 10
8.25
 20
-38.871798
 30
0.0
 40
3.0
  1
12
 50
90.0
100
AcDbText
  0
LINE
  5
1DA
330
15A
100
AcDbEntity
  8
MO_001_VIEW_PV
  6
BYBLOCK
100
AcDbLine
 10
9.0
 20
-39.83608199999999
 30
0.0
 11
9.0
 21
-39.0
 31
0.0
  0
LINE
  5
1DB
330
15A
100
AcDbEntity
  8
MO_001_VIEW_PV
  6
BYBLOCK
100
AcDbLine
 10
9.0
 20
-27.0
 30
0.0
 11
9.0
 21
-26.76465399999999
 31
0.0
  0
ENDBLK
  5
1DC
330
15A
100
AcDbEntity
  8
0
100
AcDbBlockEnd
  0
BLOCK
  5
1DD
330
15C
100
AcDbEntity
  8
0
100
AcDbBlockBegin
  2
*D11
 70
     1
 10
0.0
 20
0.0
 30
0.0
  3
*D11
  1

  0
LINE
  5
1DE
330
15C
100
AcDbEntity
  8
MO_001_VIEW_PV
  6
BYBLOCK
100
AcDbLine
 10
0.0
 20
-57.0
 30
0.0
 11
47.0
 21
-57.0
 31
0.0
  0
SOLID
  5
1DF
330
15C
100
AcDbEntity
  8
MO_001_VIEW_PV
  6
BYBLOCK
100
AcDbTrace
 10
3.318259999999999
 20
-56.416488
 30
0.0
 11
0.508
 21
-57.0
 31
0.0
 12
3.318259999999999
 22
-57.58351199999999
 32
0.0
 13
3.318259999999999
 23
-57.58351199999999
 33
0.0
  0
SOLID
  5
1E0
330
15C
100
AcDbEntity
  8
MO_001_VIEW_PV
  6
BYBLOCK
100
AcDbTrace
 10
43.68174
 20
-57.58351199999999
 30
0.0
 11
46.49199999999999
 21
-57.0
 31
0.0
 12
43.68174
 22
-56.416488
 32
0.0
 13
43.68174
 23
-56.416488
 33
0.0
  0
LINE
  5
1E1
330
15C
100
AcDbEntity
  8
MO_001_VIEW_PV
  6
BYBLOCK
100
AcDbLine
 10
0.0
 20
-47.0
 30
0.0
 11
0.0
 21
-59.286003
 31
0.0
  0
LINE
  5
1E2
330
15C
100
AcDbEntity
  8
MO_001_VIEW_PV
  6
BYBLOCK
100
AcDbLine
 10
47.0
 20
-49.23999
 30
0.0
 11
47.0
 21
-59.286003
 31
0.0
  0
TEXT
  5
1E3
330
15C
100
AcDbEntity
  8
MO_001_VIEW_PV
  6
BYBLOCK
100
AcDbText
 10
13.428571
 20
-56.25
 30
0.0
 40
3.0
  1
長さ240以上
100
AcDbText
  0
ENDBLK
  5
1E4
330
15C
100
AcDbEntity
  8
0
100
AcDbBlockEnd
  0
BLOCK
  5
1E5
330
15E
100
AcDbEntity
  8
0
100
AcDbBlockBegin
  2
*D12
 70
     1
 10
0.0
 20
0.0
 30
0.0
  3
*D12
  1

  0
LINE
  5
1E6
330
15E
100
AcDbEntity
  8
MO_001_VIEW_PV
  6
BYBLOCK
100
AcDbLine
 10
-89.0
 20
-18.0
 30
0.0
 11
-69.0
 21
-18.0
 31
0.0
  0
SOLID
  5
1E7
330
15E
100
AcDbEntity
  8
MO_001_VIEW_PV
  6
BYBLOCK
100
AcDbTrace
 10
-85.68174
 20
-17.416488
 30
0.0
 11
-88.49200000000001
 21
-18.0
 31
0.0
 12
-85.68174
 22
-18.58351199999999
 32
0.0
 13
-85.68174
 23
-18.58351199999999
 33
0.0
  0
SOLID
  5
1E8
330
15E
100
AcDbEntity
  8
MO_001_VIEW_PV
  6
BYBLOCK
100
AcDbTrace
 10
-72.31825999999999
 20
-18.58351199999999
 30
0.0
 11
-69.508
 21
-18.0
 31
0.0
 12
-72.31825999999999
 22
-17.416488
 32
0.0
 13
-72.31825999999999
 23
-17.416488
 33
0.0
  0
LINE
  5
1E9
330
15E
100
AcDbEntity
  8
MO_001_VIEW_PV
  6
BYBLOCK
100
AcDbLine
 10
-89.0
 20
-4.75
 30
0.0
 11
-89.0
 21
-20.285999
 31
0.0
  0
LINE
  5
1EA
330
15E
100
AcDbEntity
  8
MO_001_VIEW_PV
  6
BYBLOCK
100
AcDbLine
 10
-69.0
 20
-6.75
 30
0.0
 11
-69.0
 21
-20.285999
 31
0.0
  0
TEXT
  5
1EB
330
15E
100
AcDbEntity
  8
MO_001_VIEW_PV
  6
BYBLOCK
100
AcDbText
 10
-78.785714
 20
-15.375
 30
0.0
 40
1.5
  1
%%P0.3
100
AcDbText
  0
TEXT
  5
1EC
330
15E
100
AcDbEntity
  8
MO_001_VIEW_PV
  6
BYBLOCK
100
AcDbText
 10
-84.571429
 20
-17.25
 30
0.0
 40
3.0
  1
20
100
AcDbText
  0
ENDBLK
  5
1ED
330
15E
100
AcDbEntity
  8
0
100
AcDbBlockEnd
  0
BLOCK
  5
1EE
330
160
100
AcDbEntity
  8
0
100
AcDbBlockBegin
  2
*D13
 70
     1
 10
0.0
 20
0.0
 30
0.0
  3
*D13
  1

  0
LINE
  5
1EF
330
160
100
AcDbEntity
  8
MO_001_VIEW_PV
  6
BYBLOCK
100
AcDbLine
 10
-96.0
 20
6.75
 30
0.0
 11
-96.0
 21
-6.75
 31
0.0
  0
LINE
  5
1F0
330
160
100
AcDbEntity
  8
MO_001_VIEW_PV
  6
BYBLOCK
100
AcDbLine
 10
-96.0
 20
6.75
 30
0.0
 11
-96.0
 21
13.1
 31
0.0
  0
LINE
  5
1F1
330
160
100
AcDbEntity
  8
MO_001_VIEW_PV
  6
BYBLOCK
100
AcDbLine
 10
-96.0
 20
-6.75
 30
0.0
 11
-96.0
 21
-13.1
 31
0.0
  0
SOLID
  5
1F2
330
160
100
AcDbEntity
  8
MO_001_VIEW_PV
  6
BYBLOCK
100
AcDbTrace
 10
-96.583512
 20
10.06825999999999
 30
0.0
 11
-96.0
 21
7.257999999999999
 31
0.0
 12
-95.416488
 22
10.06825999999999
 32
0.0
 13
-95.416488
 23
10.06825999999999
 33
0.0
  0
SOLID
  5
1F3
330
160
100
AcDbEntity
  8
MO_001_VIEW_PV
  6
BYBLOCK
100
AcDbTrace
 10
-95.416488
 20
-10.06825999999999
 30
0.0
 11
-96.0
 21
-7.257999999999999
 31
0.0
 12
-96.583512
 22
-10.06825999999999
 32
0.0
 13
-96.583512
 23
-10.06825999999999
 33
0.0
  0
LINE
  5
1F4
330
160
100
AcDbEntity
  8
MO_001_VIEW_PV
  6
BYBLOCK
100
AcDbLine
 10
-87.0
 20
6.75
 30
0.0
 11
-98.28600300000001
 21
6.75
 31
0.0
  0
LINE
  5
1F5
330
160
100
AcDbEntity
  8
MO_001_VIEW_PV
  6
BYBLOCK
100
AcDbLine
 10
-87.0
 20
-6.75
 30
0.0
 11
-98.28600300000001
 21
-6.75
 31
0.0
  0
TEXT
  5
1F6
330
160
100
AcDbEntity
  8
MO_001_VIEW_PV
  6
BYBLOCK
100
AcDbText
 10
-102.0000009999999
 20
19.890128
 30
0.0
 40
1.5
  1
%%P0.3
 50
90.0
100
AcDbText
  0
TEXT
  5
1F7
330
160
100
AcDbEntity
  8
MO_001_VIEW_PV
  6
BYBLOCK
100
AcDbText
 10
-99.0
 20
8.104414
 30
0.0
 40
3.0
  1
13.5
 50
90.0
100
AcDbText
  0
LINE
  5
1F8
330
160
100
AcDbEntity
  8
MO_001_VIEW_PV
  6
BYBLOCK
100
AcDbLine
 10
-96.0
 20
26.211555
 30
0.0
 11
-96.0
 21
6.75
 31
0.0
  0
ENDBLK
  5
1F9
330
160
100
AcDbEntity
  8
0
100
AcDbBlockEnd
  0
BLOCK
  5
1FA
330
162
100
AcDbEntity
  8
0
100
AcDbBlockBegin
  2
*D14
 70
     1
 10
0.0
 20
0.0
 30
0.0
  3
*D14
  1

  0
LINE
  5
1FB
330
162
100
AcDbEntity
  8
MO_001_VIEW_PV
  6
BYBLOCK
100
AcDbLine
 10
-46.348046
 20
1.350916
 30
0.0
 11
-47.65193
 21
-1.350913999999999
 31
0.0
  0
LINE
  5
1FC
330
162
100
AcDbEntity
  8
MO_001_VIEW_PV
  6
BYBLOCK
100
AcDbLine
 10
-46.348046
 20
1.350916
 30
0.0
 11
-43.588157
 21
7.069789999999999
 31
0.0
  0
LINE
  5
1FD
330
162
100
AcDbEntity
  8
MO_001_VIEW_PV
  6
BYBLOCK
100
AcDbLine
 10
-47.65193
 20
-1.350913999999999
 30
0.0
 11
-50.411819
 21
-7.069786999999999
 31
0.0
  0
SOLID
  5
1FE
330
162
100
AcDbEntity
  8
MO_001_VIEW_PV
  6
BYBLOCK
100
AcDbTrace
 10
-45.431353
 20
4.592984999999999
 30
0.0
 11
-46.127254
 21
1.808425999999999
 31
0.0
 12
-44.38032
 22
4.085764
 32
0.0
 13
-44.38032
 23
4.085764
 33
0.0
  0
SOLID
  5
1FF
330
162
100
AcDbEntity
  8
MO_001_VIEW_PV
  6
BYBLOCK
100
AcDbTrace
 10
-48.56862299999999
 20
-4.592982
 30
0.0
 11
-47.872721
 21
-1.808424
 31
0.0
 12
-49.619656
 22
-4.085760999999999
 32
0.0
 13
-49.619656
 23
-4.085760999999999
 33
0.0
  0
LINE
  5
200
330
162
100
AcDbEntity
  8
MO_001_VIEW_PV
  6
BYBLOCK
100
AcDbLine
 10
-47.65193
 20
-1.350913999999999
 30
0.0
 11
-53.51794399999999
 21
-13.50611
 31
0.0
  0
ENDBLK
  5
201
330
162
100
AcDbEntity
  8
0
100
AcDbBlockEnd
  0
ENDSEC
  0
SECTION
  2
ENTITIES
  0
TEXT
  5
4F
330
1E
100
AcDbEntity
  8
OVERLAY_MAP
  6
C_SOLID_L
100
AcDbText
 10
0.0
 20
6.349999999999999
 30
0.0
 40
4.1672
  1
Model Overlay Name
100
AcDbText
  0
TEXT
  5
50
330
1E
100
AcDbEntity
  8
OVERLAY_MAP
  6
C_SOLID_L
100
AcDbText
 10
126.999998
 20
0.0
 30
0.0
 40
4.1672
  1
Number
100
AcDbText
  0
TEXT
  5
51
330
1E
100
AcDbEntity
  8
OVERLAY_MAP
  6
C_SOLID_L
100
AcDbText
 10
177.7999969999999
 20
0.0
 30
0.0
 40
4.1672
  1
File Text
100
AcDbText
  0
TEXT
  5
52
330
1E
100
AcDbEntity
  8
OVERLAY_MAP
  6
C_SOLID_L
100
AcDbText
 10
0.0
 20
-6.349999999999999
 30
0.0
 40
4.1672
  1
op sk0640c 
100
AcDbText
  0
TEXT
  5
53
330
1E
100
AcDbEntity
  8
OVERLAY_MAP
  6
C_SOLID_L
100
AcDbText
 10
126.999998
 20
-6.349999999999999
 30
0.0
 40
4.1672
  1
001
100
AcDbText
  0
TEXT
  5
54
330
1E
100
AcDbEntity
  8
OVERLAY_MAP
  6
C_SOLID_L
100
AcDbText
 10
177.7999969999999
 20
-6.349999999999999
 30
0.0
 40
4.1672
  1
                                                     890589050 131000139
100
AcDbText
  0
LINE
  5
55
330
1E
100
AcDbEntity
  8
MO_001_VIEW_PV
  6
C_SOLID_M
100
AcDbLine
 10
-2.0
 20
-29.0
 30
0.0
 11
-2.0
 21
-47.0
 31
0.0
  0
LINE
  5
56
330
1E
100
AcDbEntity
  8
MO_001_VIEW_PV
  6
C_SOLID_M
100
AcDbLine
 10
-38.0
 20
-29.0
 30
0.0
 11
-38.0
 21
-47.0
 31
0.0
  0
LINE
  5
57
330
1E
100
AcDbEntity
  8
MO_001_VIEW_PV
  6
C_SOLID_M
100
AcDbLine
 10
-40.0
 20
-29.0
 30
0.0
 11
-40.0
 21
-47.0
 31
0.0
  0
LINE
  5
58
330
1E
100
AcDbEntity
  8
MO_001_VIEW_PV
  6
C_SOLID_M
100
AcDbLine
 10
0.0
 20
-29.0
 30
0.0
 11
0.0
 21
-47.0
 31
0.0
  0
LINE
  5
59
330
1E
100
AcDbEntity
  8
MO_001_VIEW_PV
  6
C_SOLID_M
100
AcDbLine
 10
-38.0
 20
-29.0
 30
0.0
 11
-2.0
 21
-29.0
 31
0.0
  0
LINE
  5
5A
330
1E
100
AcDbEntity
  8
MO_001_VIEW_PV
  6
C_SOLID_M
100
AcDbLine
 10
-38.0
 20
-27.0
 30
0.0
 11
-2.0
 21
-27.0
 31
0.0
  0
LINE
  5
5B
330
1E
100
AcDbEntity
  8
MO_001_VIEW_PV
  6
C_SOLID_M
100
AcDbLine
 10
-2.0
 20
-47.0
 30
0.0
 11
0.0
 21
-47.0
 31
0.0
  0
LINE
  5
5C
330
1E
100
AcDbEntity
  8
MO_001_VIEW_PV
  6
C_SOLID_M
100
AcDbLine
 10
-40.0
 20
-47.0
 30
0.0
 11
-38.0
 21
-47.0
 31
0.0
  0
ARC
  5
5D
330
1E
100
AcDbEntity
  8
MO_001_VIEW_PV
  6
C_SOLID_M
100
AcDbCircle
 10
-38.0
 20
-29.0
 30
0.0
 40
2.0
100
AcDbArc
 50
90.000002
 51
180.000005
  0
ARC
  5
5E
330
1E
100
AcDbEntity
  8
MO_001_VIEW_PV
  6
C_SOLID_M
100
AcDbCircle
 10
-2.0
 20
-29.0
 30
0.0
 40
2.0
100
AcDbArc
 50
0.0
 51
89.99998900000001
  0
LINE
  5
5F
330
1E
100
AcDbEntity
  8
MO_001_VIEW_PV
  6
C_CENTER_L
100
AcDbLine
 10
-52.14703
 20
-39.0
 30
0.0
 11
2.515487999999999
 21
-39.0
 31
0.0
  0
LINE
  5
60
330
1E
100
AcDbEntity
  8
MO_001_VIEW_PV
  6
C_SOLID_M
100
AcDbLine
 10
-26.199995
 20
-29.0
 30
0.0
 11
-26.199995
 21
-27.0
 31
0.0
  0
LINE
  5
61
330
1E
100
AcDbEntity
  8
MO_001_VIEW_PV
  6
C_SOLID_M
100
AcDbLine
 10
-25.0
 20
-29.0
 30
0.0
 11
-25.0
 21
-27.0
 31
0.0
  0
LINE
  5
62
330
1E
100
AcDbEntity
  8
MO_001_VIEW_PV
  6
C_SOLID_M
100
AcDbLine
 10
-15.0
 20
-29.0
 30
0.0
 11
-15.0
 21
-27.0
 31
0.0
  0
LINE
  5
63
330
1E
100
AcDbEntity
  8
MO_001_VIEW_PV
  6
C_SOLID_M
100
AcDbLine
 10
-13.800003
 20
-29.0
 30
0.0
 11
-13.800003
 21
-27.0
 31
0.0
  0
LINE
  5
64
330
1E
100
AcDbEntity
  8
MO_001_VIEW_PV
  6
C_SOLID_M
100
AcDbLine
 10
-13.999997
 20
-29.0
 30
0.0
 11
-13.999997
 21
-27.0
 31
0.0
  0
LINE
  5
65
330
1E
100
AcDbEntity
  8
MO_001_VIEW_PV
  6
C_SOLID_M
100
AcDbLine
 10
-26.000002
 20
-29.0
 30
0.0
 11
-26.000002
 21
-27.0
 31
0.0
  0
LINE
  5
66
330
1E
100
AcDbEntity
  8
MO_001_VIEW_PV
  6
C_SOLID_M
100
AcDbLine
 10
0.0
 20
6.75
 30
0.0
 11
0.0
 21
-6.75
 31
0.0
  0
LINE
  5
67
330
1E
100
AcDbEntity
  8
MO_001_VIEW_PV
  6
C_SOLID_M
100
AcDbLine
 10
-40.0
 20
6.75
 30
0.0
 11
-40.0
 21
-6.75
 31
0.0
  0
LINE
  5
68
330
1E
100
AcDbEntity
  8
MO_001_VIEW_PV
  6
C_SOLID_M
100
AcDbLine
 10
-26.19999899999999
 20
6.75
 30
0.0
 11
-40.0
 21
6.75
 31
0.0
  0
LINE
  5
69
330
1E
100
AcDbEntity
  8
MO_001_VIEW_PV
  6
C_SOLID_M
100
AcDbLine
 10
-26.199995
 20
-6.75
 30
0.0
 11
-40.0
 21
-6.75
 31
0.0
  0
CIRCLE
  5
6A
330
1E
100
AcDbEntity
  8
MO_001_VIEW_PV
  6
C_SOLID_M
100
AcDbCircle
 10
-29.0
 20
0.0
 30
0.0
 40
1.5
  0
CIRCLE
  5
6B
330
1E
100
AcDbEntity
  8
MO_001_VIEW_PV
  6
C_SOLID_M
100
AcDbCircle
 10
-9.0
 20
0.0
 30
0.0
 40
1.5
  0
CIRCLE
  5
6C
330
1E
100
AcDbEntity
  8
MO_001_VIEW_PV
  6
C_SOLID_M
100
AcDbCircle
 10
-29.0
 20
0.0
 30
0.0
 40
1.199999999999999
  0
CIRCLE
  5
6D
330
1E
100
AcDbEntity
  8
MO_001_VIEW_PV
  6
C_SOLID_M
100
AcDbCircle
 10
-9.0
 20
0.0
 30
0.0
 40
1.199999999999999
  0
LINE
  5
6E
330
1E
100
AcDbEntity
  8
MO_001_VIEW_PV
  6
C_CENTER_L
100
AcDbLine
 10
8.0
 20
0.0
 30
0.0
 11
-53.654671
 21
0.0
 31
0.0
  0
LINE
  5
6F
330
1E
100
AcDbEntity
  8
MO_001_VIEW_PV
  6
C_SOLID_M
100
AcDbLine
 10
-25.0
 20
6.550003
 30
0.0
 11
-26.000002
 21
6.550003
 31
0.0
  0
LINE
  5
70
330
1E
100
AcDbEntity
  8
MO_001_VIEW_PV
  6
C_SOLID_M
100
AcDbLine
 10
-15.0
 20
6.75
 30
0.0
 11
-15.0
 21
6.550003
 31
0.0
  0
LINE
  5
71
330
1E
100
AcDbEntity
  8
MO_001_VIEW_PV
  6
C_SOLID_M
100
AcDbLine
 10
-25.0
 20
6.75
 30
0.0
 11
-25.0
 21
6.550003
 31
0.0
  0
LINE
  5
72
330
1E
100
AcDbEntity
  8
MO_001_VIEW_PV
  6
C_SOLID_M
100
AcDbLine
 10
-26.000007
 20
6.550008999999999
 30
0.0
 11
-26.200003
 21
6.750005
 31
0.0
  0
LINE
  5
73
330
1E
100
AcDbEntity
  8
MO_001_VIEW_PV
  6
C_SOLID_M
100
AcDbLine
 10
-13.999997
 20
6.550006999999999
 30
0.0
 11
-13.799998
 21
6.750005
 31
0.0
  0
LINE
  5
74
330
1E
100
AcDbEntity
  8
MO_001_VIEW_PV
  6
C_SOLID_M
100
AcDbLine
 10
-15.0
 20
6.75
 30
0.0
 11
-25.0
 21
6.75
 31
0.0
  0
LINE
  5
75
330
1E
100
AcDbEntity
  8
MO_001_VIEW_PV
  6
C_SOLID_M
100
AcDbLine
 10
0.0
 20
6.75
 30
0.0
 11
-13.799999
 21
6.75
 31
0.0
  0
LINE
  5
76
330
1E
100
AcDbEntity
  8
MO_001_VIEW_PV
  6
C_SOLID_M
100
AcDbLine
 10
-13.999996
 20
6.550003
 30
0.0
 11
-15.0
 21
6.550003
 31
0.0
  0
LINE
  5
77
330
1E
100
AcDbEntity
  8
MO_001_VIEW_PV
  6
C_SOLID_M
100
AcDbLine
 10
-26.000008
 20
-6.550008
 30
0.0
 11
-26.200004
 21
-6.750003999999999
 31
0.0
  0
LINE
  5
78
330
1E
100
AcDbEntity
  8
MO_001_VIEW_PV
  6
C_SOLID_M
100
AcDbLine
 10
-25.0
 20
-6.550003
 30
0.0
 11
-26.000002
 21
-6.550003
 31
0.0
  0
LINE
  5
79
330
1E
100
AcDbEntity
  8
MO_001_VIEW_PV
  6
C_SOLID_M
100
AcDbLine
 10
-25.0
 20
-6.75
 30
0.0
 11
-25.0
 21
-6.550003
 31
0.0
  0
LINE
  5
7A
330
1E
100
AcDbEntity
  8
MO_001_VIEW_PV
  6
C_SOLID_M
100
AcDbLine
 10
-15.0
 20
-6.75
 30
0.0
 11
-15.0
 21
-6.550003
 31
0.0
  0
LINE
  5
7B
330
1E
100
AcDbEntity
  8
MO_001_VIEW_PV
  6
C_SOLID_M
100
AcDbLine
 10
-13.999996
 20
-6.550003
 30
0.0
 11
-15.0
 21
-6.550003
 31
0.0
  0
LINE
  5
7C
330
1E
100
AcDbEntity
  8
MO_001_VIEW_PV
  6
C_SOLID_M
100
AcDbLine
 10
-14.0
 20
-6.550004
 30
0.0
 11
-13.800001
 21
-6.750002
 31
0.0
  0
LINE
  5
7D
330
1E
100
AcDbEntity
  8
MO_001_VIEW_PV
  6
C_SOLID_M
100
AcDbLine
 10
-15.0
 20
-6.75
 30
0.0
 11
-25.0
 21
-6.75
 31
0.0
  0
LINE
  5
7E
330
1E
100
AcDbEntity
  8
MO_001_VIEW_PV
  6
C_SOLID_M
100
AcDbLine
 10
0.0
 20
-6.75
 30
0.0
 11
-13.800003
 21
-6.75
 31
0.0
  0
LINE
  5
7F
330
1E
100
AcDbEntity
  8
MO_001_VIEW_PV
  6
C_CENTER_L
100
AcDbLine
 10
-29.0
 20
-2.5
 30
0.0
 11
-29.0
 21
2.5
 31
0.0
  0
LINE
  5
80
330
1E
100
AcDbEntity
  8
MO_001_VIEW_PV
  6
C_CENTER_L
100
AcDbLine
 10
-9.0
 20
-2.5
 30
0.0
 11
-9.0
 21
2.5
 31
0.0
  0
CIRCLE
  5
81
330
1E
100
AcDbEntity
  8
MO_001_VIEW_PV
  6
C_SOLID_M
100
AcDbCircle
 10
-81.0
 20
0.0
 30
0.0
 40
3.85
  0
LINE
  5
82
330
1E
100
AcDbEntity
  8
MO_001_VIEW_PV
  6
C_SOLID_M
100
AcDbLine
 10
-89.0
 20
4.75
 30
0.0
 11
-89.0
 21
-4.75
 31
0.0
  0
LINE
  5
83
330
1E
100
AcDbEntity
  8
MO_001_VIEW_PV
  6
C_SOLID_M
100
AcDbLine
 10
-69.0
 20
6.75
 30
0.0
 11
-69.0
 21
-6.75
 31
0.0
  0
LINE
  5
84
330
1E
100
AcDbEntity
  8
MO_001_VIEW_PV
  6
C_SOLID_M
100
AcDbLine
 10
-69.0
 20
-6.75
 30
0.0
 11
-87.0
 21
-6.75
 31
0.0
  0
LINE
  5
85
330
1E
100
AcDbEntity
  8
MO_001_VIEW_PV
  6
C_SOLID_M
100
AcDbLine
 10
-69.0
 20
6.75
 30
0.0
 11
-87.0
 21
6.75
 31
0.0
  0
ARC
  5
86
330
1E
100
AcDbEntity
  8
MO_001_VIEW_PV
  6
C_SOLID_M
100
AcDbCircle
 10
-87.0
 20
4.75
 30
0.0
 40
2.0
100
AcDbArc
 50
90.00000899999999
 51
179.9999909999999
  0
ARC
  5
87
330
1E
100
AcDbEntity
  8
MO_001_VIEW_PV
  6
C_SOLID_M
100
AcDbCircle
 10
-87.0
 20
-4.75
 30
0.0
 40
2.0
100
AcDbArc
 50
179.9999909999999
 51
270.000001
  0
LINE
  5
88
330
1E
100
AcDbEntity
  8
MO_001_VIEW_PV
  6
C_CENTER_L
100
AcDbLine
 10
-81.0
 20
-12.0
 30
0.0
 11
-81.0
 21
12.0
 31
0.0
  0
LINE
  5
89
330
1E
100
AcDbEntity
  8
MO_001_VIEW_PV
  6
C_CENTER_L
100
AcDbLine
 10
-66.0
 20
0.0
 30
0.0
 11
-93.0
 21
0.0
 31
0.0
  0
LINE
  5
8A
330
1E
100
AcDbEntity
  8
MO_001_VIEW_PV
  6
C_SOLID_M
100
AcDbLine
 10
0.5
 20
-37.5
 30
0.0
 11
0.5
 21
-40.49999999999999
 31
0.0
  0
LINE
  5
8B
330
1E
100
AcDbEntity
  8
MO_001_VIEW_PV
  6
C_SOLID_M
100
AcDbLine
 10
0.0
 20
-37.5
 30
0.0
 11
0.5
 21
-37.5
 31
0.0
  0
LINE
  5
8C
330
1E
100
AcDbEntity
  8
MO_001_VIEW_PV
  6
C_SOLID_M
100
AcDbLine
 10
0.0
 20
-40.49999999999999
 30
0.0
 11
0.5
 21
-40.49999999999999
 31
0.0
  0
LINE
  5
8D
330
1E
100
AcDbEntity
  8
MO_001_VIEW_PV
  6
C_SOLID_M
100
AcDbLine
 10
-48.499989
 20
-42.0
 30
0.0
 11
-50.19999699999999
 21
-42.0
 31
0.0
  0
LINE
  5
8E
330
1E
100
AcDbEntity
  8
MO_001_VIEW_PV
  6
C_SOLID_M
100
AcDbLine
 10
-48.499989
 20
-36.0
 30
0.0
 11
-50.19999699999999
 21
-36.0
 31
0.0
  0
LINE
  5
8F
330
1E
100
AcDbEntity
  8
MO_001_VIEW_PV
  6
C_SOLID_M
100
AcDbLine
 10
-50.20002999999999
 20
-42.00004899999999
 30
0.0
 11
-50.500021
 21
-41.700053
 31
0.0
  0
LINE
  5
90
330
1E
100
AcDbEntity
  8
MO_001_VIEW_PV
  6
C_SOLID_M
100
AcDbLine
 10
-50.50002899999999
 20
-36.30007899999999
 30
0.0
 11
-50.200024
 21
-36.00007399999999
 31
0.0
  0
LINE
  5
91
330
1E
100
AcDbEntity
  8
MO_001_VIEW_PV
  6
C_SOLID_M
100
AcDbLine
 10
-50.19999699999999
 20
-42.0
 30
0.0
 11
-50.19999699999999
 21
-36.0
 31
0.0
  0
LINE
  5
92
330
1E
100
AcDbEntity
  8
MO_001_VIEW_PV
  6
C_SOLID_M
100
AcDbLine
 10
-50.5
 20
-41.700012
 30
0.0
 11
-50.5
 21
-36.300003
 31
0.0
  0
LINE
  5
93
330
1E
100
AcDbEntity
  8
MO_001_VIEW_PV
  6
C_CENTER_L
100
AcDbLine
 10
-46.99998899999999
 20
-44.22764599999999
 30
0.0
 11
-46.99998899999999
 21
-33.767776
 31
0.0
  0
LINE
  5
94
330
1E
100
AcDbEntity
  8
MO_001_VIEW_PV
  6
C_DASHED_M
100
AcDbLine
 10
-45.499989
 20
-42.0
 30
0.0
 11
-45.499989
 21
-36.0
 31
0.0
  0
LINE
  5
95
330
1E
100
AcDbEntity
  8
MO_001_VIEW_PV
  6
C_DASHED_M
100
AcDbLine
 10
-48.499989
 20
-42.0
 30
0.0
 11
-48.499989
 21
-36.0
 31
0.0
  0
POLYLINE
  5
96
330
1E
100
AcDbEntity
  8
MO_001_VIEW_PV
  6
C_SOLID_M
100
AcDb2dPolyline
 66
     1
 10
0.0
 20
0.0
 30
0.0
 70
     1
  0
VERTEX
  5
278
330
96
100
AcDbEntity
  8
MO_001_VIEW_PV
  6
C_SOLID_M
100
AcDbVertex
100
AcDb2dVertex
 10
-48.499989
 20
-42.0
 30
0.0
  0
VERTEX
  5
279
330
96
100
AcDbEntity
  8
MO_001_VIEW_PV
  6
C_SOLID_M
100
AcDbVertex
100
AcDb2dVertex
 10
-48.492244
 20
-41.99548599999999
 30
0.0
  0
VERTEX
  5
27A
330
96
100
AcDbEntity
  8
MO_001_VIEW_PV
  6
C_SOLID_M
100
AcDbVertex
100
AcDb2dVertex
 10
-48.473149
 20
-41.984735
 30
0.0
  0
VERTEX
  5
27B
330
96
100
AcDbEntity
  8
MO_001_VIEW_PV
  6
C_SOLID_M
100
AcDbVertex
100
AcDb2dVertex
 10
-48.41364399999999
 20
-41.953108
 30
0.0
  0
VERTEX
  5
27C
330
96
100
AcDbEntity
  8
MO_001_VIEW_PV
  6
C_SOLID_M
100
AcDbVertex
100
AcDb2dVertex
 10
-48.348599
 20
-41.920834
 30
0.0
  0
VERTEX
  5
27D
330
96
100
AcDbEntity
  8
MO_001_VIEW_PV
  6
C_SOLID_M
100
AcDbVertex
100
AcDb2dVertex
 10
-48.220957
 20
-41.86294799999999
 30
0.0
  0
VERTEX
  5
27E
330
96
100
AcDbEntity
  8
MO_001_VIEW_PV
  6
C_SOLID_M
100
AcDbVertex
100
AcDb2dVertex
 10
-48.060651
 20
-41.799042
 30
0.0
  0
VERTEX
  5
27F
330
96
100
AcDbEntity
  8
MO_001_VIEW_PV
  6
C_SOLID_M
100
AcDbVertex
100
AcDb2dVertex
 10
-47.838656
 20
-41.725252
 30
0.0
  0
VERTEX
  5
280
330
96
100
AcDbEntity
  8
MO_001_VIEW_PV
  6
C_SOLID_M
100
AcDbVertex
100
AcDb2dVertex
 10
-47.65030399999999
 20
-41.675577
 30
0.0
  0
VERTEX
  5
281
330
96
100
AcDbEntity
  8
MO_001_VIEW_PV
  6
C_SOLID_M
100
AcDbVertex
100
AcDb2dVertex
 10
-47.49846199999999
 20
-41.64418799999999
 30
0.0
  0
VERTEX
  5
282
330
96
100
AcDbEntity
  8
MO_001_VIEW_PV
  6
C_SOLID_M
100
AcDbVertex
100
AcDb2dVertex
 10
-47.25627199999999
 20
-41.610553
 30
0.0
  0
VERTEX
  5
283
330
96
100
AcDbEntity
  8
MO_001_VIEW_PV
  6
C_SOLID_M
100
AcDbVertex
100
AcDb2dVertex
 10
-46.99998899999999
 20
-41.598083
 30
0.0
  0
VERTEX
  5
284
330
96
100
AcDbEntity
  8
MO_001_VIEW_PV
  6
C_SOLID_M
100
AcDbVertex
100
AcDb2dVertex
 10
-46.69768799999999
 20
-41.615353
 30
0.0
  0
VERTEX
  5
285
330
96
100
AcDbEntity
  8
MO_001_VIEW_PV
  6
C_SOLID_M
100
AcDbVertex
100
AcDb2dVertex
 10
-46.48424099999999
 20
-41.647366
 30
0.0
  0
VERTEX
  5
286
330
96
100
AcDbEntity
  8
MO_001_VIEW_PV
  6
C_SOLID_M
100
AcDbVertex
100
AcDb2dVertex
 10
-46.33334099999999
 20
-41.679417
 30
0.0
  0
VERTEX
  5
287
330
96
100
AcDbEntity
  8
MO_001_VIEW_PV
  6
C_SOLID_M
100
AcDbVertex
100
AcDb2dVertex
 10
-46.12432499999999
 20
-41.7364
 30
0.0
  0
VERTEX
  5
288
330
96
100
AcDbEntity
  8
MO_001_VIEW_PV
  6
C_SOLID_M
100
AcDbVertex
100
AcDb2dVertex
 10
-45.939331
 20
-41.799042
 30
0.0
  0
VERTEX
  5
289
330
96
100
AcDbEntity
  8
MO_001_VIEW_PV
  6
C_SOLID_M
100
AcDbVertex
100
AcDb2dVertex
 10
-45.84251799999999
 20
-41.83652499999999
 30
0.0
  0
VERTEX
  5
28A
330
96
100
AcDbEntity
  8
MO_001_VIEW_PV
  6
C_SOLID_M
100
AcDbVertex
100
AcDb2dVertex
 10
-45.698723
 20
-41.89857899999999
 30
0.0
  0
VERTEX
  5
28B
330
96
100
AcDbEntity
  8
MO_001_VIEW_PV
  6
C_SOLID_M
100
AcDbVertex
100
AcDb2dVertex
 10
-45.614334
 20
-41.93895799999999
 30
0.0
  0
VERTEX
  5
28C
330
96
100
AcDbEntity
  8
MO_001_VIEW_PV
  6
C_SOLID_M
100
AcDbVertex
100
AcDb2dVertex
 10
-45.56538699999999
 20
-41.963979
 30
0.0
  0
VERTEX
  5
28D
330
96
100
AcDbEntity
  8
MO_001_VIEW_PV
  6
C_SOLID_M
100
AcDbVertex
100
AcDb2dVertex
 10
-45.516743
 20
-41.990363
 30
0.0
  0
VERTEX
  5
28E
330
96
100
AcDbEntity
  8
MO_001_VIEW_PV
  6
C_SOLID_M
100
AcDbVertex
100
AcDb2dVertex
 10
-45.499989
 20
-42.0
 30
0.0
  0
VERTEX
  5
28F
330
96
100
AcDbEntity
  8
MO_001_VIEW_PV
  6
C_SOLID_M
100
AcDbVertex
100
AcDb2dVertex
 10
-45.507733
 20
-41.99548599999999
 30
0.0
  0
VERTEX
  5
290
330
96
100
AcDbEntity
  8
MO_001_VIEW_PV
  6
C_SOLID_M
100
AcDbVertex
100
AcDb2dVertex
 10
-45.526828
 20
-41.984735
 30
0.0
  0
VERTEX
  5
291
330
96
100
AcDbEntity
  8
MO_001_VIEW_PV
  6
C_SOLID_M
100
AcDbVertex
100
AcDb2dVertex
 10
-45.586335
 20
-41.953108
 30
0.0
  0
VERTEX
  5
292
330
96
100
AcDbEntity
  8
MO_001_VIEW_PV
  6
C_SOLID_M
100
AcDbVertex
100
AcDb2dVertex
 10
-45.65138
 20
-41.920834
 30
0.0
  0
VERTEX
  5
293
330
96
100
AcDbEntity
  8
MO_001_VIEW_PV
  6
C_SOLID_M
100
AcDbVertex
100
AcDb2dVertex
 10
-45.779024
 20
-41.86294799999999
 30
0.0
  0
VERTEX
  5
294
330
96
100
AcDbEntity
  8
MO_001_VIEW_PV
  6
C_SOLID_M
100
AcDbVertex
100
AcDb2dVertex
 10
-45.939331
 20
-41.799042
 30
0.0
  0
VERTEX
  5
295
330
96
100
AcDbEntity
  8
MO_001_VIEW_PV
  6
C_SOLID_M
100
AcDbVertex
100
AcDb2dVertex
 10
-46.161327
 20
-41.725252
 30
0.0
  0
VERTEX
  5
296
330
96
100
AcDbEntity
  8
MO_001_VIEW_PV
  6
C_SOLID_M
100
AcDbVertex
100
AcDb2dVertex
 10
-46.34967899999999
 20
-41.675577
 30
0.0
  0
VERTEX
  5
297
330
96
100
AcDbEntity
  8
MO_001_VIEW_PV
  6
C_SOLID_M
100
AcDbVertex
100
AcDb2dVertex
 10
-46.501521
 20
-41.64418799999999
 30
0.0
  0
VERTEX
  5
298
330
96
100
AcDbEntity
  8
MO_001_VIEW_PV
  6
C_SOLID_M
100
AcDbVertex
100
AcDb2dVertex
 10
-46.743709
 20
-41.610553
 30
0.0
  0
VERTEX
  5
299
330
96
100
AcDbEntity
  8
MO_001_VIEW_PV
  6
C_SOLID_M
100
AcDbVertex
100
AcDb2dVertex
 10
-46.99998899999999
 20
-41.598083
 30
0.0
  0
VERTEX
  5
29A
330
96
100
AcDbEntity
  8
MO_001_VIEW_PV
  6
C_SOLID_M
100
AcDbVertex
100
AcDb2dVertex
 10
-47.302293
 20
-41.615353
 30
0.0
  0
VERTEX
  5
29B
330
96
100
AcDbEntity
  8
MO_001_VIEW_PV
  6
C_SOLID_M
100
AcDbVertex
100
AcDb2dVertex
 10
-47.51574199999999
 20
-41.647366
 30
0.0
  0
VERTEX
  5
29C
330
96
100
AcDbEntity
  8
MO_001_VIEW_PV
  6
C_SOLID_M
100
AcDbVertex
100
AcDb2dVertex
 10
-47.666642
 20
-41.679417
 30
0.0
  0
VERTEX
  5
29D
330
96
100
AcDbEntity
  8
MO_001_VIEW_PV
  6
C_SOLID_M
100
AcDbVertex
100
AcDb2dVertex
 10
-47.875658
 20
-41.7364
 30
0.0
  0
VERTEX
  5
29E
330
96
100
AcDbEntity
  8
MO_001_VIEW_PV
  6
C_SOLID_M
100
AcDbVertex
100
AcDb2dVertex
 10
-48.060651
 20
-41.799042
 30
0.0
  0
VERTEX
  5
29F
330
96
100
AcDbEntity
  8
MO_001_VIEW_PV
  6
C_SOLID_M
100
AcDbVertex
100
AcDb2dVertex
 10
-48.157464
 20
-41.83652499999999
 30
0.0
  0
VERTEX
  5
2A0
330
96
100
AcDbEntity
  8
MO_001_VIEW_PV
  6
C_SOLID_M
100
AcDbVertex
100
AcDb2dVertex
 10
-48.30125699999999
 20
-41.89857899999999
 30
0.0
  0
VERTEX
  5
2A1
330
96
100
AcDbEntity
  8
MO_001_VIEW_PV
  6
C_SOLID_M
100
AcDbVertex
100
AcDb2dVertex
 10
-48.385645
 20
-41.93895799999999
 30
0.0
  0
VERTEX
  5
2A2
330
96
100
AcDbEntity
  8
MO_001_VIEW_PV
  6
C_SOLID_M
100
AcDbVertex
100
AcDb2dVertex
 10
-48.43459199999999
 20
-41.963979
 30
0.0
  0
VERTEX
  5
2A3
330
96
100
AcDbEntity
  8
MO_001_VIEW_PV
  6
C_SOLID_M
100
AcDbVertex
100
AcDb2dVertex
 10
-48.483235
 20
-41.990363
 30
0.0
  0
VERTEX
  5
2A4
330
96
100
AcDbEntity
  8
MO_001_VIEW_PV
  6
C_SOLID_M
100
AcDbVertex
100
AcDb2dVertex
 10
-48.499989
 20
-42.0
 30
0.0
  0
SEQEND
  5
2A5
330
96
100
AcDbEntity
  8
MO_001_VIEW_PV
  6
C_SOLID_M
  0
POLYLINE
  5
C5
330
1E
100
AcDbEntity
  8
MO_001_VIEW_PV
  6
C_SOLID_M
100
AcDb2dPolyline
 66
     1
 10
0.0
 20
0.0
 30
0.0
 70
     1
  0
VERTEX
  5
2A6
330
C5
100
AcDbEntity
  8
MO_001_VIEW_PV
  6
C_SOLID_M
100
AcDbVertex
100
AcDb2dVertex
 10
-48.499989
 20
-36.0
 30
0.0
  0
VERTEX
  5
2A7
330
C5
100
AcDbEntity
  8
MO_001_VIEW_PV
  6
C_SOLID_M
100
AcDbVertex
100
AcDb2dVertex
 10
-48.492244
 20
-36.004514
 30
0.0
  0
VERTEX
  5
2A8
330
C5
100
AcDbEntity
  8
MO_001_VIEW_PV
  6
C_SOLID_M
100
AcDbVertex
100
AcDb2dVertex
 10
-48.473149
 20
-36.015265
 30
0.0
  0
VERTEX
  5
2A9
330
C5
100
AcDbEntity
  8
MO_001_VIEW_PV
  6
C_SOLID_M
100
AcDbVertex
100
AcDb2dVertex
 10
-48.41364399999999
 20
-36.04689099999999
 30
0.0
  0
VERTEX
  5
2AA
330
C5
100
AcDbEntity
  8
MO_001_VIEW_PV
  6
C_SOLID_M
100
AcDbVertex
100
AcDb2dVertex
 10
-48.348599
 20
-36.079166
 30
0.0
  0
VERTEX
  5
2AB
330
C5
100
AcDbEntity
  8
MO_001_VIEW_PV
  6
C_SOLID_M
100
AcDbVertex
100
AcDb2dVertex
 10
-48.220957
 20
-36.137052
 30
0.0
  0
VERTEX
  5
2AC
330
C5
100
AcDbEntity
  8
MO_001_VIEW_PV
  6
C_SOLID_M
100
AcDbVertex
100
AcDb2dVertex
 10
-48.060651
 20
-36.200958
 30
0.0
  0
VERTEX
  5
2AD
330
C5
100
AcDbEntity
  8
MO_001_VIEW_PV
  6
C_SOLID_M
100
AcDbVertex
100
AcDb2dVertex
 10
-47.838656
 20
-36.27474799999999
 30
0.0
  0
VERTEX
  5
2AE
330
C5
100
AcDbEntity
  8
MO_001_VIEW_PV
  6
C_SOLID_M
100
AcDbVertex
100
AcDb2dVertex
 10
-47.650303
 20
-36.32442299999999
 30
0.0
  0
VERTEX
  5
2AF
330
C5
100
AcDbEntity
  8
MO_001_VIEW_PV
  6
C_SOLID_M
100
AcDbVertex
100
AcDb2dVertex
 10
-47.49846199999999
 20
-36.355812
 30
0.0
  0
VERTEX
  5
2B0
330
C5
100
AcDbEntity
  8
MO_001_VIEW_PV
  6
C_SOLID_M
100
AcDbVertex
100
AcDb2dVertex
 10
-47.25627199999999
 20
-36.38944699999999
 30
0.0
  0
VERTEX
  5
2B1
330
C5
100
AcDbEntity
  8
MO_001_VIEW_PV
  6
C_SOLID_M
100
AcDbVertex
100
AcDb2dVertex
 10
-46.99998899999999
 20
-36.40191699999999
 30
0.0
  0
VERTEX
  5
2B2
330
C5
100
AcDbEntity
  8
MO_001_VIEW_PV
  6
C_SOLID_M
100
AcDbVertex
100
AcDb2dVertex
 10
-46.69768799999999
 20
-36.38464699999999
 30
0.0
  0
VERTEX
  5
2B3
330
C5
100
AcDbEntity
  8
MO_001_VIEW_PV
  6
C_SOLID_M
100
AcDbVertex
100
AcDb2dVertex
 10
-46.48424099999999
 20
-36.352634
 30
0.0
  0
VERTEX
  5
2B4
330
C5
100
AcDbEntity
  8
MO_001_VIEW_PV
  6
C_SOLID_M
100
AcDbVertex
100
AcDb2dVertex
 10
-46.33334099999999
 20
-36.320583
 30
0.0
  0
VERTEX
  5
2B5
330
C5
100
AcDbEntity
  8
MO_001_VIEW_PV
  6
C_SOLID_M
100
AcDbVertex
100
AcDb2dVertex
 10
-46.12432499999999
 20
-36.2636
 30
0.0
  0
VERTEX
  5
2B6
330
C5
100
AcDbEntity
  8
MO_001_VIEW_PV
  6
C_SOLID_M
100
AcDbVertex
100
AcDb2dVertex
 10
-45.939331
 20
-36.200958
 30
0.0
  0
VERTEX
  5
2B7
330
C5
100
AcDbEntity
  8
MO_001_VIEW_PV
  6
C_SOLID_M
100
AcDbVertex
100
AcDb2dVertex
 10
-45.84251799999999
 20
-36.16347499999999
 30
0.0
  0
VERTEX
  5
2B8
330
C5
100
AcDbEntity
  8
MO_001_VIEW_PV
  6
C_SOLID_M
100
AcDbVertex
100
AcDb2dVertex
 10
-45.698723
 20
-36.10142
 30
0.0
  0
VERTEX
  5
2B9
330
C5
100
AcDbEntity
  8
MO_001_VIEW_PV
  6
C_SOLID_M
100
AcDbVertex
100
AcDb2dVertex
 10
-45.614334
 20
-36.061042
 30
0.0
  0
VERTEX
  5
2BA
330
C5
100
AcDbEntity
  8
MO_001_VIEW_PV
  6
C_SOLID_M
100
AcDbVertex
100
AcDb2dVertex
 10
-45.56538699999999
 20
-36.036021
 30
0.0
  0
VERTEX
  5
2BB
330
C5
100
AcDbEntity
  8
MO_001_VIEW_PV
  6
C_SOLID_M
100
AcDbVertex
100
AcDb2dVertex
 10
-45.516743
 20
-36.00963699999999
 30
0.0
  0
VERTEX
  5
2BC
330
C5
100
AcDbEntity
  8
MO_001_VIEW_PV
  6
C_SOLID_M
100
AcDbVertex
100
AcDb2dVertex
 10
-45.499989
 20
-36.0
 30
0.0
  0
VERTEX
  5
2BD
330
C5
100
AcDbEntity
  8
MO_001_VIEW_PV
  6
C_SOLID_M
100
AcDbVertex
100
AcDb2dVertex
 10
-45.507733
 20
-36.004514
 30
0.0
  0
VERTEX
  5
2BE
330
C5
100
AcDbEntity
  8
MO_001_VIEW_PV
  6
C_SOLID_M
100
AcDbVertex
100
AcDb2dVertex
 10
-45.526828
 20
-36.015265
 30
0.0
  0
VERTEX
  5
2BF
330
C5
100
AcDbEntity
  8
MO_001_VIEW_PV
  6
C_SOLID_M
100
AcDbVertex
100
AcDb2dVertex
 10
-45.586335
 20
-36.046892
 30
0.0
  0
VERTEX
  5
2C0
330
C5
100
AcDbEntity
  8
MO_001_VIEW_PV
  6
C_SOLID_M
100
AcDbVertex
100
AcDb2dVertex
 10
-45.65138
 20
-36.079166
 30
0.0
  0
VERTEX
  5
2C1
330
C5
100
AcDbEntity
  8
MO_001_VIEW_PV
  6
C_SOLID_M
100
AcDbVertex
100
AcDb2dVertex
 10
-45.779024
 20
-36.137052
 30
0.0
  0
VERTEX
  5
2C2
330
C5
100
AcDbEntity
  8
MO_001_VIEW_PV
  6
C_SOLID_M
100
AcDbVertex
100
AcDb2dVertex
 10
-45.939331
 20
-36.200958
 30
0.0
  0
VERTEX
  5
2C3
330
C5
100
AcDbEntity
  8
MO_001_VIEW_PV
  6
C_SOLID_M
100
AcDbVertex
100
AcDb2dVertex
 10
-46.161327
 20
-36.27474799999999
 30
0.0
  0
VERTEX
  5
2C4
330
C5
100
AcDbEntity
  8
MO_001_VIEW_PV
  6
C_SOLID_M
100
AcDbVertex
100
AcDb2dVertex
 10
-46.34967899999999
 20
-36.32442299999999
 30
0.0
  0
VERTEX
  5
2C5
330
C5
100
AcDbEntity
  8
MO_001_VIEW_PV
  6
C_SOLID_M
100
AcDbVertex
100
AcDb2dVertex
 10
-46.501521
 20
-36.355812
 30
0.0
  0
VERTEX
  5
2C6
330
C5
100
AcDbEntity
  8
MO_001_VIEW_PV
  6
C_SOLID_M
100
AcDbVertex
100
AcDb2dVertex
 10
-46.743709
 20
-36.38944699999999
 30
0.0
  0
VERTEX
  5
2C7
330
C5
100
AcDbEntity
  8
MO_001_VIEW_PV
  6
C_SOLID_M
100
AcDbVertex
100
AcDb2dVertex
 10
-46.99998899999999
 20
-36.40191699999999
 30
0.0
  0
VERTEX
  5
2C8
330
C5
100
AcDbEntity
  8
MO_001_VIEW_PV
  6
C_SOLID_M
100
AcDbVertex
100
AcDb2dVertex
 10
-47.302293
 20
-36.38464699999999
 30
0.0
  0
VERTEX
  5
2C9
330
C5
100
AcDbEntity
  8
MO_001_VIEW_PV
  6
C_SOLID_M
100
AcDbVertex
100
AcDb2dVertex
 10
-47.51574199999999
 20
-36.352634
 30
0.0
  0
VERTEX
  5
2CA
330
C5
100
AcDbEntity
  8
MO_001_VIEW_PV
  6
C_SOLID_M
100
AcDbVertex
100
AcDb2dVertex
 10
-47.666642
 20
-36.320583
 30
0.0
  0
VERTEX
  5
2CB
330
C5
100
AcDbEntity
  8
MO_001_VIEW_PV
  6
C_SOLID_M
100
AcDbVertex
100
AcDb2dVertex
 10
-47.875658
 20
-36.2636
 30
0.0
  0
VERTEX
  5
2CC
330
C5
100
AcDbEntity
  8
MO_001_VIEW_PV
  6
C_SOLID_M
100
AcDbVertex
100
AcDb2dVertex
 10
-48.060651
 20
-36.200958
 30
0.0
  0
VERTEX
  5
2CD
330
C5
100
AcDbEntity
  8
MO_001_VIEW_PV
  6
C_SOLID_M
100
AcDbVertex
100
AcDb2dVertex
 10
-48.157464
 20
-36.16347499999999
 30
0.0
  0
VERTEX
  5
2CE
330
C5
100
AcDbEntity
  8
MO_001_VIEW_PV
  6
C_SOLID_M
100
AcDbVertex
100
AcDb2dVertex
 10
-48.30125699999999
 20
-36.101421
 30
0.0
  0
VERTEX
  5
2CF
330
C5
100
AcDbEntity
  8
MO_001_VIEW_PV
  6
C_SOLID_M
100
AcDbVertex
100
AcDb2dVertex
 10
-48.385645
 20
-36.061043
 30
0.0
  0
VERTEX
  5
2D0
330
C5
100
AcDbEntity
  8
MO_001_VIEW_PV
  6
C_SOLID_M
100
AcDbVertex
100
AcDb2dVertex
 10
-48.43459199999999
 20
-36.036021
 30
0.0
  0
VERTEX
  5
2D1
330
C5
100
AcDbEntity
  8
MO_001_VIEW_PV
  6
C_SOLID_M
100
AcDbVertex
100
AcDb2dVertex
 10
-48.483235
 20
-36.00963699999999
 30
0.0
  0
VERTEX
  5
2D2
330
C5
100
AcDbEntity
  8
MO_001_VIEW_PV
  6
C_SOLID_M
100
AcDbVertex
100
AcDb2dVertex
 10
-48.499989
 20
-36.0
 30
0.0
  0
SEQEND
  5
2D3
330
C5
100
AcDbEntity
  8
MO_001_VIEW_PV
  6
C_SOLID_M
  0
LINE
  5
F4
330
1E
100
AcDbEntity
  8
MO_001_VIEW_PV
  6
C_SOLID_M
100
AcDbLine
 10
-40.0
 20
-42.0
 30
0.0
 11
-45.499989
 21
-42.0
 31
0.0
  0
LINE
  5
F5
330
1E
100
AcDbEntity
  8
MO_001_VIEW_PV
  6
C_SOLID_M
100
AcDbLine
 10
-40.0
 20
-36.0
 30
0.0
 11
-45.499989
 21
-36.0
 31
0.0
  0
LINE
  5
F6
330
1E
100
AcDbEntity
  8
MO_001_VIEW_PV
  6
C_SOLID_M
100
AcDbLine
 10
-38.0
 20
-28.899994
 30
0.0
 11
-38.0
 21
-29.0
 31
0.0
  0
LINE
  5
F7
330
1E
100
AcDbEntity
  8
MO_001_VIEW_PV
  6
C_SOLID_M
100
AcDbLine
 10
-36.799999
 20
-28.899994
 30
0.0
 11
-36.799999
 21
-29.0
 31
0.0
  0
LINE
  5
F8
330
1E
100
AcDbEntity
  8
MO_001_VIEW_PV
  6
C_SOLID_M
100
AcDbLine
 10
-3.200000999999999
 20
-32.25
 30
0.0
 11
-3.200000999999999
 21
-45.75
 31
0.0
  0
LINE
  5
F9
330
1E
100
AcDbEntity
  8
MO_001_VIEW_PV
  6
C_SOLID_M
100
AcDbLine
 10
-2.0
 20
-35.149994
 30
0.0
 11
-2.0
 21
-42.850006
 31
0.0
  0
LINE
  5
FA
330
1E
100
AcDbEntity
  8
MO_001_VIEW_PV
  6
C_SOLID_M
100
AcDbLine
 10
-4.200001
 20
-32.25
 30
0.0
 11
-4.200001
 21
-45.75
 31
0.0
  0
LINE
  5
FB
330
1E
100
AcDbEntity
  8
MO_001_VIEW_PV
  6
C_SOLID_M
100
AcDbLine
 10
-4.200001
 20
-32.25
 30
0.0
 11
-3.200000999999999
 21
-32.25
 31
0.0
  0
LINE
  5
FC
330
1E
100
AcDbEntity
  8
MO_001_VIEW_PV
  6
C_SOLID_M
100
AcDbLine
 10
-4.200001
 20
-45.75
 30
0.0
 11
-3.200000999999999
 21
-45.75
 31
0.0
  0
LINE
  5
FD
330
1E
100
AcDbEntity
  8
MO_001_VIEW_PV
  6
C_SOLID_M
100
AcDbLine
 10
-3.200000999999999
 20
-35.149994
 30
0.0
 11
-3.114141
 21
-35.149994
 31
0.0
  0
LINE
  5
FE
330
1E
100
AcDbEntity
  8
MO_001_VIEW_PV
  6
C_SOLID_M
100
AcDbLine
 10
-3.200000999999999
 20
-42.850006
 30
0.0
 11
-3.114141
 21
-42.850006
 31
0.0
  0
LINE
  5
FF
330
1E
100
AcDbEntity
  8
MO_001_VIEW_PV
  6
C_SOLID_M
100
AcDbLine
 10
-38.0
 20
-28.899994
 30
0.0
 11
-36.799999
 21
-28.899994
 31
0.0
  0
LINE
  5
100
330
1E
100
AcDbEntity
  8
MO_001_VIEW_PV
  6
C_SOLID_M
100
AcDbLine
 10
-38.0
 20
-46.5
 30
0.0
 11
-36.799999
 21
-46.5
 31
0.0
  0
LINE
  5
101
330
1E
100
AcDbEntity
  8
MO_001_VIEW_PV
  6
C_SOLID_M
100
AcDbLine
 10
-50.19999699999999
 20
-2.999992999999999
 30
0.0
 11
-50.499988
 21
-2.699996
 31
0.0
  0
LINE
  5
102
330
1E
100
AcDbEntity
  8
MO_001_VIEW_PV
  6
C_SOLID_M
100
AcDbLine
 10
-50.499997
 20
2.699978999999999
 30
0.0
 11
-50.199993
 21
2.999983999999999
 31
0.0
  0
LINE
  5
103
330
1E
100
AcDbEntity
  8
MO_001_VIEW_PV
  6
C_SOLID_M
100
AcDbLine
 10
-50.19999699999999
 20
-3.0
 30
0.0
 11
-50.19999699999999
 21
3.0
 31
0.0
  0
LINE
  5
104
330
1E
100
AcDbEntity
  8
MO_001_VIEW_PV
  6
C_SOLID_M
100
AcDbLine
 10
-50.5
 20
-2.700012
 30
0.0
 11
-50.5
 21
2.699997
 31
0.0
  0
LINE
  5
105
330
1E
100
AcDbEntity
  8
MO_001_VIEW_PV
  6
C_CENTER_L
100
AcDbLine
 10
-46.99998899999999
 20
-5.227646
 30
0.0
 11
-46.99998899999999
 21
5.232223999999999
 31
0.0
  0
LINE
  5
106
330
1E
100
AcDbEntity
  8
MO_001_VIEW_PV
  6
C_SOLID_M
100
AcDbLine
 10
-40.0
 20
-3.0
 30
0.0
 11
-50.19999699999999
 21
-3.0
 31
0.0
  0
LINE
  5
107
330
1E
100
AcDbEntity
  8
MO_001_VIEW_PV
  6
C_SOLID_M
100
AcDbLine
 10
-40.0
 20
3.0
 30
0.0
 11
-50.19999699999999
 21
3.0
 31
0.0
  0
LINE
  5
108
330
1E
100
AcDbEntity
  8
MO_001_VIEW_PV
  6
C_SOLID_M
100
AcDbLine
 10
0.5
 20
1.5
 30
0.0
 11
0.5
 21
-1.5
 31
0.0
  0
LINE
  5
109
330
1E
100
AcDbEntity
  8
MO_001_VIEW_PV
  6
C_SOLID_M
100
AcDbLine
 10
0.0
 20
1.5
 30
0.0
 11
0.5
 21
1.5
 31
0.0
  0
LINE
  5
10A
330
1E
100
AcDbEntity
  8
MO_001_VIEW_PV
  6
C_SOLID_M
100
AcDbLine
 10
0.0
 20
-1.5
 30
0.0
 11
0.5
 21
-1.5
 31
0.0
  0
CIRCLE
  5
10B
330
1E
100
AcDbEntity
  8
MO_001_VIEW_PV
  6
C_SOLID_M
100
AcDbCircle
 10
-46.99998899999999
 20
0.0
 30
0.0
 40
1.5
  0
CIRCLE
  5
10C
330
1E
100
AcDbEntity
  8
MO_001_VIEW_PV
  6
C_SOLID_M
100
AcDbCircle
 10
-46.99998899999999
 20
0.0
 30
0.0
 40
1.7
  0
CIRCLE
  5
10D
330
1E
100
AcDbEntity
  8
MO_001_VIEW_PV
  6
C_SOLID_M
100
AcDbCircle
 10
-81.0
 20
0.0
 30
0.0
 40
3.0
  0
CIRCLE
  5
10E
330
1E
100
AcDbEntity
  8
MO_001_VIEW_PV
  6
C_SOLID_M
100
AcDbCircle
 10
-81.0
 20
0.0
 30
0.0
 40
2.7
  0
LINE
  5
10F
330
1E
100
AcDbEntity
  8
MO_001_VIEW_PV
  6
C_SOLID_M
100
AcDbLine
 10
47.0
 20
1.240002
 30
0.0
 11
47.0
 21
0.759998
 31
0.0
  0
LINE
  5
110
330
1E
100
AcDbEntity
  8
MO_001_VIEW_PV
  6
C_SOLID_M
100
AcDbLine
 10
42.0
 20
1.659999999999999
 30
0.0
 11
42.0
 21
0.34
 31
0.0
  0
LINE
  5
111
330
1E
100
AcDbEntity
  8
MO_001_VIEW_PV
  6
C_SOLID_M
100
AcDbLine
 10
0.0
 20
1.659999999999999
 30
0.0
 11
42.0
 21
1.659999999999999
 31
0.0
  0
LINE
  5
112
330
1E
100
AcDbEntity
  8
MO_001_VIEW_PV
  6
C_SOLID_M
100
AcDbLine
 10
0.5
 20
0.34
 30
0.0
 11
42.0
 21
0.34
 31
0.0
  0
LINE
  5
113
330
1E
100
AcDbEntity
  8
MO_001_VIEW_PV
  6
C_SOLID_M
100
AcDbLine
 10
42.0
 20
1.240002
 30
0.0
 11
47.0
 21
1.240002
 31
0.0
  0
LINE
  5
114
330
1E
100
AcDbEntity
  8
MO_001_VIEW_PV
  6
C_SOLID_M
100
AcDbLine
 10
42.0
 20
0.759998
 30
0.0
 11
47.0
 21
0.759998
 31
0.0
  0
LINE
  5
115
330
1E
100
AcDbEntity
  8
MO_001_VIEW_PV
  6
C_SOLID_M
100
AcDbLine
 10
47.0
 20
-0.759998
 30
0.0
 11
47.0
 21
-1.240002
 31
0.0
  0
LINE
  5
116
330
1E
100
AcDbEntity
  8
MO_001_VIEW_PV
  6
C_SOLID_M
100
AcDbLine
 10
42.0
 20
-0.34
 30
0.0
 11
42.0
 21
-1.659999999999999
 31
0.0
  0
LINE
  5
117
330
1E
100
AcDbEntity
  8
MO_001_VIEW_PV
  6
C_SOLID_M
100
AcDbLine
 10
0.5
 20
-0.34
 30
0.0
 11
42.0
 21
-0.34
 31
0.0
  0
LINE
  5
118
330
1E
100
AcDbEntity
  8
MO_001_VIEW_PV
  6
C_SOLID_M
100
AcDbLine
 10
0.0
 20
-1.659999999999999
 30
0.0
 11
42.0
 21
-1.659999999999999
 31
0.0
  0
LINE
  5
119
330
1E
100
AcDbEntity
  8
MO_001_VIEW_PV
  6
C_SOLID_M
100
AcDbLine
 10
42.0
 20
-0.759998
 30
0.0
 11
47.0
 21
-0.759998
 31
0.0
  0
LINE
  5
11A
330
1E
100
AcDbEntity
  8
MO_001_VIEW_PV
  6
C_SOLID_M
100
AcDbLine
 10
42.0
 20
-1.240002
 30
0.0
 11
47.0
 21
-1.240002
 31
0.0
  0
LINE
  5
11B
330
1E
100
AcDbEntity
  8
MO_001_VIEW_PV
  6
C_SOLID_M
100
AcDbLine
 10
47.0
 20
-48.76001
 30
0.0
 11
47.0
 21
-49.23999
 31
0.0
  0
LINE
  5
11C
330
1E
100
AcDbEntity
  8
MO_001_VIEW_PV
  6
C_SOLID_M
100
AcDbLine
 10
42.0
 20
-48.339996
 30
0.0
 11
42.0
 21
-49.660004
 31
0.0
  0
LINE
  5
11D
330
1E
100
AcDbEntity
  8
MO_001_VIEW_PV
  6
C_SOLID_M
100
AcDbLine
 10
-2.700000999999999
 20
-48.339996
 30
0.0
 11
42.0
 21
-48.339996
 31
0.0
  0
LINE
  5
11E
330
1E
100
AcDbEntity
  8
MO_001_VIEW_PV
  6
C_SOLID_M
100
AcDbLine
 10
-2.700000999999999
 20
-49.660004
 30
0.0
 11
42.0
 21
-49.660004
 31
0.0
  0
LINE
  5
11F
330
1E
100
AcDbEntity
  8
MO_001_VIEW_PV
  6
C_SOLID_M
100
AcDbLine
 10
42.0
 20
-48.76001
 30
0.0
 11
47.0
 21
-48.76001
 31
0.0
  0
LINE
  5
120
330
1E
100
AcDbEntity
  8
MO_001_VIEW_PV
  6
C_SOLID_M
100
AcDbLine
 10
42.0
 20
-49.23999
 30
0.0
 11
47.0
 21
-49.23999
 31
0.0
  0
LINE
  5
121
330
1E
100
AcDbEntity
  8
MO_001_VIEW_PV
  6
C_SOLID_M
100
AcDbLine
 10
-4.700001
 20
-45.25
 30
0.0
 11
-4.700001
 21
-46.339996
 31
0.0
  0
LINE
  5
122
330
1E
100
AcDbEntity
  8
MO_001_VIEW_PV
  6
C_SOLID_M
100
AcDbLine
 10
-6.019999999999999
 20
-45.25
 30
0.0
 11
-6.019999999999999
 21
-46.339996
 31
0.0
  0
ARC
  5
123
330
1E
100
AcDbEntity
  8
MO_001_VIEW_PV
  6
C_SOLID_M
100
AcDbCircle
 10
-2.700000999999999
 20
-46.339996
 30
0.0
 40
2.0
100
AcDbArc
 50
180.000009
 51
269.999998
  0
ARC
  5
124
330
1E
100
AcDbEntity
  8
MO_001_VIEW_PV
  6
C_SOLID_M
100
AcDbCircle
 10
-2.700000999999999
 20
-46.339996
 30
0.0
 40
3.319999999999999
100
AcDbArc
 50
180.000009
 51
269.999998
  0
LINE
  5
125
330
1E
100
AcDbEntity
  8
MO_001_VIEW_PV
  6
C_SOLID_M
100
AcDbLine
 10
-36.799999
 20
-29.0
 30
0.0
 11
-36.799999
 21
-46.5
 31
0.0
  0
LINE
  5
126
330
1E
100
AcDbEntity
  8
MO_001_VIEW_PV
  6
C_SOLID_M
100
AcDbLine
 10
-36.799999
 20
-45.25
 30
0.0
 11
-4.200001
 21
-45.25
 31
0.0
  0
LINE
  5
127
330
1E
100
AcDbEntity
  8
MO_001_VIEW_PV
  6
C_SOLID_M
100
AcDbLine
 10
-36.799999
 20
-32.75
 30
0.0
 11
-4.200001
 21
-32.75
 31
0.0
  0
LINE
  5
128
330
1E
100
AcDbEntity
  8
MO_001_VIEW_PV
  6
C_SOLID_M
100
AcDbLine
 10
-2.799999999999999
 20
-33.0
 30
0.0
 11
-2.799999999999999
 21
-45.0
 31
0.0
  0
ARC
  5
129
330
1E
100
AcDbEntity
  8
MO_001_VIEW_PV
  6
C_SOLID_M
100
AcDbCircle
 10
30.74993499999999
 20
-39.0
 30
0.0
 40
34.082226
100
AcDbArc
 50
169.860535
 51
174.950159
  0
ARC
  5
12A
330
1E
100
AcDbEntity
  8
MO_001_VIEW_PV
  6
C_SOLID_M
100
AcDbCircle
 10
30.74993499999999
 20
-39.0
 30
0.0
 40
34.082226
100
AcDbArc
 50
185.0498409999999
 51
190.139465
  0
LINE
  5
12B
330
1E
100
AcDbEntity
  8
MO_001_VIEW_PV
  6
C_SOLID_M
100
AcDbLine
 10
-2.799999
 20
-32.999963
 30
0.0
 11
-2.000000999999999
 21
-33.07149799999999
 31
0.0
  0
LINE
  5
12C
330
1E
100
AcDbEntity
  8
MO_001_VIEW_PV
  6
C_SOLID_M
100
AcDbLine
 10
-2.799997
 20
-44.999959
 30
0.0
 11
-1.999999
 21
-44.92842399999999
 31
0.0
  0
LINE
  5
12D
330
1E
100
AcDbEntity
  8
MO_001_VIEW_PV
  6
C_SOLID_L
100
AcDbLine
 10
2.191384
 20
24.0
 30
0.0
 11
27.216122
 21
24.0
 31
0.0
  0
LINE
  5
12E
330
1E
100
AcDbEntity
  8
MO_001_VIEW_PV
  6
C_SOLID_L
100
AcDbLine
 10
-66.0
 20
-13.5
 30
0.0
 11
-53.514996
 21
-13.5
 31
0.0
  0
TEXT
  5
12F
330
1E
100
AcDbEntity
  8
MO_001_VIEW_PV
  6
C_SOLID_L
100
AcDbText
 10
-97.488281
 20
-77.08359399999999
 30
0.0
 40
4.167187
  1
SK0640C
100
AcDbText
  0
TEXT
  5
130
330
1E
100
AcDbEntity
  8
MO_001_VIEW_PV
  6
C_SOLID_L
100
AcDbText
 10
4.428570999999999
 20
-60.75
 30
0.0
 40
3.0
  1
UL1007 AWG.26
100
AcDbText
  0
TEXT
  5
131
330
1E
100
AcDbEntity
  8
MO_001_VIEW_PV
  6
C_SOLID_L
100
AcDbText
 10
31.511719
 20
-77.08359399999999
 30
0.0
 40
4.167187
  1
単位：mm
100
AcDbText
  0
TEXT
  5
132
330
1E
100
AcDbEntity
  8
MO_001_VIEW_PV
  6
C_SOLID_L
100
AcDbText
 10
31.511719
 20
-83.08359399999998
 30
0.0
 40
4.167187
  1
図は励磁時を示す
100
AcDbText
  0
TEXT
  5
133
330
1E
100
AcDbEntity
  8
MO_001_VIEW_PV
  6
C_SOLID_L
100
AcDbText
 10
-52.071429
 20
-70.5
 30
0.0
 40
3.0
  1
板厚2.0mm、ネジ突き出しは1.0mm以下
100
AcDbText
  0
TEXT
  5
134
330
1E
100
AcDbEntity
  8
MO_001_VIEW_PV
  6
C_SOLID_L
100
AcDbText
 10
2.619956
 20
24.75
 30
0.0
 40
3.0
  1
2-M3x0.5
100
AcDbText
  0
TEXT
  5
135
330
1E
100
AcDbEntity
  8
MO_001_VIEW_PV
  6
C_SOLID_L
100
AcDbText
 10
-59.30070999999999
 20
-10.875
 30
0.0
 40
1.5
  1
+0.1
100
AcDbText
  0
TEXT
  5
136
330
1E
100
AcDbEntity
  8
MO_001_VIEW_PV
  6
C_SOLID_L
100
AcDbText
 10
-59.30070999999999
 20
-13.125
 30
0.0
 40
1.5
  1
 0
100
AcDbText
  0
TEXT
  5
137
330
1E
100
AcDbEntity
  8
MO_001_VIEW_PV
  6
C_SOLID_L
100
AcDbText
 10
-65.08642399999999
 20
-12.75
 30
0.0
 40
3.0
  1
%%C3
100
AcDbText
  0
POLYLINE
  5
138
330
1E
100
AcDbEntity
  8
MO_001_NOSHOW
  6
C_SOLID_M
100
AcDb2dPolyline
 66
     1
 10
0.0
 20
0.0
 30
0.0
 70
     5
 75
     6
  0
VERTEX
  5
139
330
138
100
AcDbEntity
  8
MO_001_NOSHOW
  6
C_SOLID_M
100
AcDbVertex
100
AcDb2dVertex
 10
-48.499989
 20
-42.0
 30
0.0
 50
193.853739
  0
VERTEX
  5
13A
330
138
100
AcDbEntity
  8
MO_001_NOSHOW
  6
C_SOLID_M
100
AcDbVertex
100
AcDb2dVertex
 10
-46.99998899999999
 20
-41.598083
 30
0.0
 50
0.000004
  0
VERTEX
  5
13B
330
138
100
AcDbEntity
  8
MO_001_NOSHOW
  6
C_SOLID_M
100
AcDbVertex
100
AcDb2dVertex
 10
-45.499989
 20
-42.0
 30
0.0
 50
26.56505
  0
VERTEX
  5
13C
330
138
100
AcDbEntity
  8
MO_001_NOSHOW
  6
C_SOLID_M
100
AcDbVertex
100
AcDb2dVertex
 10
-46.99998899999999
 20
-41.598083
 30
0.0
 50
179.999999
  0
VERTEX
  5
13D
330
138
100
AcDbEntity
  8
MO_001_NOSHOW
  6
C_SOLID_M
100
AcDbVertex
100
AcDb2dVertex
 10
-48.499989
 20
-42.0
 30
0.0
 50
269.8175249999999
  0
SEQEND
  5
13E
330
138
100
AcDbEntity
  8
0
  0
POLYLINE
  5
13F
330
1E
100
AcDbEntity
  8
MO_001_NOSHOW
  6
C_SOLID_M
100
AcDb2dPolyline
 66
     1
 10
0.0
 20
0.0
 30
0.0
 70
     5
 75
     6
  0
VERTEX
  5
140
330
13F
100
AcDbEntity
  8
MO_001_NOSHOW
  6
C_SOLID_M
100
AcDbVertex
100
AcDb2dVertex
 10
-48.499989
 20
-36.0
 30
0.0
 50
90.00000099999999
  0
VERTEX
  5
141
330
13F
100
AcDbEntity
  8
MO_001_NOSHOW
  6
C_SOLID_M
100
AcDbVertex
100
AcDb2dVertex
 10
-46.99998899999999
 20
-36.40191699999999
 30
0.0
 50
0.000001
  0
VERTEX
  5
142
330
13F
100
AcDbEntity
  8
MO_001_NOSHOW
  6
C_SOLID_M
100
AcDbVertex
100
AcDb2dVertex
 10
-45.499989
 20
-36.0
 30
0.0
 50
236.127429
  0
VERTEX
  5
143
330
13F
100
AcDbEntity
  8
MO_001_NOSHOW
  6
C_SOLID_M
100
AcDbVertex
100
AcDb2dVertex
 10
-46.99998899999999
 20
-36.40191699999999
 30
0.0
 50
179.999996
  0
VERTEX
  5
144
330
13F
100
AcDbEntity
  8
MO_001_NOSHOW
  6
C_SOLID_M
100
AcDbVertex
100
AcDb2dVertex
 10
-48.499989
 20
-36.0
 30
0.0
 50
36.869901
  0
SEQEND
  5
145
330
13F
100
AcDbEntity
  8
0
  0
DIMENSION
  5
147
330
1E
100
AcDbEntity
  8
MO_001_VIEW_PV
  6
C_SOLID_M
100
AcDbDimension
  2
*D0
 10
-55.407238
 20
10.688797
 30
0.0
 11
-55.407238
 21
10.688797
 31
0.0
  3
STANDARD
100
AcDbAlignedDimension
 13
-50.19999699999999
 23
3.0
 33
0.0
 14
-50.19999699999999
 24
-3.0
 34
0.0
 50
270.012145
100
AcDbRotatedDimension
  0
DIMENSION
  5
149
330
1E
100
AcDbEntity
  8
MO_001_VIEW_PV
  6
C_SOLID_M
100
AcDbDimension
  2
*D1
 10
33.657913
 20
10.53912
 30
0.0
 11
33.657913
 21
10.53912
 31
0.0
  3
STANDARD
100
AcDbAlignedDimension
 13
0.5
 23
1.5
 33
0.0
 14
0.5
 24
-1.5
 34
0.0
 50
270.012145
100
AcDbRotatedDimension
  0
DIMENSION
  5
14B
330
1E
100
AcDbEntity
  8
MO_001_VIEW_PV
  6
C_SOLID_M
100
AcDbDimension
  2
*D2
 10
-20.0
 20
21.0
 30
0.0
 11
-20.0
 21
21.0
 31
0.0
  3
STANDARD
100
AcDbAlignedDimension
 13
-40.0
 23
6.75
 33
0.0
 14
0.0
 24
6.75
 34
0.0
100
AcDbRotatedDimension
  0
DIMENSION
  5
14D
330
1E
100
AcDbEntity
  8
MO_001_VIEW_PV
  6
C_SOLID_M
100
AcDbDimension
  2
*D3
 10
-60.0
 20
21.0
 30
0.0
 11
-60.0
 21
21.0
 31
0.0
  1
(10.5)
  3
STANDARD
100
AcDbAlignedDimension
 13
-50.5
 23
2.699997
 33
0.0
 14
-40.0
 24
6.75
 34
0.0
100
AcDbRotatedDimension
  0
DIMENSION
  5
14F
330
1E
100
AcDbEntity
  8
MO_001_VIEW_PV
  6
C_SOLID_M
100
AcDbDimension
  2
*D4
 10
-25.25
 20
27.0
 30
0.0
 11
-25.25
 21
27.0
 31
0.0
  1
50.5
  3
STANDARD
100
AcDbAlignedDimension
 13
0.0
 23
6.75
 33
0.0
 14
-50.5
 24
2.699997
 34
0.0
 50
179.97571
100
AcDbRotatedDimension
  0
DIMENSION
  5
151
330
1E
100
AcDbEntity
  8
MO_001_VIEW_PV
  6
C_SOLID_M
100
AcDbDimension
  2
*D5
 10
-17.00737
 20
16.0
 30
0.0
 11
-17.00737
 21
16.0
 31
0.0
  1
(9)
  3
STANDARD
100
AcDbAlignedDimension
 13
-9.0
 23
2.5
 33
0.0
 14
0.0
 24
6.75
 34
0.0
100
AcDbRotatedDimension
  0
DIMENSION
  5
153
330
1E
100
AcDbEntity
  8
MO_001_VIEW_PV
  6
C_SOLID_M
100
AcDbDimension
  2
*D6
 10
-19.0
 20
-21.0
 30
0.0
 11
-19.0
 21
-21.0
 31
0.0
  3
STANDARD
100
AcDbAlignedDimension
 13
-9.0
 23
-2.5
 33
0.0
 14
-29.0
 24
-2.5
 34
0.0
 50
179.97571
100
AcDbRotatedDimension
  0
DIMENSION
  5
155
330
1E
100
AcDbEntity
  8
MO_001_VIEW_PV
  6
C_SOLID_M
100
AcDbDimension
  2
*D7
 10
-37.999992
 20
-21.0
 30
0.0
 11
-37.999992
 21
-21.0
 31
0.0
  3
STANDARD
100
AcDbAlignedDimension
 13
-46.99998899999999
 23
-5.227646
 33
0.0
 14
-29.0
 24
-2.5
 34
0.0
100
AcDbRotatedDimension
  0
DIMENSION
  5
157
330
1E
100
AcDbEntity
  8
MO_001_VIEW_PV
  6
C_SOLID_M
100
AcDbDimension
  2
*D8
 10
-35.216595
 20
-15.0
 30
0.0
 11
-35.216595
 21
-15.0
 31
0.0
  3
STANDARD
100
AcDbAlignedDimension
 13
-50.5
 23
-2.700012
 33
0.0
 14
-46.99998899999999
 24
-5.227646
 34
0.0
100
AcDbRotatedDimension
  0
DIMENSION
  5
159
330
1E
100
AcDbEntity
  8
MO_001_VIEW_PV
  6
C_SOLID_M
100
AcDbDimension
  2
*D9
 10
12.0
 20
-15.0
 30
0.0
 11
12.0
 21
-15.0
 31
0.0
  1
(0.5)
  3
STANDARD
100
AcDbAlignedDimension
 13
0.5
 23
-1.5
 33
0.0
 14
0.0
 24
-6.75
 34
0.0
 50
179.97571
100
AcDbRotatedDimension
  0
DIMENSION
  5
15B
330
1E
100
AcDbEntity
  8
MO_001_VIEW_PV
  6
C_SOLID_M
100
AcDbDimension
  2
*D10
 10
9.0
 20
-33.300369
 30
0.0
 11
9.0
 21
-33.300369
 31
0.0
  3
STANDARD
100
AcDbAlignedDimension
 13
-2.0
 23
-27.0
 33
0.0
 14
2.515487999999999
 24
-39.0
 34
0.0
 50
89.999523
100
AcDbRotatedDimension
  0
DIMENSION
  5
15D
330
1E
100
AcDbEntity
  8
MO_001_VIEW_PV
  6
C_SOLID_M
100
AcDbDimension
  2
*D11
 10
23.5
 20
-57.0
 30
0.0
 11
23.5
 21
-57.0
 31
0.0
  1
長さ240以上
  3
STANDARD
100
AcDbAlignedDimension
 13
47.0
 23
-49.23999
 33
0.0
 14
0.0
 24
-47.0
 34
0.0
100
AcDbRotatedDimension
  0
DIMENSION
  5
15F
330
1E
100
AcDbEntity
  8
MO_001_VIEW_PV
  6
C_SOLID_M
100
AcDbDimension
  2
*D12
 10
-79.0
 20
-18.0
 30
0.0
 11
-79.0
 21
-18.0
 31
0.0
  3
STANDARD
100
AcDbAlignedDimension
 13
-69.0
 23
-6.75
 33
0.0
 14
-89.0
 24
-4.75
 34
0.0
100
AcDbRotatedDimension
  0
DIMENSION
  5
161
330
1E
100
AcDbEntity
  8
MO_001_VIEW_PV
  6
C_SOLID_M
100
AcDbDimension
  2
*D13
 10
-96.0
 20
16.675842
 30
0.0
 11
-96.0
 21
16.675842
 31
0.0
  3
STANDARD
100
AcDbAlignedDimension
 13
-87.0
 23
-6.75
 33
0.0
 14
-87.0
 24
6.75
 34
0.0
 50
89.999523
100
AcDbRotatedDimension
  0
DIMENSION
  5
163
330
1E
100
AcDbEntity
  8
MO_001_VIEW_PV
  6
C_SOLID_M
100
AcDbDimension
  2
*D14
 10
-48.484977
 20
0.21168
 30
0.0
 11
-53.514996
 21
-13.5
 31
0.0
 70
     3
  1
<>
  3
STANDARD
100
AcDbDiametricDimension
 15
-45.51499999999999
 25
-0.21168
 35
0.0
 40
0.0
  0
LINE
  5
164
330
1E
100
AcDbEntity
  8
MO_001_VIEW_PV
  6
C_SOLID_L
100
AcDbLine
 10
-8.366072
 20
1.359461
 30
0.0
 11
2.191384
 21
24.0
 31
0.0
  0
POLYLINE
  5
165
330
1E
100
AcDbEntity
  8
MO_001_VIEW_PV
  6
C_SOLID_L
100
AcDb2dPolyline
 66
     1
 10
0.0
 20
0.0
 30
0.0
 70
     1
  0
VERTEX
  5
2D4
330
165
100
AcDbEntity
  8
MO_001_VIEW_PV
  6
C_SOLID_L
100
AcDbVertex
100
AcDb2dVertex
 10
-7.492555
 20
4.613429
 30
0.0
  0
VERTEX
  5
2D5
330
165
100
AcDbEntity
  8
MO_001_VIEW_PV
  6
C_SOLID_L
100
AcDbVertex
100
AcDb2dVertex
 10
-8.151381
 20
1.819866
 30
0.0
  0
VERTEX
  5
2D6
330
165
100
AcDbEntity
  8
MO_001_VIEW_PV
  6
C_SOLID_L
100
AcDbVertex
100
AcDb2dVertex
 10
-6.434873
 20
4.120223999999999
 30
0.0
  0
SEQEND
  5
2D7
330
165
100
AcDbEntity
  8
MO_001_VIEW_PV
  6
C_SOLID_L
  0
ENDSEC
  0
SECTION
  2
OBJECTS
  0
DICTIONARY
  5
1A
330
0
100
AcDbDictionary
  3
ACAD_GROUP
350
1B
  3
ACAD_MLINESTYLE
350
1C
  3
ACAD_LAYOUT
350
209
  3
ACAD_PLOTSETTINGS
350
20A
1001
ACAD
1000
TREAT_AS_HARD
1070
     0
  0
DICTIONARY
  5
274
330
1E
100
AcDbDictionary
  3
ACAD_LAYOUTSELFREF
350
275
  0
DICTIONARY
  5
276
330
1F
100
AcDbDictionary
  3
ACAD_LAYOUTSELFREF
350
277
  0
DICTIONARY
  5
1B
102
{ACAD_REACTORS
330
1A
102
}
330
1A
100
AcDbDictionary
1001
ACAD
1000
TREAT_AS_HARD
1070
     0
  0
DICTIONARY
  5
1C
102
{ACAD_REACTORS
330
1A
102
}
330
1A
100
AcDbDictionary
  3
STANDARD
350
1D
1001
ACAD
1000
TREAT_AS_HARD
1070
     0
  0
DICTIONARY
  5
209
102
{ACAD_REACTORS
330
1A
102
}
330
1A
100
AcDbDictionary
1001
ACAD
1000
TREAT_AS_HARD
1070
     0
  0
DICTIONARY
  5
20A
102
{ACAD_REACTORS
330
1A
102
}
330
1A
100
AcDbDictionary
1001
ACAD
1000
TREAT_AS_HARD
1070
     0
  0
XRECORD
  5
275
102
{ACAD_REACTORS
330
274
102
}
330
274
100
AcDbXrecord
340
1E
  0
XRECORD
  5
277
102
{ACAD_REACTORS
330
276
102
}
330
276
100
AcDbXrecord
340
1F
  0
MLINESTYLE
  5
1D
102
{ACAD_REACTORS
330
1C
102
}
330
1C
100
AcDbMlineStyle
  2
STANDARD
 70
     0
  3

 62
     0
 51
90.0
 52
90.0
 71
     2
 49
0.5
 62
   256
  6
BYLAYER
 49
-0.5
 62
   256
  6
BYLAYER
  0
ENDSEC
  0
EOF
