  0
SECTION
  2
HEADER
  9
$ACADVER
  1
AC1012
  9
$DWGCODEPAGE
  3
dos932
  9
$INSBASE
 10
0.0
 20
0.0
 30
0.0
  9
$EXTMIN
 10
-88.49264941389009
 20
-83.09168340426763
 30
-0.0015258207003583
  9
$EXTMAX
 10
64.12940404354538
 20
28.13281185054978
 30
0.0000000349246037
  9
$LIMMIN
 10
-90.0
 20
-86.20898399999999
  9
$LIMMAX
 10
58.998047
 20
30.0
  9
$ORTHOMODE
 70
     0
  9
$REGENMODE
 70
     1
  9
$FILLMODE
 70
     1
  9
$QTEXTMODE
 70
     0
  9
$MIRRTEXT
 70
     1
  9
$DRAGMODE
 70
     2
  9
$LTSCALE
 40
1.0
  9
$OSMODE
 70
    37
  9
$ATTMODE
 70
     1
  9
$TEXTSIZE
 40
4.1672
  9
$TRACEWID
 40
0.05
  9
$TEXTSTYLE
  7
STANDARD
  9
$CLAYER
  8
0
  9
$CELTYPE
  6
CONTINUOUS
  9
$CECOLOR
 62
   256
  9
$CELTSCALE
 40
1.0
  9
$DELOBJ
 70
     1
  9
$DISPSILH
 70
     0
  9
$DIMSCALE
 40
1.0
  9
$DIMASZ
 40
0.18
  9
$DIMEXO
 40
0.0625
  9
$DIMDLI
 40
0.38
  9
$DIMRND
 40
0.0
  9
$DIMDLE
 40
0.0
  9
$DIMEXE
 40
0.18
  9
$DIMTP
 40
0.0
  9
$DIMTM
 40
0.0
  9
$DIMTXT
 40
0.18
  9
$DIMCEN
 40
0.09
  9
$DIMTSZ
 40
0.0
  9
$DIMTOL
 70
     0
  9
$DIMLIM
 70
     0
  9
$DIMTIH
 70
     1
  9
$DIMTOH
 70
     1
  9
$DIMSE1
 70
     0
  9
$DIMSE2
 70
     0
  9
$DIMTAD
 70
     0
  9
$DIMZIN
 70
     0
  9
$DIMBLK
  1

  9
$DIMASO
 70
     1
  9
$DIMSHO
 70
     1
  9
$DIMPOST
  1

  9
$DIMAPOST
  1

  9
$DIMALT
 70
     0
  9
$DIMALTD
 70
     2
  9
$DIMALTF
 40
25.4
  9
$DIMLFAC
 40
1.0
  9
$DIMTOFL
 70
     0
  9
$DIMTVP
 40
0.0
  9
$DIMTIX
 70
     0
  9
$DIMSOXD
 70
     0
  9
$DIMSAH
 70
     0
  9
$DIMBLK1
  1

  9
$DIMBLK2
  1

  9
$DIMSTYLE
  2
STANDARD
  9
$DIMCLRD
 70
     0
  9
$DIMCLRE
 70
     0
  9
$DIMCLRT
 70
     0
  9
$DIMTFAC
 40
1.0
  9
$DIMGAP
 40
0.09
  9
$DIMJUST
 70
     0
  9
$DIMSD1
 70
     0
  9
$DIMSD2
 70
     0
  9
$DIMTOLJ
 70
     1
  9
$DIMTZIN
 70
     0
  9
$DIMALTZ
 70
     0
  9
$DIMALTTZ
 70
     0
  9
$DIMFIT
 70
     3
  9
$DIMUPT
 70
     0
  9
$DIMUNIT
 70
     2
  9
$DIMDEC
 70
     4
  9
$DIMTDEC
 70
     4
  9
$DIMALTU
 70
     2
  9
$DIMALTTD
 70
     2
  9
$DIMTXSTY
  7
STANDARD
  9
$DIMAUNIT
 70
     0
  9
$LUNITS
 70
     2
  9
$LUPREC
 70
     6
  9
$SKETCHINC
 40
0.1
  9
$FILLETRAD
 40
0.0
  9
$AUNITS
 70
     0
  9
$AUPREC
 70
     4
  9
$MENU
  1
acad
  9
$ELEVATION
 40
0.0
  9
$PELEVATION
 40
0.0
  9
$THICKNESS
 40
0.0
  9
$LIMCHECK
 70
     0
  9
$BLIPMODE
 70
     0
  9
$CHAMFERA
 40
0.0
  9
$CHAMFERB
 40
0.0
  9
$CHAMFERC
 40
0.0
  9
$CHAMFERD
 40
0.0
  9
$SKPOLY
 70
     0
  9
$TDCREATE
 40
2376126.114255856
  9
$TDUPDATE
 40
2451683.741021180
  9
$TDINDWG
 40
0.0016528935
  9
$TDUSRTIMER
 40
0.0016528935
  9
$USRTIMER
 70
     1
  9
$ANGBASE
 50
0.0
  9
$ANGDIR
 70
     0
  9
$PDMODE
 70
     0
  9
$PDSIZE
 40
0.0
  9
$PLINEWID
 40
0.0
  9
$COORDS
 70
     1
  9
$SPLFRAME
 70
     0
  9
$SPLINETYPE
 70
     6
  9
$SPLINESEGS
 70
     8
  9
$ATTDIA
 70
     0
  9
$ATTREQ
 70
     1
  9
$HANDLING
 70
 10241
  9
$HANDSEED
  5
283
  9
$SURFTAB1
 70
     6
  9
$SURFTAB2
 70
     6
  9
$SURFTYPE
 70
     6
  9
$SURFU
 70
     6
  9
$SURFV
 70
     6
  9
$UCSNAME
  2

  9
$UCSORG
 10
-31.79999730442486
 20
0.0
 30
0.0
  9
$UCSXDIR
 10
1.0
 20
0.0
 30
0.0
  9
$UCSYDIR
 10
0.0
 20
1.0
 30
0.0
  9
$PUCSNAME
  2

  9
$PUCSORG
 10
0.0
 20
0.0
 30
0.0
  9
$PUCSXDIR
 10
1.0
 20
0.0
 30
0.0
  9
$PUCSYDIR
 10
0.0
 20
1.0
 30
0.0
  9
$USERI1
 70
     0
  9
$USERI2
 70
     0
  9
$USERI3
 70
     0
  9
$USERI4
 70
     0
  9
$USERI5
 70
     0
  9
$USERR1
 40
0.0
  9
$USERR2
 40
0.0
  9
$USERR3
 40
0.0
  9
$USERR4
 40
0.0
  9
$USERR5
 40
0.0
  9
$WORLDVIEW
 70
     1
  9
$SHADEDGE
 70
     3
  9
$SHADEDIF
 70
    70
  9
$TILEMODE
 70
     1
  9
$MAXACTVP
 70
    16
  9
$PINSBASE
 10
0.0
 20
0.0
 30
0.0
  9
$PLIMCHECK
 70
     0
  9
$PEXTMIN
 10
-90.0
 20
-86.20898399999999
 30
1.000000000000000E+20
  9
$PEXTMAX
 10
58.998047
 20
30.0
 30
-1.000000000000000E+20
  9
$PLIMMIN
 10
0.0
 20
0.0
  9
$PLIMMAX
 10
12.0
 20
9.0
  9
$UNITMODE
 70
     0
  9
$VISRETAIN
 70
     0
  9
$PLINEGEN
 70
     0
  9
$PSLTSCALE
 70
     1
  9
$TREEDEPTH
 70
  3020
  9
$PICKSTYLE
 70
     1
  9
$CMLSTYLE
  2
STANDARD
  9
$CMLJUST
 70
     0
  9
$CMLSCALE
 40
1.0
  9
$SAVEIMAGES
 70
     1
  0
ENDSEC
  0
SECTION
  2
CLASSES
  0
CLASS
  1
ACDBDICTIONARYWDFLT
  2
AcDbDictionaryWithDefault
  3
AutoCAD 2000
 90
    32768
280
     0
281
     0
  0
CLASS
  1
ACDBPLACEHOLDER
  2
AcDbPlaceHolder
  3
AutoCAD 2000
 90
    32768
280
     0
281
     0
  0
CLASS
  1
LAYOUT
  2
AcDbLayout
  3
AutoCAD 2000
 90
    32768
280
     0
281
     0
  0
CLASS
  1
LONG_TRANSACTION
  2
AcDbLongTransaction
  3
AutoCAD 2000
 90
    32768
280
     0
281
     0
  0
CLASS
  1
LWPOLYLINE
  2
AcDbPolyline
  3
AutoCAD 2000
 90
    32768
280
     0
281
     1
  0
CLASS
  1
HATCH
  2
AcDbHatch
  3
AutoCAD 2000
 90
    32768
280
     0
281
     1
  0
CLASS
  1
XRECORD
  2
AcDbXrecord
  3
AutoCAD 2000
 90
    32768
280
     0
281
     0
  0
ENDSEC
  0
SECTION
  2
TABLES
  0
TABLE
  2
VPORT
  5
7
330
0
100
AcDbSymbolTable
 70
     2
  0
VPORT
  5
22E
330
7
100
AcDbSymbolTableRecord
100
AcDbViewportTableRecord
  2
*ACTIVE
 70
     0
 10
0.0
 20
0.0
 11
1.0
 21
1.0
 12
-20.48378284016178
 22
-27.5368300656861
 13
0.0
 23
0.0
 14
6.349999999999999
 24
6.349999999999999
 15
6.349999999999999
 25
6.349999999999999
 16
0.0
 26
0.0
 36
1.0
 17
0.0
 27
0.0
 37
0.0
 40
123.8918762644427
 41
1.727106227106227
 42
50.0
 43
0.0
 44
0.0
 50
0.0
 51
0.0
 71
     0
 72
   100
 73
     1
 74
     1
 75
     0
 76
     0
 77
     0
 78
     0
  0
ENDTAB
  0
TABLE
  2
LTYPE
  5
4
330
0
100
AcDbSymbolTable
 70
    37
  0
LTYPE
  5
12
330
4
100
AcDbSymbolTableRecord
100
AcDbLinetypeTableRecord
  2
BYBLOCK
 70
     0
  3

 72
    65
 73
     0
 40
0.0
  0
LTYPE
  5
13
330
4
100
AcDbSymbolTableRecord
100
AcDbLinetypeTableRecord
  2
BYLAYER
 70
     0
  3

 72
    65
 73
     0
 40
0.0
  0
LTYPE
  5
14
330
4
100
AcDbSymbolTableRecord
100
AcDbLinetypeTableRecord
  2
CONTINUOUS
 70
     0
  3
DXF Default line type
 72
    65
 73
     0
 40
0.0
  0
LTYPE
  5
20
330
4
100
AcDbSymbolTableRecord
100
AcDbLinetypeTableRecord
  2
DASHED
 70
     0
  3
DXF Dashed
 72
    65
 73
     2
 40
0.75
 49
0.5
 74
     0
 49
-0.25
 74
     0
  0
LTYPE
  5
21
330
4
100
AcDbSymbolTableRecord
100
AcDbLinetypeTableRecord
  2
HIDDEN
 70
     0
  3
DXF Hidden
 72
    65
 73
     2
 40
0.375
 49
0.25
 74
     0
 49
-0.125
 74
     0
  0
LTYPE
  5
22
330
4
100
AcDbSymbolTableRecord
100
AcDbLinetypeTableRecord
  2
CENTER
 70
     0
  3
DXF Center
 72
    65
 73
     4
 40
2.0
 49
1.25
 74
     0
 49
-0.25
 74
     0
 49
0.25
 74
     0
 49
-0.25
 74
     0
  0
LTYPE
  5
23
330
4
100
AcDbSymbolTableRecord
100
AcDbLinetypeTableRecord
  2
PHANTOM
 70
     0
  3
DXF Phantom
 72
    65
 73
     6
 40
2.5
 49
1.25
 74
     0
 49
-0.25
 74
     0
 49
0.25
 74
     0
 49
-0.25
 74
     0
 49
0.25
 74
     0
 49
-0.25
 74
     0
  0
LTYPE
  5
24
330
4
100
AcDbSymbolTableRecord
100
AcDbLinetypeTableRecord
  2
DOT
 70
     0
  3
DXF DOT
 72
    65
 73
     2
 40
0.25
 49
0.0
 74
     0
 49
-0.25
 74
     0
  0
LTYPE
  5
25
330
4
100
AcDbSymbolTableRecord
100
AcDbLinetypeTableRecord
  2
DASHDOT
 70
     0
  3
DXF Dash Dot
 72
    65
 73
     4
 40
1.0
 49
0.5
 74
     0
 49
-0.25
 74
     0
 49
0.0
 74
     0
 49
-0.25
 74
     0
  0
LTYPE
  5
26
330
4
100
AcDbSymbolTableRecord
100
AcDbLinetypeTableRecord
  2
BORDER
 70
     0
  3
DXF Border
 72
    65
 73
     6
 40
1.75
 49
0.5
 74
     0
 49
-0.25
 74
     0
 49
0.5
 74
     0
 49
-0.25
 74
     0
 49
0.0
 74
     0
 49
-0.25
 74
     0
  0
LTYPE
  5
27
330
4
100
AcDbSymbolTableRecord
100
AcDbLinetypeTableRecord
  2
DIVIDE
 70
     0
  3
DXF Divide
 72
    65
 73
     6
 40
1.25
 49
0.5
 74
     0
 49
-0.25
 74
     0
 49
0.0
 74
     0
 49
-0.25
 74
     0
 49
0.0
 74
     0
 49
-0.25
 74
     0
  0
LTYPE
  5
28
330
4
100
AcDbSymbolTableRecord
100
AcDbLinetypeTableRecord
  2
C_SOLID_L
 70
     0
  3
CADAM Solid Light
 72
    65
 73
     0
 40
0.0
  0
LTYPE
  5
29
330
4
100
AcDbSymbolTableRecord
100
AcDbLinetypeTableRecord
  2
C_SOLID_M
 70
     0
  3
CADAM Solid Medium
 72
    65
 73
     0
 40
0.0
  0
LTYPE
  5
2A
330
4
100
AcDbSymbolTableRecord
100
AcDbLinetypeTableRecord
  2
C_SOLID_H
 70
     0
  3
CADAM Solid Heavy
 72
    65
 73
     0
 40
0.0
  0
LTYPE
  5
2B
330
4
100
AcDbSymbolTableRecord
100
AcDbLinetypeTableRecord
  2
C_DASHED_L
 70
     0
  3
CADAM Dashed Light
 72
    65
 73
     2
 40
0.375
 49
0.25
 74
     0
 49
-0.125
 74
     0
  0
LTYPE
  5
2C
330
4
100
AcDbSymbolTableRecord
100
AcDbLinetypeTableRecord
  2
C_DASHED_M
 70
     0
  3
CADAM Dashed Medium
 72
    65
 73
     2
 40
0.5
 49
0.375
 74
     0
 49
-0.125
 74
     0
  0
LTYPE
  5
2D
330
4
100
AcDbSymbolTableRecord
100
AcDbLinetypeTableRecord
  2
C_CENTER_L
 70
     0
  3
CADAM Center Light
 72
    65
 73
     4
 40
2.0
 49
1.25
 74
     0
 49
-0.25
 74
     0
 49
0.25
 74
     0
 49
-0.25
 74
     0
  0
LTYPE
  5
2E
330
4
100
AcDbSymbolTableRecord
100
AcDbLinetypeTableRecord
  2
C_PHANTOM_L
 70
     0
  3
CADAM Phantom Light
 72
    65
 73
     6
 40
2.5
 49
1.25
 74
     0
 49
-0.25
 74
     0
 49
0.25
 74
     0
 49
-0.25
 74
     0
 49
0.25
 74
     0
 49
-0.25
 74
     0
  0
LTYPE
  5
2F
330
4
100
AcDbSymbolTableRecord
100
AcDbLinetypeTableRecord
  2
C_BREAK_M
 70
     0
  3
CADAM Break Medium
 72
    65
 73
     4
 40
1.0
 49
0.5
 74
     0
 49
-0.25
 74
     0
 49
0.0
 74
     0
 49
-0.25
 74
     0
  0
LTYPE
  5
30
330
4
100
AcDbSymbolTableRecord
100
AcDbLinetypeTableRecord
  2
C_NC
 70
     0
  3
CADAM NC
 72
    65
 73
     0
 40
0.0
  0
LTYPE
  5
31
330
4
100
AcDbSymbolTableRecord
100
AcDbLinetypeTableRecord
  2
DSH1
 70
     0
  3
CADAM Style2 Type 1 Dashed Line
 72
    65
 73
     2
 40
0.075
 49
0.04
 74
     0
 49
-0.035
 74
     0
  0
LTYPE
  5
32
330
4
100
AcDbSymbolTableRecord
100
AcDbLinetypeTableRecord
  2
DSH2
 70
     0
  3
CADAM Style2 Type 2 Dashed Line
 72
    65
 73
     2
 40
0.15
 49
0.11
 74
     0
 49
-0.04
 74
     0
  0
LTYPE
  5
33
330
4
100
AcDbSymbolTableRecord
100
AcDbLinetypeTableRecord
  2
DSH3
 70
     0
  3
CADAM Style2 Type 3 Dashed Line
 72
    65
 73
     2
 40
0.2
 49
0.15
 74
     0
 49
-0.05
 74
     0
  0
LTYPE
  5
34
330
4
100
AcDbSymbolTableRecord
100
AcDbLinetypeTableRecord
  2
DSH4
 70
     0
  3
CADAM Style2 Type 4 Dashed Line
 72
    65
 73
     2
 40
0.36
 49
0.28
 74
     0
 49
-0.08
 74
     0
  0
LTYPE
  5
35
330
4
100
AcDbSymbolTableRecord
100
AcDbLinetypeTableRecord
  2
DSH5
 70
     0
  3
CADAM Style2 Type 5 Dashed Line
 72
    65
 73
     2
 40
0.47
 49
0.39
 74
     0
 49
-0.08
 74
     0
  0
LTYPE
  5
36
330
4
100
AcDbSymbolTableRecord
100
AcDbLinetypeTableRecord
  2
DSH6
 70
     0
  3
CADAM Style2 Type 6 Dashed Line
 72
    65
 73
     2
 40
0.9
 49
0.8100000000000001
 74
     0
 49
-0.09
 74
     0
  0
LTYPE
  5
37
330
4
100
AcDbSymbolTableRecord
100
AcDbLinetypeTableRecord
  2
PL1
 70
     0
  3
Style 2 Type 1 Phantom Line
 72
    65
 73
     6
 40
1.0
 49
0.6
 74
     0
 49
-0.08
 74
     0
 49
0.08
 74
     0
 49
-0.08
 74
     0
 49
0.08
 74
     0
 49
-0.08
 74
     0
  0
LTYPE
  5
38
330
4
100
AcDbSymbolTableRecord
100
AcDbLinetypeTableRecord
  2
PL2
 70
     0
  3
Style 2 Type 2 Phantom Line
 72
    65
 73
     6
 40
1.08
 49
0.6
 74
     0
 49
-0.08
 74
     0
 49
0.12
 74
     0
 49
-0.08
 74
     0
 49
0.12
 74
     0
 49
-0.08
 74
     0
  0
LTYPE
  5
39
330
4
100
AcDbSymbolTableRecord
100
AcDbLinetypeTableRecord
  2
PL3
 70
     0
  3
Style 2 Type 3 Phantom Line
 72
    65
 73
     6
 40
2.0
 49
1.439999999999999
 74
     0
 49
-0.08
 74
     0
 49
0.16
 74
     0
 49
-0.08
 74
     0
 49
0.16
 74
     0
 49
-0.08
 74
     0
  0
LTYPE
  5
3A
330
4
100
AcDbSymbolTableRecord
100
AcDbLinetypeTableRecord
  2
CL1
 70
     0
  3
CADAM Style 2 Type 1 Center Line
 72
    65
 73
     4
 40
0.7
 49
0.45
 74
     0
 49
-0.06
 74
     0
 49
0.13
 74
     0
 49
-0.06
 74
     0
  0
LTYPE
  5
3B
330
4
100
AcDbSymbolTableRecord
100
AcDbLinetypeTableRecord
  2
CL2
 70
     0
  3
CADAM Style 2 Type 2 Center Line
 72
    65
 73
     4
 40
1.199999999999999
 49
1.01
 74
     0
 49
-0.06
 74
     0
 49
0.11
 74
     0
 49
-0.06
 74
     0
  0
LTYPE
  5
3C
330
4
100
AcDbSymbolTableRecord
100
AcDbLinetypeTableRecord
  2
CL3
 70
     0
  3
CADAM Style 2 Type 3 Center Line
 72
    65
 73
     4
 40
1.199999999999999
 49
0.98
 74
     0
 49
-0.06
 74
     0
 49
0.1
 74
     0
 49
-0.06
 74
     0
  0
LTYPE
  5
3D
330
4
100
AcDbSymbolTableRecord
100
AcDbLinetypeTableRecord
  2
CL4
 70
     0
  3
CADAM Style 2 Type 4 Center Line
 72
    65
 73
     4
 40
2.2
 49
1.929999999999999
 74
     0
 49
-0.07
 74
     0
 49
0.13
 74
     0
 49
-0.07
 74
     0
  0
LTYPE
  5
3E
330
4
100
AcDbSymbolTableRecord
100
AcDbLinetypeTableRecord
  2
CL5
 70
     0
  3
CADAM Style 2 Type 5 Center Line
 72
    65
 73
     4
 40
2.2
 49
1.879999999999999
 74
     0
 49
-0.07
 74
     0
 49
0.18
 74
     0
 49
-0.07
 74
     0
  0
LTYPE
  5
3F
330
4
100
AcDbSymbolTableRecord
100
AcDbLinetypeTableRecord
  2
SBK1
 70
     0
  3
CADAM Style 2 Type 1 SetBack Line
 72
    65
 73
     8
 40
2.7
 49
0.1
 74
     0
 49
-0.08
 74
     0
 49
0.1
 74
     0
 49
-0.8
 74
     0
 49
0.0
 74
     0
 49
0.0
 74
     0
 49
0.0
 74
     0
 49
0.0
 74
     0
  0
LTYPE
  5
40
330
4
100
AcDbSymbolTableRecord
100
AcDbLinetypeTableRecord
  2
SBK2
 70
     0
  3
CADAM Style 2 Type 2 SetBack Line
 72
    65
 73
     8
 40
3.709999999999999
 49
0.13
 74
     0
 49
-0.08
 74
     0
 49
0.13
 74
     0
 49
-0.8
 74
     0
 49
0.0
 74
     0
 49
0.0
 74
     0
 49
0.0
 74
     0
 49
0.0
 74
     0
  0
LTYPE
  5
41
330
4
100
AcDbSymbolTableRecord
100
AcDbLinetypeTableRecord
  2
STCH
 70
     0
  3
CADAM Style2 Stitch Line
 72
    65
 73
     2
 40
0.25
 49
0.0
 74
     0
 49
-0.25
 74
     0
  0
LTYPE
  5
42
330
4
100
AcDbSymbolTableRecord
100
AcDbLinetypeTableRecord
  2
MTCH
 70
     0
  3
CADAM Style2 Match Line
 72
    65
 73
     6
 40
2.0
 49
1.439999999999999
 74
     0
 49
-0.8
 74
     0
 49
0.16
 74
     0
 49
-0.08
 74
     0
 49
0.16
 74
     0
 49
-0.08
 74
     0
  0
LTYPE
  5
43
330
4
100
AcDbSymbolTableRecord
100
AcDbLinetypeTableRecord
  2
SLD
 70
     0
  3
CADAM Solid_EXT2
 72
    65
 73
     0
 40
0.0
  0
ENDTAB
  0
TABLE
  2
LAYER
  5
2
330
0
100
AcDbSymbolTable
 70
     7
  0
LAYER
  5
15
330
2
100
AcDbSymbolTableRecord
100
AcDbLayerTableRecord
  2
0
 70
     0
 62
     7
  6
CONTINUOUS
  0
LAYER
  5
44
330
2
100
AcDbSymbolTableRecord
100
AcDbLayerTableRecord
  2
MO_001_NOSHOW
 70
     1
 62
     7
  6
CONTINUOUS
  0
LAYER
  5
45
330
2
100
AcDbSymbolTableRecord
100
AcDbLayerTableRecord
  2
MO_001_VIEW_PV
 70
     0
 62
     7
  6
CONTINUOUS
  0
LAYER
  5
46
330
2
100
AcDbSymbolTableRecord
100
AcDbLayerTableRecord
  2
OVERLAY_MAP
 70
     1
 62
     7
  6
CONTINUOUS
  0
LAYER
  5
47
330
2
100
AcDbSymbolTableRecord
100
AcDbLayerTableRecord
  2
DITTOS
 70
     0
 62
     7
  6
CONTINUOUS
  0
LAYER
  5
48
330
2
100
AcDbSymbolTableRecord
100
AcDbLayerTableRecord
  2
SYMBOLS
 70
     0
 62
     7
  6
CONTINUOUS
  0
LAYER
  5
49
330
2
100
AcDbSymbolTableRecord
100
AcDbLayerTableRecord
  2
SETS
 70
     0
 62
     7
  6
CONTINUOUS
  0
ENDTAB
  0
TABLE
  2
STYLE
  5
3
330
0
100
AcDbSymbolTable
 70
     1
  0
STYLE
  5
18
330
3
100
AcDbSymbolTableRecord
100
AcDbTextStyleTableRecord
  2
STANDARD
 70
     0
 40
4.1672
 41
1.0
 50
0.0
 71
     0
 42
4.1672
  3
monotxt
  4
BIGFONT
  0
ENDTAB
  0
TABLE
  2
VIEW
  5
5
330
0
100
AcDbSymbolTable
 70
     0
  0
ENDTAB
  0
TABLE
  2
UCS
  5
6
330
0
100
AcDbSymbolTable
 70
     1
  0
UCS
  5
4A
330
6
100
AcDbSymbolTableRecord
100
AcDbUCSTableRecord
  2
MO_001_VIEW_PV_P
 70
     0
 10
0.0
 20
0.0
 30
0.0
 11
1.0
 21
0.0
 31
0.0
 12
-0.0000000002051034
 22
1.0
 32
0.0
  0
ENDTAB
  0
TABLE
  2
APPID
  5
8
330
0
100
AcDbSymbolTable
 70
     1
  0
APPID
  5
17
330
8
100
AcDbSymbolTableRecord
100
AcDbRegAppTableRecord
  2
ACAD
 70
     0
  0
ENDTAB
  0
TABLE
  2
DIMSTYLE
  5
9
330
0
100
AcDbSymbolTable
 70
     1
  0
DIMSTYLE
105
19
102
{ACAD_REACTORS
330
14A
330
14C
330
14E
330
150
330
152
330
154
330
156
330
158
330
15A
330
15C
330
15E
330
160
330
162
330
164
330
166
330
168
330
16A
102
}
330
9
100
AcDbSymbolTableRecord
100
AcDbDimStyleTableRecord
  2
STANDARD
 70
     0
  3

  4

  5

  6

  7

 40
1.0
 41
0.18
 42
0.0625
 43
0.38
 44
0.18
 45
0.0
 46
0.0
 47
0.0
 48
0.0
140
0.18
141
0.09
142
0.0
143
25.4
144
1.0
145
0.0
146
1.0
147
0.09
 71
     0
 72
     0
 73
     1
 74
     1
 75
     0
 76
     0
 77
     0
 78
     0
170
     0
171
     2
172
     0
173
     0
174
     0
175
     0
176
     0
177
     0
178
     0
270
     2
271
     4
272
     4
273
     2
274
     2
340
18
275
     0
280
     0
281
     0
282
     0
283
     1
284
     0
285
     0
286
     0
287
     3
288
     0
  0
ENDTAB
  0
TABLE
  2
BLOCK_RECORD
  5
C
330
0
100
AcDbSymbolTable
 70
    17
  0
BLOCK_RECORD
  5
1E
102
{ACAD_XDICTIONARY
360
22F
102
}
330
C
100
AcDbSymbolTableRecord
100
AcDbBlockTableRecord
  2
*MODEL_SPACE
  0
BLOCK_RECORD
  5
1F
102
{ACAD_XDICTIONARY
360
231
102
}
330
C
100
AcDbSymbolTableRecord
100
AcDbBlockTableRecord
  2
*PAPER_SPACE
  0
BLOCK_RECORD
  5
149
330
C
100
AcDbSymbolTableRecord
100
AcDbBlockTableRecord
  2
*D0
  0
BLOCK_RECORD
  5
14B
330
C
100
AcDbSymbolTableRecord
100
AcDbBlockTableRecord
  2
*D1
  0
BLOCK_RECORD
  5
14D
330
C
100
AcDbSymbolTableRecord
100
AcDbBlockTableRecord
  2
*D2
  0
BLOCK_RECORD
  5
14F
330
C
100
AcDbSymbolTableRecord
100
AcDbBlockTableRecord
  2
*D3
  0
BLOCK_RECORD
  5
151
330
C
100
AcDbSymbolTableRecord
100
AcDbBlockTableRecord
  2
*D4
  0
BLOCK_RECORD
  5
153
330
C
100
AcDbSymbolTableRecord
100
AcDbBlockTableRecord
  2
*D5
  0
BLOCK_RECORD
  5
155
330
C
100
AcDbSymbolTableRecord
100
AcDbBlockTableRecord
  2
*D6
  0
BLOCK_RECORD
  5
157
330
C
100
AcDbSymbolTableRecord
100
AcDbBlockTableRecord
  2
*D7
  0
BLOCK_RECORD
  5
159
330
C
100
AcDbSymbolTableRecord
100
AcDbBlockTableRecord
  2
*D8
  0
BLOCK_RECORD
  5
15B
330
C
100
AcDbSymbolTableRecord
100
AcDbBlockTableRecord
  2
*D9
  0
BLOCK_RECORD
  5
15D
330
C
100
AcDbSymbolTableRecord
100
AcDbBlockTableRecord
  2
*D10
  0
BLOCK_RECORD
  5
15F
330
C
100
AcDbSymbolTableRecord
100
AcDbBlockTableRecord
  2
*D11
  0
BLOCK_RECORD
  5
161
330
C
100
AcDbSymbolTableRecord
100
AcDbBlockTableRecord
  2
*D12
  0
BLOCK_RECORD
  5
163
330
C
100
AcDbSymbolTableRecord
100
AcDbBlockTableRecord
  2
*D13
  0
BLOCK_RECORD
  5
165
330
C
100
AcDbSymbolTableRecord
100
AcDbBlockTableRecord
  2
*D14
  0
BLOCK_RECORD
  5
167
330
C
100
AcDbSymbolTableRecord
100
AcDbBlockTableRecord
  2
*D15
  0
BLOCK_RECORD
  5
169
330
C
100
AcDbSymbolTableRecord
100
AcDbBlockTableRecord
  2
*D16
  0
ENDTAB
  0
ENDSEC
  0
SECTION
  2
BLOCKS
  0
BLOCK
  5
E
330
1E
100
AcDbEntity
  8
0
100
AcDbBlockBegin
  2
*MODEL_SPACE
 70
     0
 10
0.0
 20
0.0
 30
0.0
  3
*MODEL_SPACE
  1

  0
ENDBLK
  5
F
330
1E
100
AcDbEntity
  8
0
100
AcDbBlockEnd
  0
BLOCK
  5
10
330
1F
100
AcDbEntity
 67
     1
  8
0
100
AcDbBlockBegin
  2
*PAPER_SPACE
 70
     0
 10
0.0
 20
0.0
 30
0.0
  3
*PAPER_SPACE
  1

  0
ENDBLK
  5
11
330
1F
100
AcDbEntity
 67
     1
  8
0
100
AcDbBlockEnd
  0
BLOCK
  5
171
330
149
100
AcDbEntity
  8
0
100
AcDbBlockBegin
  2
*D0
 70
     1
 10
0.0
 20
0.0
 30
0.0
  3
*D0
  1

  0
TEXT
  5
172
330
149
100
AcDbEntity
  8
MO_001_VIEW_PV
  6
BYBLOCK
100
AcDbText
 10
-50.625
 20
13.446345
 30
0.0
 40
1.5
  1
%%P0.05
 50
90.0
100
AcDbText
  0
TEXT
  5
173
330
149
100
AcDbEntity
  8
MO_001_VIEW_PV
  6
BYBLOCK
100
AcDbText
 10
-48.75
 20
7.660630999999999
 30
0.0
 40
3.0
  1
%%C7
 50
90.0
100
AcDbText
  0
LINE
  5
174
330
149
100
AcDbEntity
  8
MO_001_VIEW_PV
  6
BYBLOCK
100
AcDbLine
 10
-48.0
 20
-3.5
 30
0.0
 11
-48.0
 21
3.5
 31
0.0
  0
LINE
  5
175
330
149
100
AcDbEntity
  8
MO_001_VIEW_PV
  6
BYBLOCK
100
AcDbLine
 10
-48.0
 20
-3.5
 30
0.0
 11
-48.0
 21
-9.849999999999999
 31
0.0
  0
LINE
  5
176
330
149
100
AcDbEntity
  8
MO_001_VIEW_PV
  6
BYBLOCK
100
AcDbLine
 10
-48.0
 20
3.5
 30
0.0
 11
-48.0
 21
9.849999999999999
 31
0.0
  0
SOLID
  5
177
330
149
100
AcDbEntity
  8
MO_001_VIEW_PV
  6
BYBLOCK
100
AcDbTrace
 10
-47.416488
 20
-6.81826
 30
0.0
 11
-48.0
 21
-4.008
 31
0.0
 12
-48.583512
 22
-6.81826
 32
0.0
 13
-48.583512
 23
-6.81826
 33
0.0
  0
SOLID
  5
178
330
149
100
AcDbEntity
  8
MO_001_VIEW_PV
  6
BYBLOCK
100
AcDbTrace
 10
-48.583512
 20
6.81826
 30
0.0
 11
-48.0
 21
4.008
 31
0.0
 12
-47.416488
 22
6.81826
 32
0.0
 13
-47.416488
 23
6.81826
 33
0.0
  0
LINE
  5
179
330
149
100
AcDbEntity
  8
MO_001_VIEW_PV
  6
BYBLOCK
100
AcDbLine
 10
-34.0
 20
-3.5
 30
0.0
 11
-50.28599899999999
 21
-3.5
 31
0.0
  0
LINE
  5
17A
330
149
100
AcDbEntity
  8
MO_001_VIEW_PV
  6
BYBLOCK
100
AcDbLine
 10
-34.0
 20
3.5
 30
0.0
 11
-50.28599899999999
 21
3.5
 31
0.0
  0
LINE
  5
17B
330
149
100
AcDbEntity
  8
MO_001_VIEW_PV
  6
BYBLOCK
100
AcDbLine
 10
-48.0
 20
3.5
 30
0.0
 11
-48.0
 21
21.267773
 31
0.0
  0
ENDBLK
  5
17C
330
149
100
AcDbEntity
  8
0
100
AcDbBlockEnd
  0
BLOCK
  5
17D
330
14B
100
AcDbEntity
  8
0
100
AcDbBlockBegin
  2
*D1
 70
     1
 10
0.0
 20
0.0
 30
0.0
  3
*D1
  1

  0
TEXT
  5
17E
330
14B
100
AcDbEntity
  8
MO_001_VIEW_PV
  6
BYBLOCK
100
AcDbText
 10
-86.62499999999999
 20
0.214286
 30
0.0
 40
1.5
  1
%%P0.3
 50
90.0
100
AcDbText
  0
TEXT
  5
17F
330
14B
100
AcDbEntity
  8
MO_001_VIEW_PV
  6
BYBLOCK
100
AcDbText
 10
-84.74999999999999
 20
-5.571429
 30
0.0
 40
3.0
  1
16
 50
90.0
100
AcDbText
  0
LINE
  5
180
330
14B
100
AcDbEntity
  8
MO_001_VIEW_PV
  6
BYBLOCK
100
AcDbLine
 10
-84.0
 20
8.0
 30
0.0
 11
-84.0
 21
-8.0
 31
0.0
  0
SOLID
  5
181
330
14B
100
AcDbEntity
  8
MO_001_VIEW_PV
  6
BYBLOCK
100
AcDbTrace
 10
-83.41648799999999
 20
4.68174
 30
0.0
 11
-84.0
 21
7.492
 31
0.0
 12
-84.583512
 22
4.68174
 32
0.0
 13
-84.583512
 23
4.68174
 33
0.0
  0
SOLID
  5
182
330
14B
100
AcDbEntity
  8
MO_001_VIEW_PV
  6
BYBLOCK
100
AcDbTrace
 10
-84.583512
 20
-4.68174
 30
0.0
 11
-84.0
 21
-7.492
 31
0.0
 12
-83.41648799999999
 22
-4.68174
 32
0.0
 13
-83.41648799999999
 23
-4.68174
 33
0.0
  0
LINE
  5
183
330
14B
100
AcDbEntity
  8
MO_001_VIEW_PV
  6
BYBLOCK
100
AcDbLine
 10
-79.0
 20
8.0
 30
0.0
 11
-86.286003
 21
8.0
 31
0.0
  0
LINE
  5
184
330
14B
100
AcDbEntity
  8
MO_001_VIEW_PV
  6
BYBLOCK
100
AcDbLine
 10
-79.0
 20
-8.0
 30
0.0
 11
-86.286003
 21
-8.0
 31
0.0
  0
ENDBLK
  5
185
330
14B
100
AcDbEntity
  8
0
100
AcDbBlockEnd
  0
BLOCK
  5
186
330
14D
100
AcDbEntity
  8
0
100
AcDbBlockBegin
  2
*D2
 70
     1
 10
0.0
 20
0.0
 30
0.0
  3
*D2
  1

  0
LINE
  5
187
330
14D
100
AcDbEntity
  8
MO_001_VIEW_PV
  6
BYBLOCK
100
AcDbLine
 10
-79.0
 20
-18.0
 30
0.0
 11
-59.0
 21
-18.0
 31
0.0
  0
SOLID
  5
188
330
14D
100
AcDbEntity
  8
MO_001_VIEW_PV
  6
BYBLOCK
100
AcDbTrace
 10
-75.68174
 20
-17.416488
 30
0.0
 11
-78.492
 21
-18.0
 31
0.0
 12
-75.68174
 22
-18.58351199999999
 32
0.0
 13
-75.68174
 23
-18.58351199999999
 33
0.0
  0
SOLID
  5
189
330
14D
100
AcDbEntity
  8
MO_001_VIEW_PV
  6
BYBLOCK
100
AcDbTrace
 10
-62.31825999999999
 20
-18.58351199999999
 30
0.0
 11
-59.508
 21
-18.0
 31
0.0
 12
-62.31825999999999
 22
-17.416488
 32
0.0
 13
-62.31825999999999
 23
-17.416488
 33
0.0
  0
LINE
  5
18A
330
14D
100
AcDbEntity
  8
MO_001_VIEW_PV
  6
BYBLOCK
100
AcDbLine
 10
-79.0
 20
-8.0
 30
0.0
 11
-79.0
 21
-20.285999
 31
0.0
  0
LINE
  5
18B
330
14D
100
AcDbEntity
  8
MO_001_VIEW_PV
  6
BYBLOCK
100
AcDbLine
 10
-59.0
 20
-8.0
 30
0.0
 11
-59.0
 21
-20.285999
 31
0.0
  0
TEXT
  5
18C
330
14D
100
AcDbEntity
  8
MO_001_VIEW_PV
  6
BYBLOCK
100
AcDbText
 10
-68.785714
 20
-15.375
 30
0.0
 40
1.5
  1
%%P0.3
100
AcDbText
  0
TEXT
  5
18D
330
14D
100
AcDbEntity
  8
MO_001_VIEW_PV
  6
BYBLOCK
100
AcDbText
 10
-74.571429
 20
-17.25
 30
0.0
 40
3.0
  1
20
100
AcDbText
  0
ENDBLK
  5
18E
330
14D
100
AcDbEntity
  8
0
100
AcDbBlockEnd
  0
BLOCK
  5
18F
330
14F
100
AcDbEntity
  8
0
100
AcDbBlockBegin
  2
*D3
 70
     1
 10
0.0
 20
0.0
 30
0.0
  3
*D3
  1

  0
TEXT
  5
190
330
14F
100
AcDbEntity
  8
MO_001_VIEW_PV
  6
BYBLOCK
100
AcDbText
 10
-13.935714
 20
26.625
 30
0.0
 40
1.5
  1
%%P0.5
100
AcDbText
  0
TEXT
  5
191
330
14F
100
AcDbEntity
  8
MO_001_VIEW_PV
  6
BYBLOCK
100
AcDbText
 10
-25.72142799999999
 20
24.75
 30
0.0
 40
3.0
  1
34.3
100
AcDbText
  0
LINE
  5
192
330
14F
100
AcDbEntity
  8
MO_001_VIEW_PV
  6
BYBLOCK
100
AcDbLine
 10
-34.299999
 20
24.0
 30
0.0
 11
0.0
 21
24.0
 31
0.0
  0
SOLID
  5
193
330
14F
100
AcDbEntity
  8
MO_001_VIEW_PV
  6
BYBLOCK
100
AcDbTrace
 10
-30.981739
 20
24.583512
 30
0.0
 11
-33.79199899999999
 21
24.0
 31
0.0
 12
-30.981739
 22
23.416488
 32
0.0
 13
-30.981739
 23
23.416488
 33
0.0
  0
SOLID
  5
194
330
14F
100
AcDbEntity
  8
MO_001_VIEW_PV
  6
BYBLOCK
100
AcDbTrace
 10
-3.318259999999999
 20
23.416488
 30
0.0
 11
-0.508
 21
24.0
 31
0.0
 12
-3.318259999999999
 22
24.583512
 32
0.0
 13
-3.318259999999999
 23
24.583512
 33
0.0
  0
LINE
  5
195
330
14F
100
AcDbEntity
  8
MO_001_VIEW_PV
  6
BYBLOCK
100
AcDbLine
 10
-34.299999
 20
3.199997
 30
0.0
 11
-34.299999
 21
26.285999
 31
0.0
  0
LINE
  5
196
330
14F
100
AcDbEntity
  8
MO_001_VIEW_PV
  6
BYBLOCK
100
AcDbLine
 10
0.0
 20
8.0
 30
0.0
 11
0.0
 21
26.285999
 31
0.0
  0
ENDBLK
  5
197
330
14F
100
AcDbEntity
  8
0
100
AcDbBlockEnd
  0
BLOCK
  5
198
330
151
100
AcDbEntity
  8
0
100
AcDbBlockBegin
  2
*D4
 70
     1
 10
0.0
 20
0.0
 30
0.0
  3
*D4
  1

  0
TEXT
  5
199
330
151
100
AcDbEntity
  8
MO_001_VIEW_PV
  6
BYBLOCK
100
AcDbText
 10
-11.935715
 20
20.625
 30
0.0
 40
1.5
  1
%%P0.3
100
AcDbText
  0
TEXT
  5
19A
330
151
100
AcDbEntity
  8
MO_001_VIEW_PV
  6
BYBLOCK
100
AcDbText
 10
-23.721429
 20
18.75
 30
0.0
 40
3.0
  1
30.3
100
AcDbText
  0
LINE
  5
19B
330
151
100
AcDbEntity
  8
MO_001_VIEW_PV
  6
BYBLOCK
100
AcDbLine
 10
0.0
 20
18.0
 30
0.0
 11
-30.300001
 21
18.0
 31
0.0
  0
SOLID
  5
19C
330
151
100
AcDbEntity
  8
MO_001_VIEW_PV
  6
BYBLOCK
100
AcDbTrace
 10
-3.318259999999999
 20
17.416488
 30
0.0
 11
-0.508
 21
18.0
 31
0.0
 12
-3.318259999999999
 22
18.58351199999999
 32
0.0
 13
-3.318259999999999
 23
18.58351199999999
 33
0.0
  0
SOLID
  5
19D
330
151
100
AcDbEntity
  8
MO_001_VIEW_PV
  6
BYBLOCK
100
AcDbTrace
 10
-26.98174099999999
 20
18.58351199999999
 30
0.0
 11
-29.792001
 21
18.0
 31
0.0
 12
-26.98174099999999
 22
17.416488
 32
0.0
 13
-26.98174099999999
 23
17.416488
 33
0.0
  0
LINE
  5
19E
330
151
100
AcDbEntity
  8
MO_001_VIEW_PV
  6
BYBLOCK
100
AcDbLine
 10
0.0
 20
8.0
 30
0.0
 11
0.0
 21
20.285999
 31
0.0
  0
LINE
  5
19F
330
151
100
AcDbEntity
  8
MO_001_VIEW_PV
  6
BYBLOCK
100
AcDbLine
 10
-30.300001
 20
4.01188
 30
0.0
 11
-30.300001
 21
20.285999
 31
0.0
  0
ENDBLK
  5
1A0
330
151
100
AcDbEntity
  8
0
100
AcDbBlockEnd
  0
BLOCK
  5
1A1
330
153
100
AcDbEntity
  8
0
100
AcDbBlockBegin
  2
*D5
 70
     1
 10
0.0
 20
0.0
 30
0.0
  3
*D5
  1

  0
TEXT
  5
1A2
330
153
100
AcDbEntity
  8
MO_001_VIEW_PV
  6
BYBLOCK
100
AcDbText
 10
-8.071427999999999
 20
12.75
 30
0.0
 40
3.0
  1
(8)
100
AcDbText
  0
LINE
  5
1A3
330
153
100
AcDbEntity
  8
MO_001_VIEW_PV
  6
BYBLOCK
100
AcDbLine
 10
-8.0
 20
12.0
 30
0.0
 11
0.0
 21
12.0
 31
0.0
  0
LINE
  5
1A4
330
153
100
AcDbEntity
  8
MO_001_VIEW_PV
  6
BYBLOCK
100
AcDbLine
 10
-8.0
 20
12.0
 30
0.0
 11
-14.349999
 21
12.0
 31
0.0
  0
LINE
  5
1A5
330
153
100
AcDbEntity
  8
MO_001_VIEW_PV
  6
BYBLOCK
100
AcDbLine
 10
0.0
 20
12.0
 30
0.0
 11
6.349999999999999
 21
12.0
 31
0.0
  0
SOLID
  5
1A6
330
153
100
AcDbEntity
  8
MO_001_VIEW_PV
  6
BYBLOCK
100
AcDbTrace
 10
-11.31825999999999
 20
11.416488
 30
0.0
 11
-8.507999999999999
 21
12.0
 31
0.0
 12
-11.31825999999999
 22
12.58351199999999
 32
0.0
 13
-11.31825999999999
 23
12.58351199999999
 33
0.0
  0
SOLID
  5
1A7
330
153
100
AcDbEntity
  8
MO_001_VIEW_PV
  6
BYBLOCK
100
AcDbTrace
 10
3.318259999999999
 20
12.58351199999999
 30
0.0
 11
0.508
 21
12.0
 31
0.0
 12
3.318259999999999
 22
11.416488
 32
0.0
 13
3.318259999999999
 23
11.416488
 33
0.0
  0
LINE
  5
1A8
330
153
100
AcDbEntity
  8
MO_001_VIEW_PV
  6
BYBLOCK
100
AcDbLine
 10
-8.0
 20
-3.0
 30
0.0
 11
-8.0
 21
14.286
 31
0.0
  0
LINE
  5
1A9
330
153
100
AcDbEntity
  8
MO_001_VIEW_PV
  6
BYBLOCK
100
AcDbLine
 10
0.0
 20
8.0
 30
0.0
 11
0.0
 21
14.286
 31
0.0
  0
LINE
  5
1AA
330
153
100
AcDbEntity
  8
MO_001_VIEW_PV
  6
BYBLOCK
100
AcDbLine
 10
-9.035714
 20
12.0
 30
0.0
 11
-8.0
 21
12.0
 31
0.0
  0
LINE
  5
1AB
330
153
100
AcDbEntity
  8
MO_001_VIEW_PV
  6
BYBLOCK
100
AcDbLine
 10
0.0
 20
12.0
 30
0.0
 11
1.035714
 21
12.0
 31
0.0
  0
ENDBLK
  5
1AC
330
153
100
AcDbEntity
  8
0
100
AcDbBlockEnd
  0
BLOCK
  5
1AD
330
155
100
AcDbEntity
  8
0
100
AcDbBlockBegin
  2
*D6
 70
     1
 10
0.0
 20
0.0
 30
0.0
  3
*D6
  1

  0
LINE
  5
1AE
330
155
100
AcDbEntity
  8
MO_001_VIEW_PV
  6
BYBLOCK
100
AcDbLine
 10
-13.5
 20
-21.0
 30
0.0
 11
-8.303848
 21
-30.0
 31
0.0
  0
SOLID
  5
1AF
330
155
100
AcDbEntity
  8
MO_001_VIEW_PV
  6
BYBLOCK
100
AcDbTrace
 10
-11.335534
 20
-23.58194099999999
 30
0.0
 11
-13.24599999999999
 21
-21.43994
 31
0.0
 12
-12.346206
 22
-24.165453
 32
0.0
 13
-12.346206
 23
-24.165453
 33
0.0
  0
LINE
  5
1B0
330
155
100
AcDbEntity
  8
MO_001_VIEW_PV
  6
BYBLOCK
100
AcDbLine
 10
-8.303848
 20
-30.0
 30
0.0
 11
5.238052999999999
 21
-30.0
 31
0.0
  0
TEXT
  5
1B1
330
155
100
AcDbEntity
  8
MO_001_VIEW_PV
  6
BYBLOCK
100
AcDbText
 10
-1.083374999999999
 20
-27.375
 30
0.0
 40
1.5
  1
%%P0.2
100
AcDbText
  0
TEXT
  5
1B2
330
155
100
AcDbEntity
  8
MO_001_VIEW_PV
  6
BYBLOCK
100
AcDbText
 10
-6.869088999999999
 20
-29.25
 30
0.0
 40
3.0
  1
11
100
AcDbText
  0
LINE
  5
1B3
330
155
100
AcDbEntity
  8
MO_001_VIEW_PV
  6
BYBLOCK
100
AcDbLine
 10
-8.0
 20
-21.0
 30
0.0
 11
-19.0
 21
-21.0
 31
0.0
  0
SOLID
  5
1B4
330
155
100
AcDbEntity
  8
MO_001_VIEW_PV
  6
BYBLOCK
100
AcDbTrace
 10
-11.31825999999999
 20
-21.58351199999999
 30
0.0
 11
-8.507999999999999
 21
-21.0
 31
0.0
 12
-11.31825999999999
 22
-20.416488
 32
0.0
 13
-11.31825999999999
 23
-20.416488
 33
0.0
  0
SOLID
  5
1B5
330
155
100
AcDbEntity
  8
MO_001_VIEW_PV
  6
BYBLOCK
100
AcDbTrace
 10
-15.68173999999999
 20
-20.416488
 30
0.0
 11
-18.492
 21
-21.0
 31
0.0
 12
-15.68173999999999
 22
-21.58351199999999
 32
0.0
 13
-15.68173999999999
 23
-21.58351199999999
 33
0.0
  0
LINE
  5
1B6
330
155
100
AcDbEntity
  8
MO_001_VIEW_PV
  6
BYBLOCK
100
AcDbLine
 10
-8.0
 20
-8.0
 30
0.0
 11
-8.0
 21
-23.28599899999999
 31
0.0
  0
LINE
  5
1B7
330
155
100
AcDbEntity
  8
MO_001_VIEW_PV
  6
BYBLOCK
100
AcDbLine
 10
-19.0
 20
-8.0
 30
0.0
 11
-19.0
 21
-23.28599899999999
 31
0.0
  0
ENDBLK
  5
1B8
330
155
100
AcDbEntity
  8
0
100
AcDbBlockEnd
  0
BLOCK
  5
1B9
330
157
100
AcDbEntity
  8
0
100
AcDbBlockBegin
  2
*D7
 70
     1
 10
0.0
 20
0.0
 30
0.0
  3
*D7
  1

  0
TEXT
  5
1BA
330
157
100
AcDbEntity
  8
MO_001_VIEW_PV
  6
BYBLOCK
100
AcDbText
 10
-41.785714
 20
-18.375
 30
0.0
 40
1.5
  1
+0.2
100
AcDbText
  0
TEXT
  5
1BB
330
157
100
AcDbEntity
  8
MO_001_VIEW_PV
  6
BYBLOCK
100
AcDbText
 10
-41.785714
 20
-20.625
 30
0.0
 40
1.5
  1
-0.5
100
AcDbText
  0
TEXT
  5
1BC
330
157
100
AcDbEntity
  8
MO_001_VIEW_PV
  6
BYBLOCK
100
AcDbText
 10
-53.571429
 20
-20.24999999999999
 30
0.0
 40
3.0
  1
12.8
100
AcDbText
  0
LINE
  5
1BD
330
157
100
AcDbEntity
  8
MO_001_VIEW_PV
  6
BYBLOCK
100
AcDbLine
 10
-31.79999699999999
 20
-21.0
 30
0.0
 11
-19.0
 21
-21.0
 31
0.0
  0
LINE
  5
1BE
330
157
100
AcDbEntity
  8
MO_001_VIEW_PV
  6
BYBLOCK
100
AcDbLine
 10
-31.79999699999999
 20
-21.0
 30
0.0
 11
-38.14999699999999
 21
-21.0
 31
0.0
  0
LINE
  5
1BF
330
157
100
AcDbEntity
  8
MO_001_VIEW_PV
  6
BYBLOCK
100
AcDbLine
 10
-19.0
 20
-21.0
 30
0.0
 11
-12.65
 21
-21.0
 31
0.0
  0
SOLID
  5
1C0
330
157
100
AcDbEntity
  8
MO_001_VIEW_PV
  6
BYBLOCK
100
AcDbTrace
 10
-35.118257
 20
-21.58351199999999
 30
0.0
 11
-32.307997
 21
-21.0
 31
0.0
 12
-35.118257
 22
-20.416488
 32
0.0
 13
-35.118257
 23
-20.416488
 33
0.0
  0
SOLID
  5
1C1
330
157
100
AcDbEntity
  8
MO_001_VIEW_PV
  6
BYBLOCK
100
AcDbTrace
 10
-15.68173999999999
 20
-20.416488
 30
0.0
 11
-18.492
 21
-21.0
 31
0.0
 12
-15.68173999999999
 22
-21.58351199999999
 32
0.0
 13
-15.68173999999999
 23
-21.58351199999999
 33
0.0
  0
LINE
  5
1C2
330
157
100
AcDbEntity
  8
MO_001_VIEW_PV
  6
BYBLOCK
100
AcDbLine
 10
-31.79999699999999
 20
-1.846641999999999
 30
0.0
 11
-31.79999699999999
 21
-23.28599899999999
 31
0.0
  0
LINE
  5
1C3
330
157
100
AcDbEntity
  8
MO_001_VIEW_PV
  6
BYBLOCK
100
AcDbLine
 10
-19.0
 20
-8.0
 30
0.0
 11
-19.0
 21
-23.28599899999999
 31
0.0
  0
LINE
  5
1C4
330
157
100
AcDbEntity
  8
MO_001_VIEW_PV
  6
BYBLOCK
100
AcDbLine
 10
-54.535713
 20
-21.0
 30
0.0
 11
-31.79999699999999
 21
-21.0
 31
0.0
  0
ENDBLK
  5
1C5
330
157
100
AcDbEntity
  8
0
100
AcDbBlockEnd
  0
BLOCK
  5
1C6
330
159
100
AcDbEntity
  8
0
100
AcDbBlockBegin
  2
*D8
 70
     1
 10
0.0
 20
0.0
 30
0.0
  3
*D8
  1

  0
TEXT
  5
1C7
330
159
100
AcDbEntity
  8
MO_001_VIEW_PV
  6
BYBLOCK
100
AcDbText
 10
-43.285714
 20
-12.375
 30
0.0
 40
1.5
  1
%%P0.2
100
AcDbText
  0
TEXT
  5
1C8
330
159
100
AcDbEntity
  8
MO_001_VIEW_PV
  6
BYBLOCK
100
AcDbText
 10
-52.071429
 20
-14.25
 30
0.0
 40
3.0
  1
2.5
100
AcDbText
  0
LINE
  5
1C9
330
159
100
AcDbEntity
  8
MO_001_VIEW_PV
  6
BYBLOCK
100
AcDbLine
 10
-31.79999699999999
 20
-15.0
 30
0.0
 11
-34.299999
 21
-15.0
 31
0.0
  0
LINE
  5
1CA
330
159
100
AcDbEntity
  8
MO_001_VIEW_PV
  6
BYBLOCK
100
AcDbLine
 10
-31.79999699999999
 20
-15.0
 30
0.0
 11
-25.44999699999999
 21
-15.0
 31
0.0
  0
LINE
  5
1CB
330
159
100
AcDbEntity
  8
MO_001_VIEW_PV
  6
BYBLOCK
100
AcDbLine
 10
-34.299999
 20
-15.0
 30
0.0
 11
-40.649999
 21
-15.0
 31
0.0
  0
SOLID
  5
1CC
330
159
100
AcDbEntity
  8
MO_001_VIEW_PV
  6
BYBLOCK
100
AcDbTrace
 10
-28.481737
 20
-14.416488
 30
0.0
 11
-31.291997
 21
-15.0
 31
0.0
 12
-28.481737
 22
-15.58351199999999
 32
0.0
 13
-28.481737
 23
-15.58351199999999
 33
0.0
  0
SOLID
  5
1CD
330
159
100
AcDbEntity
  8
MO_001_VIEW_PV
  6
BYBLOCK
100
AcDbTrace
 10
-37.618259
 20
-15.58351199999999
 30
0.0
 11
-34.807999
 21
-15.0
 31
0.0
 12
-37.618259
 22
-14.416488
 32
0.0
 13
-37.618259
 23
-14.416488
 33
0.0
  0
LINE
  5
1CE
330
159
100
AcDbEntity
  8
MO_001_VIEW_PV
  6
BYBLOCK
100
AcDbLine
 10
-31.79999699999999
 20
-1.846641999999999
 30
0.0
 11
-31.79999699999999
 21
-17.285999
 31
0.0
  0
LINE
  5
1CF
330
159
100
AcDbEntity
  8
MO_001_VIEW_PV
  6
BYBLOCK
100
AcDbLine
 10
-34.299999
 20
-3.200012
 30
0.0
 11
-34.299999
 21
-17.285999
 31
0.0
  0
LINE
  5
1D0
330
159
100
AcDbEntity
  8
MO_001_VIEW_PV
  6
BYBLOCK
100
AcDbLine
 10
-34.299999
 20
-15.0
 30
0.0
 11
-53.035713
 21
-15.0
 31
0.0
  0
ENDBLK
  5
1D1
330
159
100
AcDbEntity
  8
0
100
AcDbBlockEnd
  0
BLOCK
  5
1D2
330
15B
100
AcDbEntity
  8
0
100
AcDbBlockBegin
  2
*D9
 70
     1
 10
0.0
 20
0.0
 30
0.0
  3
*D9
  1

  0
LINE
  5
1D3
330
15B
100
AcDbEntity
  8
MO_001_VIEW_PV
  6
BYBLOCK
100
AcDbLine
 10
0.0
 20
-21.0
 30
0.0
 11
46.0
 21
-21.0
 31
0.0
  0
SOLID
  5
1D4
330
15B
100
AcDbEntity
  8
MO_001_VIEW_PV
  6
BYBLOCK
100
AcDbTrace
 10
3.318259999999999
 20
-20.416488
 30
0.0
 11
0.508
 21
-21.0
 31
0.0
 12
3.318259999999999
 22
-21.58351199999999
 32
0.0
 13
3.318259999999999
 23
-21.58351199999999
 33
0.0
  0
SOLID
  5
1D5
330
15B
100
AcDbEntity
  8
MO_001_VIEW_PV
  6
BYBLOCK
100
AcDbTrace
 10
42.68174000000001
 20
-21.58351199999999
 30
0.0
 11
45.49199999999999
 21
-21.0
 31
0.0
 12
42.68174000000001
 22
-20.416488
 32
0.0
 13
42.68174000000001
 23
-20.416488
 33
0.0
  0
LINE
  5
1D6
330
15B
100
AcDbEntity
  8
MO_001_VIEW_PV
  6
BYBLOCK
100
AcDbLine
 10
0.0
 20
-8.0
 30
0.0
 11
0.0
 21
-23.28599899999999
 31
0.0
  0
LINE
  5
1D7
330
15B
100
AcDbEntity
  8
MO_001_VIEW_PV
  6
BYBLOCK
100
AcDbLine
 10
46.0
 20
-6.990002
 30
0.0
 11
46.0
 21
-23.28599899999999
 31
0.0
  0
TEXT
  5
1D8
330
15B
100
AcDbEntity
  8
MO_001_VIEW_PV
  6
BYBLOCK
100
AcDbText
 10
12.107143
 20
-20.24999999999999
 30
0.0
 40
3.0
  1
長さ240以上
100
AcDbText
  0
ENDBLK
  5
1D9
330
15B
100
AcDbEntity
  8
0
100
AcDbBlockEnd
  0
BLOCK
  5
1DA
330
15D
100
AcDbEntity
  8
0
100
AcDbBlockBegin
  2
*D10
 70
     1
 10
0.0
 20
0.0
 30
0.0
  3
*D10
  1

  0
TEXT
  5
1DB
330
15D
100
AcDbEntity
  8
MO_001_VIEW_PV
  6
BYBLOCK
100
AcDbText
 10
27.375
 20
13.008788
 30
0.0
 40
1.5
  1
%%P0.2
 50
90.0
100
AcDbText
  0
TEXT
  5
1DC
330
15D
100
AcDbEntity
  8
MO_001_VIEW_PV
  6
BYBLOCK
100
AcDbText
 10
29.25
 20
7.223074
 30
0.0
 40
3.0
  1
10
 50
90.0
100
AcDbText
  0
LINE
  5
1DD
330
15D
100
AcDbEntity
  8
MO_001_VIEW_PV
  6
BYBLOCK
100
AcDbLine
 10
30.0
 20
-5.5
 30
0.0
 11
30.0
 21
4.5
 31
0.0
  0
SOLID
  5
1DE
330
15D
100
AcDbEntity
  8
MO_001_VIEW_PV
  6
BYBLOCK
100
AcDbTrace
 10
29.416488
 20
-2.18174
 30
0.0
 11
30.0
 21
-4.991999999999999
 31
0.0
 12
30.583512
 22
-2.18174
 32
0.0
 13
30.583512
 23
-2.18174
 33
0.0
  0
SOLID
  5
1DF
330
15D
100
AcDbEntity
  8
MO_001_VIEW_PV
  6
BYBLOCK
100
AcDbTrace
 10
30.583512
 20
1.18174
 30
0.0
 11
30.0
 21
3.991999999999999
 31
0.0
 12
29.416488
 22
1.18174
 32
0.0
 13
29.416488
 23
1.18174
 33
0.0
  0
LINE
  5
1E0
330
15D
100
AcDbEntity
  8
MO_001_VIEW_PV
  6
BYBLOCK
100
AcDbLine
 10
-4.761116999999999
 20
-5.5
 30
0.0
 11
32.28599899999999
 21
-5.5
 31
0.0
  0
LINE
  5
1E1
330
15D
100
AcDbEntity
  8
MO_001_VIEW_PV
  6
BYBLOCK
100
AcDbLine
 10
-15.650726
 20
4.5
 30
0.0
 11
32.28599899999999
 21
4.5
 31
0.0
  0
LINE
  5
1E2
330
15D
100
AcDbEntity
  8
MO_001_VIEW_PV
  6
BYBLOCK
100
AcDbLine
 10
30.0
 20
4.5
 30
0.0
 11
30.0
 21
19.33021499999999
 31
0.0
  0
ENDBLK
  5
1E3
330
15D
100
AcDbEntity
  8
0
100
AcDbBlockEnd
  0
BLOCK
  5
1E4
330
15F
100
AcDbEntity
  8
0
100
AcDbBlockBegin
  2
*D11
 70
     1
 10
0.0
 20
0.0
 30
0.0
  3
*D11
  1

  0
TEXT
  5
1E5
330
15F
100
AcDbEntity
  8
MO_001_VIEW_PV
  6
BYBLOCK
100
AcDbText
 10
21.375
 20
16.71428599999999
 30
0.0
 40
1.5
  1
%%P0.1
 50
90.0
100
AcDbText
  0
TEXT
  5
1E6
330
15F
100
AcDbEntity
  8
MO_001_VIEW_PV
  6
BYBLOCK
100
AcDbText
 10
23.25
 20
7.928571
 30
0.0
 40
3.0
  1
5.5
 50
90.0
100
AcDbText
  0
LINE
  5
1E7
330
15F
100
AcDbEntity
  8
MO_001_VIEW_PV
  6
BYBLOCK
100
AcDbLine
 10
24.0
 20
-5.5
 30
0.0
 11
24.0
 21
0.0
 31
0.0
  0
LINE
  5
1E8
330
15F
100
AcDbEntity
  8
MO_001_VIEW_PV
  6
BYBLOCK
100
AcDbLine
 10
24.0
 20
-5.5
 30
0.0
 11
24.0
 21
-11.85
 31
0.0
  0
LINE
  5
1E9
330
15F
100
AcDbEntity
  8
MO_001_VIEW_PV
  6
BYBLOCK
100
AcDbLine
 10
24.0
 20
0.0
 30
0.0
 11
24.0
 21
6.349999999999999
 31
0.0
  0
SOLID
  5
1EA
330
15F
100
AcDbEntity
  8
MO_001_VIEW_PV
  6
BYBLOCK
100
AcDbTrace
 10
24.583512
 20
-8.81826
 30
0.0
 11
24.0
 21
-6.007999999999999
 31
0.0
 12
23.416488
 22
-8.81826
 32
0.0
 13
23.416488
 23
-8.81826
 33
0.0
  0
SOLID
  5
1EB
330
15F
100
AcDbEntity
  8
MO_001_VIEW_PV
  6
BYBLOCK
100
AcDbTrace
 10
23.416488
 20
3.318259999999999
 30
0.0
 11
24.0
 21
0.508
 31
0.0
 12
24.583512
 22
3.318259999999999
 32
0.0
 13
24.583512
 23
3.318259999999999
 33
0.0
  0
LINE
  5
1EC
330
15F
100
AcDbEntity
  8
MO_001_VIEW_PV
  6
BYBLOCK
100
AcDbLine
 10
-4.761116999999999
 20
-5.5
 30
0.0
 11
26.285999
 21
-5.5
 31
0.0
  0
LINE
  5
1ED
330
15F
100
AcDbEntity
  8
MO_001_VIEW_PV
  6
BYBLOCK
100
AcDbLine
 10
4.614423999999999
 20
0.0
 30
0.0
 11
26.285999
 21
0.0
 31
0.0
  0
LINE
  5
1EE
330
15F
100
AcDbEntity
  8
MO_001_VIEW_PV
  6
BYBLOCK
100
AcDbLine
 10
24.0
 20
0.0
 30
0.0
 11
24.0
 21
23.035713
 31
0.0
  0
ENDBLK
  5
1EF
330
15F
100
AcDbEntity
  8
0
100
AcDbBlockEnd
  0
BLOCK
  5
1F0
330
161
100
AcDbEntity
  8
0
100
AcDbBlockBegin
  2
*D12
 70
     1
 10
0.0
 20
0.0
 30
0.0
  3
*D12
  1

  0
TEXT
  5
1F1
330
161
100
AcDbEntity
  8
MO_001_VIEW_PV
  6
BYBLOCK
100
AcDbText
 10
17.25
 20
4.978791999999999
 30
0.0
 40
3.0
  1
(%%C3.1)
 50
90.0
100
AcDbText
  0
LINE
  5
1F2
330
161
100
AcDbEntity
  8
MO_001_VIEW_PV
  6
BYBLOCK
100
AcDbLine
 10
18.0
 20
1.299998999999999
 30
0.0
 11
18.0
 21
-1.299998999999999
 31
0.0
  0
LINE
  5
1F3
330
161
100
AcDbEntity
  8
MO_001_VIEW_PV
  6
BYBLOCK
100
AcDbLine
 10
18.0
 20
1.299998999999999
 30
0.0
 11
18.0
 21
7.649999
 31
0.0
  0
LINE
  5
1F4
330
161
100
AcDbEntity
  8
MO_001_VIEW_PV
  6
BYBLOCK
100
AcDbLine
 10
18.0
 20
-1.299998999999999
 30
0.0
 11
18.0
 21
-7.649999
 31
0.0
  0
SOLID
  5
1F5
330
161
100
AcDbEntity
  8
MO_001_VIEW_PV
  6
BYBLOCK
100
AcDbTrace
 10
17.416488
 20
4.618258999999999
 30
0.0
 11
18.0
 21
1.807999
 31
0.0
 12
18.58351199999999
 22
4.618258999999999
 32
0.0
 13
18.58351199999999
 23
4.618258999999999
 33
0.0
  0
SOLID
  5
1F6
330
161
100
AcDbEntity
  8
MO_001_VIEW_PV
  6
BYBLOCK
100
AcDbTrace
 10
18.58351199999999
 20
-4.618258999999999
 30
0.0
 11
18.0
 21
-1.807999
 31
0.0
 12
17.416488
 22
-4.618258999999999
 32
0.0
 13
17.416488
 23
-4.618258999999999
 33
0.0
  0
LINE
  5
1F7
330
161
100
AcDbEntity
  8
MO_001_VIEW_PV
  6
BYBLOCK
100
AcDbLine
 10
0.5
 20
1.299998999999999
 30
0.0
 11
20.285999
 21
1.299998999999999
 31
0.0
  0
LINE
  5
1F8
330
161
100
AcDbEntity
  8
MO_001_VIEW_PV
  6
BYBLOCK
100
AcDbLine
 10
0.5
 20
-1.299998999999999
 30
0.0
 11
20.285999
 21
-1.299998999999999
 31
0.0
  0
LINE
  5
1F9
330
161
100
AcDbEntity
  8
MO_001_VIEW_PV
  6
BYBLOCK
100
AcDbLine
 10
18.0
 20
23.085936
 30
0.0
 11
18.0
 21
1.299998999999999
 31
0.0
  0
ENDBLK
  5
1FA
330
161
100
AcDbEntity
  8
0
100
AcDbBlockEnd
  0
BLOCK
  5
1FB
330
163
100
AcDbEntity
  8
0
100
AcDbBlockBegin
  2
*D13
 70
     1
 10
0.0
 20
0.0
 30
0.0
  3
*D13
  1

  0
LINE
  5
1FC
330
163
100
AcDbEntity
  8
MO_001_VIEW_PV
  6
BYBLOCK
100
AcDbLine
 10
-34.299999
 20
-36.0
 30
0.0
 11
-29.5
 21
-36.0
 31
0.0
  0
LINE
  5
1FD
330
163
100
AcDbEntity
  8
MO_001_VIEW_PV
  6
BYBLOCK
100
AcDbLine
 10
-34.299999
 20
-36.0
 30
0.0
 11
-40.649999
 21
-36.0
 31
0.0
  0
LINE
  5
1FE
330
163
100
AcDbEntity
  8
MO_001_VIEW_PV
  6
BYBLOCK
100
AcDbLine
 10
-29.5
 20
-36.0
 30
0.0
 11
-23.14999999999999
 21
-36.0
 31
0.0
  0
SOLID
  5
1FF
330
163
100
AcDbEntity
  8
MO_001_VIEW_PV
  6
BYBLOCK
100
AcDbTrace
 10
-37.618259
 20
-36.583512
 30
0.0
 11
-34.807999
 21
-36.0
 31
0.0
 12
-37.618259
 22
-35.416488
 32
0.0
 13
-37.618259
 23
-35.416488
 33
0.0
  0
SOLID
  5
200
330
163
100
AcDbEntity
  8
MO_001_VIEW_PV
  6
BYBLOCK
100
AcDbTrace
 10
-26.18173999999999
 20
-35.416488
 30
0.0
 11
-28.992
 21
-36.0
 31
0.0
 12
-26.18173999999999
 22
-36.583512
 32
0.0
 13
-26.18173999999999
 23
-36.583512
 33
0.0
  0
LINE
  5
201
330
163
100
AcDbEntity
  8
MO_001_VIEW_PV
  6
BYBLOCK
100
AcDbLine
 10
-34.299999
 20
-47.800003
 30
0.0
 11
-34.299999
 21
-33.714001
 31
0.0
  0
LINE
  5
202
330
163
100
AcDbEntity
  8
MO_001_VIEW_PV
  6
BYBLOCK
100
AcDbLine
 10
-29.5
 20
-41.0
 30
0.0
 11
-29.5
 21
-33.714001
 31
0.0
  0
TEXT
  5
203
330
163
100
AcDbEntity
  8
MO_001_VIEW_PV
  6
BYBLOCK
100
AcDbText
 10
-52.071429
 20
-35.25
 30
0.0
 40
3.0
  1
(4.8)
100
AcDbText
  0
LINE
  5
204
330
163
100
AcDbEntity
  8
MO_001_VIEW_PV
  6
BYBLOCK
100
AcDbLine
 10
-53.035713
 20
-36.0
 30
0.0
 11
-34.299999
 21
-36.0
 31
0.0
  0
ENDBLK
  5
205
330
163
100
AcDbEntity
  8
0
100
AcDbBlockEnd
  0
BLOCK
  5
206
330
165
100
AcDbEntity
  8
0
100
AcDbBlockBegin
  2
*D14
 70
     1
 10
0.0
 20
0.0
 30
0.0
  3
*D14
  1

  0
LINE
  5
207
330
165
100
AcDbEntity
  8
MO_001_VIEW_PV
  6
BYBLOCK
100
AcDbLine
 10
-29.5
 20
-36.0
 30
0.0
 11
0.0
 21
-36.0
 31
0.0
  0
SOLID
  5
208
330
165
100
AcDbEntity
  8
MO_001_VIEW_PV
  6
BYBLOCK
100
AcDbTrace
 10
-26.18173999999999
 20
-35.416488
 30
0.0
 11
-28.992
 21
-36.0
 31
0.0
 12
-26.18173999999999
 22
-36.583512
 32
0.0
 13
-26.18173999999999
 23
-36.583512
 33
0.0
  0
SOLID
  5
209
330
165
100
AcDbEntity
  8
MO_001_VIEW_PV
  6
BYBLOCK
100
AcDbTrace
 10
-3.318259999999999
 20
-36.583512
 30
0.0
 11
-0.508
 21
-36.0
 31
0.0
 12
-3.318259999999999
 22
-35.416488
 32
0.0
 13
-3.318259999999999
 23
-35.416488
 33
0.0
  0
LINE
  5
20A
330
165
100
AcDbEntity
  8
MO_001_VIEW_PV
  6
BYBLOCK
100
AcDbLine
 10
-29.5
 20
-41.0
 30
0.0
 11
-29.5
 21
-33.714001
 31
0.0
  0
LINE
  5
20B
330
165
100
AcDbEntity
  8
MO_001_VIEW_PV
  6
BYBLOCK
100
AcDbLine
 10
0.0
 20
-42.599998
 30
0.0
 11
0.0
 21
-33.714001
 31
0.0
  0
TEXT
  5
20C
330
165
100
AcDbEntity
  8
MO_001_VIEW_PV
  6
BYBLOCK
100
AcDbText
 10
-11.535714
 20
-33.375
 30
0.0
 40
1.5
  1
%%P0.5
100
AcDbText
  0
TEXT
  5
20D
330
165
100
AcDbEntity
  8
MO_001_VIEW_PV
  6
BYBLOCK
100
AcDbText
 10
-23.321429
 20
-35.25
 30
0.0
 40
3.0
  1
29.5
100
AcDbText
  0
ENDBLK
  5
20E
330
165
100
AcDbEntity
  8
0
100
AcDbBlockEnd
  0
BLOCK
  5
20F
330
167
100
AcDbEntity
  8
0
100
AcDbBlockBegin
  2
*D15
 70
     1
 10
0.0
 20
0.0
 30
0.0
  3
*D15
  1

  0
LINE
  5
210
330
167
100
AcDbEntity
  8
MO_001_VIEW_PV
  6
BYBLOCK
100
AcDbLine
 10
-31.27995499999999
 20
-0.8541389999999999
 30
0.0
 11
-32.320039
 21
0.854138
 31
0.0
  0
LINE
  5
211
330
167
100
AcDbEntity
  8
MO_001_VIEW_PV
  6
BYBLOCK
100
AcDbLine
 10
-31.27995499999999
 20
-0.8541389999999999
 30
0.0
 11
-27.977682
 21
-6.277929
 31
0.0
  0
LINE
  5
212
330
167
100
AcDbEntity
  8
MO_001_VIEW_PV
  6
BYBLOCK
100
AcDbLine
 10
-32.320039
 20
0.854138
 30
0.0
 11
-35.622312
 21
6.277927
 31
0.0
  0
SOLID
  5
213
330
167
100
AcDbEntity
  8
MO_001_VIEW_PV
  6
BYBLOCK
100
AcDbTrace
 10
-29.05591599999999
 20
-3.384946999999999
 30
0.0
 11
-31.015773
 21
-1.288041999999999
 31
0.0
 12
-30.052718
 22
-3.991848999999999
 32
0.0
 13
-30.052718
 23
-3.991848999999999
 33
0.0
  0
SOLID
  5
214
330
167
100
AcDbEntity
  8
MO_001_VIEW_PV
  6
BYBLOCK
100
AcDbTrace
 10
-34.544078
 20
3.384945999999999
 30
0.0
 11
-32.584221
 21
1.288040999999999
 31
0.0
 12
-33.547276
 22
3.991848
 32
0.0
 13
-33.547276
 23
3.991848
 33
0.0
  0
LINE
  5
215
330
167
100
AcDbEntity
  8
MO_001_VIEW_PV
  6
BYBLOCK
100
AcDbLine
 10
-32.320039
 20
0.854138
 30
0.0
 11
-46.411511
 21
23.998552
 31
0.0
  0
ENDBLK
  5
216
330
167
100
AcDbEntity
  8
0
100
AcDbBlockEnd
  0
BLOCK
  5
217
330
169
100
AcDbEntity
  8
0
100
AcDbBlockBegin
  2
*D16
 70
     1
 10
0.0
 20
0.0
 30
0.0
  3
*D16
  1

  0
TEXT
  5
218
330
169
100
AcDbEntity
  8
MO_001_VIEW_PV
  6
BYBLOCK
100
AcDbText
 10
4.928570999999999
 20
-14.25
 30
0.0
 40
3.0
  1
(0.5)
100
AcDbText
  0
LINE
  5
219
330
169
100
AcDbEntity
  8
MO_001_VIEW_PV
  6
BYBLOCK
100
AcDbLine
 10
0.5
 20
-15.0
 30
0.0
 11
0.0
 21
-15.0
 31
0.0
  0
LINE
  5
21A
330
169
100
AcDbEntity
  8
MO_001_VIEW_PV
  6
BYBLOCK
100
AcDbLine
 10
0.5
 20
-15.0
 30
0.0
 11
6.849999999999999
 21
-15.0
 31
0.0
  0
LINE
  5
21B
330
169
100
AcDbEntity
  8
MO_001_VIEW_PV
  6
BYBLOCK
100
AcDbLine
 10
0.0
 20
-15.0
 30
0.0
 11
-6.349999999999999
 21
-15.0
 31
0.0
  0
SOLID
  5
21C
330
169
100
AcDbEntity
  8
MO_001_VIEW_PV
  6
BYBLOCK
100
AcDbTrace
 10
3.81826
 20
-14.416488
 30
0.0
 11
1.008
 21
-15.0
 31
0.0
 12
3.81826
 22
-15.58351199999999
 32
0.0
 13
3.81826
 23
-15.58351199999999
 33
0.0
  0
SOLID
  5
21D
330
169
100
AcDbEntity
  8
MO_001_VIEW_PV
  6
BYBLOCK
100
AcDbTrace
 10
-3.318259999999999
 20
-15.58351199999999
 30
0.0
 11
-0.508
 21
-15.0
 31
0.0
 12
-3.318259999999999
 22
-14.416488
 32
0.0
 13
-3.318259999999999
 23
-14.416488
 33
0.0
  0
LINE
  5
21E
330
169
100
AcDbEntity
  8
MO_001_VIEW_PV
  6
BYBLOCK
100
AcDbLine
 10
0.5
 20
-1.299998999999999
 30
0.0
 11
0.5
 21
-17.285999
 31
0.0
  0
LINE
  5
21F
330
169
100
AcDbEntity
  8
MO_001_VIEW_PV
  6
BYBLOCK
100
AcDbLine
 10
0.0
 20
-8.0
 30
0.0
 11
0.0
 21
-17.285999
 31
0.0
  0
LINE
  5
220
330
169
100
AcDbEntity
  8
MO_001_VIEW_PV
  6
BYBLOCK
100
AcDbLine
 10
20.035715
 20
-15.0
 30
0.0
 11
0.5
 21
-15.0
 31
0.0
  0
ENDBLK
  5
221
330
169
100
AcDbEntity
  8
0
100
AcDbBlockEnd
  0
ENDSEC
  0
SECTION
  2
ENTITIES
  0
TEXT
  5
4B
330
1E
100
AcDbEntity
  8
OVERLAY_MAP
  6
C_SOLID_L
100
AcDbText
 10
0.0
 20
6.349999999999999
 30
0.0
 40
4.1672
  1
Model Overlay Name
100
AcDbText
  0
TEXT
  5
4C
330
1E
100
AcDbEntity
  8
OVERLAY_MAP
  6
C_SOLID_L
100
AcDbText
 10
126.999998
 20
0.0
 30
0.0
 40
4.1672
  1
Number
100
AcDbText
  0
TEXT
  5
4D
330
1E
100
AcDbEntity
  8
OVERLAY_MAP
  6
C_SOLID_L
100
AcDbText
 10
177.7999969999999
 20
0.0
 30
0.0
 40
4.1672
  1
File Text
100
AcDbText
  0
TEXT
  5
4E
330
1E
100
AcDbEntity
  8
OVERLAY_MAP
  6
C_SOLID_L
100
AcDbText
 10
0.0
 20
-6.349999999999999
 30
0.0
 40
4.1672
  1
op sk0730a 
100
AcDbText
  0
TEXT
  5
4F
330
1E
100
AcDbEntity
  8
OVERLAY_MAP
  6
C_SOLID_L
100
AcDbText
 10
126.999998
 20
-6.349999999999999
 30
0.0
 40
4.1672
  1
001
100
AcDbText
  0
TEXT
  5
50
330
1E
100
AcDbEntity
  8
OVERLAY_MAP
  6
C_SOLID_L
100
AcDbText
 10
177.7999969999999
 20
-6.349999999999999
 30
0.0
 40
4.1672
  1
                                                     890589050 152900139
100
AcDbText
  0
LINE
  5
51
330
1E
100
AcDbEntity
  8
MO_001_VIEW_PV
  6
C_SOLID_M
100
AcDbLine
 10
0.0
 20
-58.559998
 30
0.0
 11
0.0
 21
-59.400002
 31
0.0
  0
LINE
  5
52
330
1E
100
AcDbEntity
  8
MO_001_VIEW_PV
  6
C_SOLID_M
100
AcDbLine
 10
-27.5
 20
-41.0
 30
0.0
 11
-27.5
 21
-61.0
 31
0.0
  0
LINE
  5
53
330
1E
100
AcDbEntity
  8
MO_001_VIEW_PV
  6
C_SOLID_M
100
AcDbLine
 10
-30.300001
 20
-59.400002
 30
0.0
 11
-30.300001
 21
-61.0
 31
0.0
  0
LINE
  5
54
330
1E
100
AcDbEntity
  8
MO_001_VIEW_PV
  6
C_SOLID_M
100
AcDbLine
 10
-27.5
 20
-42.599998
 30
0.0
 11
-1.6
 21
-42.599998
 31
0.0
  0
LINE
  5
55
330
1E
100
AcDbEntity
  8
MO_001_VIEW_PV
  6
C_SOLID_M
100
AcDbLine
 10
-27.5
 20
-59.400002
 30
0.0
 11
-1.6
 21
-59.400002
 31
0.0
  0
LINE
  5
56
330
1E
100
AcDbEntity
  8
MO_001_VIEW_PV
  6
C_SOLID_M
100
AcDbLine
 10
-30.300001
 20
-41.0
 30
0.0
 11
-1.6
 21
-41.0
 31
0.0
  0
LINE
  5
57
330
1E
100
AcDbEntity
  8
MO_001_VIEW_PV
  6
C_SOLID_M
100
AcDbLine
 10
-30.300001
 20
-61.0
 30
0.0
 11
-1.6
 21
-61.0
 31
0.0
  0
LINE
  5
58
330
1E
100
AcDbEntity
  8
MO_001_VIEW_PV
  6
C_CENTER_L
100
AcDbLine
 10
-38.40789
 20
-51.0
 30
0.0
 11
5.877486
 21
-51.0
 31
0.0
  0
LINE
  5
59
330
1E
100
AcDbEntity
  8
MO_001_VIEW_PV
  6
C_SOLID_M
100
AcDbLine
 10
-30.300001
 20
-41.0
 30
0.0
 11
-30.300001
 21
-42.599998
 31
0.0
  0
ARC
  5
5A
330
1E
100
AcDbEntity
  8
MO_001_VIEW_PV
  6
C_SOLID_M
100
AcDbCircle
 10
-1.6
 20
-42.599998
 30
0.0
 40
1.6
100
AcDbArc
 50
0.0
 51
89.99998900000001
  0
ARC
  5
5B
330
1E
100
AcDbEntity
  8
MO_001_VIEW_PV
  6
C_SOLID_M
100
AcDbCircle
 10
-1.6
 20
-59.400002
 30
0.0
 40
1.6
100
AcDbArc
 50
269.999998
 51
0.00001
  0
LINE
  5
5C
330
1E
100
AcDbEntity
  8
MO_001_VIEW_PV
  6
C_SOLID_M
100
AcDbLine
 10
-1.9
 20
-59.400002
 30
0.0
 11
-1.9
 21
-61.0
 31
0.0
  0
LINE
  5
5D
330
1E
100
AcDbEntity
  8
MO_001_VIEW_PV
  6
C_SOLID_M
100
AcDbLine
 10
-1.6
 20
-45.59999799999999
 30
0.0
 11
0.0
 21
-45.59999799999999
 31
0.0
  0
LINE
  5
5E
330
1E
100
AcDbEntity
  8
MO_001_VIEW_PV
  6
C_SOLID_M
100
AcDbLine
 10
-1.6
 20
-56.400002
 30
0.0
 11
0.0
 21
-56.400002
 31
0.0
  0
LINE
  5
5F
330
1E
100
AcDbEntity
  8
MO_001_VIEW_PV
  6
C_SOLID_M
100
AcDbLine
 10
-1.9
 20
-41.0
 30
0.0
 11
-1.9
 21
-42.599998
 31
0.0
  0
LINE
  5
60
330
1E
100
AcDbEntity
  8
MO_001_VIEW_PV
  6
C_SOLID_M
100
AcDbLine
 10
-30.300001
 20
2.961880999999999
 30
0.0
 11
-30.300001
 21
4.01188
 31
0.0
  0
LINE
  5
61
330
1E
100
AcDbEntity
  8
MO_001_VIEW_PV
  6
C_SOLID_M
100
AcDbLine
 10
0.0
 20
-6.089999999999999
 30
0.0
 11
0.0
 21
8.0
 31
0.0
  0
LINE
  5
62
330
1E
100
AcDbEntity
  8
MO_001_VIEW_PV
  6
C_SOLID_M
100
AcDbLine
 10
-1.6
 20
-7.41
 30
0.0
 11
-1.6
 21
-8.0
 31
0.0
  0
LINE
  5
63
330
1E
100
AcDbEntity
  8
MO_001_VIEW_PV
  6
C_SOLID_M
100
AcDbLine
 10
-27.5
 20
-3.299998999999999
 30
0.0
 11
-27.5
 21
-8.0
 31
0.0
  0
LINE
  5
64
330
1E
100
AcDbEntity
  8
MO_001_VIEW_PV
  6
C_SOLID_M
100
AcDbLine
 10
-27.5
 20
8.0
 30
0.0
 11
0.0
 21
8.0
 31
0.0
  0
LINE
  5
65
330
1E
100
AcDbEntity
  8
MO_001_VIEW_PV
  6
C_SOLID_M
100
AcDbLine
 10
-27.5
 20
-8.0
 30
0.0
 11
0.0
 21
-8.0
 31
0.0
  0
LINE
  5
66
330
1E
100
AcDbEntity
  8
MO_001_VIEW_PV
  6
C_CENTER_L
100
AcDbLine
 10
-35.557552
 20
0.0
 30
0.0
 11
4.614423999999999
 21
0.0
 31
0.0
  0
LINE
  5
67
330
1E
100
AcDbEntity
  8
MO_001_VIEW_PV
  6
C_SOLID_M
100
AcDbLine
 10
-1.9
 20
-5.5
 30
0.0
 11
0.0
 21
-5.5
 31
0.0
  0
LINE
  5
68
330
1E
100
AcDbEntity
  8
MO_001_VIEW_PV
  6
C_SOLID_M
100
AcDbLine
 10
-1.9
 20
-5.5
 30
0.0
 11
-1.9
 21
-8.0
 31
0.0
  0
LINE
  5
69
330
1E
100
AcDbEntity
  8
MO_001_VIEW_PV
  6
C_SOLID_M
100
AcDbLine
 10
-27.5
 20
8.0
 30
0.0
 11
-27.5
 21
3.299998999999999
 31
0.0
  0
LINE
  5
6A
330
1E
100
AcDbEntity
  8
MO_001_VIEW_PV
  6
C_CENTER_L
100
AcDbLine
 10
-21.654411
 20
4.5
 30
0.0
 11
-15.650726
 21
4.5
 31
0.0
  0
LINE
  5
6B
330
1E
100
AcDbEntity
  8
MO_001_VIEW_PV
  6
C_CENTER_L
100
AcDbLine
 10
-22.281881
 20
-5.5
 30
0.0
 11
-4.761116999999999
 21
-5.5
 31
0.0
  0
CIRCLE
  5
6C
330
1E
100
AcDbEntity
  8
MO_001_VIEW_PV
  6
C_SOLID_M
100
AcDbCircle
 10
-19.0
 20
-5.5
 30
0.0
 40
1.1
  0
CIRCLE
  5
6D
330
1E
100
AcDbEntity
  8
MO_001_VIEW_PV
  6
C_SOLID_M
100
AcDbCircle
 10
-19.0
 20
4.5
 30
0.0
 40
1.1
  0
CIRCLE
  5
6E
330
1E
100
AcDbEntity
  8
MO_001_VIEW_PV
  6
C_SOLID_M
100
AcDbCircle
 10
-8.0
 20
-5.5
 30
0.0
 40
1.1
  0
LINE
  5
6F
330
1E
100
AcDbEntity
  8
MO_001_VIEW_PV
  6
C_CENTER_L
100
AcDbLine
 10
-19.0
 20
-3.0
 30
0.0
 11
-19.0
 21
-8.0
 31
0.0
  0
LINE
  5
70
330
1E
100
AcDbEntity
  8
MO_001_VIEW_PV
  6
C_CENTER_L
100
AcDbLine
 10
-8.0
 20
-3.0
 30
0.0
 11
-8.0
 21
-8.0
 31
0.0
  0
LINE
  5
71
330
1E
100
AcDbEntity
  8
MO_001_VIEW_PV
  6
C_CENTER_L
100
AcDbLine
 10
-19.0
 20
7.0
 30
0.0
 11
-19.0
 21
2.0
 31
0.0
  0
CIRCLE
  5
72
330
1E
100
AcDbEntity
  8
MO_001_VIEW_PV
  6
C_SOLID_L
100
AcDbCircle
 10
-19.0
 20
4.5
 30
0.0
 40
1.5
  0
CIRCLE
  5
73
330
1E
100
AcDbEntity
  8
MO_001_VIEW_PV
  6
C_SOLID_L
100
AcDbCircle
 10
-19.0
 20
-5.5
 30
0.0
 40
1.5
  0
CIRCLE
  5
74
330
1E
100
AcDbEntity
  8
MO_001_VIEW_PV
  6
C_SOLID_L
100
AcDbCircle
 10
-8.0
 20
-5.5
 30
0.0
 40
1.5
  0
LINE
  5
75
330
1E
100
AcDbEntity
  8
MO_001_VIEW_PV
  6
C_SOLID_M
100
AcDbLine
 10
-59.0
 20
-8.0
 30
0.0
 11
-79.0
 21
-8.0
 31
0.0
  0
LINE
  5
76
330
1E
100
AcDbEntity
  8
MO_001_VIEW_PV
  6
C_SOLID_M
100
AcDbLine
 10
-59.0
 20
8.0
 30
0.0
 11
-79.0
 21
8.0
 31
0.0
  0
LINE
  5
77
330
1E
100
AcDbEntity
  8
MO_001_VIEW_PV
  6
C_CENTER_L
100
AcDbLine
 10
-69.0
 20
-9.458771
 30
0.0
 11
-69.0
 21
9.280388
 31
0.0
  0
LINE
  5
78
330
1E
100
AcDbEntity
  8
MO_001_VIEW_PV
  6
C_CENTER_L
100
AcDbLine
 10
-57.62377199999999
 20
0.0
 30
0.0
 11
-81.5
 21
0.0
 31
0.0
  0
LINE
  5
79
330
1E
100
AcDbEntity
  8
MO_001_VIEW_PV
  6
C_SOLID_M
100
AcDbLine
 10
-29.353654
 20
3.465505999999999
 30
0.0
 11
-27.500003
 21
3.300001
 31
0.0
  0
CIRCLE
  5
7A
330
1E
100
AcDbEntity
  8
MO_001_VIEW_PV
  6
C_SOLID_M
100
AcDbCircle
 10
-69.0
 20
0.0
 30
0.0
 40
3.799999999999999
  0
LINE
  5
7B
330
1E
100
AcDbEntity
  8
MO_001_VIEW_PV
  6
C_SOLID_M
100
AcDbLine
 10
-79.0
 20
8.0
 30
0.0
 11
-79.0
 21
-8.0
 31
0.0
  0
LINE
  5
7C
330
1E
100
AcDbEntity
  8
MO_001_VIEW_PV
  6
C_SOLID_M
100
AcDbLine
 10
-60.59999799999999
 20
4.01188
 30
0.0
 11
-60.59999799999999
 21
-4.01188
 31
0.0
  0
LINE
  5
7D
330
1E
100
AcDbEntity
  8
MO_001_VIEW_PV
  6
C_SOLID_M
100
AcDbLine
 10
-59.0
 20
8.0
 30
0.0
 11
-59.0
 21
-8.0
 31
0.0
  0
LINE
  5
7E
330
1E
100
AcDbEntity
  8
MO_001_VIEW_PV
  6
C_SOLID_M
100
AcDbLine
 10
-29.5
 20
8.0
 30
0.0
 11
-29.5
 21
3.549998999999999
 31
0.0
  0
LINE
  5
7F
330
1E
100
AcDbEntity
  8
MO_001_VIEW_PV
  6
C_SOLID_M
100
AcDbLine
 10
-29.5
 20
8.0
 30
0.0
 11
-27.5
 21
8.0
 31
0.0
  0
LINE
  5
80
330
1E
100
AcDbEntity
  8
MO_001_VIEW_PV
  6
C_SOLID_M
100
AcDbLine
 10
-29.5
 20
-8.0
 30
0.0
 11
-29.5
 21
-3.549998999999999
 31
0.0
  0
LINE
  5
81
330
1E
100
AcDbEntity
  8
MO_001_VIEW_PV
  6
C_SOLID_M
100
AcDbLine
 10
-29.5
 20
-8.0
 30
0.0
 11
-27.5
 21
-8.0
 31
0.0
  0
LINE
  5
82
330
1E
100
AcDbEntity
  8
MO_001_VIEW_PV
  6
C_SOLID_M
100
AcDbLine
 10
-29.5
 20
3.549998999999999
 30
0.0
 11
-27.5
 21
3.549998999999999
 31
0.0
  0
LINE
  5
83
330
1E
100
AcDbEntity
  8
MO_001_VIEW_PV
  6
C_SOLID_M
100
AcDbLine
 10
-29.5
 20
-3.549998999999999
 30
0.0
 11
-27.5
 21
-3.549998999999999
 31
0.0
  0
LINE
  5
84
330
1E
100
AcDbEntity
  8
MO_001_VIEW_PV
  6
C_SOLID_M
100
AcDbLine
 10
-29.5
 20
-41.0
 30
0.0
 11
-29.5
 21
-61.0
 31
0.0
  0
LINE
  5
85
330
1E
100
AcDbEntity
  8
MO_001_VIEW_PV
  6
C_SOLID_M
100
AcDbLine
 10
-30.300001
 20
-59.400002
 30
0.0
 11
-29.5
 21
-59.400002
 31
0.0
  0
LINE
  5
86
330
1E
100
AcDbEntity
  8
MO_001_VIEW_PV
  6
C_SOLID_M
100
AcDbLine
 10
-30.300001
 20
-42.599998
 30
0.0
 11
-29.5
 21
-42.599998
 31
0.0
  0
LINE
  5
87
330
1E
100
AcDbEntity
  8
MO_001_VIEW_PV
  6
C_SOLID_M
100
AcDbLine
 10
0.8
 20
-49.69999699999999
 30
0.0
 11
0.8
 21
-52.300003
 31
0.0
  0
LINE
  5
88
330
1E
100
AcDbEntity
  8
MO_001_VIEW_PV
  6
C_SOLID_M
100
AcDbLine
 10
0.0
 20
-49.69999699999999
 30
0.0
 11
0.8
 21
-49.69999699999999
 31
0.0
  0
LINE
  5
89
330
1E
100
AcDbEntity
  8
MO_001_VIEW_PV
  6
C_SOLID_M
100
AcDbLine
 10
0.0
 20
-52.300003
 30
0.0
 11
0.8
 21
-52.300003
 31
0.0
  0
LINE
  5
8A
330
1E
100
AcDbEntity
  8
MO_001_VIEW_PV
  6
C_SOLID_M
100
AcDbLine
 10
-32.799995
 20
-47.5
 30
0.0
 11
-34.0
 21
-47.5
 31
0.0
  0
LINE
  5
8B
330
1E
100
AcDbEntity
  8
MO_001_VIEW_PV
  6
C_SOLID_M
100
AcDbLine
 10
-32.799995
 20
-54.5
 30
0.0
 11
-34.0
 21
-54.5
 31
0.0
  0
LINE
  5
8C
330
1E
100
AcDbEntity
  8
MO_001_VIEW_PV
  6
C_SOLID_M
100
AcDbLine
 10
-34.299999
 20
-54.200012
 30
0.0
 11
-34.299999
 21
-47.800003
 31
0.0
  0
LINE
  5
8D
330
1E
100
AcDbEntity
  8
MO_001_VIEW_PV
  6
C_SOLID_M
100
AcDbLine
 10
-34.0
 20
-54.5
 30
0.0
 11
-34.0
 21
-47.5
 31
0.0
  0
LINE
  5
8E
330
1E
100
AcDbEntity
  8
MO_001_VIEW_PV
  6
C_SOLID_M
100
AcDbLine
 10
-34.000007
 20
-54.49998100000001
 30
0.0
 11
-34.300003
 21
-54.19999
 31
0.0
  0
LINE
  5
8F
330
1E
100
AcDbEntity
  8
MO_001_VIEW_PV
  6
C_SOLID_M
100
AcDbLine
 10
-34.30000599999999
 20
-47.80000799999999
 30
0.0
 11
-34.000002
 21
-47.499997
 31
0.0
  0
LINE
  5
90
330
1E
100
AcDbEntity
  8
MO_001_VIEW_PV
  6
C_CENTER_L
100
AcDbLine
 10
-31.79999699999999
 20
-56.399689
 30
0.0
 11
-31.79999699999999
 21
-45.83416699999999
 31
0.0
  0
LINE
  5
91
330
1E
100
AcDbEntity
  8
MO_001_VIEW_PV
  6
C_DASHED_L
100
AcDbLine
 10
-32.799995
 20
-54.5
 30
0.0
 11
-32.799995
 21
-47.5
 31
0.0
  0
LINE
  5
92
330
1E
100
AcDbEntity
  8
MO_001_VIEW_PV
  6
C_DASHED_L
100
AcDbLine
 10
-30.799997
 20
-54.5
 30
0.0
 11
-30.799997
 21
-47.5
 31
0.0
  0
POLYLINE
  5
93
330
1E
100
AcDbEntity
  8
MO_001_VIEW_PV
  6
C_SOLID_M
100
AcDb2dPolyline
 66
     1
 10
0.0
 20
0.0
 30
0.0
 70
     1
  0
VERTEX
  5
233
330
93
100
AcDbEntity
  8
MO_001_VIEW_PV
  6
C_SOLID_M
100
AcDbVertex
100
AcDb2dVertex
 10
-32.799995
 20
-54.5
 30
0.0
  0
VERTEX
  5
234
330
93
100
AcDbEntity
  8
MO_001_VIEW_PV
  6
C_SOLID_M
100
AcDbVertex
100
AcDb2dVertex
 10
-32.794833
 20
-54.498362
 30
0.0
  0
VERTEX
  5
235
330
93
100
AcDbEntity
  8
MO_001_VIEW_PV
  6
C_SOLID_M
100
AcDbVertex
100
AcDb2dVertex
 10
-32.76206
 20
-54.488552
 30
0.0
  0
VERTEX
  5
236
330
93
100
AcDbEntity
  8
MO_001_VIEW_PV
  6
C_SOLID_M
100
AcDbVertex
100
AcDb2dVertex
 10
-32.71902199999999
 20
-54.47655899999999
 30
0.0
  0
VERTEX
  5
237
330
93
100
AcDbEntity
  8
MO_001_VIEW_PV
  6
C_SOLID_M
100
AcDbVertex
100
AcDb2dVertex
 10
-32.62752299999999
 20
-54.453436
 30
0.0
  0
VERTEX
  5
238
330
93
100
AcDbEntity
  8
MO_001_VIEW_PV
  6
C_SOLID_M
100
AcDbVertex
100
AcDb2dVertex
 10
-32.507103
 20
-54.427052
 30
0.0
  0
VERTEX
  5
239
330
93
100
AcDbEntity
  8
MO_001_VIEW_PV
  6
C_SOLID_M
100
AcDbVertex
100
AcDb2dVertex
 10
-32.35910599999999
 20
-54.400266
 30
0.0
  0
VERTEX
  5
23A
330
93
100
AcDbEntity
  8
MO_001_VIEW_PV
  6
C_SOLID_M
100
AcDbVertex
100
AcDb2dVertex
 10
-32.233538
 20
-54.38223299999999
 30
0.0
  0
VERTEX
  5
23B
330
93
100
AcDbEntity
  8
MO_001_VIEW_PV
  6
C_SOLID_M
100
AcDbVertex
100
AcDb2dVertex
 10
-32.025834
 20
-54.361947
 30
0.0
  0
VERTEX
  5
23C
330
93
100
AcDbEntity
  8
MO_001_VIEW_PV
  6
C_SOLID_M
100
AcDbVertex
100
AcDb2dVertex
 10
-31.79999699999999
 20
-54.354103
 30
0.0
  0
VERTEX
  5
23D
330
93
100
AcDbEntity
  8
MO_001_VIEW_PV
  6
C_SOLID_M
100
AcDbVertex
100
AcDb2dVertex
 10
-31.598462
 20
-54.360372
 30
0.0
  0
VERTEX
  5
23E
330
93
100
AcDbEntity
  8
MO_001_VIEW_PV
  6
C_SOLID_M
100
AcDbVertex
100
AcDb2dVertex
 10
-31.456164
 20
-54.371993
 30
0.0
  0
VERTEX
  5
23F
330
93
100
AcDbEntity
  8
MO_001_VIEW_PV
  6
C_SOLID_M
100
AcDbVertex
100
AcDb2dVertex
 10
-31.261007
 20
-54.397088
 30
0.0
  0
VERTEX
  5
240
330
93
100
AcDbEntity
  8
MO_001_VIEW_PV
  6
C_SOLID_M
100
AcDbVertex
100
AcDb2dVertex
 10
-31.09289099999999
 20
-54.427052
 30
0.0
  0
VERTEX
  5
241
330
93
100
AcDbEntity
  8
MO_001_VIEW_PV
  6
C_SOLID_M
100
AcDbVertex
100
AcDb2dVertex
 10
-30.970782
 20
-54.453837
 30
0.0
  0
VERTEX
  5
242
330
93
100
AcDbEntity
  8
MO_001_VIEW_PV
  6
C_SOLID_M
100
AcDbVertex
100
AcDb2dVertex
 10
-30.898608
 20
-54.47186999999999
 30
0.0
  0
VERTEX
  5
243
330
93
100
AcDbEntity
  8
MO_001_VIEW_PV
  6
C_SOLID_M
100
AcDbVertex
100
AcDb2dVertex
 10
-30.856539
 20
-54.483264
 30
0.0
  0
VERTEX
  5
244
330
93
100
AcDbEntity
  8
MO_001_VIEW_PV
  6
C_SOLID_M
100
AcDbVertex
100
AcDb2dVertex
 10
-30.814535
 20
-54.495474
 30
0.0
  0
VERTEX
  5
245
330
93
100
AcDbEntity
  8
MO_001_VIEW_PV
  6
C_SOLID_M
100
AcDbVertex
100
AcDb2dVertex
 10
-30.799997
 20
-54.5
 30
0.0
  0
VERTEX
  5
246
330
93
100
AcDbEntity
  8
MO_001_VIEW_PV
  6
C_SOLID_M
100
AcDbVertex
100
AcDb2dVertex
 10
-30.80515999999999
 20
-54.498362
 30
0.0
  0
VERTEX
  5
247
330
93
100
AcDbEntity
  8
MO_001_VIEW_PV
  6
C_SOLID_M
100
AcDbVertex
100
AcDb2dVertex
 10
-30.837933
 20
-54.488552
 30
0.0
  0
VERTEX
  5
248
330
93
100
AcDbEntity
  8
MO_001_VIEW_PV
  6
C_SOLID_M
100
AcDbVertex
100
AcDb2dVertex
 10
-30.880971
 20
-54.47655899999999
 30
0.0
  0
VERTEX
  5
249
330
93
100
AcDbEntity
  8
MO_001_VIEW_PV
  6
C_SOLID_M
100
AcDbVertex
100
AcDb2dVertex
 10
-30.97247
 20
-54.453436
 30
0.0
  0
VERTEX
  5
24A
330
93
100
AcDbEntity
  8
MO_001_VIEW_PV
  6
C_SOLID_M
100
AcDbVertex
100
AcDb2dVertex
 10
-31.09289
 20
-54.427052
 30
0.0
  0
VERTEX
  5
24B
330
93
100
AcDbEntity
  8
MO_001_VIEW_PV
  6
C_SOLID_M
100
AcDbVertex
100
AcDb2dVertex
 10
-31.240888
 20
-54.400266
 30
0.0
  0
VERTEX
  5
24C
330
93
100
AcDbEntity
  8
MO_001_VIEW_PV
  6
C_SOLID_M
100
AcDbVertex
100
AcDb2dVertex
 10
-31.366456
 20
-54.38223299999999
 30
0.0
  0
VERTEX
  5
24D
330
93
100
AcDbEntity
  8
MO_001_VIEW_PV
  6
C_SOLID_M
100
AcDbVertex
100
AcDb2dVertex
 10
-31.57416
 20
-54.361947
 30
0.0
  0
VERTEX
  5
24E
330
93
100
AcDbEntity
  8
MO_001_VIEW_PV
  6
C_SOLID_M
100
AcDbVertex
100
AcDb2dVertex
 10
-31.79999699999999
 20
-54.354103
 30
0.0
  0
VERTEX
  5
24F
330
93
100
AcDbEntity
  8
MO_001_VIEW_PV
  6
C_SOLID_M
100
AcDbVertex
100
AcDb2dVertex
 10
-32.00153199999999
 20
-54.360372
 30
0.0
  0
VERTEX
  5
250
330
93
100
AcDbEntity
  8
MO_001_VIEW_PV
  6
C_SOLID_M
100
AcDbVertex
100
AcDb2dVertex
 10
-32.143831
 20
-54.371993
 30
0.0
  0
VERTEX
  5
251
330
93
100
AcDbEntity
  8
MO_001_VIEW_PV
  6
C_SOLID_M
100
AcDbVertex
100
AcDb2dVertex
 10
-32.338987
 20
-54.397088
 30
0.0
  0
VERTEX
  5
252
330
93
100
AcDbEntity
  8
MO_001_VIEW_PV
  6
C_SOLID_M
100
AcDbVertex
100
AcDb2dVertex
 10
-32.507103
 20
-54.427052
 30
0.0
  0
VERTEX
  5
253
330
93
100
AcDbEntity
  8
MO_001_VIEW_PV
  6
C_SOLID_M
100
AcDbVertex
100
AcDb2dVertex
 10
-32.629212
 20
-54.453837
 30
0.0
  0
VERTEX
  5
254
330
93
100
AcDbEntity
  8
MO_001_VIEW_PV
  6
C_SOLID_M
100
AcDbVertex
100
AcDb2dVertex
 10
-32.70138499999999
 20
-54.47186999999999
 30
0.0
  0
VERTEX
  5
255
330
93
100
AcDbEntity
  8
MO_001_VIEW_PV
  6
C_SOLID_M
100
AcDbVertex
100
AcDb2dVertex
 10
-32.743453
 20
-54.483264
 30
0.0
  0
VERTEX
  5
256
330
93
100
AcDbEntity
  8
MO_001_VIEW_PV
  6
C_SOLID_M
100
AcDbVertex
100
AcDb2dVertex
 10
-32.785457
 20
-54.495474
 30
0.0
  0
VERTEX
  5
257
330
93
100
AcDbEntity
  8
MO_001_VIEW_PV
  6
C_SOLID_M
100
AcDbVertex
100
AcDb2dVertex
 10
-32.799995
 20
-54.5
 30
0.0
  0
SEQEND
  5
258
330
93
100
AcDbEntity
  8
MO_001_VIEW_PV
  6
C_SOLID_M
  0
POLYLINE
  5
BA
330
1E
100
AcDbEntity
  8
MO_001_VIEW_PV
  6
C_SOLID_M
100
AcDb2dPolyline
 66
     1
 10
0.0
 20
0.0
 30
0.0
 70
     1
  0
VERTEX
  5
259
330
BA
100
AcDbEntity
  8
MO_001_VIEW_PV
  6
C_SOLID_M
100
AcDbVertex
100
AcDb2dVertex
 10
-32.799995
 20
-47.5
 30
0.0
  0
VERTEX
  5
25A
330
BA
100
AcDbEntity
  8
MO_001_VIEW_PV
  6
C_SOLID_M
100
AcDbVertex
100
AcDb2dVertex
 10
-32.794833
 20
-47.501638
 30
0.0
  0
VERTEX
  5
25B
330
BA
100
AcDbEntity
  8
MO_001_VIEW_PV
  6
C_SOLID_M
100
AcDbVertex
100
AcDb2dVertex
 10
-32.76206
 20
-47.511448
 30
0.0
  0
VERTEX
  5
25C
330
BA
100
AcDbEntity
  8
MO_001_VIEW_PV
  6
C_SOLID_M
100
AcDbVertex
100
AcDb2dVertex
 10
-32.71902199999999
 20
-47.523441
 30
0.0
  0
VERTEX
  5
25D
330
BA
100
AcDbEntity
  8
MO_001_VIEW_PV
  6
C_SOLID_M
100
AcDbVertex
100
AcDb2dVertex
 10
-32.62752299999999
 20
-47.546564
 30
0.0
  0
VERTEX
  5
25E
330
BA
100
AcDbEntity
  8
MO_001_VIEW_PV
  6
C_SOLID_M
100
AcDbVertex
100
AcDb2dVertex
 10
-32.507103
 20
-47.57294799999999
 30
0.0
  0
VERTEX
  5
25F
330
BA
100
AcDbEntity
  8
MO_001_VIEW_PV
  6
C_SOLID_M
100
AcDbVertex
100
AcDb2dVertex
 10
-32.35910599999999
 20
-47.599734
 30
0.0
  0
VERTEX
  5
260
330
BA
100
AcDbEntity
  8
MO_001_VIEW_PV
  6
C_SOLID_M
100
AcDbVertex
100
AcDb2dVertex
 10
-32.233538
 20
-47.617767
 30
0.0
  0
VERTEX
  5
261
330
BA
100
AcDbEntity
  8
MO_001_VIEW_PV
  6
C_SOLID_M
100
AcDbVertex
100
AcDb2dVertex
 10
-32.025834
 20
-47.638053
 30
0.0
  0
VERTEX
  5
262
330
BA
100
AcDbEntity
  8
MO_001_VIEW_PV
  6
C_SOLID_M
100
AcDbVertex
100
AcDb2dVertex
 10
-31.79999699999999
 20
-47.645897
 30
0.0
  0
VERTEX
  5
263
330
BA
100
AcDbEntity
  8
MO_001_VIEW_PV
  6
C_SOLID_M
100
AcDbVertex
100
AcDb2dVertex
 10
-31.598462
 20
-47.639628
 30
0.0
  0
VERTEX
  5
264
330
BA
100
AcDbEntity
  8
MO_001_VIEW_PV
  6
C_SOLID_M
100
AcDbVertex
100
AcDb2dVertex
 10
-31.456164
 20
-47.628007
 30
0.0
  0
VERTEX
  5
265
330
BA
100
AcDbEntity
  8
MO_001_VIEW_PV
  6
C_SOLID_M
100
AcDbVertex
100
AcDb2dVertex
 10
-31.261007
 20
-47.602912
 30
0.0
  0
VERTEX
  5
266
330
BA
100
AcDbEntity
  8
MO_001_VIEW_PV
  6
C_SOLID_M
100
AcDbVertex
100
AcDb2dVertex
 10
-31.09289
 20
-47.57294799999999
 30
0.0
  0
VERTEX
  5
267
330
BA
100
AcDbEntity
  8
MO_001_VIEW_PV
  6
C_SOLID_M
100
AcDbVertex
100
AcDb2dVertex
 10
-30.970782
 20
-47.546163
 30
0.0
  0
VERTEX
  5
268
330
BA
100
AcDbEntity
  8
MO_001_VIEW_PV
  6
C_SOLID_M
100
AcDbVertex
100
AcDb2dVertex
 10
-30.898608
 20
-47.52812999999999
 30
0.0
  0
VERTEX
  5
269
330
BA
100
AcDbEntity
  8
MO_001_VIEW_PV
  6
C_SOLID_M
100
AcDbVertex
100
AcDb2dVertex
 10
-30.856539
 20
-47.516736
 30
0.0
  0
VERTEX
  5
26A
330
BA
100
AcDbEntity
  8
MO_001_VIEW_PV
  6
C_SOLID_M
100
AcDbVertex
100
AcDb2dVertex
 10
-30.814535
 20
-47.504526
 30
0.0
  0
VERTEX
  5
26B
330
BA
100
AcDbEntity
  8
MO_001_VIEW_PV
  6
C_SOLID_M
100
AcDbVertex
100
AcDb2dVertex
 10
-30.799997
 20
-47.5
 30
0.0
  0
VERTEX
  5
26C
330
BA
100
AcDbEntity
  8
MO_001_VIEW_PV
  6
C_SOLID_M
100
AcDbVertex
100
AcDb2dVertex
 10
-30.80515999999999
 20
-47.501639
 30
0.0
  0
VERTEX
  5
26D
330
BA
100
AcDbEntity
  8
MO_001_VIEW_PV
  6
C_SOLID_M
100
AcDbVertex
100
AcDb2dVertex
 10
-30.837933
 20
-47.511448
 30
0.0
  0
VERTEX
  5
26E
330
BA
100
AcDbEntity
  8
MO_001_VIEW_PV
  6
C_SOLID_M
100
AcDbVertex
100
AcDb2dVertex
 10
-30.880971
 20
-47.523441
 30
0.0
  0
VERTEX
  5
26F
330
BA
100
AcDbEntity
  8
MO_001_VIEW_PV
  6
C_SOLID_M
100
AcDbVertex
100
AcDb2dVertex
 10
-30.97247
 20
-47.546564
 30
0.0
  0
VERTEX
  5
270
330
BA
100
AcDbEntity
  8
MO_001_VIEW_PV
  6
C_SOLID_M
100
AcDbVertex
100
AcDb2dVertex
 10
-31.09289099999999
 20
-47.57294799999999
 30
0.0
  0
VERTEX
  5
271
330
BA
100
AcDbEntity
  8
MO_001_VIEW_PV
  6
C_SOLID_M
100
AcDbVertex
100
AcDb2dVertex
 10
-31.240888
 20
-47.599734
 30
0.0
  0
VERTEX
  5
272
330
BA
100
AcDbEntity
  8
MO_001_VIEW_PV
  6
C_SOLID_M
100
AcDbVertex
100
AcDb2dVertex
 10
-31.366456
 20
-47.617767
 30
0.0
  0
VERTEX
  5
273
330
BA
100
AcDbEntity
  8
MO_001_VIEW_PV
  6
C_SOLID_M
100
AcDbVertex
100
AcDb2dVertex
 10
-31.57416
 20
-47.638053
 30
0.0
  0
VERTEX
  5
274
330
BA
100
AcDbEntity
  8
MO_001_VIEW_PV
  6
C_SOLID_M
100
AcDbVertex
100
AcDb2dVertex
 10
-31.79999699999999
 20
-47.645897
 30
0.0
  0
VERTEX
  5
275
330
BA
100
AcDbEntity
  8
MO_001_VIEW_PV
  6
C_SOLID_M
100
AcDbVertex
100
AcDb2dVertex
 10
-32.00153199999999
 20
-47.639628
 30
0.0
  0
VERTEX
  5
276
330
BA
100
AcDbEntity
  8
MO_001_VIEW_PV
  6
C_SOLID_M
100
AcDbVertex
100
AcDb2dVertex
 10
-32.143831
 20
-47.628007
 30
0.0
  0
VERTEX
  5
277
330
BA
100
AcDbEntity
  8
MO_001_VIEW_PV
  6
C_SOLID_M
100
AcDbVertex
100
AcDb2dVertex
 10
-32.338987
 20
-47.602912
 30
0.0
  0
VERTEX
  5
278
330
BA
100
AcDbEntity
  8
MO_001_VIEW_PV
  6
C_SOLID_M
100
AcDbVertex
100
AcDb2dVertex
 10
-32.507103
 20
-47.57294799999999
 30
0.0
  0
VERTEX
  5
279
330
BA
100
AcDbEntity
  8
MO_001_VIEW_PV
  6
C_SOLID_M
100
AcDbVertex
100
AcDb2dVertex
 10
-32.629212
 20
-47.546163
 30
0.0
  0
VERTEX
  5
27A
330
BA
100
AcDbEntity
  8
MO_001_VIEW_PV
  6
C_SOLID_M
100
AcDbVertex
100
AcDb2dVertex
 10
-32.70138499999999
 20
-47.52812999999999
 30
0.0
  0
VERTEX
  5
27B
330
BA
100
AcDbEntity
  8
MO_001_VIEW_PV
  6
C_SOLID_M
100
AcDbVertex
100
AcDb2dVertex
 10
-32.743454
 20
-47.516736
 30
0.0
  0
VERTEX
  5
27C
330
BA
100
AcDbEntity
  8
MO_001_VIEW_PV
  6
C_SOLID_M
100
AcDbVertex
100
AcDb2dVertex
 10
-32.785457
 20
-47.504526
 30
0.0
  0
VERTEX
  5
27D
330
BA
100
AcDbEntity
  8
MO_001_VIEW_PV
  6
C_SOLID_M
100
AcDbVertex
100
AcDb2dVertex
 10
-32.799995
 20
-47.5
 30
0.0
  0
SEQEND
  5
27E
330
BA
100
AcDbEntity
  8
MO_001_VIEW_PV
  6
C_SOLID_M
  0
LINE
  5
E1
330
1E
100
AcDbEntity
  8
MO_001_VIEW_PV
  6
C_SOLID_M
100
AcDbLine
 10
-29.5
 20
-54.5
 30
0.0
 11
-30.799997
 21
-54.5
 31
0.0
  0
LINE
  5
E2
330
1E
100
AcDbEntity
  8
MO_001_VIEW_PV
  6
C_SOLID_M
100
AcDbLine
 10
-29.5
 20
-47.5
 30
0.0
 11
-30.799997
 21
-47.5
 31
0.0
  0
LINE
  5
E3
330
1E
100
AcDbEntity
  8
MO_001_VIEW_PV
  6
C_SOLID_M
100
AcDbLine
 10
-30.300001
 20
3.5
 30
0.0
 11
-34.0
 21
3.5
 31
0.0
  0
LINE
  5
E4
330
1E
100
AcDbEntity
  8
MO_001_VIEW_PV
  6
C_SOLID_M
100
AcDbLine
 10
-30.300001
 20
-3.5
 30
0.0
 11
-34.0
 21
-3.5
 31
0.0
  0
LINE
  5
E5
330
1E
100
AcDbEntity
  8
MO_001_VIEW_PV
  6
C_SOLID_M
100
AcDbLine
 10
-34.299999
 20
-3.200012
 30
0.0
 11
-34.299999
 21
3.199997
 31
0.0
  0
LINE
  5
E6
330
1E
100
AcDbEntity
  8
MO_001_VIEW_PV
  6
C_SOLID_M
100
AcDbLine
 10
-34.0
 20
-3.5
 30
0.0
 11
-34.0
 21
3.5
 31
0.0
  0
LINE
  5
E7
330
1E
100
AcDbEntity
  8
MO_001_VIEW_PV
  6
C_SOLID_M
100
AcDbLine
 10
-34.000013
 20
-3.499976999999999
 30
0.0
 11
-34.300009
 21
-3.199985999999999
 31
0.0
  0
LINE
  5
E8
330
1E
100
AcDbEntity
  8
MO_001_VIEW_PV
  6
C_SOLID_M
100
AcDbLine
 10
-34.300002
 20
3.199986999999999
 30
0.0
 11
-34.000002
 21
3.499994999999999
 31
0.0
  0
LINE
  5
E9
330
1E
100
AcDbEntity
  8
MO_001_VIEW_PV
  6
C_CENTER_L
100
AcDbLine
 10
-31.79999699999999
 20
-1.846641999999999
 30
0.0
 11
-31.79999699999999
 21
1.840049999999999
 31
0.0
  0
LINE
  5
EA
330
1E
100
AcDbEntity
  8
MO_001_VIEW_PV
  6
C_SOLID_M
100
AcDbLine
 10
0.5
 20
1.299998999999999
 30
0.0
 11
0.5
 21
-1.299998999999999
 31
0.0
  0
LINE
  5
EB
330
1E
100
AcDbEntity
  8
MO_001_VIEW_PV
  6
C_SOLID_M
100
AcDbLine
 10
0.0
 20
1.299998999999999
 30
0.0
 11
0.5
 21
1.299998999999999
 31
0.0
  0
LINE
  5
EC
330
1E
100
AcDbEntity
  8
MO_001_VIEW_PV
  6
C_SOLID_M
100
AcDbLine
 10
0.0
 20
-1.299998999999999
 30
0.0
 11
0.5
 21
-1.299998999999999
 31
0.0
  0
CIRCLE
  5
ED
330
1E
100
AcDbEntity
  8
MO_001_VIEW_PV
  6
C_SOLID_M
100
AcDbCircle
 10
-31.79999699999999
 20
0.0
 30
0.0
 40
0.9999979999999998
  0
CIRCLE
  5
EE
330
1E
100
AcDbEntity
  8
MO_001_VIEW_PV
  6
C_SOLID_M
100
AcDbCircle
 10
-69.0
 20
0.0
 30
0.0
 40
3.5
  0
CIRCLE
  5
EF
330
1E
100
AcDbEntity
  8
MO_001_VIEW_PV
  6
C_SOLID_M
100
AcDbCircle
 10
-69.0
 20
0.0
 30
0.0
 40
3.2
  0
LINE
  5
F0
330
1E
100
AcDbEntity
  8
MO_001_VIEW_PV
  6
C_SOLID_M
100
AcDbLine
 10
-1.6
 20
-43.44000199999999
 30
0.0
 11
-1.6
 21
-42.70000099999999
 31
0.0
  0
LINE
  5
F1
330
1E
100
AcDbEntity
  8
MO_001_VIEW_PV
  6
C_SOLID_M
100
AcDbLine
 10
-27.5
 20
-59.300003
 30
0.0
 11
-27.5
 21
-42.70000099999999
 31
0.0
  0
LINE
  5
F2
330
1E
100
AcDbEntity
  8
MO_001_VIEW_PV
  6
C_SOLID_M
100
AcDbLine
 10
-26.700001
 20
-59.300003
 30
0.0
 11
-27.5
 21
-59.300003
 31
0.0
  0
LINE
  5
F3
330
1E
100
AcDbEntity
  8
MO_001_VIEW_PV
  6
C_SOLID_M
100
AcDbLine
 10
-26.700001
 20
-42.70000099999999
 30
0.0
 11
-27.5
 21
-42.70000099999999
 31
0.0
  0
LINE
  5
F4
330
1E
100
AcDbEntity
  8
MO_001_VIEW_PV
  6
C_SOLID_M
100
AcDbLine
 10
-1.6
 20
-59.300003
 30
0.0
 11
-2.399999999999999
 21
-59.300003
 31
0.0
  0
LINE
  5
F5
330
1E
100
AcDbEntity
  8
MO_001_VIEW_PV
  6
C_SOLID_M
100
AcDbLine
 10
-1.6
 20
-42.70000099999999
 30
0.0
 11
-2.399999999999999
 21
-42.70000099999999
 31
0.0
  0
LINE
  5
F6
330
1E
100
AcDbEntity
  8
MO_001_VIEW_PV
  6
C_SOLID_M
100
AcDbLine
 10
-26.700001
 20
-59.300003
 30
0.0
 11
-26.700001
 21
-42.70000099999999
 31
0.0
  0
LINE
  5
F7
330
1E
100
AcDbEntity
  8
MO_001_VIEW_PV
  6
C_SOLID_M
100
AcDbLine
 10
-2.399999999999999
 20
-43.44000199999999
 30
0.0
 11
-2.399999999999999
 21
-42.70000099999999
 31
0.0
  0
LINE
  5
F8
330
1E
100
AcDbEntity
  8
MO_001_VIEW_PV
  6
C_SOLID_M
100
AcDbLine
 10
-2.399999999999999
 20
-58.800003
 30
0.0
 11
-26.700001
 21
-58.800003
 31
0.0
  0
LINE
  5
F9
330
1E
100
AcDbEntity
  8
MO_001_VIEW_PV
  6
C_SOLID_M
100
AcDbLine
 10
-2.399999999999999
 20
-43.19999699999999
 30
0.0
 11
-26.700001
 21
-43.19999699999999
 31
0.0
  0
LINE
  5
FA
330
1E
100
AcDbEntity
  8
MO_001_VIEW_PV
  6
C_SOLID_M
100
AcDbLine
 10
46.0
 20
-6.509998
 30
0.0
 11
46.0
 21
-6.990002
 31
0.0
  0
LINE
  5
FB
330
1E
100
AcDbEntity
  8
MO_001_VIEW_PV
  6
C_SOLID_M
100
AcDbLine
 10
41.0
 20
-6.089999999999999
 30
0.0
 11
41.0
 21
-7.41
 31
0.0
  0
LINE
  5
FC
330
1E
100
AcDbEntity
  8
MO_001_VIEW_PV
  6
C_SOLID_M
100
AcDbLine
 10
-1.9
 20
-6.089999999999999
 30
0.0
 11
41.0
 21
-6.089999999999999
 31
0.0
  0
LINE
  5
FD
330
1E
100
AcDbEntity
  8
MO_001_VIEW_PV
  6
C_SOLID_M
100
AcDbLine
 10
-1.9
 20
-7.41
 30
0.0
 11
41.0
 21
-7.41
 31
0.0
  0
LINE
  5
FE
330
1E
100
AcDbEntity
  8
MO_001_VIEW_PV
  6
C_SOLID_M
100
AcDbLine
 10
41.0
 20
-6.509998
 30
0.0
 11
46.0
 21
-6.509998
 31
0.0
  0
LINE
  5
FF
330
1E
100
AcDbEntity
  8
MO_001_VIEW_PV
  6
C_SOLID_M
100
AcDbLine
 10
41.0
 20
-6.990002
 30
0.0
 11
46.0
 21
-6.990002
 31
0.0
  0
LINE
  5
100
330
1E
100
AcDbEntity
  8
MO_001_VIEW_PV
  6
C_SOLID_M
100
AcDbLine
 10
-1.6
 20
-5.5
 30
0.0
 11
-1.6
 21
-6.089999999999999
 31
0.0
  0
LINE
  5
101
330
1E
100
AcDbEntity
  8
MO_001_VIEW_PV
  6
C_SOLID_M
100
AcDbLine
 10
0.0
 20
-8.0
 30
0.0
 11
0.0
 21
-7.41
 31
0.0
  0
LINE
  5
102
330
1E
100
AcDbEntity
  8
MO_001_VIEW_PV
  6
C_SOLID_M
100
AcDbLine
 10
46.0
 20
-43.860001
 30
0.0
 11
46.0
 21
-44.340004
 31
0.0
  0
LINE
  5
103
330
1E
100
AcDbEntity
  8
MO_001_VIEW_PV
  6
C_SOLID_M
100
AcDbLine
 10
41.0
 20
-43.44000199999999
 30
0.0
 11
41.0
 21
-44.760002
 31
0.0
  0
LINE
  5
104
330
1E
100
AcDbEntity
  8
MO_001_VIEW_PV
  6
C_SOLID_M
100
AcDbLine
 10
-3.059999
 20
-43.44000199999999
 30
0.0
 11
41.0
 21
-43.44000199999999
 31
0.0
  0
LINE
  5
105
330
1E
100
AcDbEntity
  8
MO_001_VIEW_PV
  6
C_SOLID_M
100
AcDbLine
 10
-3.059999
 20
-44.760002
 30
0.0
 11
41.0
 21
-44.760002
 31
0.0
  0
LINE
  5
106
330
1E
100
AcDbEntity
  8
MO_001_VIEW_PV
  6
C_SOLID_M
100
AcDbLine
 10
41.0
 20
-43.860001
 30
0.0
 11
46.0
 21
-43.860001
 31
0.0
  0
LINE
  5
107
330
1E
100
AcDbEntity
  8
MO_001_VIEW_PV
  6
C_SOLID_M
100
AcDbLine
 10
41.0
 20
-44.340004
 30
0.0
 11
46.0
 21
-44.340004
 31
0.0
  0
LINE
  5
108
330
1E
100
AcDbEntity
  8
MO_001_VIEW_PV
  6
C_SOLID_M
100
AcDbLine
 10
-2.399999999999999
 20
-57.239998
 30
0.0
 11
-2.399999999999999
 21
-44.760002
 31
0.0
  0
LINE
  5
109
330
1E
100
AcDbEntity
  8
MO_001_VIEW_PV
  6
C_SOLID_M
100
AcDbLine
 10
-1.6
 20
-57.239998
 30
0.0
 11
-1.6
 21
-44.760002
 31
0.0
  0
LINE
  5
10A
330
1E
100
AcDbEntity
  8
MO_001_VIEW_PV
  6
C_SOLID_M
100
AcDbLine
 10
0.0
 20
-42.599998
 30
0.0
 11
0.0
 21
-43.44000199999999
 31
0.0
  0
LINE
  5
10B
330
1E
100
AcDbEntity
  8
MO_001_VIEW_PV
  6
C_SOLID_M
100
AcDbLine
 10
46.0
 20
-58.13999899999999
 30
0.0
 11
46.0
 21
-57.659996
 31
0.0
  0
LINE
  5
10C
330
1E
100
AcDbEntity
  8
MO_001_VIEW_PV
  6
C_SOLID_M
100
AcDbLine
 10
41.0
 20
-58.559998
 30
0.0
 11
41.0
 21
-57.239998
 31
0.0
  0
LINE
  5
10D
330
1E
100
AcDbEntity
  8
MO_001_VIEW_PV
  6
C_SOLID_M
100
AcDbLine
 10
-3.059999
 20
-58.559998
 30
0.0
 11
41.0
 21
-58.559998
 31
0.0
  0
LINE
  5
10E
330
1E
100
AcDbEntity
  8
MO_001_VIEW_PV
  6
C_SOLID_M
100
AcDbLine
 10
-3.059999
 20
-57.239998
 30
0.0
 11
41.0
 21
-57.239998
 31
0.0
  0
LINE
  5
10F
330
1E
100
AcDbEntity
  8
MO_001_VIEW_PV
  6
C_SOLID_M
100
AcDbLine
 10
41.0
 20
-58.13999899999999
 30
0.0
 11
46.0
 21
-58.13999899999999
 31
0.0
  0
LINE
  5
110
330
1E
100
AcDbEntity
  8
MO_001_VIEW_PV
  6
C_SOLID_M
100
AcDbLine
 10
41.0
 20
-57.659996
 30
0.0
 11
46.0
 21
-57.659996
 31
0.0
  0
LINE
  5
111
330
1E
100
AcDbEntity
  8
MO_001_VIEW_PV
  6
C_SOLID_M
100
AcDbLine
 10
-2.399999999999999
 20
-59.300003
 30
0.0
 11
-2.399999999999999
 21
-58.559998
 31
0.0
  0
LINE
  5
112
330
1E
100
AcDbEntity
  8
MO_001_VIEW_PV
  6
C_SOLID_M
100
AcDbLine
 10
-1.6
 20
-59.400002
 30
0.0
 11
-1.6
 21
-58.559998
 31
0.0
  0
LINE
  5
113
330
1E
100
AcDbEntity
  8
MO_001_VIEW_PV
  6
C_SOLID_M
100
AcDbLine
 10
0.0
 20
-44.760002
 30
0.0
 11
0.0
 21
-57.239998
 31
0.0
  0
ARC
  5
114
330
1E
100
AcDbEntity
  8
MO_001_VIEW_PV
  6
C_SOLID_M
100
AcDbCircle
 10
-3.059999
 20
-44.099998
 30
0.0
 40
0.6600000000000001
100
AcDbArc
 50
90.000002
 51
270.000001
  0
ARC
  5
115
330
1E
100
AcDbEntity
  8
MO_001_VIEW_PV
  6
C_SOLID_M
100
AcDbCircle
 10
-3.059999
 20
-57.900002
 30
0.0
 40
0.6600000000000001
100
AcDbArc
 50
90.000002
 51
270.000001
  0
LINE
  5
116
330
1E
100
AcDbEntity
  8
MO_001_VIEW_PV
  6
C_SOLID_M
100
AcDbLine
 10
-30.3
 20
4.01188
 30
0.0
 11
-29.353652
 21
3.465505
 31
0.0
  0
LINE
  5
117
330
1E
100
AcDbEntity
  8
MO_001_VIEW_PV
  6
C_SOLID_M
100
AcDbLine
 10
-30.300001
 20
2.961882
 30
0.0
 11
-29.49999899999999
 21
2.5
 31
0.0
  0
LINE
  5
118
330
1E
100
AcDbEntity
  8
MO_001_VIEW_PV
  6
C_SOLID_M
100
AcDbLine
 10
-30.300001
 20
-2.358938
 30
0.0
 11
-30.300001
 21
2.358938
 31
0.0
  0
LINE
  5
119
330
1E
100
AcDbEntity
  8
MO_001_VIEW_PV
  6
C_SOLID_M
100
AcDbLine
 10
-29.500001
 20
2.5
 30
0.0
 11
-30.300001
 21
2.358938
 31
0.0
  0
LINE
  5
11A
330
1E
100
AcDbEntity
  8
MO_001_VIEW_PV
  6
C_SOLID_M
100
AcDbLine
 10
-29.500001
 20
-2.5
 30
0.0
 11
-30.300001
 21
-2.358938
 31
0.0
  0
LINE
  5
11B
330
1E
100
AcDbEntity
  8
MO_001_VIEW_PV
  6
C_SOLID_M
100
AcDbLine
 10
-30.300001
 20
-2.961882
 30
0.0
 11
-29.49999899999999
 21
-2.5
 31
0.0
  0
LINE
  5
11C
330
1E
100
AcDbEntity
  8
MO_001_VIEW_PV
  6
C_SOLID_M
100
AcDbLine
 10
-30.300001
 20
-2.961880999999999
 30
0.0
 11
-30.300001
 21
-4.01188
 31
0.0
  0
LINE
  5
11D
330
1E
100
AcDbEntity
  8
MO_001_VIEW_PV
  6
C_SOLID_M
100
AcDbLine
 10
-30.3
 20
-4.01188
 30
0.0
 11
-29.353652
 21
-3.465505
 31
0.0
  0
LINE
  5
11E
330
1E
100
AcDbEntity
  8
MO_001_VIEW_PV
  6
C_SOLID_M
100
AcDbLine
 10
-29.353656
 20
-3.465505999999999
 30
0.0
 11
-27.500005
 21
-3.300001999999999
 31
0.0
  0
LINE
  5
11F
330
1E
100
AcDbEntity
  8
MO_001_VIEW_PV
  6
C_SOLID_M
100
AcDbLine
 10
-60.59999799999999
 20
4.01188
 30
0.0
 11
-59.0
 21
4.01188
 31
0.0
  0
LINE
  5
120
330
1E
100
AcDbEntity
  8
MO_001_VIEW_PV
  6
C_SOLID_M
100
AcDbLine
 10
-60.59999799999999
 20
2.358938
 30
0.0
 11
-59.0
 21
2.358938
 31
0.0
  0
LINE
  5
121
330
1E
100
AcDbEntity
  8
MO_001_VIEW_PV
  6
C_SOLID_M
100
AcDbLine
 10
-60.59999799999999
 20
2.5
 30
0.0
 11
-59.0
 21
2.5
 31
0.0
  0
LINE
  5
122
330
1E
100
AcDbEntity
  8
MO_001_VIEW_PV
  6
C_SOLID_M
100
AcDbLine
 10
-60.59999799999999
 20
2.961880999999999
 30
0.0
 11
-59.0
 21
2.961880999999999
 31
0.0
  0
LINE
  5
123
330
1E
100
AcDbEntity
  8
MO_001_VIEW_PV
  6
C_SOLID_M
100
AcDbLine
 10
-60.59999799999999
 20
-2.358938
 30
0.0
 11
-59.0
 21
-2.358938
 31
0.0
  0
LINE
  5
124
330
1E
100
AcDbEntity
  8
MO_001_VIEW_PV
  6
C_SOLID_M
100
AcDbLine
 10
-60.59999799999999
 20
-2.5
 30
0.0
 11
-59.0
 21
-2.5
 31
0.0
  0
LINE
  5
125
330
1E
100
AcDbEntity
  8
MO_001_VIEW_PV
  6
C_SOLID_M
100
AcDbLine
 10
-60.59999799999999
 20
-2.961880999999999
 30
0.0
 11
-59.0
 21
-2.961880999999999
 31
0.0
  0
LINE
  5
126
330
1E
100
AcDbEntity
  8
MO_001_VIEW_PV
  6
C_SOLID_M
100
AcDbLine
 10
-60.59999799999999
 20
-4.01188
 30
0.0
 11
-59.0
 21
-4.01188
 31
0.0
  0
LINE
  5
127
330
1E
100
AcDbEntity
  8
MO_001_VIEW_PV
  6
C_SOLID_M
100
AcDbLine
 10
-77.39999399999999
 20
4.01188
 30
0.0
 11
-77.39999399999999
 21
-4.01188
 31
0.0
  0
LINE
  5
128
330
1E
100
AcDbEntity
  8
MO_001_VIEW_PV
  6
C_SOLID_M
100
AcDbLine
 10
-77.39999399999999
 20
4.01188
 30
0.0
 11
-79.0
 21
4.01188
 31
0.0
  0
LINE
  5
129
330
1E
100
AcDbEntity
  8
MO_001_VIEW_PV
  6
C_SOLID_M
100
AcDbLine
 10
-77.39999399999999
 20
2.358938
 30
0.0
 11
-79.0
 21
2.358938
 31
0.0
  0
LINE
  5
12A
330
1E
100
AcDbEntity
  8
MO_001_VIEW_PV
  6
C_SOLID_M
100
AcDbLine
 10
-77.39999399999999
 20
2.5
 30
0.0
 11
-79.0
 21
2.5
 31
0.0
  0
LINE
  5
12B
330
1E
100
AcDbEntity
  8
MO_001_VIEW_PV
  6
C_SOLID_M
100
AcDbLine
 10
-77.39999399999999
 20
2.961880999999999
 30
0.0
 11
-79.0
 21
2.961880999999999
 31
0.0
  0
LINE
  5
12C
330
1E
100
AcDbEntity
  8
MO_001_VIEW_PV
  6
C_SOLID_M
100
AcDbLine
 10
-77.39999399999999
 20
-2.358938
 30
0.0
 11
-79.0
 21
-2.358938
 31
0.0
  0
LINE
  5
12D
330
1E
100
AcDbEntity
  8
MO_001_VIEW_PV
  6
C_SOLID_M
100
AcDbLine
 10
-77.39999399999999
 20
-2.5
 30
0.0
 11
-79.0
 21
-2.5
 31
0.0
  0
LINE
  5
12E
330
1E
100
AcDbEntity
  8
MO_001_VIEW_PV
  6
C_SOLID_M
100
AcDbLine
 10
-77.39999399999999
 20
-2.961880999999999
 30
0.0
 11
-79.0
 21
-2.961880999999999
 31
0.0
  0
LINE
  5
12F
330
1E
100
AcDbEntity
  8
MO_001_VIEW_PV
  6
C_SOLID_M
100
AcDbLine
 10
-77.39999399999999
 20
-4.01188
 30
0.0
 11
-79.0
 21
-4.01188
 31
0.0
  0
LINE
  5
130
330
1E
100
AcDbEntity
  8
MO_001_VIEW_PV
  6
C_SOLID_L
100
AcDbLine
 10
9.405490999999999
 20
24.0
 30
0.0
 11
44.18034699999999
 21
24.0
 31
0.0
  0
LINE
  5
131
330
1E
100
AcDbEntity
  8
MO_001_VIEW_PV
  6
C_SOLID_L
100
AcDbLine
 10
-58.86763000000001
 20
24.0
 30
0.0
 11
-46.412392
 21
24.0
 31
0.0
  0
TEXT
  5
132
330
1E
100
AcDbEntity
  8
MO_001_VIEW_PV
  6
C_SOLID_L
100
AcDbText
 10
-88.488281
 20
-77.08359399999999
 30
0.0
 40
4.167187
  1
SK0730A
100
AcDbText
  0
TEXT
  5
133
330
1E
100
AcDbEntity
  8
MO_001_VIEW_PV
  6
C_SOLID_L
100
AcDbText
 10
4.428570999999999
 20
-24.75
 30
0.0
 40
3.0
  1
UL1007 AWG.26
100
AcDbText
  0
TEXT
  5
134
330
1E
100
AcDbEntity
  8
MO_001_VIEW_PV
  6
C_SOLID_L
100
AcDbText
 10
-52.071429
 20
-70.5
 30
0.0
 40
3.0
  1
板厚1.6mm、ネジ突き出しは0.5mm以下
100
AcDbText
  0
TEXT
  5
135
330
1E
100
AcDbEntity
  8
MO_001_VIEW_PV
  6
C_SOLID_L
100
AcDbText
 10
25.51171899999999
 20
-77.08359399999999
 30
0.0
 40
4.167187
  1
単位：mm
100
AcDbText
  0
TEXT
  5
136
330
1E
100
AcDbEntity
  8
MO_001_VIEW_PV
  6
C_SOLID_L
100
AcDbText
 10
25.51171899999999
 20
-83.08359399999998
 30
0.0
 40
4.167187
  1
図は励磁時を示す
100
AcDbText
  0
TEXT
  5
137
330
1E
100
AcDbEntity
  8
MO_001_VIEW_PV
  6
C_SOLID_L
100
AcDbText
 10
9.834061999999999
 20
24.75
 30
0.0
 40
3.0
  1
3-M2.6x0.45
100
AcDbText
  0
TEXT
  5
138
330
1E
100
AcDbEntity
  8
MO_001_VIEW_PV
  6
C_SOLID_L
100
AcDbText
 10
-52.198106
 20
26.625
 30
0.0
 40
1.5
  1
+0.1
100
AcDbText
  0
TEXT
  5
139
330
1E
100
AcDbEntity
  8
MO_001_VIEW_PV
  6
C_SOLID_L
100
AcDbText
 10
-52.198106
 20
24.375
 30
0.0
 40
1.5
  1
 0
100
AcDbText
  0
TEXT
  5
13A
330
1E
100
AcDbEntity
  8
MO_001_VIEW_PV
  6
C_SOLID_L
100
AcDbText
 10
-57.98382
 20
24.75
 30
0.0
 40
3.0
  1
%%C2
100
AcDbText
  0
POLYLINE
  5
13B
330
1E
100
AcDbEntity
  8
MO_001_NOSHOW
  6
C_SOLID_M
100
AcDb2dPolyline
 66
     1
 10
0.0
 20
0.0
 30
0.0
 70
     5
 75
     6
  0
VERTEX
  5
13C
330
13B
100
AcDbEntity
  8
MO_001_NOSHOW
  6
C_SOLID_M
100
AcDbVertex
100
AcDb2dVertex
 10
-32.799995
 20
-54.5
 30
0.0
 50
193.853737
  0
VERTEX
  5
13D
330
13B
100
AcDbEntity
  8
MO_001_NOSHOW
  6
C_SOLID_M
100
AcDbVertex
100
AcDb2dVertex
 10
-31.79999699999999
 20
-54.354103
 30
0.0
 50
0.000002
  0
VERTEX
  5
13E
330
13B
100
AcDbEntity
  8
MO_001_NOSHOW
  6
C_SOLID_M
100
AcDbVertex
100
AcDb2dVertex
 10
-30.799997
 20
-54.5
 30
0.0
 50
26.565053
  0
VERTEX
  5
13F
330
13B
100
AcDbEntity
  8
MO_001_NOSHOW
  6
C_SOLID_M
100
AcDbVertex
100
AcDb2dVertex
 10
-31.79999699999999
 20
-54.354103
 30
0.0
 50
179.999999
  0
VERTEX
  5
140
330
13B
100
AcDbEntity
  8
MO_001_NOSHOW
  6
C_SOLID_M
100
AcDbVertex
100
AcDb2dVertex
 10
-32.799995
 20
-54.5
 30
0.0
 50
269.817499
  0
SEQEND
  5
141
330
13B
100
AcDbEntity
  8
0
  0
POLYLINE
  5
142
330
1E
100
AcDbEntity
  8
MO_001_NOSHOW
  6
C_SOLID_M
100
AcDb2dPolyline
 66
     1
 10
0.0
 20
0.0
 30
0.0
 70
     5
 75
     6
  0
VERTEX
  5
143
330
142
100
AcDbEntity
  8
MO_001_NOSHOW
  6
C_SOLID_M
100
AcDbVertex
100
AcDb2dVertex
 10
-32.799995
 20
-47.5
 30
0.0
 50
90.0
  0
VERTEX
  5
144
330
142
100
AcDbEntity
  8
MO_001_NOSHOW
  6
C_SOLID_M
100
AcDbVertex
100
AcDb2dVertex
 10
-31.79999699999999
 20
-47.645897
 30
0.0
 50
0.000001
  0
VERTEX
  5
145
330
142
100
AcDbEntity
  8
MO_001_NOSHOW
  6
C_SOLID_M
100
AcDbVertex
100
AcDb2dVertex
 10
-30.799997
 20
-47.5
 30
0.0
 50
236.127429
  0
VERTEX
  5
146
330
142
100
AcDbEntity
  8
MO_001_NOSHOW
  6
C_SOLID_M
100
AcDbVertex
100
AcDb2dVertex
 10
-31.79999699999999
 20
-47.645897
 30
0.0
 50
179.999998
  0
VERTEX
  5
147
330
142
100
AcDbEntity
  8
MO_001_NOSHOW
  6
C_SOLID_M
100
AcDbVertex
100
AcDb2dVertex
 10
-32.799995
 20
-47.5
 30
0.0
 50
36.869895
  0
SEQEND
  5
148
330
142
100
AcDbEntity
  8
0
  0
DIMENSION
  5
14A
330
1E
100
AcDbEntity
  8
MO_001_VIEW_PV
  6
C_SOLID_M
100
AcDbDimension
  2
*D0
 10
-48.0
 20
13.98205899999999
 30
0.0
 11
-48.0
 21
13.98205899999999
 31
0.0
  3
STANDARD
100
AcDbAlignedDimension
 13
-34.0
 23
-3.5
 33
0.0
 14
-34.0
 24
3.5
 34
0.0
 50
89.98785500000002
100
AcDbRotatedDimension
  0
DIMENSION
  5
14C
330
1E
100
AcDbEntity
  8
MO_001_VIEW_PV
  6
C_SOLID_M
100
AcDbDimension
  2
*D1
 10
-84.0
 20
0.0
 30
0.0
 11
-84.0
 21
0.0
 31
0.0
  3
STANDARD
100
AcDbAlignedDimension
 13
-79.0
 23
-8.0
 33
0.0
 14
-79.0
 24
8.0
 34
0.0
 50
89.999523
100
AcDbRotatedDimension
  0
DIMENSION
  5
14E
330
1E
100
AcDbEntity
  8
MO_001_VIEW_PV
  6
C_SOLID_M
100
AcDbDimension
  2
*D2
 10
-69.0
 20
-18.0
 30
0.0
 11
-69.0
 21
-18.0
 31
0.0
  3
STANDARD
100
AcDbAlignedDimension
 13
-59.0
 23
-8.0
 33
0.0
 14
-79.0
 24
-8.0
 34
0.0
100
AcDbRotatedDimension
  0
DIMENSION
  5
150
330
1E
100
AcDbEntity
  8
MO_001_VIEW_PV
  6
C_SOLID_M
100
AcDbDimension
  2
*D3
 10
-17.14999999999999
 20
24.0
 30
0.0
 11
-17.14999999999999
 21
24.0
 31
0.0
  3
STANDARD
100
AcDbAlignedDimension
 13
-34.299999
 23
3.199997
 33
0.0
 14
0.0
 24
8.0
 34
0.0
100
AcDbRotatedDimension
  0
DIMENSION
  5
152
330
1E
100
AcDbEntity
  8
MO_001_VIEW_PV
  6
C_SOLID_M
100
AcDbDimension
  2
*D4
 10
-15.150001
 20
18.0
 30
0.0
 11
-15.150001
 21
18.0
 31
0.0
  3
STANDARD
100
AcDbAlignedDimension
 13
0.0
 23
8.0
 33
0.0
 14
-30.300001
 24
4.01188
 34
0.0
 50
179.97571
100
AcDbRotatedDimension
  0
DIMENSION
  5
154
330
1E
100
AcDbEntity
  8
MO_001_VIEW_PV
  6
C_SOLID_M
100
AcDbDimension
  2
*D5
 10
-4.0
 20
12.0
 30
0.0
 11
-4.0
 21
12.0
 31
0.0
  1
(8)
  3
STANDARD
100
AcDbAlignedDimension
 13
0.0
 23
8.0
 33
0.0
 14
-8.0
 24
-3.0
 34
0.0
100
AcDbRotatedDimension
  0
DIMENSION
  5
156
330
1E
100
AcDbEntity
  8
MO_001_VIEW_PV
  6
C_SOLID_M
100
AcDbDimension
  2
*D6
 10
-1.297660999999999
 20
-30.0
 30
0.0
 11
-1.297660999999999
 21
-30.0
 31
0.0
  3
STANDARD
100
AcDbAlignedDimension
 13
-19.0
 23
-8.0
 33
0.0
 14
-8.0
 24
-8.0
 34
0.0
100
AcDbRotatedDimension
  0
DIMENSION
  5
158
330
1E
100
AcDbEntity
  8
MO_001_VIEW_PV
  6
C_SOLID_M
100
AcDbDimension
  2
*D7
 10
-45.0
 20
-21.0
 30
0.0
 11
-45.0
 21
-21.0
 31
0.0
  3
STANDARD
100
AcDbAlignedDimension
 13
-19.0
 23
-8.0
 33
0.0
 14
-31.79999699999999
 24
-1.846641999999999
 34
0.0
100
AcDbRotatedDimension
  0
DIMENSION
  5
15A
330
1E
100
AcDbEntity
  8
MO_001_VIEW_PV
  6
C_SOLID_M
100
AcDbDimension
  2
*D8
 10
-45.0
 20
-15.0
 30
0.0
 11
-45.0
 21
-15.0
 31
0.0
  3
STANDARD
100
AcDbAlignedDimension
 13
-31.79999699999999
 23
-1.846641999999999
 33
0.0
 14
-34.299999
 24
-3.200012
 34
0.0
 50
179.97571
100
AcDbRotatedDimension
  0
DIMENSION
  5
15C
330
1E
100
AcDbEntity
  8
MO_001_VIEW_PV
  6
C_SOLID_M
100
AcDbDimension
  2
*D9
 10
22.178572
 20
-21.0
 30
0.0
 11
22.178572
 21
-21.0
 31
0.0
  1
長さ240以上
  3
STANDARD
100
AcDbAlignedDimension
 13
46.0
 23
-6.990002
 33
0.0
 14
0.0
 24
-8.0
 34
0.0
100
AcDbRotatedDimension
  0
DIMENSION
  5
15E
330
1E
100
AcDbEntity
  8
MO_001_VIEW_PV
  6
C_SOLID_M
100
AcDbDimension
  2
*D10
 10
30.0
 20
12.794502
 30
0.0
 11
30.0
 21
12.794502
 31
0.0
  3
STANDARD
100
AcDbAlignedDimension
 13
-15.650726
 23
4.5
 33
0.0
 14
-4.761116999999999
 24
-5.5
 34
0.0
 50
89.999523
100
AcDbRotatedDimension
  0
DIMENSION
  5
160
330
1E
100
AcDbEntity
  8
MO_001_VIEW_PV
  6
C_SOLID_M
100
AcDbDimension
  2
*D11
 10
24.0
 20
15.0
 30
0.0
 11
24.0
 21
15.0
 31
0.0
  3
STANDARD
100
AcDbAlignedDimension
 13
4.614423999999999
 23
0.0
 33
0.0
 14
-4.761116999999999
 24
-5.5
 34
0.0
 50
89.999523
100
AcDbRotatedDimension
  0
DIMENSION
  5
162
330
1E
100
AcDbEntity
  8
MO_001_VIEW_PV
  6
C_SOLID_M
100
AcDbDimension
  2
*D12
 10
18.0
 20
13.55022
 30
0.0
 11
18.0
 21
13.55022
 31
0.0
  1
(%%C3.1)
  3
STANDARD
100
AcDbAlignedDimension
 13
0.5
 23
-1.299998999999999
 33
0.0
 14
0.5
 24
1.299998999999999
 34
0.0
 50
89.999523
100
AcDbRotatedDimension
  0
DIMENSION
  5
164
330
1E
100
AcDbEntity
  8
MO_001_VIEW_PV
  6
C_SOLID_M
100
AcDbDimension
  2
*D13
 10
-45.0
 20
-36.0
 30
0.0
 11
-45.0
 21
-36.0
 31
0.0
  1
(4.8)
  3
STANDARD
100
AcDbAlignedDimension
 13
-29.5
 23
-41.0
 33
0.0
 14
-34.299999
 24
-47.800003
 34
0.0
100
AcDbRotatedDimension
  0
DIMENSION
  5
166
330
1E
100
AcDbEntity
  8
MO_001_VIEW_PV
  6
C_SOLID_M
100
AcDbDimension
  2
*D14
 10
-14.75
 20
-36.0
 30
0.0
 11
-14.75
 21
-36.0
 31
0.0
  3
STANDARD
100
AcDbAlignedDimension
 13
0.0
 23
-42.599998
 33
0.0
 14
-29.5
 24
-41.0
 34
0.0
100
AcDbRotatedDimension
  0
DIMENSION
  5
168
330
1E
100
AcDbEntity
  8
MO_001_VIEW_PV
  6
C_SOLID_M
100
AcDbDimension
  2
*D15
 10
-32.21614
 20
0.9092969999999999
 30
0.0
 11
-46.412392
 21
24.0
 31
0.0
 70
     3
  1
<>
  3
STANDARD
100
AcDbDiametricDimension
 15
-31.383855
 25
-0.9092969999999999
 35
0.0
 40
0.0
  0
DIMENSION
  5
16A
330
1E
100
AcDbEntity
  8
MO_001_VIEW_PV
  6
C_SOLID_M
100
AcDbDimension
  2
*D16
 10
12.0
 20
-15.0
 30
0.0
 11
12.0
 21
-15.0
 31
0.0
  1
(0.5)
  3
STANDARD
100
AcDbAlignedDimension
 13
0.5
 23
-1.299998999999999
 33
0.0
 14
0.0
 24
-8.0
 34
0.0
 50
179.97571
100
AcDbRotatedDimension
  0
LINE
  5
16B
330
1E
100
AcDbEntity
  8
MO_001_VIEW_PV
  6
C_SOLID_L
100
AcDbLine
 10
-7.23776
 20
-4.208105
 30
0.0
 11
9.405489999999998
 21
23.999999
 31
0.0
  0
POLYLINE
  5
16C
330
1E
100
AcDbEntity
  8
MO_001_VIEW_PV
  6
C_SOLID_L
100
AcDb2dPolyline
 66
     1
 10
0.0
 20
0.0
 30
0.0
 70
     1
  0
VERTEX
  5
27F
330
16C
100
AcDbEntity
  8
MO_001_VIEW_PV
  6
C_SOLID_L
100
AcDbVertex
100
AcDb2dVertex
 10
-6.054110999999999
 20
-1.053692999999999
 30
0.0
  0
VERTEX
  5
280
330
16C
100
AcDbEntity
  8
MO_001_VIEW_PV
  6
C_SOLID_L
100
AcDbVertex
100
AcDb2dVertex
 10
-6.979614999999999
 20
-3.770583
 30
0.0
  0
VERTEX
  5
281
330
16C
100
AcDbEntity
  8
MO_001_VIEW_PV
  6
C_SOLID_L
100
AcDbVertex
100
AcDb2dVertex
 10
-5.048996999999999
 20
-1.646727
 30
0.0
  0
SEQEND
  5
282
330
16C
100
AcDbEntity
  8
MO_001_VIEW_PV
  6
C_SOLID_L
  0
ENDSEC
  0
SECTION
  2
OBJECTS
  0
DICTIONARY
  5
1A
330
0
100
AcDbDictionary
  3
ACAD_GROUP
350
1B
  3
ACAD_MLINESTYLE
350
1C
  3
ACAD_LAYOUT
350
229
  3
ACAD_PLOTSETTINGS
350
22A
1001
ACAD
1000
TREAT_AS_HARD
1070
     0
  0
DICTIONARY
  5
22F
330
1E
100
AcDbDictionary
  3
ACAD_LAYOUTSELFREF
350
230
  0
DICTIONARY
  5
231
330
1F
100
AcDbDictionary
  3
ACAD_LAYOUTSELFREF
350
232
  0
DICTIONARY
  5
1B
102
{ACAD_REACTORS
330
1A
102
}
330
1A
100
AcDbDictionary
1001
ACAD
1000
TREAT_AS_HARD
1070
     0
  0
DICTIONARY
  5
1C
102
{ACAD_REACTORS
330
1A
102
}
330
1A
100
AcDbDictionary
  3
STANDARD
350
1D
1001
ACAD
1000
TREAT_AS_HARD
1070
     0
  0
DICTIONARY
  5
229
102
{ACAD_REACTORS
330
1A
102
}
330
1A
100
AcDbDictionary
1001
ACAD
1000
TREAT_AS_HARD
1070
     0
  0
DICTIONARY
  5
22A
102
{ACAD_REACTORS
330
1A
102
}
330
1A
100
AcDbDictionary
1001
ACAD
1000
TREAT_AS_HARD
1070
     0
  0
XRECORD
  5
230
102
{ACAD_REACTORS
330
22F
102
}
330
22F
100
AcDbXrecord
340
1E
  0
XRECORD
  5
232
102
{ACAD_REACTORS
330
231
102
}
330
231
100
AcDbXrecord
340
1F
  0
MLINESTYLE
  5
1D
102
{ACAD_REACTORS
330
1C
102
}
330
1C
100
AcDbMlineStyle
  2
STANDARD
 70
     0
  3

 62
     0
 51
90.0
 52
90.0
 71
     2
 49
0.5
 62
   256
  6
BYLAYER
 49
-0.5
 62
   256
  6
BYLAYER
  0
ENDSEC
  0
EOF
