  0
SECTION
  2
HEADER
  9
$ACADVER
  1
AC1012
  9
$DWGCODEPAGE
  3
dos932
  9
$INSBASE
 10
0.0
 20
0.0
 30
0.0
  9
$EXTMIN
 10
-106.136405722324
 20
-95.09364297573682
 30
-0.0015258207003583
  9
$EXTMAX
 10
55.13799848780417
 20
36.75352143757686
 30
0.0000000349246037
  9
$LIMMIN
 10
-108.0
 20
-98.208984
  9
$LIMMAX
 10
49.998047
 20
39.0
  9
$ORTHOMODE
 70
     0
  9
$REGENMODE
 70
     1
  9
$FILLMODE
 70
     1
  9
$QTEXTMODE
 70
     0
  9
$MIRRTEXT
 70
     1
  9
$DRAGMODE
 70
     2
  9
$LTSCALE
 40
1.0
  9
$OSMODE
 70
    37
  9
$ATTMODE
 70
     1
  9
$TEXTSIZE
 40
4.1672
  9
$TRACEWID
 40
0.05
  9
$TEXTSTYLE
  7
STANDARD
  9
$CLAYER
  8
0
  9
$CELTYPE
  6
CONTINUOUS
  9
$CECOLOR
 62
   256
  9
$CELTSCALE
 40
1.0
  9
$DELOBJ
 70
     1
  9
$DISPSILH
 70
     0
  9
$DIMSCALE
 40
1.0
  9
$DIMASZ
 40
0.18
  9
$DIMEXO
 40
0.0625
  9
$DIMDLI
 40
0.38
  9
$DIMRND
 40
0.0
  9
$DIMDLE
 40
0.0
  9
$DIMEXE
 40
0.18
  9
$DIMTP
 40
0.0
  9
$DIMTM
 40
0.0
  9
$DIMTXT
 40
0.18
  9
$DIMCEN
 40
0.09
  9
$DIMTSZ
 40
0.0
  9
$DIMTOL
 70
     0
  9
$DIMLIM
 70
     0
  9
$DIMTIH
 70
     1
  9
$DIMTOH
 70
     1
  9
$DIMSE1
 70
     0
  9
$DIMSE2
 70
     0
  9
$DIMTAD
 70
     0
  9
$DIMZIN
 70
     0
  9
$DIMBLK
  1

  9
$DIMASO
 70
     1
  9
$DIMSHO
 70
     1
  9
$DIMPOST
  1

  9
$DIMAPOST
  1

  9
$DIMALT
 70
     0
  9
$DIMALTD
 70
     2
  9
$DIMALTF
 40
25.4
  9
$DIMLFAC
 40
1.0
  9
$DIMTOFL
 70
     0
  9
$DIMTVP
 40
0.0
  9
$DIMTIX
 70
     0
  9
$DIMSOXD
 70
     0
  9
$DIMSAH
 70
     0
  9
$DIMBLK1
  1

  9
$DIMBLK2
  1

  9
$DIMSTYLE
  2
STANDARD
  9
$DIMCLRD
 70
     0
  9
$DIMCLRE
 70
     0
  9
$DIMCLRT
 70
     0
  9
$DIMTFAC
 40
1.0
  9
$DIMGAP
 40
0.09
  9
$DIMJUST
 70
     0
  9
$DIMSD1
 70
     0
  9
$DIMSD2
 70
     0
  9
$DIMTOLJ
 70
     1
  9
$DIMTZIN
 70
     0
  9
$DIMALTZ
 70
     0
  9
$DIMALTTZ
 70
     0
  9
$DIMFIT
 70
     3
  9
$DIMUPT
 70
     0
  9
$DIMUNIT
 70
     2
  9
$DIMDEC
 70
     4
  9
$DIMTDEC
 70
     4
  9
$DIMALTU
 70
     2
  9
$DIMALTTD
 70
     2
  9
$DIMTXSTY
  7
STANDARD
  9
$DIMAUNIT
 70
     0
  9
$LUNITS
 70
     2
  9
$LUPREC
 70
     6
  9
$SKETCHINC
 40
0.1
  9
$FILLETRAD
 40
0.0
  9
$AUNITS
 70
     0
  9
$AUPREC
 70
     4
  9
$MENU
  1
acad
  9
$ELEVATION
 40
0.0
  9
$PELEVATION
 40
0.0
  9
$THICKNESS
 40
0.0
  9
$LIMCHECK
 70
     0
  9
$BLIPMODE
 70
     0
  9
$CHAMFERA
 40
0.0
  9
$CHAMFERB
 40
0.0
  9
$CHAMFERC
 40
0.0
  9
$CHAMFERD
 40
0.0
  9
$SKPOLY
 70
     0
  9
$TDCREATE
 40
2376126.114255138
  9
$TDUPDATE
 40
2451683.848595023
  9
$TDINDWG
 40
0.0201577546
  9
$TDUSRTIMER
 40
0.0201577546
  9
$USRTIMER
 70
     1
  9
$ANGBASE
 50
0.0
  9
$ANGDIR
 70
     0
  9
$PDMODE
 70
     0
  9
$PDSIZE
 40
0.0
  9
$PLINEWID
 40
0.0
  9
$COORDS
 70
     1
  9
$SPLFRAME
 70
     0
  9
$SPLINETYPE
 70
     6
  9
$SPLINESEGS
 70
     8
  9
$ATTDIA
 70
     0
  9
$ATTREQ
 70
     1
  9
$HANDLING
 70
 10241
  9
$HANDSEED
  5
3B5
  9
$SURFTAB1
 70
     6
  9
$SURFTAB2
 70
     6
  9
$SURFTYPE
 70
     6
  9
$SURFU
 70
     6
  9
$SURFV
 70
     6
  9
$UCSNAME
  2

  9
$UCSORG
 10
0.0
 20
0.0
 30
0.0
  9
$UCSXDIR
 10
1.0
 20
0.0
 30
0.0
  9
$UCSYDIR
 10
0.0
 20
1.0
 30
0.0
  9
$PUCSNAME
  2

  9
$PUCSORG
 10
0.0
 20
0.0
 30
0.0
  9
$PUCSXDIR
 10
1.0
 20
0.0
 30
0.0
  9
$PUCSYDIR
 10
0.0
 20
1.0
 30
0.0
  9
$USERI1
 70
     0
  9
$USERI2
 70
     0
  9
$USERI3
 70
     0
  9
$USERI4
 70
     0
  9
$USERI5
 70
     0
  9
$USERR1
 40
0.0
  9
$USERR2
 40
0.0
  9
$USERR3
 40
0.0
  9
$USERR4
 40
0.0
  9
$USERR5
 40
0.0
  9
$WORLDVIEW
 70
     1
  9
$SHADEDGE
 70
     3
  9
$SHADEDIF
 70
    70
  9
$TILEMODE
 70
     1
  9
$MAXACTVP
 70
    16
  9
$PINSBASE
 10
0.0
 20
0.0
 30
0.0
  9
$PLIMCHECK
 70
     0
  9
$PEXTMIN
 10
-108.0
 20
-98.208984
 30
1.000000000000000E+20
  9
$PEXTMAX
 10
49.998047
 20
39.0
 30
-1.000000000000000E+20
  9
$PLIMMIN
 10
0.0
 20
0.0
  9
$PLIMMAX
 10
12.0
 20
9.0
  9
$UNITMODE
 70
     0
  9
$VISRETAIN
 70
     0
  9
$PLINEGEN
 70
     0
  9
$PSLTSCALE
 70
     1
  9
$TREEDEPTH
 70
  3020
  9
$PICKSTYLE
 70
     1
  9
$CMLSTYLE
  2
STANDARD
  9
$CMLJUST
 70
     0
  9
$CMLSCALE
 40
1.0
  9
$SAVEIMAGES
 70
     1
  0
ENDSEC
  0
SECTION
  2
CLASSES
  0
CLASS
  1
ACDBDICTIONARYWDFLT
  2
AcDbDictionaryWithDefault
  3
AutoCAD 2000
 90
    32768
280
     0
281
     0
  0
CLASS
  1
ACDBPLACEHOLDER
  2
AcDbPlaceHolder
  3
AutoCAD 2000
 90
    32768
280
     0
281
     0
  0
CLASS
  1
LAYOUT
  2
AcDbLayout
  3
AutoCAD 2000
 90
    32768
280
     0
281
     0
  0
CLASS
  1
LONG_TRANSACTION
  2
AcDbLongTransaction
  3
AutoCAD 2000
 90
    32768
280
     0
281
     0
  0
CLASS
  1
LWPOLYLINE
  2
AcDbPolyline
  3
AutoCAD 2000
 90
    32768
280
     0
281
     1
  0
CLASS
  1
HATCH
  2
AcDbHatch
  3
AutoCAD 2000
 90
    32768
280
     0
281
     1
  0
CLASS
  1
XRECORD
  2
AcDbXrecord
  3
AutoCAD 2000
 90
    32768
280
     0
281
     0
  0
ENDSEC
  0
SECTION
  2
TABLES
  0
TABLE
  2
VPORT
  5
7
330
0
100
AcDbSymbolTable
 70
     2
  0
VPORT
  5
2EC
330
7
100
AcDbSymbolTableRecord
100
AcDbViewportTableRecord
  2
*ACTIVE
 70
     0
 10
0.0
 20
0.0
 11
1.0
 21
1.0
 12
-26.4310007560979
 22
-29.60449200000001
 13
0.0
 23
0.0
 14
6.349999999999999
 24
6.349999999999999
 15
6.349999999999999
 25
6.349999999999999
 16
0.0
 26
0.0
 36
1.0
 17
0.0
 27
0.0
 37
0.0
 40
138.7335282666666
 41
1.619666048237476
 42
50.0
 43
0.0
 44
0.0
 50
0.0
 51
0.0
 71
     0
 72
   100
 73
     1
 74
     1
 75
     0
 76
     0
 77
     0
 78
     0
  0
ENDTAB
  0
TABLE
  2
LTYPE
  5
4
330
0
100
AcDbSymbolTable
 70
    37
  0
LTYPE
  5
12
330
4
100
AcDbSymbolTableRecord
100
AcDbLinetypeTableRecord
  2
BYBLOCK
 70
     0
  3

 72
    65
 73
     0
 40
0.0
  0
LTYPE
  5
13
330
4
100
AcDbSymbolTableRecord
100
AcDbLinetypeTableRecord
  2
BYLAYER
 70
     0
  3

 72
    65
 73
     0
 40
0.0
  0
LTYPE
  5
14
330
4
100
AcDbSymbolTableRecord
100
AcDbLinetypeTableRecord
  2
CONTINUOUS
 70
     0
  3
DXF Default line type
 72
    65
 73
     0
 40
0.0
  0
LTYPE
  5
20
330
4
100
AcDbSymbolTableRecord
100
AcDbLinetypeTableRecord
  2
DASHED
 70
     0
  3
DXF Dashed
 72
    65
 73
     2
 40
0.75
 49
0.5
 74
     0
 49
-0.25
 74
     0
  0
LTYPE
  5
21
330
4
100
AcDbSymbolTableRecord
100
AcDbLinetypeTableRecord
  2
HIDDEN
 70
     0
  3
DXF Hidden
 72
    65
 73
     2
 40
0.375
 49
0.25
 74
     0
 49
-0.125
 74
     0
  0
LTYPE
  5
22
330
4
100
AcDbSymbolTableRecord
100
AcDbLinetypeTableRecord
  2
CENTER
 70
     0
  3
DXF Center
 72
    65
 73
     4
 40
2.0
 49
1.25
 74
     0
 49
-0.25
 74
     0
 49
0.25
 74
     0
 49
-0.25
 74
     0
  0
LTYPE
  5
23
330
4
100
AcDbSymbolTableRecord
100
AcDbLinetypeTableRecord
  2
PHANTOM
 70
     0
  3
DXF Phantom
 72
    65
 73
     6
 40
2.5
 49
1.25
 74
     0
 49
-0.25
 74
     0
 49
0.25
 74
     0
 49
-0.25
 74
     0
 49
0.25
 74
     0
 49
-0.25
 74
     0
  0
LTYPE
  5
24
330
4
100
AcDbSymbolTableRecord
100
AcDbLinetypeTableRecord
  2
DOT
 70
     0
  3
DXF DOT
 72
    65
 73
     2
 40
0.25
 49
0.0
 74
     0
 49
-0.25
 74
     0
  0
LTYPE
  5
25
330
4
100
AcDbSymbolTableRecord
100
AcDbLinetypeTableRecord
  2
DASHDOT
 70
     0
  3
DXF Dash Dot
 72
    65
 73
     4
 40
1.0
 49
0.5
 74
     0
 49
-0.25
 74
     0
 49
0.0
 74
     0
 49
-0.25
 74
     0
  0
LTYPE
  5
26
330
4
100
AcDbSymbolTableRecord
100
AcDbLinetypeTableRecord
  2
BORDER
 70
     0
  3
DXF Border
 72
    65
 73
     6
 40
1.75
 49
0.5
 74
     0
 49
-0.25
 74
     0
 49
0.5
 74
     0
 49
-0.25
 74
     0
 49
0.0
 74
     0
 49
-0.25
 74
     0
  0
LTYPE
  5
27
330
4
100
AcDbSymbolTableRecord
100
AcDbLinetypeTableRecord
  2
DIVIDE
 70
     0
  3
DXF Divide
 72
    65
 73
     6
 40
1.25
 49
0.5
 74
     0
 49
-0.25
 74
     0
 49
0.0
 74
     0
 49
-0.25
 74
     0
 49
0.0
 74
     0
 49
-0.25
 74
     0
  0
LTYPE
  5
28
330
4
100
AcDbSymbolTableRecord
100
AcDbLinetypeTableRecord
  2
C_SOLID_L
 70
     0
  3
CADAM Solid Light
 72
    65
 73
     0
 40
0.0
  0
LTYPE
  5
29
330
4
100
AcDbSymbolTableRecord
100
AcDbLinetypeTableRecord
  2
C_SOLID_M
 70
     0
  3
CADAM Solid Medium
 72
    65
 73
     0
 40
0.0
  0
LTYPE
  5
2A
330
4
100
AcDbSymbolTableRecord
100
AcDbLinetypeTableRecord
  2
C_SOLID_H
 70
     0
  3
CADAM Solid Heavy
 72
    65
 73
     0
 40
0.0
  0
LTYPE
  5
2B
330
4
100
AcDbSymbolTableRecord
100
AcDbLinetypeTableRecord
  2
C_DASHED_L
 70
     0
  3
CADAM Dashed Light
 72
    65
 73
     2
 40
0.375
 49
0.25
 74
     0
 49
-0.125
 74
     0
  0
LTYPE
  5
2C
330
4
100
AcDbSymbolTableRecord
100
AcDbLinetypeTableRecord
  2
C_DASHED_M
 70
     0
  3
CADAM Dashed Medium
 72
    65
 73
     2
 40
0.5
 49
0.375
 74
     0
 49
-0.125
 74
     0
  0
LTYPE
  5
2D
330
4
100
AcDbSymbolTableRecord
100
AcDbLinetypeTableRecord
  2
C_CENTER_L
 70
     0
  3
CADAM Center Light
 72
    65
 73
     4
 40
2.0
 49
1.25
 74
     0
 49
-0.25
 74
     0
 49
0.25
 74
     0
 49
-0.25
 74
     0
  0
LTYPE
  5
2E
330
4
100
AcDbSymbolTableRecord
100
AcDbLinetypeTableRecord
  2
C_PHANTOM_L
 70
     0
  3
CADAM Phantom Light
 72
    65
 73
     6
 40
2.5
 49
1.25
 74
     0
 49
-0.25
 74
     0
 49
0.25
 74
     0
 49
-0.25
 74
     0
 49
0.25
 74
     0
 49
-0.25
 74
     0
  0
LTYPE
  5
2F
330
4
100
AcDbSymbolTableRecord
100
AcDbLinetypeTableRecord
  2
C_BREAK_M
 70
     0
  3
CADAM Break Medium
 72
    65
 73
     4
 40
1.0
 49
0.5
 74
     0
 49
-0.25
 74
     0
 49
0.0
 74
     0
 49
-0.25
 74
     0
  0
LTYPE
  5
30
330
4
100
AcDbSymbolTableRecord
100
AcDbLinetypeTableRecord
  2
C_NC
 70
     0
  3
CADAM NC
 72
    65
 73
     0
 40
0.0
  0
LTYPE
  5
31
330
4
100
AcDbSymbolTableRecord
100
AcDbLinetypeTableRecord
  2
DSH1
 70
     0
  3
CADAM Style2 Type 1 Dashed Line
 72
    65
 73
     2
 40
0.075
 49
0.04
 74
     0
 49
-0.035
 74
     0
  0
LTYPE
  5
32
330
4
100
AcDbSymbolTableRecord
100
AcDbLinetypeTableRecord
  2
DSH2
 70
     0
  3
CADAM Style2 Type 2 Dashed Line
 72
    65
 73
     2
 40
0.15
 49
0.11
 74
     0
 49
-0.04
 74
     0
  0
LTYPE
  5
33
330
4
100
AcDbSymbolTableRecord
100
AcDbLinetypeTableRecord
  2
DSH3
 70
     0
  3
CADAM Style2 Type 3 Dashed Line
 72
    65
 73
     2
 40
0.2
 49
0.15
 74
     0
 49
-0.05
 74
     0
  0
LTYPE
  5
34
330
4
100
AcDbSymbolTableRecord
100
AcDbLinetypeTableRecord
  2
DSH4
 70
     0
  3
CADAM Style2 Type 4 Dashed Line
 72
    65
 73
     2
 40
0.36
 49
0.28
 74
     0
 49
-0.08
 74
     0
  0
LTYPE
  5
35
330
4
100
AcDbSymbolTableRecord
100
AcDbLinetypeTableRecord
  2
DSH5
 70
     0
  3
CADAM Style2 Type 5 Dashed Line
 72
    65
 73
     2
 40
0.47
 49
0.39
 74
     0
 49
-0.08
 74
     0
  0
LTYPE
  5
36
330
4
100
AcDbSymbolTableRecord
100
AcDbLinetypeTableRecord
  2
DSH6
 70
     0
  3
CADAM Style2 Type 6 Dashed Line
 72
    65
 73
     2
 40
0.9
 49
0.8100000000000001
 74
     0
 49
-0.09
 74
     0
  0
LTYPE
  5
37
330
4
100
AcDbSymbolTableRecord
100
AcDbLinetypeTableRecord
  2
PL1
 70
     0
  3
Style 2 Type 1 Phantom Line
 72
    65
 73
     6
 40
1.0
 49
0.6
 74
     0
 49
-0.08
 74
     0
 49
0.08
 74
     0
 49
-0.08
 74
     0
 49
0.08
 74
     0
 49
-0.08
 74
     0
  0
LTYPE
  5
38
330
4
100
AcDbSymbolTableRecord
100
AcDbLinetypeTableRecord
  2
PL2
 70
     0
  3
Style 2 Type 2 Phantom Line
 72
    65
 73
     6
 40
1.08
 49
0.6
 74
     0
 49
-0.08
 74
     0
 49
0.12
 74
     0
 49
-0.08
 74
     0
 49
0.12
 74
     0
 49
-0.08
 74
     0
  0
LTYPE
  5
39
330
4
100
AcDbSymbolTableRecord
100
AcDbLinetypeTableRecord
  2
PL3
 70
     0
  3
Style 2 Type 3 Phantom Line
 72
    65
 73
     6
 40
2.0
 49
1.439999999999999
 74
     0
 49
-0.08
 74
     0
 49
0.16
 74
     0
 49
-0.08
 74
     0
 49
0.16
 74
     0
 49
-0.08
 74
     0
  0
LTYPE
  5
3A
330
4
100
AcDbSymbolTableRecord
100
AcDbLinetypeTableRecord
  2
CL1
 70
     0
  3
CADAM Style 2 Type 1 Center Line
 72
    65
 73
     4
 40
0.7
 49
0.45
 74
     0
 49
-0.06
 74
     0
 49
0.13
 74
     0
 49
-0.06
 74
     0
  0
LTYPE
  5
3B
330
4
100
AcDbSymbolTableRecord
100
AcDbLinetypeTableRecord
  2
CL2
 70
     0
  3
CADAM Style 2 Type 2 Center Line
 72
    65
 73
     4
 40
1.199999999999999
 49
1.01
 74
     0
 49
-0.06
 74
     0
 49
0.11
 74
     0
 49
-0.06
 74
     0
  0
LTYPE
  5
3C
330
4
100
AcDbSymbolTableRecord
100
AcDbLinetypeTableRecord
  2
CL3
 70
     0
  3
CADAM Style 2 Type 3 Center Line
 72
    65
 73
     4
 40
1.199999999999999
 49
0.98
 74
     0
 49
-0.06
 74
     0
 49
0.1
 74
     0
 49
-0.06
 74
     0
  0
LTYPE
  5
3D
330
4
100
AcDbSymbolTableRecord
100
AcDbLinetypeTableRecord
  2
CL4
 70
     0
  3
CADAM Style 2 Type 4 Center Line
 72
    65
 73
     4
 40
2.2
 49
1.929999999999999
 74
     0
 49
-0.07
 74
     0
 49
0.13
 74
     0
 49
-0.07
 74
     0
  0
LTYPE
  5
3E
330
4
100
AcDbSymbolTableRecord
100
AcDbLinetypeTableRecord
  2
CL5
 70
     0
  3
CADAM Style 2 Type 5 Center Line
 72
    65
 73
     4
 40
2.2
 49
1.879999999999999
 74
     0
 49
-0.07
 74
     0
 49
0.18
 74
     0
 49
-0.07
 74
     0
  0
LTYPE
  5
3F
330
4
100
AcDbSymbolTableRecord
100
AcDbLinetypeTableRecord
  2
SBK1
 70
     0
  3
CADAM Style 2 Type 1 SetBack Line
 72
    65
 73
     8
 40
2.7
 49
0.1
 74
     0
 49
-0.08
 74
     0
 49
0.1
 74
     0
 49
-0.8
 74
     0
 49
0.0
 74
     0
 49
0.0
 74
     0
 49
0.0
 74
     0
 49
0.0
 74
     0
  0
LTYPE
  5
40
330
4
100
AcDbSymbolTableRecord
100
AcDbLinetypeTableRecord
  2
SBK2
 70
     0
  3
CADAM Style 2 Type 2 SetBack Line
 72
    65
 73
     8
 40
3.709999999999999
 49
0.13
 74
     0
 49
-0.08
 74
     0
 49
0.13
 74
     0
 49
-0.8
 74
     0
 49
0.0
 74
     0
 49
0.0
 74
     0
 49
0.0
 74
     0
 49
0.0
 74
     0
  0
LTYPE
  5
41
330
4
100
AcDbSymbolTableRecord
100
AcDbLinetypeTableRecord
  2
STCH
 70
     0
  3
CADAM Style2 Stitch Line
 72
    65
 73
     2
 40
0.25
 49
0.0
 74
     0
 49
-0.25
 74
     0
  0
LTYPE
  5
42
330
4
100
AcDbSymbolTableRecord
100
AcDbLinetypeTableRecord
  2
MTCH
 70
     0
  3
CADAM Style2 Match Line
 72
    65
 73
     6
 40
2.0
 49
1.439999999999999
 74
     0
 49
-0.8
 74
     0
 49
0.16
 74
     0
 49
-0.08
 74
     0
 49
0.16
 74
     0
 49
-0.08
 74
     0
  0
LTYPE
  5
43
330
4
100
AcDbSymbolTableRecord
100
AcDbLinetypeTableRecord
  2
SLD
 70
     0
  3
CADAM Solid_EXT2
 72
    65
 73
     0
 40
0.0
  0
ENDTAB
  0
TABLE
  2
LAYER
  5
2
330
0
100
AcDbSymbolTable
 70
     7
  0
LAYER
  5
15
330
2
100
AcDbSymbolTableRecord
100
AcDbLayerTableRecord
  2
0
 70
     0
 62
     7
  6
CONTINUOUS
  0
LAYER
  5
44
330
2
100
AcDbSymbolTableRecord
100
AcDbLayerTableRecord
  2
MO_001_NOSHOW
 70
     1
 62
     7
  6
CONTINUOUS
  0
LAYER
  5
45
330
2
100
AcDbSymbolTableRecord
100
AcDbLayerTableRecord
  2
MO_001_VIEW_PV
 70
     0
 62
     7
  6
CONTINUOUS
  0
LAYER
  5
46
330
2
100
AcDbSymbolTableRecord
100
AcDbLayerTableRecord
  2
OVERLAY_MAP
 70
     1
 62
     7
  6
CONTINUOUS
  0
LAYER
  5
47
330
2
100
AcDbSymbolTableRecord
100
AcDbLayerTableRecord
  2
DITTOS
 70
     0
 62
     7
  6
CONTINUOUS
  0
LAYER
  5
48
330
2
100
AcDbSymbolTableRecord
100
AcDbLayerTableRecord
  2
SYMBOLS
 70
     0
 62
     7
  6
CONTINUOUS
  0
LAYER
  5
49
330
2
100
AcDbSymbolTableRecord
100
AcDbLayerTableRecord
  2
SETS
 70
     0
 62
     7
  6
CONTINUOUS
  0
ENDTAB
  0
TABLE
  2
STYLE
  5
3
330
0
100
AcDbSymbolTable
 70
     1
  0
STYLE
  5
18
330
3
100
AcDbSymbolTableRecord
100
AcDbTextStyleTableRecord
  2
STANDARD
 70
     0
 40
4.1672
 41
1.0
 50
0.0
 71
     0
 42
4.1672
  3
monotxt
  4
BIGFONT
  0
ENDTAB
  0
TABLE
  2
VIEW
  5
5
330
0
100
AcDbSymbolTable
 70
     0
  0
ENDTAB
  0
TABLE
  2
UCS
  5
6
330
0
100
AcDbSymbolTable
 70
     1
  0
UCS
  5
4A
330
6
100
AcDbSymbolTableRecord
100
AcDbUCSTableRecord
  2
MO_001_VIEW_PV_P
 70
     0
 10
0.0
 20
0.0
 30
0.0
 11
1.0
 21
0.0
 31
0.0
 12
-0.0000000002051034
 22
1.0
 32
0.0
  0
ENDTAB
  0
TABLE
  2
APPID
  5
8
330
0
100
AcDbSymbolTable
 70
     1
  0
APPID
  5
17
330
8
100
AcDbSymbolTableRecord
100
AcDbRegAppTableRecord
  2
ACAD
 70
     0
  0
ENDTAB
  0
TABLE
  2
DIMSTYLE
  5
9
330
0
100
AcDbSymbolTable
 70
     1
  0
DIMSTYLE
105
19
102
{ACAD_REACTORS
330
1F9
330
1FB
330
1FD
330
1FF
330
201
330
203
330
205
330
207
330
209
330
20B
330
20D
330
20F
330
211
330
213
330
215
330
217
330
219
330
21B
330
21D
102
}
330
9
100
AcDbSymbolTableRecord
100
AcDbDimStyleTableRecord
  2
STANDARD
 70
     0
  3

  4

  5

  6

  7

 40
1.0
 41
0.18
 42
0.0625
 43
0.38
 44
0.18
 45
0.0
 46
0.0
 47
0.0
 48
0.0
140
0.18
141
0.09
142
0.0
143
25.4
144
1.0
145
0.0
146
1.0
147
0.09
 71
     0
 72
     0
 73
     1
 74
     1
 75
     0
 76
     0
 77
     0
 78
     0
170
     0
171
     2
172
     0
173
     0
174
     0
175
     0
176
     0
177
     0
178
     0
270
     2
271
     4
272
     4
273
     2
274
     2
340
18
275
     0
280
     0
281
     0
282
     0
283
     1
284
     0
285
     0
286
     0
287
     3
288
     0
  0
ENDTAB
  0
TABLE
  2
BLOCK_RECORD
  5
C
330
0
100
AcDbSymbolTable
 70
    19
  0
BLOCK_RECORD
  5
1E
102
{ACAD_XDICTIONARY
360
2ED
102
}
330
C
100
AcDbSymbolTableRecord
100
AcDbBlockTableRecord
  2
*MODEL_SPACE
  0
BLOCK_RECORD
  5
1F
102
{ACAD_XDICTIONARY
360
2EF
102
}
330
C
100
AcDbSymbolTableRecord
100
AcDbBlockTableRecord
  2
*PAPER_SPACE
  0
BLOCK_RECORD
  5
1F8
330
C
100
AcDbSymbolTableRecord
100
AcDbBlockTableRecord
  2
*D0
  0
BLOCK_RECORD
  5
1FA
330
C
100
AcDbSymbolTableRecord
100
AcDbBlockTableRecord
  2
*D1
  0
BLOCK_RECORD
  5
1FC
330
C
100
AcDbSymbolTableRecord
100
AcDbBlockTableRecord
  2
*D2
  0
BLOCK_RECORD
  5
1FE
330
C
100
AcDbSymbolTableRecord
100
AcDbBlockTableRecord
  2
*D3
  0
BLOCK_RECORD
  5
200
330
C
100
AcDbSymbolTableRecord
100
AcDbBlockTableRecord
  2
*D4
  0
BLOCK_RECORD
  5
202
330
C
100
AcDbSymbolTableRecord
100
AcDbBlockTableRecord
  2
*D5
  0
BLOCK_RECORD
  5
204
330
C
100
AcDbSymbolTableRecord
100
AcDbBlockTableRecord
  2
*D6
  0
BLOCK_RECORD
  5
206
330
C
100
AcDbSymbolTableRecord
100
AcDbBlockTableRecord
  2
*D7
  0
BLOCK_RECORD
  5
208
330
C
100
AcDbSymbolTableRecord
100
AcDbBlockTableRecord
  2
*D8
  0
BLOCK_RECORD
  5
20A
330
C
100
AcDbSymbolTableRecord
100
AcDbBlockTableRecord
  2
*D9
  0
BLOCK_RECORD
  5
20C
330
C
100
AcDbSymbolTableRecord
100
AcDbBlockTableRecord
  2
*D10
  0
BLOCK_RECORD
  5
20E
330
C
100
AcDbSymbolTableRecord
100
AcDbBlockTableRecord
  2
*D11
  0
BLOCK_RECORD
  5
210
330
C
100
AcDbSymbolTableRecord
100
AcDbBlockTableRecord
  2
*D12
  0
BLOCK_RECORD
  5
212
330
C
100
AcDbSymbolTableRecord
100
AcDbBlockTableRecord
  2
*D13
  0
BLOCK_RECORD
  5
214
330
C
100
AcDbSymbolTableRecord
100
AcDbBlockTableRecord
  2
*D14
  0
BLOCK_RECORD
  5
216
330
C
100
AcDbSymbolTableRecord
100
AcDbBlockTableRecord
  2
*D15
  0
BLOCK_RECORD
  5
218
330
C
100
AcDbSymbolTableRecord
100
AcDbBlockTableRecord
  2
*D16
  0
BLOCK_RECORD
  5
21A
330
C
100
AcDbSymbolTableRecord
100
AcDbBlockTableRecord
  2
*D17
  0
BLOCK_RECORD
  5
21C
330
C
100
AcDbSymbolTableRecord
100
AcDbBlockTableRecord
  2
*D18
  0
ENDTAB
  0
ENDSEC
  0
SECTION
  2
BLOCKS
  0
BLOCK
  5
E
330
1E
100
AcDbEntity
  8
0
100
AcDbBlockBegin
  2
*MODEL_SPACE
 70
     0
 10
0.0
 20
0.0
 30
0.0
  3
*MODEL_SPACE
  1

  0
ENDBLK
  5
F
330
1E
100
AcDbEntity
  8
0
100
AcDbBlockEnd
  0
BLOCK
  5
10
330
1F
100
AcDbEntity
 67
     1
  8
0
100
AcDbBlockBegin
  2
*PAPER_SPACE
 70
     0
 10
0.0
 20
0.0
 30
0.0
  3
*PAPER_SPACE
  1

  0
ENDBLK
  5
11
330
1F
100
AcDbEntity
 67
     1
  8
0
100
AcDbBlockEnd
  0
BLOCK
  5
224
330
1F8
100
AcDbEntity
  8
0
100
AcDbBlockBegin
  2
*D0
 70
     1
 10
0.0
 20
0.0
 30
0.0
  3
*D0
  1

  0
LINE
  5
225
330
1F8
100
AcDbEntity
  8
MO_001_VIEW_PV
  6
BYBLOCK
100
AcDbLine
 10
-15.32917399999999
 20
-1.341641
 30
0.0
 11
-16.670815
 21
1.341639999999999
 31
0.0
  0
LINE
  5
226
330
1F8
100
AcDbEntity
  8
MO_001_VIEW_PV
  6
BYBLOCK
100
AcDbLine
 10
-15.32917399999999
 20
-1.341641
 30
0.0
 11
-12.489366
 21
-7.021252999999999
 31
0.0
  0
LINE
  5
227
330
1F8
100
AcDbEntity
  8
MO_001_VIEW_PV
  6
BYBLOCK
100
AcDbLine
 10
-16.670815
 20
1.341639999999999
 30
0.0
 11
-19.510623
 21
7.021250999999999
 31
0.0
  0
SOLID
  5
228
330
1F8
100
AcDbEntity
  8
MO_001_VIEW_PV
  6
BYBLOCK
100
AcDbTrace
 10
-13.323293
 20
-4.048627999999999
 30
0.0
 11
-15.101989
 21
-1.796009999999999
 31
0.0
 12
-14.36711
 22
-4.570536999999999
 32
0.0
 13
-14.36711
 23
-4.570536999999999
 33
0.0
  0
SOLID
  5
229
330
1F8
100
AcDbEntity
  8
MO_001_VIEW_PV
  6
BYBLOCK
100
AcDbTrace
 10
-18.676696
 20
4.048626999999999
 30
0.0
 11
-16.89799999999999
 21
1.796008999999999
 31
0.0
 12
-17.632878
 22
4.570535999999999
 32
0.0
 13
-17.632878
 23
4.570535999999999
 33
0.0
  0
LINE
  5
22A
330
1F8
100
AcDbEntity
  8
MO_001_VIEW_PV
  6
BYBLOCK
100
AcDbLine
 10
-16.670815
 20
1.341639999999999
 30
0.0
 11
-23.998985
 21
15.997969
 31
0.0
  0
ENDBLK
  5
22B
330
1F8
100
AcDbEntity
  8
0
100
AcDbBlockEnd
  0
BLOCK
  5
22C
330
1FA
100
AcDbEntity
  8
0
100
AcDbBlockBegin
  2
*D1
 70
     1
 10
0.0
 20
0.0
 30
0.0
  3
*D1
  1

  0
TEXT
  5
22D
330
1FA
100
AcDbEntity
  8
MO_001_VIEW_PV
  6
BYBLOCK
100
AcDbText
 10
-20.267117
 20
21.75
 30
0.0
 40
3.0
  1
(7)
100
AcDbText
  0
LINE
  5
22E
330
1FA
100
AcDbEntity
  8
MO_001_VIEW_PV
  6
BYBLOCK
100
AcDbLine
 10
0.0
 20
21.0
 30
0.0
 11
-6.999994
 21
21.0
 31
0.0
  0
LINE
  5
22F
330
1FA
100
AcDbEntity
  8
MO_001_VIEW_PV
  6
BYBLOCK
100
AcDbLine
 10
0.0
 20
21.0
 30
0.0
 11
6.349999999999999
 21
21.0
 31
0.0
  0
LINE
  5
230
330
1FA
100
AcDbEntity
  8
MO_001_VIEW_PV
  6
BYBLOCK
100
AcDbLine
 10
-6.999994
 20
21.0
 30
0.0
 11
-13.349994
 21
21.0
 31
0.0
  0
SOLID
  5
231
330
1FA
100
AcDbEntity
  8
MO_001_VIEW_PV
  6
BYBLOCK
100
AcDbTrace
 10
3.318259999999999
 20
21.58351199999999
 30
0.0
 11
0.508
 21
21.0
 31
0.0
 12
3.318259999999999
 22
20.416488
 32
0.0
 13
3.318259999999999
 23
20.416488
 33
0.0
  0
SOLID
  5
232
330
1FA
100
AcDbEntity
  8
MO_001_VIEW_PV
  6
BYBLOCK
100
AcDbTrace
 10
-10.318254
 20
20.416488
 30
0.0
 11
-7.507994
 21
21.0
 31
0.0
 12
-10.318254
 22
21.58351199999999
 32
0.0
 13
-10.318254
 23
21.58351199999999
 33
0.0
  0
LINE
  5
233
330
1FA
100
AcDbEntity
  8
MO_001_VIEW_PV
  6
BYBLOCK
100
AcDbLine
 10
0.0
 20
11.0
 30
0.0
 11
0.0
 21
23.28599899999999
 31
0.0
  0
LINE
  5
234
330
1FA
100
AcDbEntity
  8
MO_001_VIEW_PV
  6
BYBLOCK
100
AcDbLine
 10
-6.999994
 20
9.781447999999999
 30
0.0
 11
-6.999994
 21
23.28599899999999
 31
0.0
  0
LINE
  5
235
330
1FA
100
AcDbEntity
  8
MO_001_VIEW_PV
  6
BYBLOCK
100
AcDbLine
 10
-6.999994
 20
21.0
 30
0.0
 11
-21.231403
 21
21.0
 31
0.0
  0
ENDBLK
  5
236
330
1FA
100
AcDbEntity
  8
0
100
AcDbBlockEnd
  0
BLOCK
  5
237
330
1FC
100
AcDbEntity
  8
0
100
AcDbBlockBegin
  2
*D2
 70
     1
 10
0.0
 20
0.0
 30
0.0
  3
*D2
  1

  0
TEXT
  5
238
330
1FC
100
AcDbEntity
  8
MO_001_VIEW_PV
  6
BYBLOCK
100
AcDbText
 10
-16.28571
 20
29.625
 30
0.0
 40
1.5
  1
%%P0.3
100
AcDbText
  0
TEXT
  5
239
330
1FC
100
AcDbEntity
  8
MO_001_VIEW_PV
  6
BYBLOCK
100
AcDbText
 10
-22.071425
 20
27.75
 30
0.0
 40
3.0
  1
33
100
AcDbText
  0
LINE
  5
23A
330
1FC
100
AcDbEntity
  8
MO_001_VIEW_PV
  6
BYBLOCK
100
AcDbLine
 10
0.0
 20
27.0
 30
0.0
 11
-32.999992
 21
27.0
 31
0.0
  0
SOLID
  5
23B
330
1FC
100
AcDbEntity
  8
MO_001_VIEW_PV
  6
BYBLOCK
100
AcDbTrace
 10
-3.318259999999999
 20
26.416488
 30
0.0
 11
-0.508
 21
27.0
 31
0.0
 12
-3.318259999999999
 22
27.58351199999999
 32
0.0
 13
-3.318259999999999
 23
27.58351199999999
 33
0.0
  0
SOLID
  5
23C
330
1FC
100
AcDbEntity
  8
MO_001_VIEW_PV
  6
BYBLOCK
100
AcDbTrace
 10
-29.681732
 20
27.58351199999999
 30
0.0
 11
-32.49199199999999
 21
27.0
 31
0.0
 12
-29.681732
 22
26.416488
 32
0.0
 13
-29.681732
 23
26.416488
 33
0.0
  0
LINE
  5
23D
330
1FC
100
AcDbEntity
  8
MO_001_VIEW_PV
  6
BYBLOCK
100
AcDbLine
 10
0.0
 20
11.0
 30
0.0
 11
0.0
 21
29.285999
 31
0.0
  0
LINE
  5
23E
330
1FC
100
AcDbEntity
  8
MO_001_VIEW_PV
  6
BYBLOCK
100
AcDbLine
 10
-32.999992
 20
5.577348999999999
 30
0.0
 11
-32.999992
 21
29.285999
 31
0.0
  0
ENDBLK
  5
23F
330
1FC
100
AcDbEntity
  8
0
100
AcDbBlockEnd
  0
BLOCK
  5
240
330
1FE
100
AcDbEntity
  8
0
100
AcDbBlockBegin
  2
*D3
 70
     1
 10
0.0
 20
0.0
 30
0.0
  3
*D3
  1

  0
TEXT
  5
241
330
1FE
100
AcDbEntity
  8
MO_001_VIEW_PV
  6
BYBLOCK
100
AcDbText
 10
17.25
 20
7.815844999999999
 30
0.0
 40
3.0
  1
(%%C4.5)
 50
90.0
100
AcDbText
  0
LINE
  5
242
330
1FE
100
AcDbEntity
  8
MO_001_VIEW_PV
  6
BYBLOCK
100
AcDbLine
 10
18.0
 20
2.0
 30
0.0
 11
18.0
 21
-2.0
 31
0.0
  0
LINE
  5
243
330
1FE
100
AcDbEntity
  8
MO_001_VIEW_PV
  6
BYBLOCK
100
AcDbLine
 10
18.0
 20
2.0
 30
0.0
 11
18.0
 21
8.349999999999999
 31
0.0
  0
LINE
  5
244
330
1FE
100
AcDbEntity
  8
MO_001_VIEW_PV
  6
BYBLOCK
100
AcDbLine
 10
18.0
 20
-2.0
 30
0.0
 11
18.0
 21
-8.349999999999999
 31
0.0
  0
SOLID
  5
245
330
1FE
100
AcDbEntity
  8
MO_001_VIEW_PV
  6
BYBLOCK
100
AcDbTrace
 10
17.416488
 20
5.318259999999999
 30
0.0
 11
18.0
 21
2.508
 31
0.0
 12
18.58351199999999
 22
5.318259999999999
 32
0.0
 13
18.58351199999999
 23
5.318259999999999
 33
0.0
  0
SOLID
  5
246
330
1FE
100
AcDbEntity
  8
MO_001_VIEW_PV
  6
BYBLOCK
100
AcDbTrace
 10
18.58351199999999
 20
-5.318259999999999
 30
0.0
 11
18.0
 21
-2.508
 31
0.0
 12
17.416488
 22
-5.318259999999999
 32
0.0
 13
17.416488
 23
-5.318259999999999
 33
0.0
  0
LINE
  5
247
330
1FE
100
AcDbEntity
  8
MO_001_VIEW_PV
  6
BYBLOCK
100
AcDbLine
 10
0.9
 20
2.0
 30
0.0
 11
20.285999
 21
2.0
 31
0.0
  0
LINE
  5
248
330
1FE
100
AcDbEntity
  8
MO_001_VIEW_PV
  6
BYBLOCK
100
AcDbLine
 10
0.9
 20
-2.0
 30
0.0
 11
20.285999
 21
-2.0
 31
0.0
  0
LINE
  5
249
330
1FE
100
AcDbEntity
  8
MO_001_VIEW_PV
  6
BYBLOCK
100
AcDbLine
 10
18.0
 20
25.922989
 30
0.0
 11
18.0
 21
2.0
 31
0.0
  0
ENDBLK
  5
24A
330
1FE
100
AcDbEntity
  8
0
100
AcDbBlockEnd
  0
BLOCK
  5
24B
330
200
100
AcDbEntity
  8
0
100
AcDbBlockBegin
  2
*D4
 70
     1
 10
0.0
 20
0.0
 30
0.0
  3
*D4
  1

  0
TEXT
  5
24C
330
200
100
AcDbEntity
  8
MO_001_VIEW_PV
  6
BYBLOCK
100
AcDbText
 10
21.375
 20
0.7240820000000001
 30
0.0
 40
1.5
  1
%%P0.2
 50
90.0
100
AcDbText
  0
TEXT
  5
24D
330
200
100
AcDbEntity
  8
MO_001_VIEW_PV
  6
BYBLOCK
100
AcDbText
 10
23.25
 20
-5.061632
 30
0.0
 40
3.0
  1
15
 50
90.0
100
AcDbText
  0
LINE
  5
24E
330
200
100
AcDbEntity
  8
MO_001_VIEW_PV
  6
BYBLOCK
100
AcDbLine
 10
24.0
 20
7.5
 30
0.0
 11
24.0
 21
-7.5
 31
0.0
  0
LINE
  5
24F
330
200
100
AcDbEntity
  8
MO_001_VIEW_PV
  6
BYBLOCK
100
AcDbLine
 10
24.0
 20
7.5
 30
0.0
 11
24.0
 21
13.85
 31
0.0
  0
LINE
  5
250
330
200
100
AcDbEntity
  8
MO_001_VIEW_PV
  6
BYBLOCK
100
AcDbLine
 10
24.0
 20
-7.5
 30
0.0
 11
24.0
 21
-13.85
 31
0.0
  0
SOLID
  5
251
330
200
100
AcDbEntity
  8
MO_001_VIEW_PV
  6
BYBLOCK
100
AcDbTrace
 10
23.416488
 20
10.81826
 30
0.0
 11
24.0
 21
8.007999999999999
 31
0.0
 12
24.583512
 22
10.81826
 32
0.0
 13
24.583512
 23
10.81826
 33
0.0
  0
SOLID
  5
252
330
200
100
AcDbEntity
  8
MO_001_VIEW_PV
  6
BYBLOCK
100
AcDbTrace
 10
24.583512
 20
-10.81826
 30
0.0
 11
24.0
 21
-8.007999999999999
 31
0.0
 12
23.416488
 22
-10.81826
 32
0.0
 13
23.416488
 23
-10.81826
 33
0.0
  0
LINE
  5
253
330
200
100
AcDbEntity
  8
MO_001_VIEW_PV
  6
BYBLOCK
100
AcDbLine
 10
-4.174868
 20
7.5
 30
0.0
 11
26.285999
 21
7.5
 31
0.0
  0
LINE
  5
254
330
200
100
AcDbEntity
  8
MO_001_VIEW_PV
  6
BYBLOCK
100
AcDbLine
 10
-3.82808
 20
-7.5
 30
0.0
 11
26.285999
 21
-7.5
 31
0.0
  0
ENDBLK
  5
255
330
200
100
AcDbEntity
  8
0
100
AcDbBlockEnd
  0
BLOCK
  5
256
330
202
100
AcDbEntity
  8
0
100
AcDbBlockBegin
  2
*D5
 70
     1
 10
0.0
 20
0.0
 30
0.0
  3
*D5
  1

  0
LINE
  5
257
330
202
100
AcDbEntity
  8
MO_001_VIEW_PV
  6
BYBLOCK
100
AcDbLine
 10
-40.19283499999999
 20
1.264307
 30
0.0
 11
-41.80715099999999
 21
-1.264307999999999
 31
0.0
  0
LINE
  5
258
330
202
100
AcDbEntity
  8
MO_001_VIEW_PV
  6
BYBLOCK
100
AcDbLine
 10
-40.19283499999999
 20
1.264307
 30
0.0
 11
-36.77585
 21
6.616569
 31
0.0
  0
LINE
  5
259
330
202
100
AcDbEntity
  8
MO_001_VIEW_PV
  6
BYBLOCK
100
AcDbLine
 10
-41.80715099999999
 20
-1.264307999999999
 30
0.0
 11
-45.224136
 21
-6.616571
 31
0.0
  0
SOLID
  5
25A
330
202
100
AcDbEntity
  8
MO_001_VIEW_PV
  6
BYBLOCK
100
AcDbTrace
 10
-38.899081
 20
4.37518
 30
0.0
 11
-39.919477
 21
1.692486999999999
 31
0.0
 12
-37.915425
 22
3.747195999999999
 32
0.0
 13
-37.915425
 23
3.747195999999999
 33
0.0
  0
SOLID
  5
25B
330
202
100
AcDbEntity
  8
MO_001_VIEW_PV
  6
BYBLOCK
100
AcDbTrace
 10
-43.100905
 20
-4.375181999999999
 30
0.0
 11
-42.08051
 21
-1.692488999999999
 31
0.0
 12
-44.084561
 22
-3.747198
 32
0.0
 13
-44.084561
 23
-3.747198
 33
0.0
  0
LINE
  5
25C
330
202
100
AcDbEntity
  8
MO_001_VIEW_PV
  6
BYBLOCK
100
AcDbLine
 10
-41.80715099999999
 20
-1.264307999999999
 30
0.0
 11
-51.21847
 21
-16.005913
 31
0.0
  0
ENDBLK
  5
25D
330
202
100
AcDbEntity
  8
0
100
AcDbBlockEnd
  0
BLOCK
  5
25E
330
204
100
AcDbEntity
  8
0
100
AcDbBlockBegin
  2
*D6
 70
     1
 10
0.0
 20
0.0
 30
0.0
  3
*D6
  1

  0
TEXT
  5
25F
330
204
100
AcDbEntity
  8
MO_001_VIEW_PV
  6
BYBLOCK
100
AcDbText
 10
-56.625
 20
14.46428599999999
 30
0.0
 40
1.5
  1
%%P0.05
 50
90.0
100
AcDbText
  0
TEXT
  5
260
330
204
100
AcDbEntity
  8
MO_001_VIEW_PV
  6
BYBLOCK
100
AcDbText
 10
-54.75
 20
8.678570999999999
 30
0.0
 40
3.0
  1
%%C8
 50
90.0
100
AcDbText
  0
LINE
  5
261
330
204
100
AcDbEntity
  8
MO_001_VIEW_PV
  6
BYBLOCK
100
AcDbLine
 10
-54.0
 20
-4.0
 30
0.0
 11
-54.0
 21
4.0
 31
0.0
  0
LINE
  5
262
330
204
100
AcDbEntity
  8
MO_001_VIEW_PV
  6
BYBLOCK
100
AcDbLine
 10
-54.0
 20
-4.0
 30
0.0
 11
-54.0
 21
-10.34999999999999
 31
0.0
  0
LINE
  5
263
330
204
100
AcDbEntity
  8
MO_001_VIEW_PV
  6
BYBLOCK
100
AcDbLine
 10
-54.0
 20
4.0
 30
0.0
 11
-54.0
 21
10.34999999999999
 31
0.0
  0
SOLID
  5
264
330
204
100
AcDbEntity
  8
MO_001_VIEW_PV
  6
BYBLOCK
100
AcDbTrace
 10
-53.416488
 20
-7.31826
 30
0.0
 11
-54.0
 21
-4.508
 31
0.0
 12
-54.583512
 22
-7.31826
 32
0.0
 13
-54.583512
 23
-7.31826
 33
0.0
  0
SOLID
  5
265
330
204
100
AcDbEntity
  8
MO_001_VIEW_PV
  6
BYBLOCK
100
AcDbTrace
 10
-54.583512
 20
7.31826
 30
0.0
 11
-54.0
 21
4.508
 31
0.0
 12
-53.416488
 22
7.31826
 32
0.0
 13
-53.416488
 23
7.31826
 33
0.0
  0
LINE
  5
266
330
204
100
AcDbEntity
  8
MO_001_VIEW_PV
  6
BYBLOCK
100
AcDbLine
 10
-36.0
 20
-4.0
 30
0.0
 11
-56.285999
 21
-4.0
 31
0.0
  0
LINE
  5
267
330
204
100
AcDbEntity
  8
MO_001_VIEW_PV
  6
BYBLOCK
100
AcDbLine
 10
-36.0
 20
4.0
 30
0.0
 11
-56.285999
 21
4.0
 31
0.0
  0
LINE
  5
268
330
204
100
AcDbEntity
  8
MO_001_VIEW_PV
  6
BYBLOCK
100
AcDbLine
 10
-54.0
 20
4.0
 30
0.0
 11
-54.0
 21
22.285713
 31
0.0
  0
ENDBLK
  5
269
330
204
100
AcDbEntity
  8
0
100
AcDbBlockEnd
  0
BLOCK
  5
26A
330
206
100
AcDbEntity
  8
0
100
AcDbBlockBegin
  2
*D7
 70
     1
 10
0.0
 20
0.0
 30
0.0
  3
*D7
  1

  0
TEXT
  5
26B
330
206
100
AcDbEntity
  8
MO_001_VIEW_PV
  6
BYBLOCK
100
AcDbText
 10
4.928570999999999
 20
-20.24999999999999
 30
0.0
 40
3.0
  1
(0.9)
100
AcDbText
  0
LINE
  5
26C
330
206
100
AcDbEntity
  8
MO_001_VIEW_PV
  6
BYBLOCK
100
AcDbLine
 10
0.0
 20
-21.0
 30
0.0
 11
0.9
 21
-21.0
 31
0.0
  0
LINE
  5
26D
330
206
100
AcDbEntity
  8
MO_001_VIEW_PV
  6
BYBLOCK
100
AcDbLine
 10
0.0
 20
-21.0
 30
0.0
 11
-6.349999999999999
 21
-21.0
 31
0.0
  0
LINE
  5
26E
330
206
100
AcDbEntity
  8
MO_001_VIEW_PV
  6
BYBLOCK
100
AcDbLine
 10
0.9
 20
-21.0
 30
0.0
 11
7.25
 21
-21.0
 31
0.0
  0
SOLID
  5
26F
330
206
100
AcDbEntity
  8
MO_001_VIEW_PV
  6
BYBLOCK
100
AcDbTrace
 10
-3.318259999999999
 20
-21.58351199999999
 30
0.0
 11
-0.508
 21
-21.0
 31
0.0
 12
-3.318259999999999
 22
-20.416488
 32
0.0
 13
-3.318259999999999
 23
-20.416488
 33
0.0
  0
SOLID
  5
270
330
206
100
AcDbEntity
  8
MO_001_VIEW_PV
  6
BYBLOCK
100
AcDbTrace
 10
4.218259999999999
 20
-20.416488
 30
0.0
 11
1.408
 21
-21.0
 31
0.0
 12
4.218259999999999
 22
-21.58351199999999
 32
0.0
 13
4.218259999999999
 23
-21.58351199999999
 33
0.0
  0
LINE
  5
271
330
206
100
AcDbEntity
  8
MO_001_VIEW_PV
  6
BYBLOCK
100
AcDbLine
 10
0.0
 20
-11.0
 30
0.0
 11
0.0
 21
-23.28599899999999
 31
0.0
  0
LINE
  5
272
330
206
100
AcDbEntity
  8
MO_001_VIEW_PV
  6
BYBLOCK
100
AcDbLine
 10
0.9
 20
-2.0
 30
0.0
 11
0.9
 21
-23.28599899999999
 31
0.0
  0
LINE
  5
273
330
206
100
AcDbEntity
  8
MO_001_VIEW_PV
  6
BYBLOCK
100
AcDbLine
 10
0.9
 20
-21.0
 30
0.0
 11
20.035715
 21
-21.0
 31
0.0
  0
ENDBLK
  5
274
330
206
100
AcDbEntity
  8
0
100
AcDbBlockEnd
  0
BLOCK
  5
275
330
208
100
AcDbEntity
  8
0
100
AcDbBlockBegin
  2
*D8
 70
     1
 10
0.0
 20
0.0
 30
0.0
  3
*D8
  1

  0
LINE
  5
276
330
208
100
AcDbEntity
  8
MO_001_VIEW_PV
  6
BYBLOCK
100
AcDbLine
 10
0.0
 20
-27.0
 30
0.0
 11
47.0
 21
-27.0
 31
0.0
  0
SOLID
  5
277
330
208
100
AcDbEntity
  8
MO_001_VIEW_PV
  6
BYBLOCK
100
AcDbTrace
 10
3.318259999999999
 20
-26.416488
 30
0.0
 11
0.508
 21
-27.0
 31
0.0
 12
3.318259999999999
 22
-27.58351199999999
 32
0.0
 13
3.318259999999999
 23
-27.58351199999999
 33
0.0
  0
SOLID
  5
278
330
208
100
AcDbEntity
  8
MO_001_VIEW_PV
  6
BYBLOCK
100
AcDbTrace
 10
43.68174
 20
-27.58351199999999
 30
0.0
 11
46.49199999999999
 21
-27.0
 31
0.0
 12
43.68174
 22
-26.416488
 32
0.0
 13
43.68174
 23
-26.416488
 33
0.0
  0
LINE
  5
279
330
208
100
AcDbEntity
  8
MO_001_VIEW_PV
  6
BYBLOCK
100
AcDbLine
 10
0.0
 20
-11.0
 30
0.0
 11
0.0
 21
-29.285999
 31
0.0
  0
LINE
  5
27A
330
208
100
AcDbEntity
  8
MO_001_VIEW_PV
  6
BYBLOCK
100
AcDbLine
 10
47.0
 20
-13.24000199999999
 30
0.0
 11
47.0
 21
-29.285999
 31
0.0
  0
TEXT
  5
27B
330
208
100
AcDbEntity
  8
MO_001_VIEW_PV
  6
BYBLOCK
100
AcDbText
 10
15.107145
 20
-26.25
 30
0.0
 40
3.0
  1
長さ240以上
100
AcDbText
  0
ENDBLK
  5
27C
330
208
100
AcDbEntity
  8
0
100
AcDbBlockEnd
  0
BLOCK
  5
27D
330
20A
100
AcDbEntity
  8
0
100
AcDbBlockBegin
  2
*D9
 70
     1
 10
0.0
 20
0.0
 30
0.0
  3
*D9
  1

  0
TEXT
  5
27E
330
20A
100
AcDbEntity
  8
MO_001_VIEW_PV
  6
BYBLOCK
100
AcDbText
 10
-54.07402900000001
 20
-24.375
 30
0.0
 40
1.5
  1
%%P0.2
100
AcDbText
  0
TEXT
  5
27F
330
20A
100
AcDbEntity
  8
MO_001_VIEW_PV
  6
BYBLOCK
100
AcDbText
 10
-56.859743
 20
-26.25
 30
0.0
 40
3.0
  1
5
100
AcDbText
  0
LINE
  5
280
330
20A
100
AcDbEntity
  8
MO_001_VIEW_PV
  6
BYBLOCK
100
AcDbLine
 10
-45.999992
 20
-27.0
 30
0.0
 11
-40.999992
 21
-27.0
 31
0.0
  0
LINE
  5
281
330
20A
100
AcDbEntity
  8
MO_001_VIEW_PV
  6
BYBLOCK
100
AcDbLine
 10
-45.999992
 20
-27.0
 30
0.0
 11
-52.349992
 21
-27.0
 31
0.0
  0
LINE
  5
282
330
20A
100
AcDbEntity
  8
MO_001_VIEW_PV
  6
BYBLOCK
100
AcDbLine
 10
-40.999992
 20
-27.0
 30
0.0
 11
-34.64999199999999
 21
-27.0
 31
0.0
  0
SOLID
  5
283
330
20A
100
AcDbEntity
  8
MO_001_VIEW_PV
  6
BYBLOCK
100
AcDbTrace
 10
-49.318252
 20
-27.58351199999999
 30
0.0
 11
-46.507992
 21
-27.0
 31
0.0
 12
-49.318252
 22
-26.416488
 32
0.0
 13
-49.318252
 23
-26.416488
 33
0.0
  0
SOLID
  5
284
330
20A
100
AcDbEntity
  8
MO_001_VIEW_PV
  6
BYBLOCK
100
AcDbTrace
 10
-37.681732
 20
-26.416488
 30
0.0
 11
-40.49199199999999
 21
-27.0
 31
0.0
 12
-37.681732
 22
-27.58351199999999
 32
0.0
 13
-37.681732
 23
-27.58351199999999
 33
0.0
  0
LINE
  5
285
330
20A
100
AcDbEntity
  8
MO_001_VIEW_PV
  6
BYBLOCK
100
AcDbLine
 10
-45.999992
 20
-3.5
 30
0.0
 11
-45.999992
 21
-29.285999
 31
0.0
  0
LINE
  5
286
330
20A
100
AcDbEntity
  8
MO_001_VIEW_PV
  6
BYBLOCK
100
AcDbLine
 10
-40.999992
 20
-2.776908999999999
 30
0.0
 11
-40.999992
 21
-29.285999
 31
0.0
  0
LINE
  5
287
330
20A
100
AcDbEntity
  8
MO_001_VIEW_PV
  6
BYBLOCK
100
AcDbLine
 10
-57.824028
 20
-27.0
 30
0.0
 11
-45.999992
 21
-27.0
 31
0.0
  0
ENDBLK
  5
288
330
20A
100
AcDbEntity
  8
0
100
AcDbBlockEnd
  0
BLOCK
  5
289
330
20C
100
AcDbEntity
  8
0
100
AcDbBlockBegin
  2
*D10
 70
     1
 10
0.0
 20
0.0
 30
0.0
  3
*D10
  1

  0
TEXT
  5
28A
330
20C
100
AcDbEntity
  8
MO_001_VIEW_PV
  6
BYBLOCK
100
AcDbText
 10
-31.982926
 20
-24.375
 30
0.0
 40
1.5
  1
%%P0.5
100
AcDbText
  0
TEXT
  5
28B
330
20C
100
AcDbEntity
  8
MO_001_VIEW_PV
  6
BYBLOCK
100
AcDbText
 10
-37.76864099999999
 20
-26.25
 30
0.0
 40
3.0
  1
16
100
AcDbText
  0
LINE
  5
28C
330
20C
100
AcDbEntity
  8
MO_001_VIEW_PV
  6
BYBLOCK
100
AcDbLine
 10
-24.999994
 20
-27.0
 30
0.0
 11
-40.999992
 21
-27.0
 31
0.0
  0
SOLID
  5
28D
330
20C
100
AcDbEntity
  8
MO_001_VIEW_PV
  6
BYBLOCK
100
AcDbTrace
 10
-28.31825399999999
 20
-27.58351199999999
 30
0.0
 11
-25.507994
 21
-27.0
 31
0.0
 12
-28.31825399999999
 22
-26.416488
 32
0.0
 13
-28.31825399999999
 23
-26.416488
 33
0.0
  0
SOLID
  5
28E
330
20C
100
AcDbEntity
  8
MO_001_VIEW_PV
  6
BYBLOCK
100
AcDbTrace
 10
-37.681732
 20
-26.416488
 30
0.0
 11
-40.49199199999999
 21
-27.0
 31
0.0
 12
-37.681732
 22
-27.58351199999999
 32
0.0
 13
-37.681732
 23
-27.58351199999999
 33
0.0
  0
LINE
  5
28F
330
20C
100
AcDbEntity
  8
MO_001_VIEW_PV
  6
BYBLOCK
100
AcDbLine
 10
-24.999994
 20
-10.05570599999999
 30
0.0
 11
-24.999994
 21
-29.285999
 31
0.0
  0
LINE
  5
290
330
20C
100
AcDbEntity
  8
MO_001_VIEW_PV
  6
BYBLOCK
100
AcDbLine
 10
-40.999992
 20
-2.776908999999999
 30
0.0
 11
-40.999992
 21
-29.285999
 31
0.0
  0
ENDBLK
  5
291
330
20C
100
AcDbEntity
  8
0
100
AcDbBlockEnd
  0
BLOCK
  5
292
330
20E
100
AcDbEntity
  8
0
100
AcDbBlockBegin
  2
*D11
 70
     1
 10
0.0
 20
0.0
 30
0.0
  3
*D11
  1

  0
TEXT
  5
293
330
20E
100
AcDbEntity
  8
MO_001_VIEW_PV
  6
BYBLOCK
100
AcDbText
 10
-14.785714
 20
-24.375
 30
0.0
 40
1.5
  1
%%P0.2
100
AcDbText
  0
TEXT
  5
294
330
20E
100
AcDbEntity
  8
MO_001_VIEW_PV
  6
BYBLOCK
100
AcDbText
 10
-20.571429
 20
-26.25
 30
0.0
 40
3.0
  1
18
100
AcDbText
  0
LINE
  5
295
330
20E
100
AcDbEntity
  8
MO_001_VIEW_PV
  6
BYBLOCK
100
AcDbLine
 10
-24.999994
 20
-27.0
 30
0.0
 11
-6.999994
 21
-27.0
 31
0.0
  0
SOLID
  5
296
330
20E
100
AcDbEntity
  8
MO_001_VIEW_PV
  6
BYBLOCK
100
AcDbTrace
 10
-21.681734
 20
-26.416488
 30
0.0
 11
-24.491994
 21
-27.0
 31
0.0
 12
-21.681734
 22
-27.58351199999999
 32
0.0
 13
-21.681734
 23
-27.58351199999999
 33
0.0
  0
SOLID
  5
297
330
20E
100
AcDbEntity
  8
MO_001_VIEW_PV
  6
BYBLOCK
100
AcDbTrace
 10
-10.318254
 20
-27.58351199999999
 30
0.0
 11
-7.507994
 21
-27.0
 31
0.0
 12
-10.318254
 22
-26.416488
 32
0.0
 13
-10.318254
 23
-26.416488
 33
0.0
  0
LINE
  5
298
330
20E
100
AcDbEntity
  8
MO_001_VIEW_PV
  6
BYBLOCK
100
AcDbLine
 10
-24.999994
 20
-10.05570599999999
 30
0.0
 11
-24.999994
 21
-29.285999
 31
0.0
  0
LINE
  5
299
330
20E
100
AcDbEntity
  8
MO_001_VIEW_PV
  6
BYBLOCK
100
AcDbLine
 10
-6.999994
 20
-9.994480000000001
 30
0.0
 11
-6.999994
 21
-29.285999
 31
0.0
  0
ENDBLK
  5
29A
330
20E
100
AcDbEntity
  8
0
100
AcDbBlockEnd
  0
BLOCK
  5
29B
330
210
100
AcDbEntity
  8
0
100
AcDbBlockBegin
  2
*D12
 70
     1
 10
0.0
 20
0.0
 30
0.0
  3
*D12
  1

  0
LINE
  5
29C
330
210
100
AcDbEntity
  8
MO_001_VIEW_PV
  6
BYBLOCK
100
AcDbLine
 10
-94.0
 20
-21.0
 30
0.0
 11
-68.0
 21
-21.0
 31
0.0
  0
SOLID
  5
29D
330
210
100
AcDbEntity
  8
MO_001_VIEW_PV
  6
BYBLOCK
100
AcDbTrace
 10
-90.68174
 20
-20.416488
 30
0.0
 11
-93.49200000000001
 21
-21.0
 31
0.0
 12
-90.68174
 22
-21.58351199999999
 32
0.0
 13
-90.68174
 23
-21.58351199999999
 33
0.0
  0
SOLID
  5
29E
330
210
100
AcDbEntity
  8
MO_001_VIEW_PV
  6
BYBLOCK
100
AcDbTrace
 10
-71.31826
 20
-21.58351199999999
 30
0.0
 11
-68.50799999999999
 21
-21.0
 31
0.0
 12
-71.31826
 22
-20.416488
 32
0.0
 13
-71.31826
 23
-20.416488
 33
0.0
  0
LINE
  5
29F
330
210
100
AcDbEntity
  8
MO_001_VIEW_PV
  6
BYBLOCK
100
AcDbLine
 10
-94.0
 20
-11.0
 30
0.0
 11
-94.0
 21
-23.28599899999999
 31
0.0
  0
LINE
  5
2A0
330
210
100
AcDbEntity
  8
MO_001_VIEW_PV
  6
BYBLOCK
100
AcDbLine
 10
-68.0
 20
-11.0
 30
0.0
 11
-68.0
 21
-23.28599899999999
 31
0.0
  0
TEXT
  5
2A1
330
210
100
AcDbEntity
  8
MO_001_VIEW_PV
  6
BYBLOCK
100
AcDbText
 10
-80.78571399999999
 20
-18.375
 30
0.0
 40
1.5
  1
%%P0.3
100
AcDbText
  0
TEXT
  5
2A2
330
210
100
AcDbEntity
  8
MO_001_VIEW_PV
  6
BYBLOCK
100
AcDbText
 10
-86.57142900000001
 20
-20.24999999999999
 30
0.0
 40
3.0
  1
26
100
AcDbText
  0
ENDBLK
  5
2A3
330
210
100
AcDbEntity
  8
0
100
AcDbBlockEnd
  0
BLOCK
  5
2A4
330
212
100
AcDbEntity
  8
0
100
AcDbBlockBegin
  2
*D13
 70
     1
 10
0.0
 20
0.0
 30
0.0
  3
*D13
  1

  0
LINE
  5
2A5
330
212
100
AcDbEntity
  8
MO_001_VIEW_PV
  6
BYBLOCK
100
AcDbLine
 10
-102.0
 20
-11.0
 30
0.0
 11
-102.0
 21
11.0
 31
0.0
  0
SOLID
  5
2A6
330
212
100
AcDbEntity
  8
MO_001_VIEW_PV
  6
BYBLOCK
100
AcDbTrace
 10
-102.5835119999999
 20
-7.681739999999999
 30
0.0
 11
-102.0
 21
-10.492
 31
0.0
 12
-101.416488
 22
-7.681739999999999
 32
0.0
 13
-101.416488
 23
-7.681739999999999
 33
0.0
  0
SOLID
  5
2A7
330
212
100
AcDbEntity
  8
MO_001_VIEW_PV
  6
BYBLOCK
100
AcDbTrace
 10
-101.416488
 20
7.681739999999999
 30
0.0
 11
-102.0
 21
10.492
 31
0.0
 12
-102.5835119999999
 22
7.681739999999999
 32
0.0
 13
-102.5835119999999
 23
7.681739999999999
 33
0.0
  0
LINE
  5
2A8
330
212
100
AcDbEntity
  8
MO_001_VIEW_PV
  6
BYBLOCK
100
AcDbLine
 10
-94.0
 20
-11.0
 30
0.0
 11
-104.2859949999999
 21
-11.0
 31
0.0
  0
LINE
  5
2A9
330
212
100
AcDbEntity
  8
MO_001_VIEW_PV
  6
BYBLOCK
100
AcDbLine
 10
-94.0
 20
11.0
 30
0.0
 11
-104.2859949999999
 21
11.0
 31
0.0
  0
TEXT
  5
2AA
330
212
100
AcDbEntity
  8
MO_001_VIEW_PV
  6
BYBLOCK
100
AcDbText
 10
-104.625
 20
0.214286
 30
0.0
 40
1.5
  1
%%P0.3
 50
90.0
100
AcDbText
  0
TEXT
  5
2AB
330
212
100
AcDbEntity
  8
MO_001_VIEW_PV
  6
BYBLOCK
100
AcDbText
 10
-102.75
 20
-5.571429
 30
0.0
 40
3.0
  1
22
 50
90.0
100
AcDbText
  0
ENDBLK
  5
2AC
330
212
100
AcDbEntity
  8
0
100
AcDbBlockEnd
  0
BLOCK
  5
2AD
330
214
100
AcDbEntity
  8
0
100
AcDbBlockBegin
  2
*D14
 70
     1
 10
0.0
 20
0.0
 30
0.0
  3
*D14
  1

  0
LINE
  5
2AE
330
214
100
AcDbEntity
  8
MO_001_VIEW_PV
  6
BYBLOCK
100
AcDbLine
 10
-45.999992
 20
-36.0
 30
0.0
 11
-31.999994
 21
-36.0
 31
0.0
  0
LINE
  5
2AF
330
214
100
AcDbEntity
  8
MO_001_VIEW_PV
  6
BYBLOCK
100
AcDbLine
 10
-45.999992
 20
-36.0
 30
0.0
 11
-52.349992
 21
-36.0
 31
0.0
  0
LINE
  5
2B0
330
214
100
AcDbEntity
  8
MO_001_VIEW_PV
  6
BYBLOCK
100
AcDbLine
 10
-31.999994
 20
-36.0
 30
0.0
 11
-25.649994
 21
-36.0
 31
0.0
  0
SOLID
  5
2B1
330
214
100
AcDbEntity
  8
MO_001_VIEW_PV
  6
BYBLOCK
100
AcDbTrace
 10
-49.318252
 20
-36.583512
 30
0.0
 11
-46.507992
 21
-36.0
 31
0.0
 12
-49.318252
 22
-35.416488
 32
0.0
 13
-49.318252
 23
-35.416488
 33
0.0
  0
SOLID
  5
2B2
330
214
100
AcDbEntity
  8
MO_001_VIEW_PV
  6
BYBLOCK
100
AcDbTrace
 10
-28.681734
 20
-35.416488
 30
0.0
 11
-31.491994
 21
-36.0
 31
0.0
 12
-28.681734
 22
-36.583512
 32
0.0
 13
-28.681734
 23
-36.583512
 33
0.0
  0
LINE
  5
2B3
330
214
100
AcDbEntity
  8
MO_001_VIEW_PV
  6
BYBLOCK
100
AcDbLine
 10
-45.999992
 20
-56.5
 30
0.0
 11
-45.999992
 21
-33.71399699999999
 31
0.0
  0
LINE
  5
2B4
330
214
100
AcDbEntity
  8
MO_001_VIEW_PV
  6
BYBLOCK
100
AcDbLine
 10
-31.999994
 20
-47.0
 30
0.0
 11
-31.999994
 21
-33.71399699999999
 31
0.0
  0
TEXT
  5
2B5
330
214
100
AcDbEntity
  8
MO_001_VIEW_PV
  6
BYBLOCK
100
AcDbText
 10
-44.571421
 20
-35.25
 30
0.0
 40
3.0
  1
(14)
100
AcDbText
  0
ENDBLK
  5
2B6
330
214
100
AcDbEntity
  8
0
100
AcDbBlockEnd
  0
BLOCK
  5
2B7
330
216
100
AcDbEntity
  8
0
100
AcDbBlockBegin
  2
*D15
 70
     1
 10
0.0
 20
0.0
 30
0.0
  3
*D15
  1

  0
LINE
  5
2B8
330
216
100
AcDbEntity
  8
MO_001_VIEW_PV
  6
BYBLOCK
100
AcDbLine
 10
-31.999994
 20
-36.0
 30
0.0
 11
0.0
 21
-36.0
 31
0.0
  0
SOLID
  5
2B9
330
216
100
AcDbEntity
  8
MO_001_VIEW_PV
  6
BYBLOCK
100
AcDbTrace
 10
-28.681734
 20
-35.416488
 30
0.0
 11
-31.491994
 21
-36.0
 31
0.0
 12
-28.681734
 22
-36.583512
 32
0.0
 13
-28.681734
 23
-36.583512
 33
0.0
  0
SOLID
  5
2BA
330
216
100
AcDbEntity
  8
MO_001_VIEW_PV
  6
BYBLOCK
100
AcDbTrace
 10
-3.318259999999999
 20
-36.583512
 30
0.0
 11
-0.508
 21
-36.0
 31
0.0
 12
-3.318259999999999
 22
-35.416488
 32
0.0
 13
-3.318259999999999
 23
-35.416488
 33
0.0
  0
LINE
  5
2BB
330
216
100
AcDbEntity
  8
MO_001_VIEW_PV
  6
BYBLOCK
100
AcDbLine
 10
-31.999994
 20
-47.0
 30
0.0
 11
-31.999994
 21
-33.71399699999999
 31
0.0
  0
LINE
  5
2BC
330
216
100
AcDbEntity
  8
MO_001_VIEW_PV
  6
BYBLOCK
100
AcDbLine
 10
0.0
 20
-48.599998
 30
0.0
 11
0.0
 21
-33.71399699999999
 31
0.0
  0
TEXT
  5
2BD
330
216
100
AcDbEntity
  8
MO_001_VIEW_PV
  6
BYBLOCK
100
AcDbText
 10
-15.785711
 20
-33.375
 30
0.0
 40
1.5
  1
%%P0.5
100
AcDbText
  0
TEXT
  5
2BE
330
216
100
AcDbEntity
  8
MO_001_VIEW_PV
  6
BYBLOCK
100
AcDbText
 10
-21.571426
 20
-35.25
 30
0.0
 40
3.0
  1
32
100
AcDbText
  0
ENDBLK
  5
2BF
330
216
100
AcDbEntity
  8
0
100
AcDbBlockEnd
  0
BLOCK
  5
2C0
330
218
100
AcDbEntity
  8
0
100
AcDbBlockBegin
  2
*D16
 70
     1
 10
0.0
 20
0.0
 30
0.0
  3
*D16
  1

  0
LINE
  5
2C1
330
218
100
AcDbEntity
  8
MO_001_VIEW_PV
  6
BYBLOCK
100
AcDbLine
 10
-54.0
 20
-61.0
 30
0.0
 11
-54.0
 21
-59.0
 31
0.0
  0
LINE
  5
2C2
330
218
100
AcDbEntity
  8
MO_001_VIEW_PV
  6
BYBLOCK
100
AcDbLine
 10
-54.0
 20
-61.0
 30
0.0
 11
-54.0
 21
-67.34999999999999
 31
0.0
  0
LINE
  5
2C3
330
218
100
AcDbEntity
  8
MO_001_VIEW_PV
  6
BYBLOCK
100
AcDbLine
 10
-54.0
 20
-59.0
 30
0.0
 11
-54.0
 21
-52.65
 31
0.0
  0
SOLID
  5
2C4
330
218
100
AcDbEntity
  8
MO_001_VIEW_PV
  6
BYBLOCK
100
AcDbTrace
 10
-53.416488
 20
-64.31826
 30
0.0
 11
-54.0
 21
-61.508
 31
0.0
 12
-54.583512
 22
-64.31826
 32
0.0
 13
-54.583512
 23
-64.31826
 33
0.0
  0
SOLID
  5
2C5
330
218
100
AcDbEntity
  8
MO_001_VIEW_PV
  6
BYBLOCK
100
AcDbTrace
 10
-54.583512
 20
-55.68174
 30
0.0
 11
-54.0
 21
-58.49199999999999
 31
0.0
 12
-53.416488
 22
-55.68174
 32
0.0
 13
-53.416488
 23
-55.68174
 33
0.0
  0
LINE
  5
2C6
330
218
100
AcDbEntity
  8
MO_001_VIEW_PV
  6
BYBLOCK
100
AcDbLine
 10
-45.999992
 20
-61.0
 30
0.0
 11
-56.285999
 21
-61.0
 31
0.0
  0
LINE
  5
2C7
330
218
100
AcDbEntity
  8
MO_001_VIEW_PV
  6
BYBLOCK
100
AcDbLine
 10
-45.999992
 20
-59.0
 30
0.0
 11
-56.285999
 21
-59.0
 31
0.0
  0
TEXT
  5
2C8
330
218
100
AcDbEntity
  8
MO_001_VIEW_PV
  6
BYBLOCK
100
AcDbText
 10
-56.625
 20
-51.65496199999999
 30
0.0
 40
1.5
  1
%%P0.3
 50
90.0
100
AcDbText
  0
TEXT
  5
2C9
330
218
100
AcDbEntity
  8
MO_001_VIEW_PV
  6
BYBLOCK
100
AcDbText
 10
-54.75
 20
-54.440676
 30
0.0
 40
3.0
  1
2
 50
90.0
100
AcDbText
  0
LINE
  5
2CA
330
218
100
AcDbEntity
  8
MO_001_VIEW_PV
  6
BYBLOCK
100
AcDbLine
 10
-54.0
 20
-59.0
 30
0.0
 11
-54.0
 21
-45.333534
 31
0.0
  0
ENDBLK
  5
2CB
330
218
100
AcDbEntity
  8
0
100
AcDbBlockEnd
  0
BLOCK
  5
2CC
330
21A
100
AcDbEntity
  8
0
100
AcDbBlockBegin
  2
*D17
 70
     1
 10
0.0
 20
0.0
 30
0.0
  3
*D17
  1

  0
LINE
  5
2CD
330
21A
100
AcDbEntity
  8
MO_001_VIEW_PV
  6
BYBLOCK
100
AcDbLine
 10
-36.0
 20
-42.0
 30
0.0
 11
-45.999992
 21
-42.0
 31
0.0
  0
LINE
  5
2CE
330
21A
100
AcDbEntity
  8
MO_001_VIEW_PV
  6
BYBLOCK
100
AcDbLine
 10
-36.0
 20
-42.0
 30
0.0
 11
-29.64999999999999
 21
-42.0
 31
0.0
  0
LINE
  5
2CF
330
21A
100
AcDbEntity
  8
MO_001_VIEW_PV
  6
BYBLOCK
100
AcDbLine
 10
-45.999992
 20
-42.0
 30
0.0
 11
-52.349992
 21
-42.0
 31
0.0
  0
SOLID
  5
2D0
330
21A
100
AcDbEntity
  8
MO_001_VIEW_PV
  6
BYBLOCK
100
AcDbTrace
 10
-32.68174
 20
-41.416488
 30
0.0
 11
-35.49199999999999
 21
-42.0
 31
0.0
 12
-32.68174
 22
-42.58351199999999
 32
0.0
 13
-32.68174
 23
-42.58351199999999
 33
0.0
  0
SOLID
  5
2D1
330
21A
100
AcDbEntity
  8
MO_001_VIEW_PV
  6
BYBLOCK
100
AcDbTrace
 10
-49.318252
 20
-42.58351199999999
 30
0.0
 11
-46.507992
 21
-42.0
 31
0.0
 12
-49.318252
 22
-41.416488
 32
0.0
 13
-49.318252
 23
-41.416488
 33
0.0
  0
LINE
  5
2D2
330
21A
100
AcDbEntity
  8
MO_001_VIEW_PV
  6
BYBLOCK
100
AcDbLine
 10
-36.0
 20
-59.0
 30
0.0
 11
-36.0
 21
-39.713997
 31
0.0
  0
LINE
  5
2D3
330
21A
100
AcDbEntity
  8
MO_001_VIEW_PV
  6
BYBLOCK
100
AcDbLine
 10
-45.999992
 20
-56.5
 30
0.0
 11
-45.999992
 21
-39.713997
 31
0.0
  0
TEXT
  5
2D4
330
21A
100
AcDbEntity
  8
MO_001_VIEW_PV
  6
BYBLOCK
100
AcDbText
 10
-53.785714
 20
-39.375
 30
0.0
 40
1.5
  1
%%P0.3
100
AcDbText
  0
TEXT
  5
2D5
330
21A
100
AcDbEntity
  8
MO_001_VIEW_PV
  6
BYBLOCK
100
AcDbText
 10
-59.571429
 20
-41.25
 30
0.0
 40
3.0
  1
10
100
AcDbText
  0
LINE
  5
2D6
330
21A
100
AcDbEntity
  8
MO_001_VIEW_PV
  6
BYBLOCK
100
AcDbLine
 10
-45.999992
 20
-42.0
 30
0.0
 11
-60.535713
 21
-42.0
 31
0.0
  0
ENDBLK
  5
2D7
330
21A
100
AcDbEntity
  8
0
100
AcDbBlockEnd
  0
BLOCK
  5
2D8
330
21C
100
AcDbEntity
  8
0
100
AcDbBlockBegin
  2
*D18
 70
     1
 10
0.0
 20
0.0
 30
0.0
  3
*D18
  1

  0
TEXT
  5
2D9
330
21C
100
AcDbEntity
  8
MO_001_VIEW_PV
  6
BYBLOCK
100
AcDbText
 10
-25.571425
 20
33.75
 30
0.0
 40
3.0
  1
46
100
AcDbText
  0
LINE
  5
2DA
330
21C
100
AcDbEntity
  8
MO_001_VIEW_PV
  6
BYBLOCK
100
AcDbLine
 10
-45.999992
 20
33.0
 30
0.0
 11
0.0
 21
33.0
 31
0.0
  0
SOLID
  5
2DB
330
21C
100
AcDbEntity
  8
MO_001_VIEW_PV
  6
BYBLOCK
100
AcDbTrace
 10
-42.681732
 20
33.58351199999999
 30
0.0
 11
-45.49199199999999
 21
33.0
 31
0.0
 12
-42.681732
 22
32.416488
 32
0.0
 13
-42.681732
 23
32.416488
 33
0.0
  0
SOLID
  5
2DC
330
21C
100
AcDbEntity
  8
MO_001_VIEW_PV
  6
BYBLOCK
100
AcDbTrace
 10
-3.318259999999999
 20
32.416488
 30
0.0
 11
-0.508
 21
33.0
 31
0.0
 12
-3.318259999999999
 22
33.58351199999999
 32
0.0
 13
-3.318259999999999
 23
33.58351199999999
 33
0.0
  0
LINE
  5
2DD
330
21C
100
AcDbEntity
  8
MO_001_VIEW_PV
  6
BYBLOCK
100
AcDbLine
 10
-45.999992
 20
3.5
 30
0.0
 11
-45.999992
 21
35.28599899999999
 31
0.0
  0
LINE
  5
2DE
330
21C
100
AcDbEntity
  8
MO_001_VIEW_PV
  6
BYBLOCK
100
AcDbLine
 10
0.0
 20
11.0
 30
0.0
 11
0.0
 21
35.28599899999999
 31
0.0
  0
ENDBLK
  5
2DF
330
21C
100
AcDbEntity
  8
0
100
AcDbBlockEnd
  0
ENDSEC
  0
SECTION
  2
ENTITIES
  0
TEXT
  5
4B
330
1E
100
AcDbEntity
  8
OVERLAY_MAP
  6
C_SOLID_L
100
AcDbText
 10
0.0
 20
6.349999999999999
 30
0.0
 40
4.1672
  1
Model Overlay Name
100
AcDbText
  0
TEXT
  5
4C
330
1E
100
AcDbEntity
  8
OVERLAY_MAP
  6
C_SOLID_L
100
AcDbText
 10
126.999998
 20
0.0
 30
0.0
 40
4.1672
  1
Number
100
AcDbText
  0
TEXT
  5
4D
330
1E
100
AcDbEntity
  8
OVERLAY_MAP
  6
C_SOLID_L
100
AcDbText
 10
177.7999969999999
 20
0.0
 30
0.0
 40
4.1672
  1
File Text
100
AcDbText
  0
TEXT
  5
4E
330
1E
100
AcDbEntity
  8
OVERLAY_MAP
  6
C_SOLID_L
100
AcDbText
 10
0.0
 20
-6.349999999999999
 30
0.0
 40
4.1672
  1
op sk0832a 
100
AcDbText
  0
TEXT
  5
4F
330
1E
100
AcDbEntity
  8
OVERLAY_MAP
  6
C_SOLID_L
100
AcDbText
 10
126.999998
 20
-6.349999999999999
 30
0.0
 40
4.1672
  1
001
100
AcDbText
  0
TEXT
  5
50
330
1E
100
AcDbEntity
  8
OVERLAY_MAP
  6
C_SOLID_L
100
AcDbText
 10
177.7999969999999
 20
-6.349999999999999
 30
0.0
 40
4.1672
  1
                                                         90024 104300139
100
AcDbText
  0
LINE
  5
51
330
1E
100
AcDbEntity
  8
MO_001_VIEW_PV
  6
C_SOLID_M
100
AcDbLine
 10
-29.999994
 20
-48.599998
 30
0.0
 11
-1.6
 21
-48.599998
 31
0.0
  0
LINE
  5
52
330
1E
100
AcDbEntity
  8
MO_001_VIEW_PV
  6
C_SOLID_M
100
AcDbLine
 10
-29.999994
 20
-71.400002
 30
0.0
 11
-1.6
 21
-71.400002
 31
0.0
  0
LINE
  5
53
330
1E
100
AcDbEntity
  8
MO_001_VIEW_PV
  6
C_SOLID_M
100
AcDbLine
 10
-32.999992
 20
-47.0
 30
0.0
 11
-1.6
 21
-47.0
 31
0.0
  0
LINE
  5
54
330
1E
100
AcDbEntity
  8
MO_001_VIEW_PV
  6
C_SOLID_M
100
AcDbLine
 10
-32.999992
 20
-73.0
 30
0.0
 11
-1.6
 21
-73.0
 31
0.0
  0
LINE
  5
55
330
1E
100
AcDbEntity
  8
MO_001_VIEW_PV
  6
C_SOLID_M
100
AcDbLine
 10
-1.6
 20
-62.660004
 30
0.0
 11
-1.6
 21
-71.400002
 31
0.0
  0
LINE
  5
56
330
1E
100
AcDbEntity
  8
MO_001_VIEW_PV
  6
C_SOLID_M
100
AcDbLine
 10
0.0
 20
-62.660004
 30
0.0
 11
0.0
 21
-71.400002
 31
0.0
  0
LINE
  5
57
330
1E
100
AcDbEntity
  8
MO_001_VIEW_PV
  6
C_SOLID_M
100
AcDbLine
 10
-32.999992
 20
-47.0
 30
0.0
 11
-32.999992
 21
-48.599998
 31
0.0
  0
ARC
  5
58
330
1E
100
AcDbEntity
  8
MO_001_VIEW_PV
  6
C_SOLID_M
100
AcDbCircle
 10
-1.6
 20
-48.599998
 30
0.0
 40
1.6
100
AcDbArc
 50
0.0
 51
89.99998199999998
  0
ARC
  5
59
330
1E
100
AcDbEntity
  8
MO_001_VIEW_PV
  6
C_SOLID_M
100
AcDbCircle
 10
-1.6
 20
-71.400002
 30
0.0
 40
1.6
100
AcDbArc
 50
270.0000179999999
 51
0.0
  0
LINE
  5
5A
330
1E
100
AcDbEntity
  8
MO_001_VIEW_PV
  6
C_SOLID_M
100
AcDbLine
 10
-32.999992
 20
-71.400002
 30
0.0
 11
-32.999992
 21
-73.0
 31
0.0
  0
LINE
  5
5B
330
1E
100
AcDbEntity
  8
MO_001_VIEW_PV
  6
C_SOLID_M
100
AcDbLine
 10
-29.999994
 20
-47.0
 30
0.0
 11
-29.999994
 21
-73.0
 31
0.0
  0
LINE
  5
5C
330
1E
100
AcDbEntity
  8
MO_001_VIEW_PV
  6
C_SOLID_M
100
AcDbLine
 10
-94.0
 20
-11.0
 30
0.0
 11
-94.0
 21
11.0
 31
0.0
  0
LINE
  5
5D
330
1E
100
AcDbEntity
  8
MO_001_VIEW_PV
  6
C_SOLID_M
100
AcDbLine
 10
-68.0
 20
-11.0
 30
0.0
 11
-68.0
 21
11.0
 31
0.0
  0
LINE
  5
5E
330
1E
100
AcDbEntity
  8
MO_001_VIEW_PV
  6
C_CENTER_L
100
AcDbLine
 10
-81.0
 20
-13.167591
 30
0.0
 11
-81.0
 21
12.652603
 31
0.0
  0
LINE
  5
5F
330
1E
100
AcDbEntity
  8
MO_001_VIEW_PV
  6
C_CENTER_L
100
AcDbLine
 10
-95.54804999999999
 20
0.0
 30
0.0
 11
-66.088013
 21
0.0
 31
0.0
  0
LINE
  5
60
330
1E
100
AcDbEntity
  8
MO_001_VIEW_PV
  6
C_SOLID_M
100
AcDbLine
 10
-94.0
 20
11.0
 30
0.0
 11
-68.0
 21
11.0
 31
0.0
  0
LINE
  5
61
330
1E
100
AcDbEntity
  8
MO_001_VIEW_PV
  6
C_SOLID_M
100
AcDbLine
 10
-31.999994
 20
-11.0
 30
0.0
 11
0.0
 21
-11.0
 31
0.0
  0
LINE
  5
62
330
1E
100
AcDbEntity
  8
MO_001_VIEW_PV
  6
C_SOLID_M
100
AcDbLine
 10
-31.999994
 20
11.0
 30
0.0
 11
0.0
 21
11.0
 31
0.0
  0
LINE
  5
63
330
1E
100
AcDbEntity
  8
MO_001_VIEW_PV
  6
C_SOLID_M
100
AcDbLine
 10
0.0
 20
-11.0
 30
0.0
 11
0.0
 21
11.0
 31
0.0
  0
LINE
  5
64
330
1E
100
AcDbEntity
  8
MO_001_VIEW_PV
  6
C_CENTER_L
100
AcDbLine
 10
-47.525578
 20
0.0
 30
0.0
 11
3.393258999999999
 21
0.0
 31
0.0
  0
LINE
  5
65
330
1E
100
AcDbEntity
  8
MO_001_VIEW_PV
  6
C_CENTER_L
100
AcDbLine
 10
-9.859207000000001
 20
-7.5
 30
0.0
 11
-3.82808
 21
-7.5
 31
0.0
  0
LINE
  5
66
330
1E
100
AcDbEntity
  8
MO_001_VIEW_PV
  6
C_CENTER_L
100
AcDbLine
 10
-9.630463
 20
7.5
 30
0.0
 11
-4.174868
 21
7.5
 31
0.0
  0
LINE
  5
67
330
1E
100
AcDbEntity
  8
MO_001_VIEW_PV
  6
C_SOLID_M
100
AcDbLine
 10
-29.999994
 20
-11.0
 30
0.0
 11
-29.999994
 21
-5.0
 31
0.0
  0
LINE
  5
68
330
1E
100
AcDbEntity
  8
MO_001_VIEW_PV
  6
C_SOLID_M
100
AcDbLine
 10
-32.999992
 20
4.57735
 30
0.0
 11
-32.999992
 21
5.577348999999999
 31
0.0
  0
LINE
  5
69
330
1E
100
AcDbEntity
  8
MO_001_VIEW_PV
  6
C_SOLID_M
100
AcDbLine
 10
-31.999994
 20
-5.0
 30
0.0
 11
-29.999994
 21
-5.0
 31
0.0
  0
LINE
  5
6A
330
1E
100
AcDbEntity
  8
MO_001_VIEW_PV
  6
C_SOLID_M
100
AcDbLine
 10
-31.999994
 20
5.0
 30
0.0
 11
-29.999994
 21
5.0
 31
0.0
  0
LINE
  5
6B
330
1E
100
AcDbEntity
  8
MO_001_VIEW_PV
  6
C_CENTER_L
100
AcDbLine
 10
-24.999994
 20
5.373383
 30
0.0
 11
-24.999994
 21
9.720214999999999
 31
0.0
  0
LINE
  5
6C
330
1E
100
AcDbEntity
  8
MO_001_VIEW_PV
  6
C_CENTER_L
100
AcDbLine
 10
-6.999994
 20
5.259009999999999
 30
0.0
 11
-6.999994
 21
9.781447999999999
 31
0.0
  0
CIRCLE
  5
6D
330
1E
100
AcDbEntity
  8
MO_001_VIEW_PV
  6
C_SOLID_M
100
AcDbCircle
 10
-15.999994
 20
0.0
 30
0.0
 40
1.5
  0
CIRCLE
  5
6E
330
1E
100
AcDbEntity
  8
MO_001_VIEW_PV
  6
C_SOLID_L
100
AcDbCircle
 10
-6.999994
 20
7.5
 30
0.0
 40
1.5
  0
CIRCLE
  5
6F
330
1E
100
AcDbEntity
  8
MO_001_VIEW_PV
  6
C_SOLID_L
100
AcDbCircle
 10
-24.999994
 20
-7.5
 30
0.0
 40
1.5
  0
CIRCLE
  5
70
330
1E
100
AcDbEntity
  8
MO_001_VIEW_PV
  6
C_SOLID_M
100
AcDbCircle
 10
-24.999994
 20
-7.5
 30
0.0
 40
1.0
  0
CIRCLE
  5
71
330
1E
100
AcDbEntity
  8
MO_001_VIEW_PV
  6
C_SOLID_M
100
AcDbCircle
 10
-6.999994
 20
7.5
 30
0.0
 40
1.0
  0
CIRCLE
  5
72
330
1E
100
AcDbEntity
  8
MO_001_VIEW_PV
  6
C_SOLID_M
100
AcDbCircle
 10
-24.999994
 20
7.5
 30
0.0
 40
1.0
  0
CIRCLE
  5
73
330
1E
100
AcDbEntity
  8
MO_001_VIEW_PV
  6
C_SOLID_M
100
AcDbCircle
 10
-6.999994
 20
-7.5
 30
0.0
 40
1.0
  0
ARC
  5
74
330
1E
100
AcDbEntity
  8
MO_001_VIEW_PV
  6
C_SOLID_M
100
AcDbCircle
 10
-29.999994
 20
-6.0
 30
0.0
 40
1.0
100
AcDbArc
 50
270.0000179999999
 51
89.99998199999998
  0
ARC
  5
75
330
1E
100
AcDbEntity
  8
MO_001_VIEW_PV
  6
C_SOLID_M
100
AcDbCircle
 10
-29.999994
 20
6.0
 30
0.0
 40
1.0
100
AcDbArc
 50
270.0000179999999
 51
89.99998199999998
  0
LINE
  5
76
330
1E
100
AcDbEntity
  8
MO_001_VIEW_PV
  6
C_SOLID_M
100
AcDbLine
 10
-29.999994
 20
5.0
 30
0.0
 11
-29.999994
 21
11.0
 31
0.0
  0
CIRCLE
  5
77
330
1E
100
AcDbEntity
  8
MO_001_VIEW_PV
  6
C_SOLID_L
100
AcDbCircle
 10
-24.999994
 20
7.5
 30
0.0
 40
1.5
  0
CIRCLE
  5
78
330
1E
100
AcDbEntity
  8
MO_001_VIEW_PV
  6
C_SOLID_L
100
AcDbCircle
 10
-6.999994
 20
-7.5
 30
0.0
 40
1.5
  0
LINE
  5
79
330
1E
100
AcDbEntity
  8
MO_001_VIEW_PV
  6
C_SOLID_M
100
AcDbLine
 10
-32.999992
 20
-48.599998
 30
0.0
 11
-31.999994
 21
-48.599998
 31
0.0
  0
LINE
  5
7A
330
1E
100
AcDbEntity
  8
MO_001_VIEW_PV
  6
C_SOLID_M
100
AcDbLine
 10
-32.999992
 20
-71.400002
 30
0.0
 11
-31.999994
 21
-71.400002
 31
0.0
  0
LINE
  5
7B
330
1E
100
AcDbEntity
  8
MO_001_VIEW_PV
  6
C_SOLID_M
100
AcDbLine
 10
-31.999994
 20
-47.0
 30
0.0
 11
-31.999994
 21
-73.0
 31
0.0
  0
LINE
  5
7C
330
1E
100
AcDbEntity
  8
MO_001_VIEW_PV
  6
C_SOLID_M
100
AcDbLine
 10
-31.999994
 20
5.0
 30
0.0
 11
-31.999994
 21
11.0
 31
0.0
  0
LINE
  5
7D
330
1E
100
AcDbEntity
  8
MO_001_VIEW_PV
  6
C_SOLID_M
100
AcDbLine
 10
-31.999994
 20
-11.0
 30
0.0
 11
-31.999994
 21
-5.0
 31
0.0
  0
LINE
  5
7E
330
1E
100
AcDbEntity
  8
MO_001_VIEW_PV
  6
C_SOLID_M
100
AcDbLine
 10
-69.599998
 20
5.577348999999999
 30
0.0
 11
-69.599998
 21
-5.577348999999999
 31
0.0
  0
LINE
  5
7F
330
1E
100
AcDbEntity
  8
MO_001_VIEW_PV
  6
C_SOLID_M
100
AcDbLine
 10
-94.0
 20
-11.0
 30
0.0
 11
-68.0
 21
-11.0
 31
0.0
  0
CIRCLE
  5
80
330
1E
100
AcDbEntity
  8
MO_001_VIEW_PV
  6
C_SOLID_M
100
AcDbCircle
 10
-81.0
 20
0.0
 30
0.0
 40
4.349999999999999
  0
LINE
  5
81
330
1E
100
AcDbEntity
  8
MO_001_VIEW_PV
  6
C_SOLID_M
100
AcDbLine
 10
0.9
 20
-58.660004
 30
0.0
 11
0.9
 21
-61.339996
 31
0.0
  0
LINE
  5
82
330
1E
100
AcDbEntity
  8
MO_001_VIEW_PV
  6
C_CENTER_L
100
AcDbLine
 10
2.325858999999999
 20
-60.0
 30
0.0
 11
-47.103558
 21
-60.0
 31
0.0
  0
LINE
  5
83
330
1E
100
AcDbEntity
  8
MO_001_VIEW_PV
  6
C_SOLID_M
100
AcDbLine
 10
-45.999992
 20
-63.5
 30
0.0
 11
-45.999992
 21
-61.0
 31
0.0
  0
LINE
  5
84
330
1E
100
AcDbEntity
  8
MO_001_VIEW_PV
  6
C_SOLID_M
100
AcDbLine
 10
-45.499992
 20
-64.0
 30
0.0
 11
-45.499992
 21
-61.0
 31
0.0
  0
LINE
  5
85
330
1E
100
AcDbEntity
  8
MO_001_VIEW_PV
  6
C_SOLID_M
100
AcDbLine
 10
-36.0
 20
-61.0
 30
0.0
 11
-36.0
 21
-59.0
 31
0.0
  0
LINE
  5
86
330
1E
100
AcDbEntity
  8
MO_001_VIEW_PV
  6
C_CENTER_L
100
AcDbLine
 10
-40.999992
 20
-65.22584499999999
 30
0.0
 11
-40.999992
 21
-54.76459499999999
 31
0.0
  0
LINE
  5
87
330
1E
100
AcDbEntity
  8
MO_001_VIEW_PV
  6
C_SOLID_M
100
AcDbLine
 10
-36.0
 20
-59.0
 30
0.0
 11
-45.999992
 21
-59.0
 31
0.0
  0
LINE
  5
88
330
1E
100
AcDbEntity
  8
MO_001_VIEW_PV
  6
C_SOLID_M
100
AcDbLine
 10
-36.0
 20
-61.0
 30
0.0
 11
-45.999992
 21
-61.0
 31
0.0
  0
LINE
  5
89
330
1E
100
AcDbEntity
  8
MO_001_VIEW_PV
  6
C_SOLID_M
100
AcDbLine
 10
-42.799995
 20
-64.0
 30
0.0
 11
-45.500008
 21
-64.0
 31
0.0
  0
LINE
  5
8A
330
1E
100
AcDbEntity
  8
MO_001_VIEW_PV
  6
C_SOLID_M
100
AcDbLine
 10
-42.799995
 20
-56.0
 30
0.0
 11
-45.498466
 21
-56.0
 31
0.0
  0
LINE
  5
8B
330
1E
100
AcDbEntity
  8
MO_001_VIEW_PV
  6
C_SOLID_M
100
AcDbLine
 10
-45.500014
 20
-56.000008
 30
0.0
 11
-46.000018
 21
-56.500005
 31
0.0
  0
LINE
  5
8C
330
1E
100
AcDbEntity
  8
MO_001_VIEW_PV
  6
C_SOLID_M
100
AcDbLine
 10
-46.00000399999999
 20
-63.499945
 30
0.0
 11
-45.50001199999999
 21
-63.999942
 31
0.0
  0
LINE
  5
8D
330
1E
100
AcDbEntity
  8
MO_001_VIEW_PV
  6
C_SOLID_M
100
AcDbLine
 10
-45.499992
 20
-59.0
 30
0.0
 11
-45.499992
 21
-56.0
 31
0.0
  0
LINE
  5
8E
330
1E
100
AcDbEntity
  8
MO_001_VIEW_PV
  6
C_SOLID_M
100
AcDbLine
 10
-45.999992
 20
-59.0
 30
0.0
 11
-45.999992
 21
-56.5
 31
0.0
  0
LINE
  5
8F
330
1E
100
AcDbEntity
  8
MO_001_VIEW_PV
  6
C_DASHED_M
100
AcDbLine
 10
-42.499992
 20
-63.699997
 30
0.0
 11
-42.499992
 21
-61.0
 31
0.0
  0
LINE
  5
90
330
1E
100
AcDbEntity
  8
MO_001_VIEW_PV
  6
C_DASHED_M
100
AcDbLine
 10
-39.5
 20
-63.699997
 30
0.0
 11
-39.5
 21
-61.0
 31
0.0
  0
LINE
  5
91
330
1E
100
AcDbEntity
  8
MO_001_VIEW_PV
  6
C_DASHED_M
100
AcDbLine
 10
-42.50001199999999
 20
-63.699934
 30
0.0
 11
-42.8
 21
-63.999933
 31
0.0
  0
LINE
  5
92
330
1E
100
AcDbEntity
  8
MO_001_VIEW_PV
  6
C_DASHED_M
100
AcDbLine
 10
-42.79999199999999
 20
-55.99996700000001
 30
0.0
 11
-42.499992
 21
-56.299976
 31
0.0
  0
LINE
  5
93
330
1E
100
AcDbEntity
  8
MO_001_VIEW_PV
  6
C_DASHED_M
100
AcDbLine
 10
-39.50003699999999
 20
-56.300036
 30
0.0
 11
-39.200046
 21
-56.000038
 31
0.0
  0
LINE
  5
94
330
1E
100
AcDbEntity
  8
MO_001_VIEW_PV
  6
C_DASHED_M
100
AcDbLine
 10
-39.199913
 20
-63.999988
 30
0.0
 11
-39.499909
 21
-63.69999599999999
 31
0.0
  0
LINE
  5
95
330
1E
100
AcDbEntity
  8
MO_001_VIEW_PV
  6
C_DASHED_M
100
AcDbLine
 10
-39.5
 20
-59.0
 30
0.0
 11
-39.5
 21
-56.300003
 31
0.0
  0
LINE
  5
96
330
1E
100
AcDbEntity
  8
MO_001_VIEW_PV
  6
C_DASHED_M
100
AcDbLine
 10
-42.499992
 20
-59.0
 30
0.0
 11
-42.499992
 21
-56.300003
 31
0.0
  0
LINE
  5
97
330
1E
100
AcDbEntity
  8
MO_001_VIEW_PV
  6
C_SOLID_M
100
AcDbLine
 10
-31.999994
 20
-59.5
 30
0.0
 11
-36.0
 21
-59.5
 31
0.0
  0
LINE
  5
98
330
1E
100
AcDbEntity
  8
MO_001_VIEW_PV
  6
C_SOLID_M
100
AcDbLine
 10
-31.999994
 20
-60.5
 30
0.0
 11
-36.0
 21
-60.5
 31
0.0
  0
LINE
  5
99
330
1E
100
AcDbEntity
  8
MO_001_VIEW_PV
  6
C_SOLID_M
100
AcDbLine
 10
-31.999994
 20
-64.0
 30
0.0
 11
-39.19999699999999
 21
-64.0
 31
0.0
  0
LINE
  5
9A
330
1E
100
AcDbEntity
  8
MO_001_VIEW_PV
  6
C_SOLID_M
100
AcDbLine
 10
-31.999994
 20
-56.0
 30
0.0
 11
-39.19999699999999
 21
-56.0
 31
0.0
  0
POLYLINE
  5
9B
330
1E
100
AcDbEntity
  8
MO_001_VIEW_PV
  6
C_DASHED_M
100
AcDb2dPolyline
 66
     1
 10
0.0
 20
0.0
 30
0.0
 70
     1
  0
VERTEX
  5
2F1
330
9B
100
AcDbEntity
  8
MO_001_VIEW_PV
  6
C_DASHED_M
100
AcDbVertex
100
AcDb2dVertex
 10
-42.499992
 20
-63.699997
 30
0.0
  0
VERTEX
  5
2F2
330
9B
100
AcDbEntity
  8
MO_001_VIEW_PV
  6
C_DASHED_M
100
AcDbVertex
100
AcDb2dVertex
 10
-42.49224799999999
 20
-63.696429
 30
0.0
  0
VERTEX
  5
2F3
330
9B
100
AcDbEntity
  8
MO_001_VIEW_PV
  6
C_DASHED_M
100
AcDbVertex
100
AcDb2dVertex
 10
-42.473153
 20
-63.68793100000001
 30
0.0
  0
VERTEX
  5
2F4
330
9B
100
AcDbEntity
  8
MO_001_VIEW_PV
  6
C_DASHED_M
100
AcDbVertex
100
AcDb2dVertex
 10
-42.413647
 20
-63.662932
 30
0.0
  0
VERTEX
  5
2F5
330
9B
100
AcDbEntity
  8
MO_001_VIEW_PV
  6
C_DASHED_M
100
AcDbVertex
100
AcDb2dVertex
 10
-42.34860199999999
 20
-63.63742199999999
 30
0.0
  0
VERTEX
  5
2F6
330
9B
100
AcDbEntity
  8
MO_001_VIEW_PV
  6
C_DASHED_M
100
AcDbVertex
100
AcDb2dVertex
 10
-42.220959
 20
-63.591666
 30
0.0
  0
VERTEX
  5
2F7
330
9B
100
AcDbEntity
  8
MO_001_VIEW_PV
  6
C_DASHED_M
100
AcDbVertex
100
AcDb2dVertex
 10
-42.060653
 20
-63.541153
 30
0.0
  0
VERTEX
  5
2F8
330
9B
100
AcDbEntity
  8
MO_001_VIEW_PV
  6
C_DASHED_M
100
AcDbVertex
100
AcDb2dVertex
 10
-41.838657
 20
-63.482827
 30
0.0
  0
VERTEX
  5
2F9
330
9B
100
AcDbEntity
  8
MO_001_VIEW_PV
  6
C_DASHED_M
100
AcDbVertex
100
AcDb2dVertex
 10
-41.65030499999999
 20
-63.443562
 30
0.0
  0
VERTEX
  5
2FA
330
9B
100
AcDbEntity
  8
MO_001_VIEW_PV
  6
C_DASHED_M
100
AcDbVertex
100
AcDb2dVertex
 10
-41.338748
 20
-63.39938899999999
 30
0.0
  0
VERTEX
  5
2FB
330
9B
100
AcDbEntity
  8
MO_001_VIEW_PV
  6
C_DASHED_M
100
AcDbVertex
100
AcDb2dVertex
 10
-40.999992
 20
-63.382309
 30
0.0
  0
VERTEX
  5
2FC
330
9B
100
AcDbEntity
  8
MO_001_VIEW_PV
  6
C_DASHED_M
100
AcDbVertex
100
AcDb2dVertex
 10
-40.69768999999999
 20
-63.39596
 30
0.0
  0
VERTEX
  5
2FD
330
9B
100
AcDbEntity
  8
MO_001_VIEW_PV
  6
C_DASHED_M
100
AcDbVertex
100
AcDb2dVertex
 10
-40.484242
 20
-63.421264
 30
0.0
  0
VERTEX
  5
2FE
330
9B
100
AcDbEntity
  8
MO_001_VIEW_PV
  6
C_DASHED_M
100
AcDbVertex
100
AcDb2dVertex
 10
-40.191508
 20
-63.47590799999999
 30
0.0
  0
VERTEX
  5
2FF
330
9B
100
AcDbEntity
  8
MO_001_VIEW_PV
  6
C_DASHED_M
100
AcDbVertex
100
AcDb2dVertex
 10
-40.059813
 20
-63.507868
 30
0.0
  0
VERTEX
  5
300
330
9B
100
AcDbEntity
  8
MO_001_VIEW_PV
  6
C_DASHED_M
100
AcDbVertex
100
AcDb2dVertex
 10
-39.939332
 20
-63.541153
 30
0.0
  0
VERTEX
  5
301
330
9B
100
AcDbEntity
  8
MO_001_VIEW_PV
  6
C_DASHED_M
100
AcDbVertex
100
AcDb2dVertex
 10
-39.84252
 20
-63.570781
 30
0.0
  0
VERTEX
  5
302
330
9B
100
AcDbEntity
  8
MO_001_VIEW_PV
  6
C_DASHED_M
100
AcDbVertex
100
AcDb2dVertex
 10
-39.698725
 20
-63.619831
 30
0.0
  0
VERTEX
  5
303
330
9B
100
AcDbEntity
  8
MO_001_VIEW_PV
  6
C_DASHED_M
100
AcDbVertex
100
AcDb2dVertex
 10
-39.614337
 20
-63.651747
 30
0.0
  0
VERTEX
  5
304
330
9B
100
AcDbEntity
  8
MO_001_VIEW_PV
  6
C_DASHED_M
100
AcDbVertex
100
AcDb2dVertex
 10
-39.56539
 20
-63.671525
 30
0.0
  0
VERTEX
  5
305
330
9B
100
AcDbEntity
  8
MO_001_VIEW_PV
  6
C_DASHED_M
100
AcDbVertex
100
AcDb2dVertex
 10
-39.516746
 20
-63.69238000000001
 30
0.0
  0
VERTEX
  5
306
330
9B
100
AcDbEntity
  8
MO_001_VIEW_PV
  6
C_DASHED_M
100
AcDbVertex
100
AcDb2dVertex
 10
-39.499992
 20
-63.699997
 30
0.0
  0
VERTEX
  5
307
330
9B
100
AcDbEntity
  8
MO_001_VIEW_PV
  6
C_DASHED_M
100
AcDbVertex
100
AcDb2dVertex
 10
-39.507737
 20
-63.696429
 30
0.0
  0
VERTEX
  5
308
330
9B
100
AcDbEntity
  8
MO_001_VIEW_PV
  6
C_DASHED_M
100
AcDbVertex
100
AcDb2dVertex
 10
-39.526832
 20
-63.68793100000001
 30
0.0
  0
VERTEX
  5
309
330
9B
100
AcDbEntity
  8
MO_001_VIEW_PV
  6
C_DASHED_M
100
AcDbVertex
100
AcDb2dVertex
 10
-39.58633799999999
 20
-63.662932
 30
0.0
  0
VERTEX
  5
30A
330
9B
100
AcDbEntity
  8
MO_001_VIEW_PV
  6
C_DASHED_M
100
AcDbVertex
100
AcDb2dVertex
 10
-39.651383
 20
-63.63742199999999
 30
0.0
  0
VERTEX
  5
30B
330
9B
100
AcDbEntity
  8
MO_001_VIEW_PV
  6
C_DASHED_M
100
AcDbVertex
100
AcDb2dVertex
 10
-39.779026
 20
-63.591666
 30
0.0
  0
VERTEX
  5
30C
330
9B
100
AcDbEntity
  8
MO_001_VIEW_PV
  6
C_DASHED_M
100
AcDbVertex
100
AcDb2dVertex
 10
-39.939332
 20
-63.541153
 30
0.0
  0
VERTEX
  5
30D
330
9B
100
AcDbEntity
  8
MO_001_VIEW_PV
  6
C_DASHED_M
100
AcDbVertex
100
AcDb2dVertex
 10
-40.161328
 20
-63.482827
 30
0.0
  0
VERTEX
  5
30E
330
9B
100
AcDbEntity
  8
MO_001_VIEW_PV
  6
C_DASHED_M
100
AcDbVertex
100
AcDb2dVertex
 10
-40.34968
 20
-63.443562
 30
0.0
  0
VERTEX
  5
30F
330
9B
100
AcDbEntity
  8
MO_001_VIEW_PV
  6
C_DASHED_M
100
AcDbVertex
100
AcDb2dVertex
 10
-40.661237
 20
-63.39938899999999
 30
0.0
  0
VERTEX
  5
310
330
9B
100
AcDbEntity
  8
MO_001_VIEW_PV
  6
C_DASHED_M
100
AcDbVertex
100
AcDb2dVertex
 10
-40.999992
 20
-63.382309
 30
0.0
  0
VERTEX
  5
311
330
9B
100
AcDbEntity
  8
MO_001_VIEW_PV
  6
C_DASHED_M
100
AcDbVertex
100
AcDb2dVertex
 10
-41.302295
 20
-63.39596
 30
0.0
  0
VERTEX
  5
312
330
9B
100
AcDbEntity
  8
MO_001_VIEW_PV
  6
C_DASHED_M
100
AcDbVertex
100
AcDb2dVertex
 10
-41.515743
 20
-63.421264
 30
0.0
  0
VERTEX
  5
313
330
9B
100
AcDbEntity
  8
MO_001_VIEW_PV
  6
C_DASHED_M
100
AcDbVertex
100
AcDb2dVertex
 10
-41.808477
 20
-63.47590799999999
 30
0.0
  0
VERTEX
  5
314
330
9B
100
AcDbEntity
  8
MO_001_VIEW_PV
  6
C_DASHED_M
100
AcDbVertex
100
AcDb2dVertex
 10
-41.940172
 20
-63.507868
 30
0.0
  0
VERTEX
  5
315
330
9B
100
AcDbEntity
  8
MO_001_VIEW_PV
  6
C_DASHED_M
100
AcDbVertex
100
AcDb2dVertex
 10
-42.060653
 20
-63.541153
 30
0.0
  0
VERTEX
  5
316
330
9B
100
AcDbEntity
  8
MO_001_VIEW_PV
  6
C_DASHED_M
100
AcDbVertex
100
AcDb2dVertex
 10
-42.157466
 20
-63.570781
 30
0.0
  0
VERTEX
  5
317
330
9B
100
AcDbEntity
  8
MO_001_VIEW_PV
  6
C_DASHED_M
100
AcDbVertex
100
AcDb2dVertex
 10
-42.30126
 20
-63.619831
 30
0.0
  0
VERTEX
  5
318
330
9B
100
AcDbEntity
  8
MO_001_VIEW_PV
  6
C_DASHED_M
100
AcDbVertex
100
AcDb2dVertex
 10
-42.38564799999999
 20
-63.651747
 30
0.0
  0
VERTEX
  5
319
330
9B
100
AcDbEntity
  8
MO_001_VIEW_PV
  6
C_DASHED_M
100
AcDbVertex
100
AcDb2dVertex
 10
-42.434595
 20
-63.671525
 30
0.0
  0
VERTEX
  5
31A
330
9B
100
AcDbEntity
  8
MO_001_VIEW_PV
  6
C_DASHED_M
100
AcDbVertex
100
AcDb2dVertex
 10
-42.483238
 20
-63.692379
 30
0.0
  0
VERTEX
  5
31B
330
9B
100
AcDbEntity
  8
MO_001_VIEW_PV
  6
C_DASHED_M
100
AcDbVertex
100
AcDb2dVertex
 10
-42.499992
 20
-63.699997
 30
0.0
  0
SEQEND
  5
31C
330
9B
100
AcDbEntity
  8
MO_001_VIEW_PV
  6
C_DASHED_M
  0
POLYLINE
  5
C8
330
1E
100
AcDbEntity
  8
MO_001_VIEW_PV
  6
C_DASHED_M
100
AcDb2dPolyline
 66
     1
 10
0.0
 20
0.0
 30
0.0
 70
     1
  0
VERTEX
  5
31D
330
C8
100
AcDbEntity
  8
MO_001_VIEW_PV
  6
C_DASHED_M
100
AcDbVertex
100
AcDb2dVertex
 10
-42.499992
 20
-56.300003
 30
0.0
  0
VERTEX
  5
31E
330
C8
100
AcDbEntity
  8
MO_001_VIEW_PV
  6
C_DASHED_M
100
AcDbVertex
100
AcDb2dVertex
 10
-42.49224799999999
 20
-56.303571
 30
0.0
  0
VERTEX
  5
31F
330
C8
100
AcDbEntity
  8
MO_001_VIEW_PV
  6
C_DASHED_M
100
AcDbVertex
100
AcDb2dVertex
 10
-42.473153
 20
-56.31206899999999
 30
0.0
  0
VERTEX
  5
320
330
C8
100
AcDbEntity
  8
MO_001_VIEW_PV
  6
C_DASHED_M
100
AcDbVertex
100
AcDb2dVertex
 10
-42.413647
 20
-56.337068
 30
0.0
  0
VERTEX
  5
321
330
C8
100
AcDbEntity
  8
MO_001_VIEW_PV
  6
C_DASHED_M
100
AcDbVertex
100
AcDb2dVertex
 10
-42.34860199999999
 20
-56.362578
 30
0.0
  0
VERTEX
  5
322
330
C8
100
AcDbEntity
  8
MO_001_VIEW_PV
  6
C_DASHED_M
100
AcDbVertex
100
AcDb2dVertex
 10
-42.220959
 20
-56.40833399999999
 30
0.0
  0
VERTEX
  5
323
330
C8
100
AcDbEntity
  8
MO_001_VIEW_PV
  6
C_DASHED_M
100
AcDbVertex
100
AcDb2dVertex
 10
-42.060653
 20
-56.45884699999999
 30
0.0
  0
VERTEX
  5
324
330
C8
100
AcDbEntity
  8
MO_001_VIEW_PV
  6
C_DASHED_M
100
AcDbVertex
100
AcDb2dVertex
 10
-41.838657
 20
-56.517173
 30
0.0
  0
VERTEX
  5
325
330
C8
100
AcDbEntity
  8
MO_001_VIEW_PV
  6
C_DASHED_M
100
AcDbVertex
100
AcDb2dVertex
 10
-41.65030499999999
 20
-56.55643799999999
 30
0.0
  0
VERTEX
  5
326
330
C8
100
AcDbEntity
  8
MO_001_VIEW_PV
  6
C_DASHED_M
100
AcDbVertex
100
AcDb2dVertex
 10
-41.338748
 20
-56.600611
 30
0.0
  0
VERTEX
  5
327
330
C8
100
AcDbEntity
  8
MO_001_VIEW_PV
  6
C_DASHED_M
100
AcDbVertex
100
AcDb2dVertex
 10
-40.999992
 20
-56.617691
 30
0.0
  0
VERTEX
  5
328
330
C8
100
AcDbEntity
  8
MO_001_VIEW_PV
  6
C_DASHED_M
100
AcDbVertex
100
AcDb2dVertex
 10
-40.69768999999999
 20
-56.60404
 30
0.0
  0
VERTEX
  5
329
330
C8
100
AcDbEntity
  8
MO_001_VIEW_PV
  6
C_DASHED_M
100
AcDbVertex
100
AcDb2dVertex
 10
-40.484242
 20
-56.578736
 30
0.0
  0
VERTEX
  5
32A
330
C8
100
AcDbEntity
  8
MO_001_VIEW_PV
  6
C_DASHED_M
100
AcDbVertex
100
AcDb2dVertex
 10
-40.191508
 20
-56.52409200000001
 30
0.0
  0
VERTEX
  5
32B
330
C8
100
AcDbEntity
  8
MO_001_VIEW_PV
  6
C_DASHED_M
100
AcDbVertex
100
AcDb2dVertex
 10
-40.059813
 20
-56.492132
 30
0.0
  0
VERTEX
  5
32C
330
C8
100
AcDbEntity
  8
MO_001_VIEW_PV
  6
C_DASHED_M
100
AcDbVertex
100
AcDb2dVertex
 10
-39.939332
 20
-56.45884699999999
 30
0.0
  0
VERTEX
  5
32D
330
C8
100
AcDbEntity
  8
MO_001_VIEW_PV
  6
C_DASHED_M
100
AcDbVertex
100
AcDb2dVertex
 10
-39.842519
 20
-56.429219
 30
0.0
  0
VERTEX
  5
32E
330
C8
100
AcDbEntity
  8
MO_001_VIEW_PV
  6
C_DASHED_M
100
AcDbVertex
100
AcDb2dVertex
 10
-39.698725
 20
-56.380169
 30
0.0
  0
VERTEX
  5
32F
330
C8
100
AcDbEntity
  8
MO_001_VIEW_PV
  6
C_DASHED_M
100
AcDbVertex
100
AcDb2dVertex
 10
-39.614337
 20
-56.348253
 30
0.0
  0
VERTEX
  5
330
330
C8
100
AcDbEntity
  8
MO_001_VIEW_PV
  6
C_DASHED_M
100
AcDbVertex
100
AcDb2dVertex
 10
-39.56539
 20
-56.328475
 30
0.0
  0
VERTEX
  5
331
330
C8
100
AcDbEntity
  8
MO_001_VIEW_PV
  6
C_DASHED_M
100
AcDbVertex
100
AcDb2dVertex
 10
-39.516746
 20
-56.30761999999999
 30
0.0
  0
VERTEX
  5
332
330
C8
100
AcDbEntity
  8
MO_001_VIEW_PV
  6
C_DASHED_M
100
AcDbVertex
100
AcDb2dVertex
 10
-39.499992
 20
-56.300003
 30
0.0
  0
VERTEX
  5
333
330
C8
100
AcDbEntity
  8
MO_001_VIEW_PV
  6
C_DASHED_M
100
AcDbVertex
100
AcDb2dVertex
 10
-39.507737
 20
-56.303571
 30
0.0
  0
VERTEX
  5
334
330
C8
100
AcDbEntity
  8
MO_001_VIEW_PV
  6
C_DASHED_M
100
AcDbVertex
100
AcDb2dVertex
 10
-39.526832
 20
-56.31206899999999
 30
0.0
  0
VERTEX
  5
335
330
C8
100
AcDbEntity
  8
MO_001_VIEW_PV
  6
C_DASHED_M
100
AcDbVertex
100
AcDb2dVertex
 10
-39.58633799999999
 20
-56.337068
 30
0.0
  0
VERTEX
  5
336
330
C8
100
AcDbEntity
  8
MO_001_VIEW_PV
  6
C_DASHED_M
100
AcDbVertex
100
AcDb2dVertex
 10
-39.651383
 20
-56.362578
 30
0.0
  0
VERTEX
  5
337
330
C8
100
AcDbEntity
  8
MO_001_VIEW_PV
  6
C_DASHED_M
100
AcDbVertex
100
AcDb2dVertex
 10
-39.779026
 20
-56.40833399999999
 30
0.0
  0
VERTEX
  5
338
330
C8
100
AcDbEntity
  8
MO_001_VIEW_PV
  6
C_DASHED_M
100
AcDbVertex
100
AcDb2dVertex
 10
-39.939332
 20
-56.45884699999999
 30
0.0
  0
VERTEX
  5
339
330
C8
100
AcDbEntity
  8
MO_001_VIEW_PV
  6
C_DASHED_M
100
AcDbVertex
100
AcDb2dVertex
 10
-40.161328
 20
-56.517173
 30
0.0
  0
VERTEX
  5
33A
330
C8
100
AcDbEntity
  8
MO_001_VIEW_PV
  6
C_DASHED_M
100
AcDbVertex
100
AcDb2dVertex
 10
-40.34968
 20
-56.55643799999999
 30
0.0
  0
VERTEX
  5
33B
330
C8
100
AcDbEntity
  8
MO_001_VIEW_PV
  6
C_DASHED_M
100
AcDbVertex
100
AcDb2dVertex
 10
-40.661237
 20
-56.600611
 30
0.0
  0
VERTEX
  5
33C
330
C8
100
AcDbEntity
  8
MO_001_VIEW_PV
  6
C_DASHED_M
100
AcDbVertex
100
AcDb2dVertex
 10
-40.999992
 20
-56.617691
 30
0.0
  0
VERTEX
  5
33D
330
C8
100
AcDbEntity
  8
MO_001_VIEW_PV
  6
C_DASHED_M
100
AcDbVertex
100
AcDb2dVertex
 10
-41.302295
 20
-56.60404
 30
0.0
  0
VERTEX
  5
33E
330
C8
100
AcDbEntity
  8
MO_001_VIEW_PV
  6
C_DASHED_M
100
AcDbVertex
100
AcDb2dVertex
 10
-41.515743
 20
-56.578736
 30
0.0
  0
VERTEX
  5
33F
330
C8
100
AcDbEntity
  8
MO_001_VIEW_PV
  6
C_DASHED_M
100
AcDbVertex
100
AcDb2dVertex
 10
-41.808477
 20
-56.52409200000001
 30
0.0
  0
VERTEX
  5
340
330
C8
100
AcDbEntity
  8
MO_001_VIEW_PV
  6
C_DASHED_M
100
AcDbVertex
100
AcDb2dVertex
 10
-41.940172
 20
-56.492132
 30
0.0
  0
VERTEX
  5
341
330
C8
100
AcDbEntity
  8
MO_001_VIEW_PV
  6
C_DASHED_M
100
AcDbVertex
100
AcDb2dVertex
 10
-42.060653
 20
-56.45884699999999
 30
0.0
  0
VERTEX
  5
342
330
C8
100
AcDbEntity
  8
MO_001_VIEW_PV
  6
C_DASHED_M
100
AcDbVertex
100
AcDb2dVertex
 10
-42.157466
 20
-56.429219
 30
0.0
  0
VERTEX
  5
343
330
C8
100
AcDbEntity
  8
MO_001_VIEW_PV
  6
C_DASHED_M
100
AcDbVertex
100
AcDb2dVertex
 10
-42.30126
 20
-56.380169
 30
0.0
  0
VERTEX
  5
344
330
C8
100
AcDbEntity
  8
MO_001_VIEW_PV
  6
C_DASHED_M
100
AcDbVertex
100
AcDb2dVertex
 10
-42.38564799999999
 20
-56.348253
 30
0.0
  0
VERTEX
  5
345
330
C8
100
AcDbEntity
  8
MO_001_VIEW_PV
  6
C_DASHED_M
100
AcDbVertex
100
AcDb2dVertex
 10
-42.434595
 20
-56.328475
 30
0.0
  0
VERTEX
  5
346
330
C8
100
AcDbEntity
  8
MO_001_VIEW_PV
  6
C_DASHED_M
100
AcDbVertex
100
AcDb2dVertex
 10
-42.483239
 20
-56.307621
 30
0.0
  0
VERTEX
  5
347
330
C8
100
AcDbEntity
  8
MO_001_VIEW_PV
  6
C_DASHED_M
100
AcDbVertex
100
AcDb2dVertex
 10
-42.499992
 20
-56.300003
 30
0.0
  0
SEQEND
  5
348
330
C8
100
AcDbEntity
  8
MO_001_VIEW_PV
  6
C_DASHED_M
  0
POLYLINE
  5
F5
330
1E
100
AcDbEntity
  8
MO_001_VIEW_PV
  6
C_SOLID_M
100
AcDb2dPolyline
 66
     1
 10
0.0
 20
0.0
 30
0.0
 70
     1
  0
VERTEX
  5
349
330
F5
100
AcDbEntity
  8
MO_001_VIEW_PV
  6
C_SOLID_M
100
AcDbVertex
100
AcDb2dVertex
 10
-42.799995
 20
-64.0
 30
0.0
  0
VERTEX
  5
34A
330
F5
100
AcDbEntity
  8
MO_001_VIEW_PV
  6
C_SOLID_M
100
AcDbVertex
100
AcDb2dVertex
 10
-42.790702
 20
-63.995195
 30
0.0
  0
VERTEX
  5
34B
330
F5
100
AcDbEntity
  8
MO_001_VIEW_PV
  6
C_SOLID_M
100
AcDbVertex
100
AcDb2dVertex
 10
-42.767788
 20
-63.983749
 30
0.0
  0
VERTEX
  5
34C
330
F5
100
AcDbEntity
  8
MO_001_VIEW_PV
  6
C_SOLID_M
100
AcDbVertex
100
AcDb2dVertex
 10
-42.73691999999999
 20
-63.968883
 30
0.0
  0
VERTEX
  5
34D
330
F5
100
AcDbEntity
  8
MO_001_VIEW_PV
  6
C_SOLID_M
100
AcDbVertex
100
AcDb2dVertex
 10
-42.659874
 20
-63.93372900000001
 30
0.0
  0
VERTEX
  5
34E
330
F5
100
AcDbEntity
  8
MO_001_VIEW_PV
  6
C_SOLID_M
100
AcDbVertex
100
AcDb2dVertex
 10
-42.58396099999999
 20
-63.901263
 30
0.0
  0
VERTEX
  5
34F
330
F5
100
AcDbEntity
  8
MO_001_VIEW_PV
  6
C_SOLID_M
100
AcDbVertex
100
AcDb2dVertex
 10
-42.443157
 20
-63.845806
 30
0.0
  0
VERTEX
  5
350
330
F5
100
AcDbEntity
  8
MO_001_VIEW_PV
  6
C_SOLID_M
100
AcDbVertex
100
AcDb2dVertex
 10
-42.272787
 20
-63.78605699999999
 30
0.0
  0
VERTEX
  5
351
330
F5
100
AcDbEntity
  8
MO_001_VIEW_PV
  6
C_SOLID_M
100
AcDbVertex
100
AcDb2dVertex
 10
-42.144961
 20
-63.74615099999999
 30
0.0
  0
VERTEX
  5
352
330
F5
100
AcDbEntity
  8
MO_001_VIEW_PV
  6
C_SOLID_M
100
AcDbVertex
100
AcDb2dVertex
 10
-41.89595599999999
 20
-63.680087
 30
0.0
  0
VERTEX
  5
353
330
F5
100
AcDbEntity
  8
MO_001_VIEW_PV
  6
C_SOLID_M
100
AcDbVertex
100
AcDb2dVertex
 10
-41.690525
 20
-63.6371
 30
0.0
  0
VERTEX
  5
354
330
F5
100
AcDbEntity
  8
MO_001_VIEW_PV
  6
C_SOLID_M
100
AcDbVertex
100
AcDb2dVertex
 10
-41.35726
 20
-63.58995400000001
 30
0.0
  0
VERTEX
  5
355
330
F5
100
AcDbEntity
  8
MO_001_VIEW_PV
  6
C_SOLID_M
100
AcDbVertex
100
AcDb2dVertex
 10
-40.999992
 20
-63.572113
 30
0.0
  0
VERTEX
  5
356
330
F5
100
AcDbEntity
  8
MO_001_VIEW_PV
  6
C_SOLID_M
100
AcDbVertex
100
AcDb2dVertex
 10
-40.815953
 20
-63.57691800000001
 30
0.0
  0
VERTEX
  5
357
330
F5
100
AcDbEntity
  8
MO_001_VIEW_PV
  6
C_SOLID_M
100
AcDbVertex
100
AcDb2dVertex
 10
-40.50722
 20
-63.605689
 30
0.0
  0
VERTEX
  5
358
330
F5
100
AcDbEntity
  8
MO_001_VIEW_PV
  6
C_SOLID_M
100
AcDbVertex
100
AcDb2dVertex
 10
-40.289273
 20
-63.64086
 30
0.0
  0
VERTEX
  5
359
330
F5
100
AcDbEntity
  8
MO_001_VIEW_PV
  6
C_SOLID_M
100
AcDbVertex
100
AcDb2dVertex
 10
-39.989112
 20
-63.708676
 30
0.0
  0
VERTEX
  5
35A
330
F5
100
AcDbEntity
  8
MO_001_VIEW_PV
  6
C_SOLID_M
100
AcDbVertex
100
AcDb2dVertex
 10
-39.852944
 20
-63.746768
 30
0.0
  0
VERTEX
  5
35B
330
F5
100
AcDbEntity
  8
MO_001_VIEW_PV
  6
C_SOLID_M
100
AcDbVertex
100
AcDb2dVertex
 10
-39.72720199999999
 20
-63.78605699999999
 30
0.0
  0
VERTEX
  5
35C
330
F5
100
AcDbEntity
  8
MO_001_VIEW_PV
  6
C_SOLID_M
100
AcDbVertex
100
AcDb2dVertex
 10
-39.61102699999999
 20
-63.825962
 30
0.0
  0
VERTEX
  5
35D
330
F5
100
AcDbEntity
  8
MO_001_VIEW_PV
  6
C_SOLID_M
100
AcDbVertex
100
AcDb2dVertex
 10
-39.51964199999999
 20
-63.85989399999999
 30
0.0
  0
VERTEX
  5
35E
330
F5
100
AcDbEntity
  8
MO_001_VIEW_PV
  6
C_SOLID_M
100
AcDbVertex
100
AcDb2dVertex
 10
-39.38467
 20
-63.914439
 30
0.0
  0
VERTEX
  5
35F
330
F5
100
AcDbEntity
  8
MO_001_VIEW_PV
  6
C_SOLID_M
100
AcDbVertex
100
AcDb2dVertex
 10
-39.305931
 20
-63.949024
 30
0.0
  0
VERTEX
  5
360
330
F5
100
AcDbEntity
  8
MO_001_VIEW_PV
  6
C_SOLID_M
100
AcDbVertex
100
AcDb2dVertex
 10
-39.260452
 20
-63.970124
 30
0.0
  0
VERTEX
  5
361
330
F5
100
AcDbEntity
  8
MO_001_VIEW_PV
  6
C_SOLID_M
100
AcDbVertex
100
AcDb2dVertex
 10
-39.21543599999999
 20
-63.992081
 30
0.0
  0
VERTEX
  5
362
330
F5
100
AcDbEntity
  8
MO_001_VIEW_PV
  6
C_SOLID_M
100
AcDbVertex
100
AcDb2dVertex
 10
-39.19999699999999
 20
-64.0
 30
0.0
  0
VERTEX
  5
363
330
F5
100
AcDbEntity
  8
MO_001_VIEW_PV
  6
C_SOLID_M
100
AcDbVertex
100
AcDb2dVertex
 10
-39.20929
 20
-63.995195
 30
0.0
  0
VERTEX
  5
364
330
F5
100
AcDbEntity
  8
MO_001_VIEW_PV
  6
C_SOLID_M
100
AcDbVertex
100
AcDb2dVertex
 10
-39.23220399999999
 20
-63.983749
 30
0.0
  0
VERTEX
  5
365
330
F5
100
AcDbEntity
  8
MO_001_VIEW_PV
  6
C_SOLID_M
100
AcDbVertex
100
AcDb2dVertex
 10
-39.26307199999999
 20
-63.968883
 30
0.0
  0
VERTEX
  5
366
330
F5
100
AcDbEntity
  8
MO_001_VIEW_PV
  6
C_SOLID_M
100
AcDbVertex
100
AcDb2dVertex
 10
-39.340118
 20
-63.93372900000001
 30
0.0
  0
VERTEX
  5
367
330
F5
100
AcDbEntity
  8
MO_001_VIEW_PV
  6
C_SOLID_M
100
AcDbVertex
100
AcDb2dVertex
 10
-39.41603
 20
-63.901263
 30
0.0
  0
VERTEX
  5
368
330
F5
100
AcDbEntity
  8
MO_001_VIEW_PV
  6
C_SOLID_M
100
AcDbVertex
100
AcDb2dVertex
 10
-39.556832
 20
-63.845806
 30
0.0
  0
VERTEX
  5
369
330
F5
100
AcDbEntity
  8
MO_001_VIEW_PV
  6
C_SOLID_M
100
AcDbVertex
100
AcDb2dVertex
 10
-39.72720199999999
 20
-63.78605699999999
 30
0.0
  0
VERTEX
  5
36A
330
F5
100
AcDbEntity
  8
MO_001_VIEW_PV
  6
C_SOLID_M
100
AcDbVertex
100
AcDb2dVertex
 10
-39.855026
 20
-63.74615099999999
 30
0.0
  0
VERTEX
  5
36B
330
F5
100
AcDbEntity
  8
MO_001_VIEW_PV
  6
C_SOLID_M
100
AcDbVertex
100
AcDb2dVertex
 10
-40.10403
 20
-63.680087
 30
0.0
  0
VERTEX
  5
36C
330
F5
100
AcDbEntity
  8
MO_001_VIEW_PV
  6
C_SOLID_M
100
AcDbVertex
100
AcDb2dVertex
 10
-40.309461
 20
-63.6371
 30
0.0
  0
VERTEX
  5
36D
330
F5
100
AcDbEntity
  8
MO_001_VIEW_PV
  6
C_SOLID_M
100
AcDbVertex
100
AcDb2dVertex
 10
-40.642725
 20
-63.58995400000001
 30
0.0
  0
VERTEX
  5
36E
330
F5
100
AcDbEntity
  8
MO_001_VIEW_PV
  6
C_SOLID_M
100
AcDbVertex
100
AcDb2dVertex
 10
-40.999992
 20
-63.572113
 30
0.0
  0
VERTEX
  5
36F
330
F5
100
AcDbEntity
  8
MO_001_VIEW_PV
  6
C_SOLID_M
100
AcDbVertex
100
AcDb2dVertex
 10
-41.184032
 20
-63.57691800000001
 30
0.0
  0
VERTEX
  5
370
330
F5
100
AcDbEntity
  8
MO_001_VIEW_PV
  6
C_SOLID_M
100
AcDbVertex
100
AcDb2dVertex
 10
-41.492765
 20
-63.605689
 30
0.0
  0
VERTEX
  5
371
330
F5
100
AcDbEntity
  8
MO_001_VIEW_PV
  6
C_SOLID_M
100
AcDbVertex
100
AcDb2dVertex
 10
-41.710713
 20
-63.64086
 30
0.0
  0
VERTEX
  5
372
330
F5
100
AcDbEntity
  8
MO_001_VIEW_PV
  6
C_SOLID_M
100
AcDbVertex
100
AcDb2dVertex
 10
-42.01087499999999
 20
-63.708676
 30
0.0
  0
VERTEX
  5
373
330
F5
100
AcDbEntity
  8
MO_001_VIEW_PV
  6
C_SOLID_M
100
AcDbVertex
100
AcDb2dVertex
 10
-42.147044
 20
-63.746768
 30
0.0
  0
VERTEX
  5
374
330
F5
100
AcDbEntity
  8
MO_001_VIEW_PV
  6
C_SOLID_M
100
AcDbVertex
100
AcDb2dVertex
 10
-42.272787
 20
-63.786056
 30
0.0
  0
VERTEX
  5
375
330
F5
100
AcDbEntity
  8
MO_001_VIEW_PV
  6
C_SOLID_M
100
AcDbVertex
100
AcDb2dVertex
 10
-42.388962
 20
-63.825962
 30
0.0
  0
VERTEX
  5
376
330
F5
100
AcDbEntity
  8
MO_001_VIEW_PV
  6
C_SOLID_M
100
AcDbVertex
100
AcDb2dVertex
 10
-42.480348
 20
-63.85989399999999
 30
0.0
  0
VERTEX
  5
377
330
F5
100
AcDbEntity
  8
MO_001_VIEW_PV
  6
C_SOLID_M
100
AcDbVertex
100
AcDb2dVertex
 10
-42.615321
 20
-63.914439
 30
0.0
  0
VERTEX
  5
378
330
F5
100
AcDbEntity
  8
MO_001_VIEW_PV
  6
C_SOLID_M
100
AcDbVertex
100
AcDb2dVertex
 10
-42.69406
 20
-63.949024
 30
0.0
  0
VERTEX
  5
379
330
F5
100
AcDbEntity
  8
MO_001_VIEW_PV
  6
C_SOLID_M
100
AcDbVertex
100
AcDb2dVertex
 10
-42.73954
 20
-63.970124
 30
0.0
  0
VERTEX
  5
37A
330
F5
100
AcDbEntity
  8
MO_001_VIEW_PV
  6
C_SOLID_M
100
AcDbVertex
100
AcDb2dVertex
 10
-42.784556
 20
-63.99208
 30
0.0
  0
VERTEX
  5
37B
330
F5
100
AcDbEntity
  8
MO_001_VIEW_PV
  6
C_SOLID_M
100
AcDbVertex
100
AcDb2dVertex
 10
-42.799995
 20
-64.0
 30
0.0
  0
SEQEND
  5
37C
330
F5
100
AcDbEntity
  8
MO_001_VIEW_PV
  6
C_SOLID_M
  0
POLYLINE
  5
12A
330
1E
100
AcDbEntity
  8
MO_001_VIEW_PV
  6
C_SOLID_M
100
AcDb2dPolyline
 66
     1
 10
0.0
 20
0.0
 30
0.0
 70
     1
  0
VERTEX
  5
37D
330
12A
100
AcDbEntity
  8
MO_001_VIEW_PV
  6
C_SOLID_M
100
AcDbVertex
100
AcDb2dVertex
 10
-42.799995
 20
-56.0
 30
0.0
  0
VERTEX
  5
37E
330
12A
100
AcDbEntity
  8
MO_001_VIEW_PV
  6
C_SOLID_M
100
AcDbVertex
100
AcDb2dVertex
 10
-42.790702
 20
-56.004805
 30
0.0
  0
VERTEX
  5
37F
330
12A
100
AcDbEntity
  8
MO_001_VIEW_PV
  6
C_SOLID_M
100
AcDbVertex
100
AcDb2dVertex
 10
-42.767788
 20
-56.016251
 30
0.0
  0
VERTEX
  5
380
330
12A
100
AcDbEntity
  8
MO_001_VIEW_PV
  6
C_SOLID_M
100
AcDbVertex
100
AcDb2dVertex
 10
-42.73691999999999
 20
-56.031117
 30
0.0
  0
VERTEX
  5
381
330
12A
100
AcDbEntity
  8
MO_001_VIEW_PV
  6
C_SOLID_M
100
AcDbVertex
100
AcDb2dVertex
 10
-42.659874
 20
-56.06627099999999
 30
0.0
  0
VERTEX
  5
382
330
12A
100
AcDbEntity
  8
MO_001_VIEW_PV
  6
C_SOLID_M
100
AcDbVertex
100
AcDb2dVertex
 10
-42.58396099999999
 20
-56.098737
 30
0.0
  0
VERTEX
  5
383
330
12A
100
AcDbEntity
  8
MO_001_VIEW_PV
  6
C_SOLID_M
100
AcDbVertex
100
AcDb2dVertex
 10
-42.443157
 20
-56.154194
 30
0.0
  0
VERTEX
  5
384
330
12A
100
AcDbEntity
  8
MO_001_VIEW_PV
  6
C_SOLID_M
100
AcDbVertex
100
AcDb2dVertex
 10
-42.272787
 20
-56.21394300000001
 30
0.0
  0
VERTEX
  5
385
330
12A
100
AcDbEntity
  8
MO_001_VIEW_PV
  6
C_SOLID_M
100
AcDbVertex
100
AcDb2dVertex
 10
-42.144961
 20
-56.253849
 30
0.0
  0
VERTEX
  5
386
330
12A
100
AcDbEntity
  8
MO_001_VIEW_PV
  6
C_SOLID_M
100
AcDbVertex
100
AcDb2dVertex
 10
-41.89595599999999
 20
-56.319913
 30
0.0
  0
VERTEX
  5
387
330
12A
100
AcDbEntity
  8
MO_001_VIEW_PV
  6
C_SOLID_M
100
AcDbVertex
100
AcDb2dVertex
 10
-41.690525
 20
-56.3629
 30
0.0
  0
VERTEX
  5
388
330
12A
100
AcDbEntity
  8
MO_001_VIEW_PV
  6
C_SOLID_M
100
AcDbVertex
100
AcDb2dVertex
 10
-41.35726
 20
-56.41004599999999
 30
0.0
  0
VERTEX
  5
389
330
12A
100
AcDbEntity
  8
MO_001_VIEW_PV
  6
C_SOLID_M
100
AcDbVertex
100
AcDb2dVertex
 10
-40.999992
 20
-56.427887
 30
0.0
  0
VERTEX
  5
38A
330
12A
100
AcDbEntity
  8
MO_001_VIEW_PV
  6
C_SOLID_M
100
AcDbVertex
100
AcDb2dVertex
 10
-40.815953
 20
-56.42308199999999
 30
0.0
  0
VERTEX
  5
38B
330
12A
100
AcDbEntity
  8
MO_001_VIEW_PV
  6
C_SOLID_M
100
AcDbVertex
100
AcDb2dVertex
 10
-40.50722
 20
-56.394311
 30
0.0
  0
VERTEX
  5
38C
330
12A
100
AcDbEntity
  8
MO_001_VIEW_PV
  6
C_SOLID_M
100
AcDbVertex
100
AcDb2dVertex
 10
-40.289273
 20
-56.359139
 30
0.0
  0
VERTEX
  5
38D
330
12A
100
AcDbEntity
  8
MO_001_VIEW_PV
  6
C_SOLID_M
100
AcDbVertex
100
AcDb2dVertex
 10
-39.989112
 20
-56.29132399999999
 30
0.0
  0
VERTEX
  5
38E
330
12A
100
AcDbEntity
  8
MO_001_VIEW_PV
  6
C_SOLID_M
100
AcDbVertex
100
AcDb2dVertex
 10
-39.852944
 20
-56.253232
 30
0.0
  0
VERTEX
  5
38F
330
12A
100
AcDbEntity
  8
MO_001_VIEW_PV
  6
C_SOLID_M
100
AcDbVertex
100
AcDb2dVertex
 10
-39.72720199999999
 20
-56.21394300000001
 30
0.0
  0
VERTEX
  5
390
330
12A
100
AcDbEntity
  8
MO_001_VIEW_PV
  6
C_SOLID_M
100
AcDbVertex
100
AcDb2dVertex
 10
-39.61102699999999
 20
-56.174038
 30
0.0
  0
VERTEX
  5
391
330
12A
100
AcDbEntity
  8
MO_001_VIEW_PV
  6
C_SOLID_M
100
AcDbVertex
100
AcDb2dVertex
 10
-39.51964199999999
 20
-56.140106
 30
0.0
  0
VERTEX
  5
392
330
12A
100
AcDbEntity
  8
MO_001_VIEW_PV
  6
C_SOLID_M
100
AcDbVertex
100
AcDb2dVertex
 10
-39.38467
 20
-56.085561
 30
0.0
  0
VERTEX
  5
393
330
12A
100
AcDbEntity
  8
MO_001_VIEW_PV
  6
C_SOLID_M
100
AcDbVertex
100
AcDb2dVertex
 10
-39.305931
 20
-56.050976
 30
0.0
  0
VERTEX
  5
394
330
12A
100
AcDbEntity
  8
MO_001_VIEW_PV
  6
C_SOLID_M
100
AcDbVertex
100
AcDb2dVertex
 10
-39.260452
 20
-56.029876
 30
0.0
  0
VERTEX
  5
395
330
12A
100
AcDbEntity
  8
MO_001_VIEW_PV
  6
C_SOLID_M
100
AcDbVertex
100
AcDb2dVertex
 10
-39.21543599999999
 20
-56.00791899999999
 30
0.0
  0
VERTEX
  5
396
330
12A
100
AcDbEntity
  8
MO_001_VIEW_PV
  6
C_SOLID_M
100
AcDbVertex
100
AcDb2dVertex
 10
-39.19999699999999
 20
-56.0
 30
0.0
  0
VERTEX
  5
397
330
12A
100
AcDbEntity
  8
MO_001_VIEW_PV
  6
C_SOLID_M
100
AcDbVertex
100
AcDb2dVertex
 10
-39.20929
 20
-56.004805
 30
0.0
  0
VERTEX
  5
398
330
12A
100
AcDbEntity
  8
MO_001_VIEW_PV
  6
C_SOLID_M
100
AcDbVertex
100
AcDb2dVertex
 10
-39.23220399999999
 20
-56.016251
 30
0.0
  0
VERTEX
  5
399
330
12A
100
AcDbEntity
  8
MO_001_VIEW_PV
  6
C_SOLID_M
100
AcDbVertex
100
AcDb2dVertex
 10
-39.26307199999999
 20
-56.031117
 30
0.0
  0
VERTEX
  5
39A
330
12A
100
AcDbEntity
  8
MO_001_VIEW_PV
  6
C_SOLID_M
100
AcDbVertex
100
AcDb2dVertex
 10
-39.340118
 20
-56.06627099999999
 30
0.0
  0
VERTEX
  5
39B
330
12A
100
AcDbEntity
  8
MO_001_VIEW_PV
  6
C_SOLID_M
100
AcDbVertex
100
AcDb2dVertex
 10
-39.41603
 20
-56.098737
 30
0.0
  0
VERTEX
  5
39C
330
12A
100
AcDbEntity
  8
MO_001_VIEW_PV
  6
C_SOLID_M
100
AcDbVertex
100
AcDb2dVertex
 10
-39.556832
 20
-56.154194
 30
0.0
  0
VERTEX
  5
39D
330
12A
100
AcDbEntity
  8
MO_001_VIEW_PV
  6
C_SOLID_M
100
AcDbVertex
100
AcDb2dVertex
 10
-39.72720199999999
 20
-56.21394399999999
 30
0.0
  0
VERTEX
  5
39E
330
12A
100
AcDbEntity
  8
MO_001_VIEW_PV
  6
C_SOLID_M
100
AcDbVertex
100
AcDb2dVertex
 10
-39.85502699999999
 20
-56.253849
 30
0.0
  0
VERTEX
  5
39F
330
12A
100
AcDbEntity
  8
MO_001_VIEW_PV
  6
C_SOLID_M
100
AcDbVertex
100
AcDb2dVertex
 10
-40.10403
 20
-56.319913
 30
0.0
  0
VERTEX
  5
3A0
330
12A
100
AcDbEntity
  8
MO_001_VIEW_PV
  6
C_SOLID_M
100
AcDbVertex
100
AcDb2dVertex
 10
-40.309461
 20
-56.3629
 30
0.0
  0
VERTEX
  5
3A1
330
12A
100
AcDbEntity
  8
MO_001_VIEW_PV
  6
C_SOLID_M
100
AcDbVertex
100
AcDb2dVertex
 10
-40.642725
 20
-56.41004599999999
 30
0.0
  0
VERTEX
  5
3A2
330
12A
100
AcDbEntity
  8
MO_001_VIEW_PV
  6
C_SOLID_M
100
AcDbVertex
100
AcDb2dVertex
 10
-40.999992
 20
-56.427887
 30
0.0
  0
VERTEX
  5
3A3
330
12A
100
AcDbEntity
  8
MO_001_VIEW_PV
  6
C_SOLID_M
100
AcDbVertex
100
AcDb2dVertex
 10
-41.184032
 20
-56.42308199999999
 30
0.0
  0
VERTEX
  5
3A4
330
12A
100
AcDbEntity
  8
MO_001_VIEW_PV
  6
C_SOLID_M
100
AcDbVertex
100
AcDb2dVertex
 10
-41.492765
 20
-56.394311
 30
0.0
  0
VERTEX
  5
3A5
330
12A
100
AcDbEntity
  8
MO_001_VIEW_PV
  6
C_SOLID_M
100
AcDbVertex
100
AcDb2dVertex
 10
-41.710713
 20
-56.35914
 30
0.0
  0
VERTEX
  5
3A6
330
12A
100
AcDbEntity
  8
MO_001_VIEW_PV
  6
C_SOLID_M
100
AcDbVertex
100
AcDb2dVertex
 10
-42.01087499999999
 20
-56.29132399999999
 30
0.0
  0
VERTEX
  5
3A7
330
12A
100
AcDbEntity
  8
MO_001_VIEW_PV
  6
C_SOLID_M
100
AcDbVertex
100
AcDb2dVertex
 10
-42.147044
 20
-56.253232
 30
0.0
  0
VERTEX
  5
3A8
330
12A
100
AcDbEntity
  8
MO_001_VIEW_PV
  6
C_SOLID_M
100
AcDbVertex
100
AcDb2dVertex
 10
-42.272787
 20
-56.21394399999999
 30
0.0
  0
VERTEX
  5
3A9
330
12A
100
AcDbEntity
  8
MO_001_VIEW_PV
  6
C_SOLID_M
100
AcDbVertex
100
AcDb2dVertex
 10
-42.388962
 20
-56.174038
 30
0.0
  0
VERTEX
  5
3AA
330
12A
100
AcDbEntity
  8
MO_001_VIEW_PV
  6
C_SOLID_M
100
AcDbVertex
100
AcDb2dVertex
 10
-42.480348
 20
-56.140106
 30
0.0
  0
VERTEX
  5
3AB
330
12A
100
AcDbEntity
  8
MO_001_VIEW_PV
  6
C_SOLID_M
100
AcDbVertex
100
AcDb2dVertex
 10
-42.615321
 20
-56.085561
 30
0.0
  0
VERTEX
  5
3AC
330
12A
100
AcDbEntity
  8
MO_001_VIEW_PV
  6
C_SOLID_M
100
AcDbVertex
100
AcDb2dVertex
 10
-42.69406
 20
-56.050976
 30
0.0
  0
VERTEX
  5
3AD
330
12A
100
AcDbEntity
  8
MO_001_VIEW_PV
  6
C_SOLID_M
100
AcDbVertex
100
AcDb2dVertex
 10
-42.73954
 20
-56.029876
 30
0.0
  0
VERTEX
  5
3AE
330
12A
100
AcDbEntity
  8
MO_001_VIEW_PV
  6
C_SOLID_M
100
AcDbVertex
100
AcDb2dVertex
 10
-42.784556
 20
-56.00792
 30
0.0
  0
VERTEX
  5
3AF
330
12A
100
AcDbEntity
  8
MO_001_VIEW_PV
  6
C_SOLID_M
100
AcDbVertex
100
AcDb2dVertex
 10
-42.799995
 20
-56.0
 30
0.0
  0
SEQEND
  5
3B0
330
12A
100
AcDbEntity
  8
MO_001_VIEW_PV
  6
C_SOLID_M
  0
LINE
  5
15F
330
1E
100
AcDbEntity
  8
MO_001_VIEW_PV
  6
C_SOLID_M
100
AcDbLine
 10
-36.0
 20
-60.0
 30
0.0
 11
-31.999994
 21
-60.0
 31
0.0
  0
LINE
  5
160
330
1E
100
AcDbEntity
  8
MO_001_VIEW_PV
  6
C_SOLID_M
100
AcDbLine
 10
-45.999992
 20
-3.5
 30
0.0
 11
-45.999992
 21
3.5
 31
0.0
  0
LINE
  5
161
330
1E
100
AcDbEntity
  8
MO_001_VIEW_PV
  6
C_SOLID_M
100
AcDbLine
 10
-45.499992
 20
-3.872982
 30
0.0
 11
-45.499992
 21
3.872982
 31
0.0
  0
LINE
  5
162
330
1E
100
AcDbEntity
  8
MO_001_VIEW_PV
  6
C_SOLID_M
100
AcDbLine
 10
-36.0
 20
3.872982
 30
0.0
 11
-36.0
 21
4.0
 31
0.0
  0
LINE
  5
163
330
1E
100
AcDbEntity
  8
MO_001_VIEW_PV
  6
C_CENTER_L
100
AcDbLine
 10
-40.999992
 20
-2.776908999999999
 30
0.0
 11
-40.999992
 21
2.815964
 31
0.0
  0
LINE
  5
164
330
1E
100
AcDbEntity
  8
MO_001_VIEW_PV
  6
C_SOLID_M
100
AcDbLine
 10
-31.999994
 20
4.0
 30
0.0
 11
-36.0
 21
4.0
 31
0.0
  0
LINE
  5
165
330
1E
100
AcDbEntity
  8
MO_001_VIEW_PV
  6
C_SOLID_M
100
AcDbLine
 10
0.9
 20
2.0
 30
0.0
 11
0.9
 21
-2.0
 31
0.0
  0
LINE
  5
166
330
1E
100
AcDbEntity
  8
MO_001_VIEW_PV
  6
C_SOLID_M
100
AcDbLine
 10
0.9
 20
-2.0
 30
0.0
 11
0.0
 21
-2.0
 31
0.0
  0
LINE
  5
167
330
1E
100
AcDbEntity
  8
MO_001_VIEW_PV
  6
C_SOLID_M
100
AcDbLine
 10
0.9
 20
2.0
 30
0.0
 11
0.0
 21
2.0
 31
0.0
  0
ARC
  5
168
330
1E
100
AcDbEntity
  8
MO_001_VIEW_PV
  6
C_SOLID_M
100
AcDbCircle
 10
-81.0
 20
0.0
 30
0.0
 40
3.5
100
AcDbArc
 50
286.6015439999999
 51
73.39845600000001
  0
ARC
  5
169
330
1E
100
AcDbEntity
  8
MO_001_VIEW_PV
  6
C_SOLID_M
100
AcDbCircle
 10
-81.0
 20
0.0
 30
0.0
 40
4.0
100
AcDbArc
 50
277.180753
 51
262.819232
  0
LINE
  5
16A
330
1E
100
AcDbEntity
  8
MO_001_VIEW_PV
  6
C_SOLID_M
100
AcDbLine
 10
-82.0
 20
-3.872982
 30
0.0
 11
-82.0
 21
3.872982
 31
0.0
  0
LINE
  5
16B
330
1E
100
AcDbEntity
  8
MO_001_VIEW_PV
  6
C_SOLID_M
100
AcDbLine
 10
-80.0
 20
-3.872982
 30
0.0
 11
-80.0
 21
3.872982
 31
0.0
  0
ARC
  5
16C
330
1E
100
AcDbEntity
  8
MO_001_VIEW_PV
  6
C_SOLID_M
100
AcDbCircle
 10
-81.0
 20
0.0
 30
0.0
 40
3.5
100
AcDbArc
 50
106.601542
 51
253.398461
  0
LINE
  5
16D
330
1E
100
AcDbEntity
  8
MO_001_VIEW_PV
  6
C_SOLID_M
100
AcDbLine
 10
-45.499992
 20
3.872982
 30
0.0
 11
-36.0
 21
3.872982
 31
0.0
  0
LINE
  5
16E
330
1E
100
AcDbEntity
  8
MO_001_VIEW_PV
  6
C_SOLID_M
100
AcDbLine
 10
-45.99999299999999
 20
3.500001999999999
 30
0.0
 11
-45.49999399999999
 21
3.872983999999999
 31
0.0
  0
CIRCLE
  5
16F
330
1E
100
AcDbEntity
  8
MO_001_VIEW_PV
  6
C_SOLID_M
100
AcDbCircle
 10
-40.999992
 20
0.0
 30
0.0
 40
1.499991999999999
  0
CIRCLE
  5
170
330
1E
100
AcDbEntity
  8
MO_001_VIEW_PV
  6
C_SOLID_M
100
AcDbCircle
 10
-40.999992
 20
0.0
 30
0.0
 40
1.799995
  0
LINE
  5
171
330
1E
100
AcDbEntity
  8
MO_001_VIEW_PV
  6
C_SOLID_M
100
AcDbLine
 10
-45.99999299999999
 20
-3.500001999999999
 30
0.0
 11
-45.49999699999999
 21
-3.872982
 31
0.0
  0
LINE
  5
172
330
1E
100
AcDbEntity
  8
MO_001_VIEW_PV
  6
C_SOLID_M
100
AcDbLine
 10
-45.499992
 20
-3.872982
 30
0.0
 11
-36.0
 21
-3.872982
 31
0.0
  0
LINE
  5
173
330
1E
100
AcDbEntity
  8
MO_001_VIEW_PV
  6
C_SOLID_M
100
AcDbLine
 10
-36.0
 20
-3.872982
 30
0.0
 11
-36.0
 21
-4.0
 31
0.0
  0
LINE
  5
174
330
1E
100
AcDbEntity
  8
MO_001_VIEW_PV
  6
C_SOLID_M
100
AcDbLine
 10
-31.999994
 20
-4.0
 30
0.0
 11
-36.0
 21
-4.0
 31
0.0
  0
LINE
  5
175
330
1E
100
AcDbEntity
  8
MO_001_VIEW_PV
  6
C_SOLID_M
100
AcDbLine
 10
-69.599998
 20
5.0
 30
0.0
 11
-68.0
 21
5.0
 31
0.0
  0
LINE
  5
176
330
1E
100
AcDbEntity
  8
MO_001_VIEW_PV
  6
C_SOLID_M
100
AcDbLine
 10
-1.649995999999999
 20
-62.660004
 30
0.0
 11
-1.649995999999999
 21
-71.0
 31
0.0
  0
LINE
  5
177
330
1E
100
AcDbEntity
  8
MO_001_VIEW_PV
  6
C_SOLID_M
100
AcDbLine
 10
-29.94999899999999
 20
-49.0
 30
0.0
 11
-29.94999899999999
 21
-71.0
 31
0.0
  0
LINE
  5
178
330
1E
100
AcDbEntity
  8
MO_001_VIEW_PV
  6
C_SOLID_M
100
AcDbLine
 10
-29.94999899999999
 20
-49.0
 30
0.0
 11
-28.949999
 21
-49.0
 31
0.0
  0
LINE
  5
179
330
1E
100
AcDbEntity
  8
MO_001_VIEW_PV
  6
C_SOLID_M
100
AcDbLine
 10
-29.94999899999999
 20
-71.0
 30
0.0
 11
-28.949999
 21
-71.0
 31
0.0
  0
LINE
  5
17A
330
1E
100
AcDbEntity
  8
MO_001_VIEW_PV
  6
C_SOLID_M
100
AcDbLine
 10
-2.649995999999999
 20
-49.0
 30
0.0
 11
-1.649995999999999
 21
-49.0
 31
0.0
  0
LINE
  5
17B
330
1E
100
AcDbEntity
  8
MO_001_VIEW_PV
  6
C_SOLID_M
100
AcDbLine
 10
-2.649995999999999
 20
-71.0
 30
0.0
 11
-1.649995999999999
 21
-71.0
 31
0.0
  0
LINE
  5
17C
330
1E
100
AcDbEntity
  8
MO_001_VIEW_PV
  6
C_SOLID_M
100
AcDbLine
 10
-28.949999
 20
-49.0
 30
0.0
 11
-28.949999
 21
-71.0
 31
0.0
  0
LINE
  5
17D
330
1E
100
AcDbEntity
  8
MO_001_VIEW_PV
  6
C_SOLID_M
100
AcDbLine
 10
-2.649995999999999
 20
-62.660004
 30
0.0
 11
-2.649995999999999
 21
-71.0
 31
0.0
  0
ARC
  5
17E
330
1E
100
AcDbEntity
  8
MO_001_VIEW_PV
  6
C_SOLID_M
100
AcDbCircle
 10
-29.683329
 20
-52.0
 30
0.0
 40
0.566667
100
AcDbArc
 50
118.072647
 51
123.974313
  0
ARC
  5
17F
330
1E
100
AcDbEntity
  8
MO_001_VIEW_PV
  6
C_SOLID_M
100
AcDbCircle
 10
-29.683329
 20
-68.0
 30
0.0
 40
0.566667
100
AcDbArc
 50
118.072647
 51
123.974313
  0
ARC
  5
180
330
1E
100
AcDbEntity
  8
MO_001_VIEW_PV
  6
C_SOLID_M
100
AcDbCircle
 10
-1.849997
 20
-51.30130799999999
 30
0.0
 40
0.5
100
AcDbArc
 50
293.5781859999999
 51
299.999493
  0
ARC
  5
181
330
1E
100
AcDbEntity
  8
MO_001_VIEW_PV
  6
C_SOLID_M
100
AcDbCircle
 10
-1.849997
 20
-68.69869200000001
 30
0.0
 40
0.5
100
AcDbArc
 50
293.5781859999999
 51
299.999493
  0
ARC
  5
182
330
1E
100
AcDbEntity
  8
MO_001_VIEW_PV
  6
C_SOLID_M
100
AcDbCircle
 10
-1.849997
 20
-51.30130799999999
 30
0.0
 40
0.5
100
AcDbArc
 50
60.00050699999999
 51
66.421814
  0
ARC
  5
183
330
1E
100
AcDbEntity
  8
MO_001_VIEW_PV
  6
C_SOLID_M
100
AcDbCircle
 10
-1.849997
 20
-68.69869200000001
 30
0.0
 40
0.5
100
AcDbArc
 50
60.00050699999999
 51
66.421814
  0
ARC
  5
184
330
1E
100
AcDbEntity
  8
MO_001_VIEW_PV
  6
C_SOLID_M
100
AcDbCircle
 10
-29.683329
 20
-52.0
 30
0.0
 40
0.566667
100
AcDbArc
 50
236.025687
 51
241.927353
  0
ARC
  5
185
330
1E
100
AcDbEntity
  8
MO_001_VIEW_PV
  6
C_SOLID_M
100
AcDbCircle
 10
-29.683329
 20
-68.0
 30
0.0
 40
0.566667
100
AcDbArc
 50
236.025687
 51
241.927353
  0
LINE
  5
186
330
1E
100
AcDbEntity
  8
MO_001_VIEW_PV
  6
C_SOLID_M
100
AcDbLine
 10
-28.949999
 20
-50.0
 30
0.0
 11
-2.649995999999999
 21
-50.0
 31
0.0
  0
LINE
  5
187
330
1E
100
AcDbEntity
  8
MO_001_VIEW_PV
  6
C_SOLID_M
100
AcDbLine
 10
-28.949999
 20
-70.0
 30
0.0
 11
-2.649995999999999
 21
-70.0
 31
0.0
  0
LINE
  5
188
330
1E
100
AcDbEntity
  8
MO_001_VIEW_PV
  6
C_CENTER_L
100
AcDbLine
 10
-28.031809
 20
-7.5
 30
0.0
 11
-21.77600899999999
 21
-7.5
 31
0.0
  0
LINE
  5
189
330
1E
100
AcDbEntity
  8
MO_001_VIEW_PV
  6
C_CENTER_L
100
AcDbLine
 10
-27.695215
 20
7.5
 30
0.0
 11
-22.11912499999999
 21
7.5
 31
0.0
  0
LINE
  5
18A
330
1E
100
AcDbEntity
  8
MO_001_VIEW_PV
  6
C_CENTER_L
100
AcDbLine
 10
-24.999994
 20
-10.05570599999999
 30
0.0
 11
-24.999994
 21
-4.713478
 31
0.0
  0
LINE
  5
18B
330
1E
100
AcDbEntity
  8
MO_001_VIEW_PV
  6
C_CENTER_L
100
AcDbLine
 10
-6.999994
 20
-9.994480000000001
 30
0.0
 11
-6.999994
 21
-4.827849999999999
 31
0.0
  0
LINE
  5
18C
330
1E
100
AcDbEntity
  8
MO_001_VIEW_PV
  6
C_SOLID_M
100
AcDbLine
 10
47.0
 20
-12.759998
 30
0.0
 11
47.0
 21
-13.24000199999999
 31
0.0
  0
LINE
  5
18D
330
1E
100
AcDbEntity
  8
MO_001_VIEW_PV
  6
C_SOLID_M
100
AcDbLine
 10
42.0
 20
-12.33999999999999
 30
0.0
 11
42.0
 21
-13.66
 31
0.0
  0
LINE
  5
18E
330
1E
100
AcDbEntity
  8
MO_001_VIEW_PV
  6
C_SOLID_M
100
AcDbLine
 10
-0.649996
 20
-12.33999999999999
 30
0.0
 11
42.0
 21
-12.33999999999999
 31
0.0
  0
LINE
  5
18F
330
1E
100
AcDbEntity
  8
MO_001_VIEW_PV
  6
C_SOLID_M
100
AcDbLine
 10
-0.649996
 20
-13.66
 30
0.0
 11
42.0
 21
-13.66
 31
0.0
  0
LINE
  5
190
330
1E
100
AcDbEntity
  8
MO_001_VIEW_PV
  6
C_SOLID_M
100
AcDbLine
 10
42.0
 20
-12.759998
 30
0.0
 11
47.0
 21
-12.759998
 31
0.0
  0
LINE
  5
191
330
1E
100
AcDbEntity
  8
MO_001_VIEW_PV
  6
C_SOLID_M
100
AcDbLine
 10
42.0
 20
-13.24000199999999
 30
0.0
 11
47.0
 21
-13.24000199999999
 31
0.0
  0
LINE
  5
192
330
1E
100
AcDbEntity
  8
MO_001_VIEW_PV
  6
C_SOLID_M
100
AcDbLine
 10
47.0
 20
-57.759995
 30
0.0
 11
47.0
 21
-58.240005
 31
0.0
  0
LINE
  5
193
330
1E
100
AcDbEntity
  8
MO_001_VIEW_PV
  6
C_SOLID_M
100
AcDbLine
 10
42.0
 20
-57.339996
 30
0.0
 11
42.0
 21
-58.660004
 31
0.0
  0
LINE
  5
194
330
1E
100
AcDbEntity
  8
MO_001_VIEW_PV
  6
C_SOLID_M
100
AcDbLine
 10
-3.309995999999999
 20
-57.339996
 30
0.0
 11
42.0
 21
-57.339996
 31
0.0
  0
LINE
  5
195
330
1E
100
AcDbEntity
  8
MO_001_VIEW_PV
  6
C_SOLID_M
100
AcDbLine
 10
-3.309995999999999
 20
-58.660004
 30
0.0
 11
42.0
 21
-58.660004
 31
0.0
  0
LINE
  5
196
330
1E
100
AcDbEntity
  8
MO_001_VIEW_PV
  6
C_SOLID_M
100
AcDbLine
 10
42.0
 20
-57.759995
 30
0.0
 11
47.0
 21
-57.759995
 31
0.0
  0
LINE
  5
197
330
1E
100
AcDbEntity
  8
MO_001_VIEW_PV
  6
C_SOLID_M
100
AcDbLine
 10
42.0
 20
-58.240005
 30
0.0
 11
47.0
 21
-58.240005
 31
0.0
  0
LINE
  5
198
330
1E
100
AcDbEntity
  8
MO_001_VIEW_PV
  6
C_SOLID_M
100
AcDbLine
 10
47.0
 20
-61.75999499999999
 30
0.0
 11
47.0
 21
-62.240005
 31
0.0
  0
LINE
  5
199
330
1E
100
AcDbEntity
  8
MO_001_VIEW_PV
  6
C_SOLID_M
100
AcDbLine
 10
42.0
 20
-61.339996
 30
0.0
 11
42.0
 21
-62.660004
 31
0.0
  0
LINE
  5
19A
330
1E
100
AcDbEntity
  8
MO_001_VIEW_PV
  6
C_SOLID_M
100
AcDbLine
 10
-3.309995999999999
 20
-61.339996
 30
0.0
 11
42.0
 21
-61.339996
 31
0.0
  0
LINE
  5
19B
330
1E
100
AcDbEntity
  8
MO_001_VIEW_PV
  6
C_SOLID_M
100
AcDbLine
 10
-3.309995999999999
 20
-62.660004
 30
0.0
 11
42.0
 21
-62.660004
 31
0.0
  0
LINE
  5
19C
330
1E
100
AcDbEntity
  8
MO_001_VIEW_PV
  6
C_SOLID_M
100
AcDbLine
 10
42.0
 20
-61.75999499999999
 30
0.0
 11
47.0
 21
-61.75999499999999
 31
0.0
  0
LINE
  5
19D
330
1E
100
AcDbEntity
  8
MO_001_VIEW_PV
  6
C_SOLID_M
100
AcDbLine
 10
42.0
 20
-62.240005
 30
0.0
 11
47.0
 21
-62.240005
 31
0.0
  0
LINE
  5
19E
330
1E
100
AcDbEntity
  8
MO_001_VIEW_PV
  6
C_SOLID_M
100
AcDbLine
 10
0.0
 20
-58.660004
 30
0.0
 11
0.0
 21
-61.339996
 31
0.0
  0
LINE
  5
19F
330
1E
100
AcDbEntity
  8
MO_001_VIEW_PV
  6
C_SOLID_M
100
AcDbLine
 10
0.0
 20
-48.599998
 30
0.0
 11
0.0
 21
-57.339996
 31
0.0
  0
LINE
  5
1A0
330
1E
100
AcDbEntity
  8
MO_001_VIEW_PV
  6
C_SOLID_M
100
AcDbLine
 10
-1.6
 20
-48.599998
 30
0.0
 11
-1.6
 21
-57.339996
 31
0.0
  0
LINE
  5
1A1
330
1E
100
AcDbEntity
  8
MO_001_VIEW_PV
  6
C_SOLID_M
100
AcDbLine
 10
-1.649995999999999
 20
-49.0
 30
0.0
 11
-1.649995999999999
 21
-57.339996
 31
0.0
  0
LINE
  5
1A2
330
1E
100
AcDbEntity
  8
MO_001_VIEW_PV
  6
C_SOLID_M
100
AcDbLine
 10
-1.649995999999999
 20
-58.660004
 30
0.0
 11
-1.649995999999999
 21
-61.339996
 31
0.0
  0
LINE
  5
1A3
330
1E
100
AcDbEntity
  8
MO_001_VIEW_PV
  6
C_SOLID_M
100
AcDbLine
 10
-1.6
 20
-58.660004
 30
0.0
 11
-1.6
 21
-61.339996
 31
0.0
  0
LINE
  5
1A4
330
1E
100
AcDbEntity
  8
MO_001_VIEW_PV
  6
C_SOLID_M
100
AcDbLine
 10
-2.649995999999999
 20
-58.660004
 30
0.0
 11
-2.649995999999999
 21
-61.339996
 31
0.0
  0
LINE
  5
1A5
330
1E
100
AcDbEntity
  8
MO_001_VIEW_PV
  6
C_SOLID_M
100
AcDbLine
 10
-2.649995999999999
 20
-49.0
 30
0.0
 11
-2.649995999999999
 21
-57.339996
 31
0.0
  0
ARC
  5
1A6
330
1E
100
AcDbEntity
  8
MO_001_VIEW_PV
  6
C_SOLID_M
100
AcDbCircle
 10
-0.649996
 20
-10.34
 30
0.0
 40
2.0
100
AcDbArc
 50
204.890543
 51
269.999998
  0
ARC
  5
1A7
330
1E
100
AcDbEntity
  8
MO_001_VIEW_PV
  6
C_SOLID_M
100
AcDbCircle
 10
-0.649996
 20
-10.34
 30
0.0
 40
3.319999999999999
100
AcDbArc
 50
204.890557
 51
269.999998
  0
ARC
  5
1A8
330
1E
100
AcDbEntity
  8
MO_001_VIEW_PV
  6
C_SOLID_M
100
AcDbCircle
 10
-6.382952999999999
 20
-13.0
 30
0.0
 40
3.0
100
AcDbArc
 50
24.890524
 51
41.81031700000001
  0
ARC
  5
1A9
330
1E
100
AcDbEntity
  8
MO_001_VIEW_PV
  6
C_SOLID_M
100
AcDbCircle
 10
-6.382952999999999
 20
-13.0
 30
0.0
 40
4.32
100
AcDbArc
 50
24.890524
 51
27.57847
  0
ARC
  5
1AA
330
1E
100
AcDbEntity
  8
MO_001_VIEW_PV
  6
C_SOLID_M
100
AcDbCircle
 10
-3.309995999999999
 20
-58.0
 30
0.0
 40
0.6600000000000001
100
AcDbArc
 50
90.000002
 51
270.000001
  0
ARC
  5
1AB
330
1E
100
AcDbEntity
  8
MO_001_VIEW_PV
  6
C_SOLID_M
100
AcDbCircle
 10
-3.309995999999999
 20
-62.0
 30
0.0
 40
0.6600000000000001
100
AcDbArc
 50
90.000002
 51
270.000001
  0
LINE
  5
1AC
330
1E
100
AcDbEntity
  8
MO_001_VIEW_PV
  6
C_SOLID_M
100
AcDbLine
 10
-81.499983
 20
-3.968619999999999
 30
0.0
 11
-80.999987
 21
-3.468620999999999
 31
0.0
  0
LINE
  5
1AD
330
1E
100
AcDbEntity
  8
MO_001_VIEW_PV
  6
C_SOLID_M
100
AcDbLine
 10
-80.49998100000001
 20
-3.96864
 30
0.0
 11
-80.99998199999999
 21
-3.46864
 31
0.0
  0
LINE
  5
1AE
330
1E
100
AcDbEntity
  8
MO_001_VIEW_PV
  6
C_SOLID_M
100
AcDbLine
 10
-32.999992
 20
5.577348999999999
 30
0.0
 11
-31.99999299999999
 21
4.999998999999999
 31
0.0
  0
LINE
  5
1AF
330
1E
100
AcDbEntity
  8
MO_001_VIEW_PV
  6
C_SOLID_M
100
AcDbLine
 10
-32.999992
 20
4.577348999999999
 30
0.0
 11
-31.99999299999999
 21
4.0
 31
0.0
  0
LINE
  5
1B0
330
1E
100
AcDbEntity
  8
MO_001_VIEW_PV
  6
C_SOLID_M
100
AcDbLine
 10
-32.99999
 20
3.823673
 30
0.0
 11
-31.999992
 21
4.0
 31
0.0
  0
LINE
  5
1B1
330
1E
100
AcDbEntity
  8
MO_001_VIEW_PV
  6
C_SOLID_M
100
AcDbLine
 10
-32.999992
 20
-3.823673
 30
0.0
 11
-32.999992
 21
3.823673
 31
0.0
  0
LINE
  5
1B2
330
1E
100
AcDbEntity
  8
MO_001_VIEW_PV
  6
C_SOLID_M
100
AcDbLine
 10
-32.999992
 20
-4.577348999999999
 30
0.0
 11
-31.99999299999999
 21
-4.0
 31
0.0
  0
LINE
  5
1B3
330
1E
100
AcDbEntity
  8
MO_001_VIEW_PV
  6
C_SOLID_M
100
AcDbLine
 10
-32.999988
 20
-3.823674
 30
0.0
 11
-31.99999
 21
-4.0
 31
0.0
  0
LINE
  5
1B4
330
1E
100
AcDbEntity
  8
MO_001_VIEW_PV
  6
C_SOLID_M
100
AcDbLine
 10
-32.999992
 20
-5.577348999999999
 30
0.0
 11
-31.99999299999999
 21
-4.999998999999999
 31
0.0
  0
LINE
  5
1B5
330
1E
100
AcDbEntity
  8
MO_001_VIEW_PV
  6
C_SOLID_M
100
AcDbLine
 10
-32.999992
 20
-4.57735
 30
0.0
 11
-32.999992
 21
-5.577348999999999
 31
0.0
  0
LINE
  5
1B6
330
1E
100
AcDbEntity
  8
MO_001_VIEW_PV
  6
C_SOLID_M
100
AcDbLine
 10
-69.599998
 20
5.577348999999999
 30
0.0
 11
-68.0
 21
5.577348999999999
 31
0.0
  0
LINE
  5
1B7
330
1E
100
AcDbEntity
  8
MO_001_VIEW_PV
  6
C_SOLID_M
100
AcDbLine
 10
-69.599998
 20
4.57735
 30
0.0
 11
-68.0
 21
4.57735
 31
0.0
  0
LINE
  5
1B8
330
1E
100
AcDbEntity
  8
MO_001_VIEW_PV
  6
C_SOLID_M
100
AcDbLine
 10
-69.599998
 20
4.0
 30
0.0
 11
-68.0
 21
4.0
 31
0.0
  0
LINE
  5
1B9
330
1E
100
AcDbEntity
  8
MO_001_VIEW_PV
  6
C_SOLID_M
100
AcDbLine
 10
-69.599998
 20
3.823673
 30
0.0
 11
-68.0
 21
3.823673
 31
0.0
  0
LINE
  5
1BA
330
1E
100
AcDbEntity
  8
MO_001_VIEW_PV
  6
C_SOLID_M
100
AcDbLine
 10
-32.999992
 20
4.577348999999999
 30
0.0
 11
-31.99999299999999
 21
4.0
 31
0.0
  0
LINE
  5
1BB
330
1E
100
AcDbEntity
  8
MO_001_VIEW_PV
  6
C_SOLID_M
100
AcDbLine
 10
-32.999986
 20
3.823674
 30
0.0
 11
-31.999988
 21
4.000001
 31
0.0
  0
LINE
  5
1BC
330
1E
100
AcDbEntity
  8
MO_001_VIEW_PV
  6
C_SOLID_M
100
AcDbLine
 10
-32.999992
 20
5.577348999999999
 30
0.0
 11
-31.99999299999999
 21
4.999998999999999
 31
0.0
  0
LINE
  5
1BD
330
1E
100
AcDbEntity
  8
MO_001_VIEW_PV
  6
C_SOLID_M
100
AcDbLine
 10
-32.999992
 20
4.57735
 30
0.0
 11
-32.999992
 21
5.577348999999999
 31
0.0
  0
LINE
  5
1BE
330
1E
100
AcDbEntity
  8
MO_001_VIEW_PV
  6
C_SOLID_M
100
AcDbLine
 10
-69.599998
 20
-3.823673
 30
0.0
 11
-68.0
 21
-3.823673
 31
0.0
  0
LINE
  5
1BF
330
1E
100
AcDbEntity
  8
MO_001_VIEW_PV
  6
C_SOLID_M
100
AcDbLine
 10
-69.599998
 20
-4.0
 30
0.0
 11
-68.0
 21
-4.0
 31
0.0
  0
LINE
  5
1C0
330
1E
100
AcDbEntity
  8
MO_001_VIEW_PV
  6
C_SOLID_M
100
AcDbLine
 10
-69.599998
 20
-4.57735
 30
0.0
 11
-68.0
 21
-4.57735
 31
0.0
  0
LINE
  5
1C1
330
1E
100
AcDbEntity
  8
MO_001_VIEW_PV
  6
C_SOLID_M
100
AcDbLine
 10
-69.599998
 20
-5.0
 30
0.0
 11
-68.0
 21
-5.0
 31
0.0
  0
LINE
  5
1C2
330
1E
100
AcDbEntity
  8
MO_001_VIEW_PV
  6
C_SOLID_M
100
AcDbLine
 10
-69.599998
 20
-5.577348999999999
 30
0.0
 11
-68.0
 21
-5.577348999999999
 31
0.0
  0
LINE
  5
1C3
330
1E
100
AcDbEntity
  8
MO_001_VIEW_PV
  6
C_SOLID_M
100
AcDbLine
 10
-92.399994
 20
5.577348999999999
 30
0.0
 11
-92.399994
 21
-5.577348999999999
 31
0.0
  0
LINE
  5
1C4
330
1E
100
AcDbEntity
  8
MO_001_VIEW_PV
  6
C_SOLID_M
100
AcDbLine
 10
-92.399994
 20
5.0
 30
0.0
 11
-94.0
 21
5.0
 31
0.0
  0
LINE
  5
1C5
330
1E
100
AcDbEntity
  8
MO_001_VIEW_PV
  6
C_SOLID_M
100
AcDbLine
 10
-92.399994
 20
5.577348999999999
 30
0.0
 11
-94.0
 21
5.577348999999999
 31
0.0
  0
LINE
  5
1C6
330
1E
100
AcDbEntity
  8
MO_001_VIEW_PV
  6
C_SOLID_M
100
AcDbLine
 10
-92.399994
 20
4.57735
 30
0.0
 11
-94.0
 21
4.57735
 31
0.0
  0
LINE
  5
1C7
330
1E
100
AcDbEntity
  8
MO_001_VIEW_PV
  6
C_SOLID_M
100
AcDbLine
 10
-92.399994
 20
4.0
 30
0.0
 11
-94.0
 21
4.0
 31
0.0
  0
LINE
  5
1C8
330
1E
100
AcDbEntity
  8
MO_001_VIEW_PV
  6
C_SOLID_M
100
AcDbLine
 10
-92.399994
 20
3.823673
 30
0.0
 11
-94.0
 21
3.823673
 31
0.0
  0
LINE
  5
1C9
330
1E
100
AcDbEntity
  8
MO_001_VIEW_PV
  6
C_SOLID_M
100
AcDbLine
 10
-92.399994
 20
-3.823673
 30
0.0
 11
-94.0
 21
-3.823673
 31
0.0
  0
LINE
  5
1CA
330
1E
100
AcDbEntity
  8
MO_001_VIEW_PV
  6
C_SOLID_M
100
AcDbLine
 10
-92.399994
 20
-4.0
 30
0.0
 11
-94.0
 21
-4.0
 31
0.0
  0
LINE
  5
1CB
330
1E
100
AcDbEntity
  8
MO_001_VIEW_PV
  6
C_SOLID_M
100
AcDbLine
 10
-92.399994
 20
-4.57735
 30
0.0
 11
-94.0
 21
-4.57735
 31
0.0
  0
LINE
  5
1CC
330
1E
100
AcDbEntity
  8
MO_001_VIEW_PV
  6
C_SOLID_M
100
AcDbLine
 10
-92.399994
 20
-5.0
 30
0.0
 11
-94.0
 21
-5.0
 31
0.0
  0
LINE
  5
1CD
330
1E
100
AcDbEntity
  8
MO_001_VIEW_PV
  6
C_SOLID_M
100
AcDbLine
 10
-92.399994
 20
-5.577348999999999
 30
0.0
 11
-94.0
 21
-5.577348999999999
 31
0.0
  0
LINE
  5
1CE
330
1E
100
AcDbEntity
  8
MO_001_VIEW_PV
  6
C_CENTER_L
100
AcDbLine
 10
-15.999994
 20
3.0
 30
0.0
 11
-15.999994
 21
-3.0
 31
0.0
  0
LINE
  5
1CF
330
1E
100
AcDbEntity
  8
MO_001_VIEW_PV
  6
C_SOLID_L
100
AcDbLine
 10
10.272854
 20
27.0
 30
0.0
 11
35.45689799999999
 21
27.0
 31
0.0
  0
LINE
  5
1D0
330
1E
100
AcDbEntity
  8
MO_001_VIEW_PV
  6
C_SOLID_L
100
AcDbLine
 10
-64.08738699999999
 20
-16.0
 30
0.0
 11
-51.21469499999999
 21
-16.0
 31
0.0
  0
LINE
  5
1D1
330
1E
100
AcDbEntity
  8
MO_001_VIEW_PV
  6
C_SOLID_L
100
AcDbLine
 10
-31.08001699999999
 20
16.0
 30
0.0
 11
-24.0
 21
16.0
 31
0.0
  0
TEXT
  5
1D2
330
1E
100
AcDbEntity
  8
MO_001_VIEW_PV
  6
C_SOLID_L
100
AcDbText
 10
-100.488281
 20
-89.083594
 30
0.0
 40
4.167187
  1
SK0832A
100
AcDbText
  0
TEXT
  5
1D3
330
1E
100
AcDbEntity
  8
MO_001_VIEW_PV
  6
C_SOLID_L
100
AcDbText
 10
4.428570999999999
 20
-30.75
 30
0.0
 40
3.0
  1
UL1007 AWG.26
100
AcDbText
  0
TEXT
  5
1D4
330
1E
100
AcDbEntity
  8
MO_001_VIEW_PV
  6
C_SOLID_L
100
AcDbText
 10
-61.071429
 20
-82.5
 30
0.0
 40
3.0
  1
板厚1.6mm、ネジ突き出しは0.5mm以下
100
AcDbText
  0
TEXT
  5
1D5
330
1E
100
AcDbEntity
  8
MO_001_VIEW_PV
  6
C_SOLID_L
100
AcDbText
 10
16.511719
 20
-89.083594
 30
0.0
 40
4.167187
  1
単位：mm
100
AcDbText
  0
TEXT
  5
1D6
330
1E
100
AcDbEntity
  8
MO_001_VIEW_PV
  6
C_SOLID_L
100
AcDbText
 10
16.511719
 20
-95.08359399999999
 30
0.0
 40
4.167187
  1
図は励磁時を示す
100
AcDbText
  0
TEXT
  5
1D7
330
1E
100
AcDbEntity
  8
MO_001_VIEW_PV
  6
C_SOLID_L
100
AcDbText
 10
10.70142499999999
 20
27.75
 30
0.0
 40
3.0
  1
4-M3x0.5
100
AcDbText
  0
TEXT
  5
1D8
330
1E
100
AcDbEntity
  8
MO_001_VIEW_PV
  6
C_SOLID_L
100
AcDbText
 10
-57.000409
 20
-13.375
 30
0.0
 40
1.5
  1
+0.1
100
AcDbText
  0
TEXT
  5
1D9
330
1E
100
AcDbEntity
  8
MO_001_VIEW_PV
  6
C_SOLID_L
100
AcDbText
 10
-57.000409
 20
-15.625
 30
0.0
 40
1.5
  1
 0
100
AcDbText
  0
TEXT
  5
1DA
330
1E
100
AcDbEntity
  8
MO_001_VIEW_PV
  6
C_SOLID_L
100
AcDbText
 10
-62.786124
 20
-15.25
 30
0.0
 40
3.0
  1
%%C3
100
AcDbText
  0
TEXT
  5
1DB
330
1E
100
AcDbEntity
  8
MO_001_VIEW_PV
  6
C_SOLID_L
100
AcDbText
 10
-29.571429
 20
16.75
 30
0.0
 40
3.0
  1
%%C3
100
AcDbText
  0
POLYLINE
  5
1DC
330
1E
100
AcDbEntity
  8
MO_001_NOSHOW
  6
C_SOLID_M
100
AcDb2dPolyline
 66
     1
 10
0.0
 20
0.0
 30
0.0
 70
     5
 75
     6
  0
VERTEX
  5
1DD
330
1DC
100
AcDbEntity
  8
MO_001_NOSHOW
  6
C_SOLID_M
100
AcDbVertex
100
AcDb2dVertex
 10
-42.499992
 20
-63.699997
 30
0.0
 50
193.853739
  0
VERTEX
  5
1DE
330
1DC
100
AcDbEntity
  8
MO_001_NOSHOW
  6
C_SOLID_M
100
AcDbVertex
100
AcDb2dVertex
 10
-40.999992
 20
-63.382309
 30
0.0
 50
0.000003
  0
VERTEX
  5
1DF
330
1DC
100
AcDbEntity
  8
MO_001_NOSHOW
  6
C_SOLID_M
100
AcDbVertex
100
AcDb2dVertex
 10
-39.499992
 20
-63.699997
 30
0.0
 50
26.56505399999999
  0
VERTEX
  5
1E0
330
1DC
100
AcDbEntity
  8
MO_001_NOSHOW
  6
C_SOLID_M
100
AcDbVertex
100
AcDb2dVertex
 10
-40.999992
 20
-63.382309
 30
0.0
 50
179.999999
  0
VERTEX
  5
1E1
330
1DC
100
AcDbEntity
  8
MO_001_NOSHOW
  6
C_SOLID_M
100
AcDbVertex
100
AcDb2dVertex
 10
-42.499992
 20
-63.699997
 30
0.0
 50
269.8175049999999
  0
SEQEND
  5
1E2
330
1DC
100
AcDbEntity
  8
0
  0
POLYLINE
  5
1E3
330
1E
100
AcDbEntity
  8
MO_001_NOSHOW
  6
C_SOLID_M
100
AcDb2dPolyline
 66
     1
 10
0.0
 20
0.0
 30
0.0
 70
     5
 75
     6
  0
VERTEX
  5
1E4
330
1E3
100
AcDbEntity
  8
MO_001_NOSHOW
  6
C_SOLID_M
100
AcDbVertex
100
AcDb2dVertex
 10
-42.499992
 20
-56.300003
 30
0.0
 50
90.0
  0
VERTEX
  5
1E5
330
1E3
100
AcDbEntity
  8
MO_001_NOSHOW
  6
C_SOLID_M
100
AcDbVertex
100
AcDb2dVertex
 10
-40.999992
 20
-56.617691
 30
0.0
 50
0.000001
  0
VERTEX
  5
1E6
330
1E3
100
AcDbEntity
  8
MO_001_NOSHOW
  6
C_SOLID_M
100
AcDbVertex
100
AcDb2dVertex
 10
-39.499992
 20
-56.300003
 30
0.0
 50
236.1274279999999
  0
VERTEX
  5
1E7
330
1E3
100
AcDbEntity
  8
MO_001_NOSHOW
  6
C_SOLID_M
100
AcDbVertex
100
AcDb2dVertex
 10
-40.999992
 20
-56.617691
 30
0.0
 50
179.999997
  0
VERTEX
  5
1E8
330
1E3
100
AcDbEntity
  8
MO_001_NOSHOW
  6
C_SOLID_M
100
AcDbVertex
100
AcDb2dVertex
 10
-42.499992
 20
-56.300003
 30
0.0
 50
36.869896
  0
SEQEND
  5
1E9
330
1E3
100
AcDbEntity
  8
0
  0
POLYLINE
  5
1EA
330
1E
100
AcDbEntity
  8
MO_001_NOSHOW
  6
C_SOLID_M
100
AcDb2dPolyline
 66
     1
 10
0.0
 20
0.0
 30
0.0
 70
     5
 75
     6
  0
VERTEX
  5
1EB
330
1EA
100
AcDbEntity
  8
MO_001_NOSHOW
  6
C_SOLID_M
100
AcDbVertex
100
AcDb2dVertex
 10
-42.799995
 20
-64.0
 30
0.0
 50
193.8537399999999
  0
VERTEX
  5
1EC
330
1EA
100
AcDbEntity
  8
MO_001_NOSHOW
  6
C_SOLID_M
100
AcDbVertex
100
AcDb2dVertex
 10
-40.999992
 20
-63.572113
 30
0.0
 50
0.000004
  0
VERTEX
  5
1ED
330
1EA
100
AcDbEntity
  8
MO_001_NOSHOW
  6
C_SOLID_M
100
AcDbVertex
100
AcDb2dVertex
 10
-39.19999699999999
 20
-64.0
 30
0.0
 50
26.565051
  0
VERTEX
  5
1EE
330
1EA
100
AcDbEntity
  8
MO_001_NOSHOW
  6
C_SOLID_M
100
AcDbVertex
100
AcDb2dVertex
 10
-40.999992
 20
-63.572113
 30
0.0
 50
179.999999
  0
VERTEX
  5
1EF
330
1EA
100
AcDbEntity
  8
MO_001_NOSHOW
  6
C_SOLID_M
100
AcDbVertex
100
AcDb2dVertex
 10
-42.799995
 20
-64.0
 30
0.0
 50
269.8174899999999
  0
SEQEND
  5
1F0
330
1EA
100
AcDbEntity
  8
0
  0
POLYLINE
  5
1F1
330
1E
100
AcDbEntity
  8
MO_001_NOSHOW
  6
C_SOLID_M
100
AcDb2dPolyline
 66
     1
 10
0.0
 20
0.0
 30
0.0
 70
     5
 75
     6
  0
VERTEX
  5
1F2
330
1F1
100
AcDbEntity
  8
MO_001_NOSHOW
  6
C_SOLID_M
100
AcDbVertex
100
AcDb2dVertex
 10
-42.799995
 20
-56.0
 30
0.0
 50
90.0
  0
VERTEX
  5
1F3
330
1F1
100
AcDbEntity
  8
MO_001_NOSHOW
  6
C_SOLID_M
100
AcDbVertex
100
AcDb2dVertex
 10
-40.999992
 20
-56.427887
 30
0.0
 50
0.000001
  0
VERTEX
  5
1F4
330
1F1
100
AcDbEntity
  8
MO_001_NOSHOW
  6
C_SOLID_M
100
AcDbVertex
100
AcDb2dVertex
 10
-39.19999699999999
 20
-56.0
 30
0.0
 50
236.1274259999999
  0
VERTEX
  5
1F5
330
1F1
100
AcDbEntity
  8
MO_001_NOSHOW
  6
C_SOLID_M
100
AcDbVertex
100
AcDb2dVertex
 10
-40.999992
 20
-56.427887
 30
0.0
 50
179.999996
  0
VERTEX
  5
1F6
330
1F1
100
AcDbEntity
  8
MO_001_NOSHOW
  6
C_SOLID_M
100
AcDbVertex
100
AcDb2dVertex
 10
-42.799995
 20
-56.0
 30
0.0
 50
36.869894
  0
SEQEND
  5
1F7
330
1F1
100
AcDbEntity
  8
0
  0
DIMENSION
  5
1F9
330
1E
100
AcDbEntity
  8
MO_001_VIEW_PV
  6
C_SOLID_M
100
AcDbDimension
  2
*D0
 10
-17.484983
 20
0.21168
 30
0.0
 11
-24.0
 21
16.0
 31
0.0
 70
     3
  1
(0.5)
  3
STANDARD
100
AcDbDiametricDimension
 15
-14.515006
 25
-0.21168
 35
0.0
 40
0.0
  0
DIMENSION
  5
1FB
330
1E
100
AcDbEntity
  8
MO_001_VIEW_PV
  6
C_SOLID_M
100
AcDbDimension
  2
*D1
 10
-16.195688
 20
21.0
 30
0.0
 11
-16.195688
 21
21.0
 31
0.0
  1
(7)
  3
STANDARD
100
AcDbAlignedDimension
 13
0.0
 23
11.0
 33
0.0
 14
-6.999994
 24
9.781447999999999
 34
0.0
 50
179.97571
100
AcDbRotatedDimension
  0
DIMENSION
  5
1FD
330
1E
100
AcDbEntity
  8
MO_001_VIEW_PV
  6
C_SOLID_M
100
AcDbDimension
  2
*D2
 10
-16.499996
 20
27.0
 30
0.0
 11
-16.499996
 21
27.0
 31
0.0
  3
STANDARD
100
AcDbAlignedDimension
 13
0.0
 23
11.0
 33
0.0
 14
-32.999992
 24
5.577348999999999
 34
0.0
 50
179.97571
100
AcDbRotatedDimension
  0
DIMENSION
  5
1FF
330
1E
100
AcDbEntity
  8
MO_001_VIEW_PV
  6
C_SOLID_M
100
AcDbDimension
  2
*D3
 10
18.0
 20
16.38727399999999
 30
0.0
 11
18.0
 21
16.38727399999999
 31
0.0
  1
(%%C4.5)
  3
STANDARD
100
AcDbAlignedDimension
 13
0.9
 23
2.0
 33
0.0
 14
0.9
 24
-2.0
 34
0.0
 50
270.012145
100
AcDbRotatedDimension
  0
DIMENSION
  5
201
330
1E
100
AcDbEntity
  8
MO_001_VIEW_PV
  6
C_SOLID_M
100
AcDbDimension
  2
*D4
 10
24.0
 20
0.5097960000000001
 30
0.0
 11
24.0
 21
0.5097960000000001
 31
0.0
  3
STANDARD
100
AcDbAlignedDimension
 13
-4.174868
 23
7.5
 33
0.0
 14
-3.82808
 24
-7.5
 34
0.0
 50
270.012145
100
AcDbRotatedDimension
  0
DIMENSION
  5
203
330
1E
100
AcDbEntity
  8
MO_001_VIEW_PV
  6
C_SOLID_M
100
AcDbDimension
  2
*D5
 10
-42.48497
 20
0.211702
 30
0.0
 11
-51.21469499999999
 21
-16.0
 31
0.0
 70
     3
  1
<>
  3
STANDARD
100
AcDbDiametricDimension
 15
-39.515014
 25
-0.211702
 35
0.0
 40
0.0
  0
DIMENSION
  5
205
330
1E
100
AcDbEntity
  8
MO_001_VIEW_PV
  6
C_SOLID_M
100
AcDbDimension
  2
*D6
 10
-54.0
 20
15.0
 30
0.0
 11
-54.0
 21
15.0
 31
0.0
  3
STANDARD
100
AcDbAlignedDimension
 13
-36.0
 23
-4.0
 33
0.0
 14
-36.0
 24
4.0
 34
0.0
 50
89.98785500000002
100
AcDbRotatedDimension
  0
DIMENSION
  5
207
330
1E
100
AcDbEntity
  8
MO_001_VIEW_PV
  6
C_SOLID_M
100
AcDbDimension
  2
*D7
 10
12.0
 20
-21.0
 30
0.0
 11
12.0
 21
-21.0
 31
0.0
  1
(0.9)
  3
STANDARD
100
AcDbAlignedDimension
 13
0.0
 23
-11.0
 33
0.0
 14
0.9
 24
-2.0
 34
0.0
100
AcDbRotatedDimension
  0
DIMENSION
  5
209
330
1E
100
AcDbEntity
  8
MO_001_VIEW_PV
  6
C_SOLID_M
100
AcDbDimension
  2
*D8
 10
25.178574
 20
-27.0
 30
0.0
 11
25.178574
 21
-27.0
 31
0.0
  1
長さ240以上
  3
STANDARD
100
AcDbAlignedDimension
 13
47.0
 23
-13.24000199999999
 33
0.0
 14
0.0
 24
-11.0
 34
0.0
100
AcDbRotatedDimension
  0
DIMENSION
  5
20B
330
1E
100
AcDbEntity
  8
MO_001_VIEW_PV
  6
C_SOLID_M
100
AcDbDimension
  2
*D9
 10
-52.788315
 20
-27.0
 30
0.0
 11
-52.788315
 21
-27.0
 31
0.0
  3
STANDARD
100
AcDbAlignedDimension
 13
-45.999992
 23
-3.5
 33
0.0
 14
-40.999992
 24
-2.776908999999999
 34
0.0
100
AcDbRotatedDimension
  0
DIMENSION
  5
20D
330
1E
100
AcDbEntity
  8
MO_001_VIEW_PV
  6
C_SOLID_M
100
AcDbDimension
  2
*D10
 10
-32.197212
 20
-27.0
 30
0.0
 11
-32.197212
 21
-27.0
 31
0.0
  3
STANDARD
100
AcDbAlignedDimension
 13
-24.999994
 23
-10.05570599999999
 33
0.0
 14
-40.999992
 24
-2.776908999999999
 34
0.0
 50
179.97571
100
AcDbRotatedDimension
  0
DIMENSION
  5
20F
330
1E
100
AcDbEntity
  8
MO_001_VIEW_PV
  6
C_SOLID_M
100
AcDbDimension
  2
*D11
 10
-15.0
 20
-27.0
 30
0.0
 11
-15.0
 21
-27.0
 31
0.0
  3
STANDARD
100
AcDbAlignedDimension
 13
-24.999994
 23
-10.05570599999999
 33
0.0
 14
-6.999994
 24
-9.994480000000001
 34
0.0
100
AcDbRotatedDimension
  0
DIMENSION
  5
211
330
1E
100
AcDbEntity
  8
MO_001_VIEW_PV
  6
C_SOLID_M
100
AcDbDimension
  2
*D12
 10
-81.0
 20
-21.0
 30
0.0
 11
-81.0
 21
-21.0
 31
0.0
  3
STANDARD
100
AcDbAlignedDimension
 13
-68.0
 23
-11.0
 33
0.0
 14
-94.0
 24
-11.0
 34
0.0
100
AcDbRotatedDimension
  0
DIMENSION
  5
213
330
1E
100
AcDbEntity
  8
MO_001_VIEW_PV
  6
C_SOLID_M
100
AcDbDimension
  2
*D13
 10
-102.0
 20
0.0
 30
0.0
 11
-102.0
 21
0.0
 31
0.0
  3
STANDARD
100
AcDbAlignedDimension
 13
-94.0
 23
11.0
 33
0.0
 14
-94.0
 24
-11.0
 34
0.0
 50
89.999523
100
AcDbRotatedDimension
  0
DIMENSION
  5
215
330
1E
100
AcDbEntity
  8
MO_001_VIEW_PV
  6
C_SOLID_M
100
AcDbDimension
  2
*D14
 10
-38.99999199999999
 20
-36.0
 30
0.0
 11
-38.99999199999999
 21
-36.0
 31
0.0
  1
(14)
  3
STANDARD
100
AcDbAlignedDimension
 13
-31.999994
 23
-47.0
 33
0.0
 14
-45.999992
 24
-56.5
 34
0.0
100
AcDbRotatedDimension
  0
DIMENSION
  5
217
330
1E
100
AcDbEntity
  8
MO_001_VIEW_PV
  6
C_SOLID_M
100
AcDbDimension
  2
*D15
 10
-15.999997
 20
-36.0
 30
0.0
 11
-15.999997
 21
-36.0
 31
0.0
  3
STANDARD
100
AcDbAlignedDimension
 13
0.0
 23
-48.599998
 33
0.0
 14
-31.999994
 24
-47.0
 34
0.0
100
AcDbRotatedDimension
  0
DIMENSION
  5
219
330
1E
100
AcDbEntity
  8
MO_001_VIEW_PV
  6
C_SOLID_M
100
AcDbDimension
  2
*D16
 10
-54.0
 20
-50.369247
 30
0.0
 11
-54.0
 21
-50.369247
 31
0.0
  3
STANDARD
100
AcDbAlignedDimension
 13
-45.999992
 23
-59.0
 33
0.0
 14
-45.999992
 24
-61.0
 34
0.0
 50
89.999523
100
AcDbRotatedDimension
  0
DIMENSION
  5
21B
330
1E
100
AcDbEntity
  8
MO_001_VIEW_PV
  6
C_SOLID_M
100
AcDbDimension
  2
*D17
 10
-54.0
 20
-42.0
 30
0.0
 11
-54.0
 21
-42.0
 31
0.0
  3
STANDARD
100
AcDbAlignedDimension
 13
-45.999992
 23
-56.5
 33
0.0
 14
-36.0
 24
-59.0
 34
0.0
100
AcDbRotatedDimension
  0
DIMENSION
  5
21D
330
1E
100
AcDbEntity
  8
MO_001_VIEW_PV
  6
C_SOLID_M
100
AcDbDimension
  2
*D18
 10
-22.999996
 20
33.0
 30
0.0
 11
-22.999996
 21
33.0
 31
0.0
  1
46
  3
STANDARD
100
AcDbAlignedDimension
 13
-45.999992
 23
3.5
 33
0.0
 14
0.0
 24
11.0
 34
0.0
100
AcDbRotatedDimension
  0
LINE
  5
21E
330
1E
100
AcDbEntity
  8
MO_001_VIEW_PV
  6
C_SOLID_L
100
AcDbLine
 10
-6.005396
 20
8.622842
 30
0.0
 11
10.27285299999999
 21
27.0
 31
0.0
  0
POLYLINE
  5
21F
330
1E
100
AcDbEntity
  8
MO_001_VIEW_PV
  6
C_SOLID_L
100
AcDb2dPolyline
 66
     1
 10
0.0
 20
0.0
 30
0.0
 70
     1
  0
VERTEX
  5
3B1
330
21F
100
AcDbEntity
  8
MO_001_VIEW_PV
  6
C_SOLID_L
100
AcDbVertex
100
AcDb2dVertex
 10
-4.241965
 20
11.493669
 30
0.0
  0
VERTEX
  5
3B2
330
21F
100
AcDbEntity
  8
MO_001_VIEW_PV
  6
C_SOLID_L
100
AcDbVertex
100
AcDb2dVertex
 10
-5.668557999999999
 20
9.003111
 30
0.0
  0
VERTEX
  5
3B3
330
21F
100
AcDbEntity
  8
MO_001_VIEW_PV
  6
C_SOLID_L
100
AcDbVertex
100
AcDb2dVertex
 10
-3.368376999999999
 20
10.719856
 30
0.0
  0
SEQEND
  5
3B4
330
21F
100
AcDbEntity
  8
MO_001_VIEW_PV
  6
C_SOLID_L
  0
ENDSEC
  0
SECTION
  2
OBJECTS
  0
DICTIONARY
  5
1A
330
0
100
AcDbDictionary
  3
ACAD_GROUP
350
1B
  3
ACAD_MLINESTYLE
350
1C
  3
ACAD_LAYOUT
350
2E7
  3
ACAD_PLOTSETTINGS
350
2E8
1001
ACAD
1000
TREAT_AS_HARD
1070
     0
  0
DICTIONARY
  5
2ED
330
1E
100
AcDbDictionary
  3
ACAD_LAYOUTSELFREF
350
2EE
  0
DICTIONARY
  5
2EF
330
1F
100
AcDbDictionary
  3
ACAD_LAYOUTSELFREF
350
2F0
  0
DICTIONARY
  5
1B
102
{ACAD_REACTORS
330
1A
102
}
330
1A
100
AcDbDictionary
1001
ACAD
1000
TREAT_AS_HARD
1070
     0
  0
DICTIONARY
  5
1C
102
{ACAD_REACTORS
330
1A
102
}
330
1A
100
AcDbDictionary
  3
STANDARD
350
1D
1001
ACAD
1000
TREAT_AS_HARD
1070
     0
  0
DICTIONARY
  5
2E7
102
{ACAD_REACTORS
330
1A
102
}
330
1A
100
AcDbDictionary
1001
ACAD
1000
TREAT_AS_HARD
1070
     0
  0
DICTIONARY
  5
2E8
102
{ACAD_REACTORS
330
1A
102
}
330
1A
100
AcDbDictionary
1001
ACAD
1000
TREAT_AS_HARD
1070
     0
  0
XRECORD
  5
2EE
102
{ACAD_REACTORS
330
2ED
102
}
330
2ED
100
AcDbXrecord
340
1E
  0
XRECORD
  5
2F0
102
{ACAD_REACTORS
330
2EF
102
}
330
2EF
100
AcDbXrecord
340
1F
  0
MLINESTYLE
  5
1D
102
{ACAD_REACTORS
330
1C
102
}
330
1C
100
AcDbMlineStyle
  2
STANDARD
 70
     0
  3

 62
     0
 51
90.0
 52
90.0
 71
     2
 49
0.5
 62
   256
  6
BYLAYER
 49
-0.5
 62
   256
  6
BYLAYER
  0
ENDSEC
  0
EOF
