  0
SECTION
  2
HEADER
  9
$ACADVER
  1
AC1012
  9
$DWGCODEPAGE
  3
dos932
  9
$INSBASE
 10
0.0
 20
0.0
 30
0.0
  9
$EXTMIN
 10
-112.1255641981558
 20
-92.08972714375482
 30
-0.0015258207003583
  9
$EXTMAX
 10
52.13934364255909
 20
33.75165299709118
 30
0.0000000349246037
  9
$LIMMIN
 10
-114.0
 20
-95.208984
  9
$LIMMAX
 10
47.0
 20
36.0
  9
$ORTHOMODE
 70
     0
  9
$REGENMODE
 70
     1
  9
$FILLMODE
 70
     1
  9
$QTEXTMODE
 70
     0
  9
$MIRRTEXT
 70
     1
  9
$DRAGMODE
 70
     2
  9
$LTSCALE
 40
1.0
  9
$OSMODE
 70
    37
  9
$ATTMODE
 70
     1
  9
$TEXTSIZE
 40
4.1672
  9
$TRACEWID
 40
0.05
  9
$TEXTSTYLE
  7
STANDARD
  9
$CLAYER
  8
0
  9
$CELTYPE
  6
CONTINUOUS
  9
$CECOLOR
 62
   256
  9
$CELTSCALE
 40
1.0
  9
$DELOBJ
 70
     1
  9
$DISPSILH
 70
     0
  9
$DIMSCALE
 40
1.0
  9
$DIMASZ
 40
0.18
  9
$DIMEXO
 40
0.0625
  9
$DIMDLI
 40
0.38
  9
$DIMRND
 40
0.0
  9
$DIMDLE
 40
0.0
  9
$DIMEXE
 40
0.18
  9
$DIMTP
 40
0.0
  9
$DIMTM
 40
0.0
  9
$DIMTXT
 40
0.18
  9
$DIMCEN
 40
0.09
  9
$DIMTSZ
 40
0.0
  9
$DIMTOL
 70
     0
  9
$DIMLIM
 70
     0
  9
$DIMTIH
 70
     1
  9
$DIMTOH
 70
     1
  9
$DIMSE1
 70
     0
  9
$DIMSE2
 70
     0
  9
$DIMTAD
 70
     0
  9
$DIMZIN
 70
     0
  9
$DIMBLK
  1

  9
$DIMASO
 70
     1
  9
$DIMSHO
 70
     1
  9
$DIMPOST
  1

  9
$DIMAPOST
  1

  9
$DIMALT
 70
     0
  9
$DIMALTD
 70
     2
  9
$DIMALTF
 40
25.4
  9
$DIMLFAC
 40
1.0
  9
$DIMTOFL
 70
     0
  9
$DIMTVP
 40
0.0
  9
$DIMTIX
 70
     0
  9
$DIMSOXD
 70
     0
  9
$DIMSAH
 70
     0
  9
$DIMBLK1
  1

  9
$DIMBLK2
  1

  9
$DIMSTYLE
  2
STANDARD
  9
$DIMCLRD
 70
     0
  9
$DIMCLRE
 70
     0
  9
$DIMCLRT
 70
     0
  9
$DIMTFAC
 40
1.0
  9
$DIMGAP
 40
0.09
  9
$DIMJUST
 70
     0
  9
$DIMSD1
 70
     0
  9
$DIMSD2
 70
     0
  9
$DIMTOLJ
 70
     1
  9
$DIMTZIN
 70
     0
  9
$DIMALTZ
 70
     0
  9
$DIMALTTZ
 70
     0
  9
$DIMFIT
 70
     3
  9
$DIMUPT
 70
     0
  9
$DIMUNIT
 70
     2
  9
$DIMDEC
 70
     4
  9
$DIMTDEC
 70
     4
  9
$DIMALTU
 70
     2
  9
$DIMALTTD
 70
     2
  9
$DIMTXSTY
  7
STANDARD
  9
$DIMAUNIT
 70
     0
  9
$LUNITS
 70
     2
  9
$LUPREC
 70
     6
  9
$SKETCHINC
 40
0.1
  9
$FILLETRAD
 40
0.0
  9
$AUNITS
 70
     0
  9
$AUPREC
 70
     4
  9
$MENU
  1
acad
  9
$ELEVATION
 40
0.0
  9
$PELEVATION
 40
0.0
  9
$THICKNESS
 40
0.0
  9
$LIMCHECK
 70
     0
  9
$BLIPMODE
 70
     0
  9
$CHAMFERA
 40
0.0
  9
$CHAMFERB
 40
0.0
  9
$CHAMFERC
 40
0.0
  9
$CHAMFERD
 40
0.0
  9
$SKPOLY
 70
     0
  9
$TDCREATE
 40
2376126.114255509
  9
$TDUPDATE
 40
2451683.850315856
  9
$TDINDWG
 40
0.0005555556
  9
$TDUSRTIMER
 40
0.0005549769
  9
$USRTIMER
 70
     1
  9
$ANGBASE
 50
0.0
  9
$ANGDIR
 70
     0
  9
$PDMODE
 70
     0
  9
$PDSIZE
 40
0.0
  9
$PLINEWID
 40
0.0
  9
$COORDS
 70
     1
  9
$SPLFRAME
 70
     0
  9
$SPLINETYPE
 70
     6
  9
$SPLINESEGS
 70
     8
  9
$ATTDIA
 70
     0
  9
$ATTREQ
 70
     1
  9
$HANDLING
 70
 10241
  9
$HANDSEED
  5
360
  9
$SURFTAB1
 70
     6
  9
$SURFTAB2
 70
     6
  9
$SURFTYPE
 70
     6
  9
$SURFU
 70
     6
  9
$SURFV
 70
     6
  9
$UCSNAME
  2

  9
$UCSORG
 10
0.0
 20
0.0
 30
0.0
  9
$UCSXDIR
 10
1.0
 20
0.0
 30
0.0
  9
$UCSYDIR
 10
0.0
 20
1.0
 30
0.0
  9
$PUCSNAME
  2

  9
$PUCSORG
 10
0.0
 20
0.0
 30
0.0
  9
$PUCSXDIR
 10
1.0
 20
0.0
 30
0.0
  9
$PUCSYDIR
 10
0.0
 20
1.0
 30
0.0
  9
$USERI1
 70
     0
  9
$USERI2
 70
     0
  9
$USERI3
 70
     0
  9
$USERI4
 70
     0
  9
$USERI5
 70
     0
  9
$USERR1
 40
0.0
  9
$USERR2
 40
0.0
  9
$USERR3
 40
0.0
  9
$USERR4
 40
0.0
  9
$USERR5
 40
0.0
  9
$WORLDVIEW
 70
     1
  9
$SHADEDGE
 70
     3
  9
$SHADEDIF
 70
    70
  9
$TILEMODE
 70
     1
  9
$MAXACTVP
 70
    16
  9
$PINSBASE
 10
0.0
 20
0.0
 30
0.0
  9
$PLIMCHECK
 70
     0
  9
$PEXTMIN
 10
-114.0
 20
-95.208984
 30
1.000000000000000E+20
  9
$PEXTMAX
 10
47.0
 20
36.0
 30
-1.000000000000000E+20
  9
$PLIMMIN
 10
0.0
 20
0.0
  9
$PLIMMAX
 10
12.0
 20
9.0
  9
$UNITMODE
 70
     0
  9
$VISRETAIN
 70
     0
  9
$PLINEGEN
 70
     0
  9
$PSLTSCALE
 70
     1
  9
$TREEDEPTH
 70
  3020
  9
$PICKSTYLE
 70
     1
  9
$CMLSTYLE
  2
STANDARD
  9
$CMLJUST
 70
     0
  9
$CMLSCALE
 40
1.0
  9
$SAVEIMAGES
 70
     1
  0
ENDSEC
  0
SECTION
  2
CLASSES
  0
CLASS
  1
ACDBDICTIONARYWDFLT
  2
AcDbDictionaryWithDefault
  3
AutoCAD 2000
 90
    32768
280
     0
281
     0
  0
CLASS
  1
ACDBPLACEHOLDER
  2
AcDbPlaceHolder
  3
AutoCAD 2000
 90
    32768
280
     0
281
     0
  0
CLASS
  1
LAYOUT
  2
AcDbLayout
  3
AutoCAD 2000
 90
    32768
280
     0
281
     0
  0
CLASS
  1
LONG_TRANSACTION
  2
AcDbLongTransaction
  3
AutoCAD 2000
 90
    32768
280
     0
281
     0
  0
CLASS
  1
LWPOLYLINE
  2
AcDbPolyline
  3
AutoCAD 2000
 90
    32768
280
     0
281
     1
  0
CLASS
  1
HATCH
  2
AcDbHatch
  3
AutoCAD 2000
 90
    32768
280
     0
281
     1
  0
CLASS
  1
XRECORD
  2
AcDbXrecord
  3
AutoCAD 2000
 90
    32768
280
     0
281
     0
  0
ENDSEC
  0
SECTION
  2
TABLES
  0
TABLE
  2
VPORT
  5
7
330
0
100
AcDbSymbolTable
 70
     2
  0
VPORT
  5
2B3
330
7
100
AcDbSymbolTableRecord
100
AcDbViewportTableRecord
  2
*ACTIVE
 70
     0
 10
0.0
 20
0.0
 11
1.0
 21
1.0
 12
-30.93032817872046
 22
-29.60449199999999
 13
0.0
 23
0.0
 14
6.349999999999999
 24
6.349999999999999
 15
6.349999999999999
 25
6.349999999999999
 16
0.0
 26
0.0
 36
1.0
 17
0.0
 27
0.0
 37
0.0
 40
132.6668616
 41
1.619666048237476
 42
50.0
 43
0.0
 44
0.0
 50
0.0
 51
0.0
 71
     0
 72
   100
 73
     1
 74
     1
 75
     0
 76
     0
 77
     0
 78
     0
  0
ENDTAB
  0
TABLE
  2
LTYPE
  5
4
330
0
100
AcDbSymbolTable
 70
    37
  0
LTYPE
  5
12
330
4
100
AcDbSymbolTableRecord
100
AcDbLinetypeTableRecord
  2
BYBLOCK
 70
     0
  3

 72
    65
 73
     0
 40
0.0
  0
LTYPE
  5
13
330
4
100
AcDbSymbolTableRecord
100
AcDbLinetypeTableRecord
  2
BYLAYER
 70
     0
  3

 72
    65
 73
     0
 40
0.0
  0
LTYPE
  5
14
330
4
100
AcDbSymbolTableRecord
100
AcDbLinetypeTableRecord
  2
CONTINUOUS
 70
     0
  3
DXF Default line type
 72
    65
 73
     0
 40
0.0
  0
LTYPE
  5
20
330
4
100
AcDbSymbolTableRecord
100
AcDbLinetypeTableRecord
  2
DASHED
 70
     0
  3
DXF Dashed
 72
    65
 73
     2
 40
0.75
 49
0.5
 74
     0
 49
-0.25
 74
     0
  0
LTYPE
  5
21
330
4
100
AcDbSymbolTableRecord
100
AcDbLinetypeTableRecord
  2
HIDDEN
 70
     0
  3
DXF Hidden
 72
    65
 73
     2
 40
0.375
 49
0.25
 74
     0
 49
-0.125
 74
     0
  0
LTYPE
  5
22
330
4
100
AcDbSymbolTableRecord
100
AcDbLinetypeTableRecord
  2
CENTER
 70
     0
  3
DXF Center
 72
    65
 73
     4
 40
2.0
 49
1.25
 74
     0
 49
-0.25
 74
     0
 49
0.25
 74
     0
 49
-0.25
 74
     0
  0
LTYPE
  5
23
330
4
100
AcDbSymbolTableRecord
100
AcDbLinetypeTableRecord
  2
PHANTOM
 70
     0
  3
DXF Phantom
 72
    65
 73
     6
 40
2.5
 49
1.25
 74
     0
 49
-0.25
 74
     0
 49
0.25
 74
     0
 49
-0.25
 74
     0
 49
0.25
 74
     0
 49
-0.25
 74
     0
  0
LTYPE
  5
24
330
4
100
AcDbSymbolTableRecord
100
AcDbLinetypeTableRecord
  2
DOT
 70
     0
  3
DXF DOT
 72
    65
 73
     2
 40
0.25
 49
0.0
 74
     0
 49
-0.25
 74
     0
  0
LTYPE
  5
25
330
4
100
AcDbSymbolTableRecord
100
AcDbLinetypeTableRecord
  2
DASHDOT
 70
     0
  3
DXF Dash Dot
 72
    65
 73
     4
 40
1.0
 49
0.5
 74
     0
 49
-0.25
 74
     0
 49
0.0
 74
     0
 49
-0.25
 74
     0
  0
LTYPE
  5
26
330
4
100
AcDbSymbolTableRecord
100
AcDbLinetypeTableRecord
  2
BORDER
 70
     0
  3
DXF Border
 72
    65
 73
     6
 40
1.75
 49
0.5
 74
     0
 49
-0.25
 74
     0
 49
0.5
 74
     0
 49
-0.25
 74
     0
 49
0.0
 74
     0
 49
-0.25
 74
     0
  0
LTYPE
  5
27
330
4
100
AcDbSymbolTableRecord
100
AcDbLinetypeTableRecord
  2
DIVIDE
 70
     0
  3
DXF Divide
 72
    65
 73
     6
 40
1.25
 49
0.5
 74
     0
 49
-0.25
 74
     0
 49
0.0
 74
     0
 49
-0.25
 74
     0
 49
0.0
 74
     0
 49
-0.25
 74
     0
  0
LTYPE
  5
28
330
4
100
AcDbSymbolTableRecord
100
AcDbLinetypeTableRecord
  2
C_SOLID_L
 70
     0
  3
CADAM Solid Light
 72
    65
 73
     0
 40
0.0
  0
LTYPE
  5
29
330
4
100
AcDbSymbolTableRecord
100
AcDbLinetypeTableRecord
  2
C_SOLID_M
 70
     0
  3
CADAM Solid Medium
 72
    65
 73
     0
 40
0.0
  0
LTYPE
  5
2A
330
4
100
AcDbSymbolTableRecord
100
AcDbLinetypeTableRecord
  2
C_SOLID_H
 70
     0
  3
CADAM Solid Heavy
 72
    65
 73
     0
 40
0.0
  0
LTYPE
  5
2B
330
4
100
AcDbSymbolTableRecord
100
AcDbLinetypeTableRecord
  2
C_DASHED_L
 70
     0
  3
CADAM Dashed Light
 72
    65
 73
     2
 40
0.375
 49
0.25
 74
     0
 49
-0.125
 74
     0
  0
LTYPE
  5
2C
330
4
100
AcDbSymbolTableRecord
100
AcDbLinetypeTableRecord
  2
C_DASHED_M
 70
     0
  3
CADAM Dashed Medium
 72
    65
 73
     2
 40
0.5
 49
0.375
 74
     0
 49
-0.125
 74
     0
  0
LTYPE
  5
2D
330
4
100
AcDbSymbolTableRecord
100
AcDbLinetypeTableRecord
  2
C_CENTER_L
 70
     0
  3
CADAM Center Light
 72
    65
 73
     4
 40
2.0
 49
1.25
 74
     0
 49
-0.25
 74
     0
 49
0.25
 74
     0
 49
-0.25
 74
     0
  0
LTYPE
  5
2E
330
4
100
AcDbSymbolTableRecord
100
AcDbLinetypeTableRecord
  2
C_PHANTOM_L
 70
     0
  3
CADAM Phantom Light
 72
    65
 73
     6
 40
2.5
 49
1.25
 74
     0
 49
-0.25
 74
     0
 49
0.25
 74
     0
 49
-0.25
 74
     0
 49
0.25
 74
     0
 49
-0.25
 74
     0
  0
LTYPE
  5
2F
330
4
100
AcDbSymbolTableRecord
100
AcDbLinetypeTableRecord
  2
C_BREAK_M
 70
     0
  3
CADAM Break Medium
 72
    65
 73
     4
 40
1.0
 49
0.5
 74
     0
 49
-0.25
 74
     0
 49
0.0
 74
     0
 49
-0.25
 74
     0
  0
LTYPE
  5
30
330
4
100
AcDbSymbolTableRecord
100
AcDbLinetypeTableRecord
  2
C_NC
 70
     0
  3
CADAM NC
 72
    65
 73
     0
 40
0.0
  0
LTYPE
  5
31
330
4
100
AcDbSymbolTableRecord
100
AcDbLinetypeTableRecord
  2
DSH1
 70
     0
  3
CADAM Style2 Type 1 Dashed Line
 72
    65
 73
     2
 40
0.075
 49
0.04
 74
     0
 49
-0.035
 74
     0
  0
LTYPE
  5
32
330
4
100
AcDbSymbolTableRecord
100
AcDbLinetypeTableRecord
  2
DSH2
 70
     0
  3
CADAM Style2 Type 2 Dashed Line
 72
    65
 73
     2
 40
0.15
 49
0.11
 74
     0
 49
-0.04
 74
     0
  0
LTYPE
  5
33
330
4
100
AcDbSymbolTableRecord
100
AcDbLinetypeTableRecord
  2
DSH3
 70
     0
  3
CADAM Style2 Type 3 Dashed Line
 72
    65
 73
     2
 40
0.2
 49
0.15
 74
     0
 49
-0.05
 74
     0
  0
LTYPE
  5
34
330
4
100
AcDbSymbolTableRecord
100
AcDbLinetypeTableRecord
  2
DSH4
 70
     0
  3
CADAM Style2 Type 4 Dashed Line
 72
    65
 73
     2
 40
0.36
 49
0.28
 74
     0
 49
-0.08
 74
     0
  0
LTYPE
  5
35
330
4
100
AcDbSymbolTableRecord
100
AcDbLinetypeTableRecord
  2
DSH5
 70
     0
  3
CADAM Style2 Type 5 Dashed Line
 72
    65
 73
     2
 40
0.47
 49
0.39
 74
     0
 49
-0.08
 74
     0
  0
LTYPE
  5
36
330
4
100
AcDbSymbolTableRecord
100
AcDbLinetypeTableRecord
  2
DSH6
 70
     0
  3
CADAM Style2 Type 6 Dashed Line
 72
    65
 73
     2
 40
0.9
 49
0.8100000000000001
 74
     0
 49
-0.09
 74
     0
  0
LTYPE
  5
37
330
4
100
AcDbSymbolTableRecord
100
AcDbLinetypeTableRecord
  2
PL1
 70
     0
  3
Style 2 Type 1 Phantom Line
 72
    65
 73
     6
 40
1.0
 49
0.6
 74
     0
 49
-0.08
 74
     0
 49
0.08
 74
     0
 49
-0.08
 74
     0
 49
0.08
 74
     0
 49
-0.08
 74
     0
  0
LTYPE
  5
38
330
4
100
AcDbSymbolTableRecord
100
AcDbLinetypeTableRecord
  2
PL2
 70
     0
  3
Style 2 Type 2 Phantom Line
 72
    65
 73
     6
 40
1.08
 49
0.6
 74
     0
 49
-0.08
 74
     0
 49
0.12
 74
     0
 49
-0.08
 74
     0
 49
0.12
 74
     0
 49
-0.08
 74
     0
  0
LTYPE
  5
39
330
4
100
AcDbSymbolTableRecord
100
AcDbLinetypeTableRecord
  2
PL3
 70
     0
  3
Style 2 Type 3 Phantom Line
 72
    65
 73
     6
 40
2.0
 49
1.439999999999999
 74
     0
 49
-0.08
 74
     0
 49
0.16
 74
     0
 49
-0.08
 74
     0
 49
0.16
 74
     0
 49
-0.08
 74
     0
  0
LTYPE
  5
3A
330
4
100
AcDbSymbolTableRecord
100
AcDbLinetypeTableRecord
  2
CL1
 70
     0
  3
CADAM Style 2 Type 1 Center Line
 72
    65
 73
     4
 40
0.7
 49
0.45
 74
     0
 49
-0.06
 74
     0
 49
0.13
 74
     0
 49
-0.06
 74
     0
  0
LTYPE
  5
3B
330
4
100
AcDbSymbolTableRecord
100
AcDbLinetypeTableRecord
  2
CL2
 70
     0
  3
CADAM Style 2 Type 2 Center Line
 72
    65
 73
     4
 40
1.199999999999999
 49
1.01
 74
     0
 49
-0.06
 74
     0
 49
0.11
 74
     0
 49
-0.06
 74
     0
  0
LTYPE
  5
3C
330
4
100
AcDbSymbolTableRecord
100
AcDbLinetypeTableRecord
  2
CL3
 70
     0
  3
CADAM Style 2 Type 3 Center Line
 72
    65
 73
     4
 40
1.199999999999999
 49
0.98
 74
     0
 49
-0.06
 74
     0
 49
0.1
 74
     0
 49
-0.06
 74
     0
  0
LTYPE
  5
3D
330
4
100
AcDbSymbolTableRecord
100
AcDbLinetypeTableRecord
  2
CL4
 70
     0
  3
CADAM Style 2 Type 4 Center Line
 72
    65
 73
     4
 40
2.2
 49
1.929999999999999
 74
     0
 49
-0.07
 74
     0
 49
0.13
 74
     0
 49
-0.07
 74
     0
  0
LTYPE
  5
3E
330
4
100
AcDbSymbolTableRecord
100
AcDbLinetypeTableRecord
  2
CL5
 70
     0
  3
CADAM Style 2 Type 5 Center Line
 72
    65
 73
     4
 40
2.2
 49
1.879999999999999
 74
     0
 49
-0.07
 74
     0
 49
0.18
 74
     0
 49
-0.07
 74
     0
  0
LTYPE
  5
3F
330
4
100
AcDbSymbolTableRecord
100
AcDbLinetypeTableRecord
  2
SBK1
 70
     0
  3
CADAM Style 2 Type 1 SetBack Line
 72
    65
 73
     8
 40
2.7
 49
0.1
 74
     0
 49
-0.08
 74
     0
 49
0.1
 74
     0
 49
-0.8
 74
     0
 49
0.0
 74
     0
 49
0.0
 74
     0
 49
0.0
 74
     0
 49
0.0
 74
     0
  0
LTYPE
  5
40
330
4
100
AcDbSymbolTableRecord
100
AcDbLinetypeTableRecord
  2
SBK2
 70
     0
  3
CADAM Style 2 Type 2 SetBack Line
 72
    65
 73
     8
 40
3.709999999999999
 49
0.13
 74
     0
 49
-0.08
 74
     0
 49
0.13
 74
     0
 49
-0.8
 74
     0
 49
0.0
 74
     0
 49
0.0
 74
     0
 49
0.0
 74
     0
 49
0.0
 74
     0
  0
LTYPE
  5
41
330
4
100
AcDbSymbolTableRecord
100
AcDbLinetypeTableRecord
  2
STCH
 70
     0
  3
CADAM Style2 Stitch Line
 72
    65
 73
     2
 40
0.25
 49
0.0
 74
     0
 49
-0.25
 74
     0
  0
LTYPE
  5
42
330
4
100
AcDbSymbolTableRecord
100
AcDbLinetypeTableRecord
  2
MTCH
 70
     0
  3
CADAM Style2 Match Line
 72
    65
 73
     6
 40
2.0
 49
1.439999999999999
 74
     0
 49
-0.8
 74
     0
 49
0.16
 74
     0
 49
-0.08
 74
     0
 49
0.16
 74
     0
 49
-0.08
 74
     0
  0
LTYPE
  5
43
330
4
100
AcDbSymbolTableRecord
100
AcDbLinetypeTableRecord
  2
SLD
 70
     0
  3
CADAM Solid_EXT2
 72
    65
 73
     0
 40
0.0
  0
ENDTAB
  0
TABLE
  2
LAYER
  5
2
330
0
100
AcDbSymbolTable
 70
     7
  0
LAYER
  5
15
330
2
100
AcDbSymbolTableRecord
100
AcDbLayerTableRecord
  2
0
 70
     0
 62
     7
  6
CONTINUOUS
  0
LAYER
  5
44
330
2
100
AcDbSymbolTableRecord
100
AcDbLayerTableRecord
  2
MO_001_NOSHOW
 70
     1
 62
     7
  6
CONTINUOUS
  0
LAYER
  5
45
330
2
100
AcDbSymbolTableRecord
100
AcDbLayerTableRecord
  2
MO_001_VIEW_PV
 70
     0
 62
     7
  6
CONTINUOUS
  0
LAYER
  5
46
330
2
100
AcDbSymbolTableRecord
100
AcDbLayerTableRecord
  2
OVERLAY_MAP
 70
     1
 62
     7
  6
CONTINUOUS
  0
LAYER
  5
47
330
2
100
AcDbSymbolTableRecord
100
AcDbLayerTableRecord
  2
DITTOS
 70
     0
 62
     7
  6
CONTINUOUS
  0
LAYER
  5
48
330
2
100
AcDbSymbolTableRecord
100
AcDbLayerTableRecord
  2
SYMBOLS
 70
     0
 62
     7
  6
CONTINUOUS
  0
LAYER
  5
49
330
2
100
AcDbSymbolTableRecord
100
AcDbLayerTableRecord
  2
SETS
 70
     0
 62
     7
  6
CONTINUOUS
  0
ENDTAB
  0
TABLE
  2
STYLE
  5
3
330
0
100
AcDbSymbolTable
 70
     1
  0
STYLE
  5
18
330
3
100
AcDbSymbolTableRecord
100
AcDbTextStyleTableRecord
  2
STANDARD
 70
     0
 40
4.1672
 41
1.0
 50
0.0
 71
     0
 42
4.1672
  3
monotxt
  4
BIGFONT
  0
ENDTAB
  0
TABLE
  2
VIEW
  5
5
330
0
100
AcDbSymbolTable
 70
     0
  0
ENDTAB
  0
TABLE
  2
UCS
  5
6
330
0
100
AcDbSymbolTable
 70
     1
  0
UCS
  5
4A
330
6
100
AcDbSymbolTableRecord
100
AcDbUCSTableRecord
  2
MO_001_VIEW_PV_P
 70
     0
 10
0.0
 20
0.0
 30
0.0
 11
1.0
 21
0.0
 31
0.0
 12
-0.0000000002051034
 22
1.0
 32
0.0
  0
ENDTAB
  0
TABLE
  2
APPID
  5
8
330
0
100
AcDbSymbolTable
 70
     1
  0
APPID
  5
17
330
8
100
AcDbSymbolTableRecord
100
AcDbRegAppTableRecord
  2
ACAD
 70
     0
  0
ENDTAB
  0
TABLE
  2
DIMSTYLE
  5
9
330
0
100
AcDbSymbolTable
 70
     1
  0
DIMSTYLE
105
19
102
{ACAD_REACTORS
330
1D7
330
1D9
330
1DB
330
1DD
330
1DF
330
1E1
330
1E3
330
1E5
330
1E7
330
1E9
330
1EB
330
1ED
330
1EF
330
1F1
330
1F3
330
1F5
330
1F7
102
}
330
9
100
AcDbSymbolTableRecord
100
AcDbDimStyleTableRecord
  2
STANDARD
 70
     0
  3

  4

  5

  6

  7

 40
1.0
 41
0.18
 42
0.0625
 43
0.38
 44
0.18
 45
0.0
 46
0.0
 47
0.0
 48
0.0
140
0.18
141
0.09
142
0.0
143
25.4
144
1.0
145
0.0
146
1.0
147
0.09
 71
     0
 72
     0
 73
     1
 74
     1
 75
     0
 76
     0
 77
     0
 78
     0
170
     0
171
     2
172
     0
173
     0
174
     0
175
     0
176
     0
177
     0
178
     0
270
     2
271
     4
272
     4
273
     2
274
     2
340
18
275
     0
280
     0
281
     0
282
     0
283
     1
284
     0
285
     0
286
     0
287
     3
288
     0
  0
ENDTAB
  0
TABLE
  2
BLOCK_RECORD
  5
C
330
0
100
AcDbSymbolTable
 70
    17
  0
BLOCK_RECORD
  5
1E
102
{ACAD_XDICTIONARY
360
2B4
102
}
330
C
100
AcDbSymbolTableRecord
100
AcDbBlockTableRecord
  2
*MODEL_SPACE
  0
BLOCK_RECORD
  5
1F
102
{ACAD_XDICTIONARY
360
2B6
102
}
330
C
100
AcDbSymbolTableRecord
100
AcDbBlockTableRecord
  2
*PAPER_SPACE
  0
BLOCK_RECORD
  5
1D6
330
C
100
AcDbSymbolTableRecord
100
AcDbBlockTableRecord
  2
*D0
  0
BLOCK_RECORD
  5
1D8
330
C
100
AcDbSymbolTableRecord
100
AcDbBlockTableRecord
  2
*D1
  0
BLOCK_RECORD
  5
1DA
330
C
100
AcDbSymbolTableRecord
100
AcDbBlockTableRecord
  2
*D2
  0
BLOCK_RECORD
  5
1DC
330
C
100
AcDbSymbolTableRecord
100
AcDbBlockTableRecord
  2
*D3
  0
BLOCK_RECORD
  5
1DE
330
C
100
AcDbSymbolTableRecord
100
AcDbBlockTableRecord
  2
*D4
  0
BLOCK_RECORD
  5
1E0
330
C
100
AcDbSymbolTableRecord
100
AcDbBlockTableRecord
  2
*D5
  0
BLOCK_RECORD
  5
1E2
330
C
100
AcDbSymbolTableRecord
100
AcDbBlockTableRecord
  2
*D6
  0
BLOCK_RECORD
  5
1E4
330
C
100
AcDbSymbolTableRecord
100
AcDbBlockTableRecord
  2
*D7
  0
BLOCK_RECORD
  5
1E6
330
C
100
AcDbSymbolTableRecord
100
AcDbBlockTableRecord
  2
*D8
  0
BLOCK_RECORD
  5
1E8
330
C
100
AcDbSymbolTableRecord
100
AcDbBlockTableRecord
  2
*D9
  0
BLOCK_RECORD
  5
1EA
330
C
100
AcDbSymbolTableRecord
100
AcDbBlockTableRecord
  2
*D10
  0
BLOCK_RECORD
  5
1EC
330
C
100
AcDbSymbolTableRecord
100
AcDbBlockTableRecord
  2
*D11
  0
BLOCK_RECORD
  5
1EE
330
C
100
AcDbSymbolTableRecord
100
AcDbBlockTableRecord
  2
*D12
  0
BLOCK_RECORD
  5
1F0
330
C
100
AcDbSymbolTableRecord
100
AcDbBlockTableRecord
  2
*D13
  0
BLOCK_RECORD
  5
1F2
330
C
100
AcDbSymbolTableRecord
100
AcDbBlockTableRecord
  2
*D14
  0
BLOCK_RECORD
  5
1F4
330
C
100
AcDbSymbolTableRecord
100
AcDbBlockTableRecord
  2
*D15
  0
BLOCK_RECORD
  5
1F6
330
C
100
AcDbSymbolTableRecord
100
AcDbBlockTableRecord
  2
*D16
  0
ENDTAB
  0
ENDSEC
  0
SECTION
  2
BLOCKS
  0
BLOCK
  5
E
330
1E
100
AcDbEntity
  8
0
100
AcDbBlockBegin
  2
*MODEL_SPACE
 70
     0
 10
0.0
 20
0.0
 30
0.0
  3
*MODEL_SPACE
  1

  0
ENDBLK
  5
F
330
1E
100
AcDbEntity
  8
0
100
AcDbBlockEnd
  0
BLOCK
  5
10
330
1F
100
AcDbEntity
 67
     1
  8
0
100
AcDbBlockBegin
  2
*PAPER_SPACE
 70
     0
 10
0.0
 20
0.0
 30
0.0
  3
*PAPER_SPACE
  1

  0
ENDBLK
  5
11
330
1F
100
AcDbEntity
 67
     1
  8
0
100
AcDbBlockEnd
  0
BLOCK
  5
1FE
330
1D6
100
AcDbEntity
  8
0
100
AcDbBlockBegin
  2
*D0
 70
     1
 10
0.0
 20
0.0
 30
0.0
  3
*D0
  1

  0
TEXT
  5
1FF
330
1D6
100
AcDbEntity
  8
MO_001_VIEW_PV
  6
BYBLOCK
100
AcDbText
 10
-28.071429
 20
18.75
 30
0.0
 40
3.0
  1
(8.5)
100
AcDbText
  0
LINE
  5
200
330
1D6
100
AcDbEntity
  8
MO_001_VIEW_PV
  6
BYBLOCK
100
AcDbLine
 10
-8.5
 20
18.0
 30
0.0
 11
0.0
 21
18.0
 31
0.0
  0
LINE
  5
201
330
1D6
100
AcDbEntity
  8
MO_001_VIEW_PV
  6
BYBLOCK
100
AcDbLine
 10
-8.5
 20
18.0
 30
0.0
 11
-14.85
 21
18.0
 31
0.0
  0
LINE
  5
202
330
1D6
100
AcDbEntity
  8
MO_001_VIEW_PV
  6
BYBLOCK
100
AcDbLine
 10
0.0
 20
18.0
 30
0.0
 11
6.349999999999999
 21
18.0
 31
0.0
  0
SOLID
  5
203
330
1D6
100
AcDbEntity
  8
MO_001_VIEW_PV
  6
BYBLOCK
100
AcDbTrace
 10
-11.81826
 20
17.416488
 30
0.0
 11
-9.007999999999999
 21
18.0
 31
0.0
 12
-11.81826
 22
18.58351199999999
 32
0.0
 13
-11.81826
 23
18.58351199999999
 33
0.0
  0
SOLID
  5
204
330
1D6
100
AcDbEntity
  8
MO_001_VIEW_PV
  6
BYBLOCK
100
AcDbTrace
 10
3.318259999999999
 20
18.58351199999999
 30
0.0
 11
0.508
 21
18.0
 31
0.0
 12
3.318259999999999
 22
17.416488
 32
0.0
 13
3.318259999999999
 23
17.416488
 33
0.0
  0
LINE
  5
205
330
1D6
100
AcDbEntity
  8
MO_001_VIEW_PV
  6
BYBLOCK
100
AcDbLine
 10
-8.5
 20
8.5
 30
0.0
 11
-8.5
 21
20.285999
 31
0.0
  0
LINE
  5
206
330
1D6
100
AcDbEntity
  8
MO_001_VIEW_PV
  6
BYBLOCK
100
AcDbLine
 10
0.0
 20
9.5
 30
0.0
 11
0.0
 21
20.285999
 31
0.0
  0
LINE
  5
207
330
1D6
100
AcDbEntity
  8
MO_001_VIEW_PV
  6
BYBLOCK
100
AcDbLine
 10
-29.035715
 20
18.0
 30
0.0
 11
-8.5
 21
18.0
 31
0.0
  0
ENDBLK
  5
208
330
1D6
100
AcDbEntity
  8
0
100
AcDbBlockEnd
  0
BLOCK
  5
209
330
1D8
100
AcDbEntity
  8
0
100
AcDbBlockBegin
  2
*D1
 70
     1
 10
0.0
 20
0.0
 30
0.0
  3
*D1
  1

  0
TEXT
  5
20A
330
1D8
100
AcDbEntity
  8
MO_001_VIEW_PV
  6
BYBLOCK
100
AcDbText
 10
-23.785714
 20
26.625
 30
0.0
 40
1.5
  1
%%P0.3
100
AcDbText
  0
TEXT
  5
20B
330
1D8
100
AcDbEntity
  8
MO_001_VIEW_PV
  6
BYBLOCK
100
AcDbText
 10
-35.57142899999999
 20
24.75
 30
0.0
 40
3.0
  1
46.5
100
AcDbText
  0
LINE
  5
20C
330
1D8
100
AcDbEntity
  8
MO_001_VIEW_PV
  6
BYBLOCK
100
AcDbLine
 10
-46.5
 20
24.0
 30
0.0
 11
0.0
 21
24.0
 31
0.0
  0
SOLID
  5
20D
330
1D8
100
AcDbEntity
  8
MO_001_VIEW_PV
  6
BYBLOCK
100
AcDbTrace
 10
-43.18174
 20
24.583512
 30
0.0
 11
-45.99199999999999
 21
24.0
 31
0.0
 12
-43.18174
 22
23.416488
 32
0.0
 13
-43.18174
 23
23.416488
 33
0.0
  0
SOLID
  5
20E
330
1D8
100
AcDbEntity
  8
MO_001_VIEW_PV
  6
BYBLOCK
100
AcDbTrace
 10
-3.318259999999999
 20
23.416488
 30
0.0
 11
-0.508
 21
24.0
 31
0.0
 12
-3.318259999999999
 22
24.583512
 32
0.0
 13
-3.318259999999999
 23
24.583512
 33
0.0
  0
LINE
  5
20F
330
1D8
100
AcDbEntity
  8
MO_001_VIEW_PV
  6
BYBLOCK
100
AcDbLine
 10
-46.5
 20
9.5
 30
0.0
 11
-46.5
 21
26.285999
 31
0.0
  0
LINE
  5
210
330
1D8
100
AcDbEntity
  8
MO_001_VIEW_PV
  6
BYBLOCK
100
AcDbLine
 10
0.0
 20
9.5
 30
0.0
 11
0.0
 21
26.285999
 31
0.0
  0
ENDBLK
  5
211
330
1D8
100
AcDbEntity
  8
0
100
AcDbBlockEnd
  0
BLOCK
  5
212
330
1DA
100
AcDbEntity
  8
0
100
AcDbBlockBegin
  2
*D2
 70
     1
 10
0.0
 20
0.0
 30
0.0
  3
*D2
  1

  0
TEXT
  5
213
330
1DA
100
AcDbEntity
  8
MO_001_VIEW_PV
  6
BYBLOCK
100
AcDbText
 10
-35.57142899999999
 20
30.75
 30
0.0
 40
3.0
  1
56.5
100
AcDbText
  0
LINE
  5
214
330
1DA
100
AcDbEntity
  8
MO_001_VIEW_PV
  6
BYBLOCK
100
AcDbLine
 10
-56.499996
 20
30.0
 30
0.0
 11
0.0
 21
30.0
 31
0.0
  0
SOLID
  5
215
330
1DA
100
AcDbEntity
  8
MO_001_VIEW_PV
  6
BYBLOCK
100
AcDbTrace
 10
-53.181736
 20
30.583512
 30
0.0
 11
-55.99199599999999
 21
30.0
 31
0.0
 12
-53.181736
 22
29.416488
 32
0.0
 13
-53.181736
 23
29.416488
 33
0.0
  0
SOLID
  5
216
330
1DA
100
AcDbEntity
  8
MO_001_VIEW_PV
  6
BYBLOCK
100
AcDbTrace
 10
-3.318259999999999
 20
29.416488
 30
0.0
 11
-0.508
 21
30.0
 31
0.0
 12
-3.318259999999999
 22
30.583512
 32
0.0
 13
-3.318259999999999
 23
30.583512
 33
0.0
  0
LINE
  5
217
330
1DA
100
AcDbEntity
  8
MO_001_VIEW_PV
  6
BYBLOCK
100
AcDbLine
 10
-56.499996
 20
3.923004
 30
0.0
 11
-56.499996
 21
32.28599899999999
 31
0.0
  0
LINE
  5
218
330
1DA
100
AcDbEntity
  8
MO_001_VIEW_PV
  6
BYBLOCK
100
AcDbLine
 10
0.0
 20
9.5
 30
0.0
 11
0.0
 21
32.28599899999999
 31
0.0
  0
ENDBLK
  5
219
330
1DA
100
AcDbEntity
  8
0
100
AcDbBlockEnd
  0
BLOCK
  5
21A
330
1DC
100
AcDbEntity
  8
0
100
AcDbBlockBegin
  2
*D3
 70
     1
 10
0.0
 20
0.0
 30
0.0
  3
*D3
  1

  0
TEXT
  5
21B
330
1DC
100
AcDbEntity
  8
MO_001_VIEW_PV
  6
BYBLOCK
100
AcDbText
 10
-22.285714
 20
-24.375
 30
0.0
 40
1.5
  1
%%P0.2
100
AcDbText
  0
TEXT
  5
21C
330
1DC
100
AcDbEntity
  8
MO_001_VIEW_PV
  6
BYBLOCK
100
AcDbText
 10
-28.071429
 20
-26.25
 30
0.0
 40
3.0
  1
28
100
AcDbText
  0
LINE
  5
21D
330
1DC
100
AcDbEntity
  8
MO_001_VIEW_PV
  6
BYBLOCK
100
AcDbLine
 10
-36.5
 20
-27.0
 30
0.0
 11
-8.5
 21
-27.0
 31
0.0
  0
SOLID
  5
21E
330
1DC
100
AcDbEntity
  8
MO_001_VIEW_PV
  6
BYBLOCK
100
AcDbTrace
 10
-33.18174
 20
-26.416488
 30
0.0
 11
-35.99199999999999
 21
-27.0
 31
0.0
 12
-33.18174
 22
-27.58351199999999
 32
0.0
 13
-33.18174
 23
-27.58351199999999
 33
0.0
  0
SOLID
  5
21F
330
1DC
100
AcDbEntity
  8
MO_001_VIEW_PV
  6
BYBLOCK
100
AcDbTrace
 10
-11.81826
 20
-27.58351199999999
 30
0.0
 11
-9.007999999999999
 21
-27.0
 31
0.0
 12
-11.81826
 22
-26.416488
 32
0.0
 13
-11.81826
 23
-26.416488
 33
0.0
  0
LINE
  5
220
330
1DC
100
AcDbEntity
  8
MO_001_VIEW_PV
  6
BYBLOCK
100
AcDbLine
 10
-36.5
 20
-8.5
 30
0.0
 11
-36.5
 21
-29.285999
 31
0.0
  0
LINE
  5
221
330
1DC
100
AcDbEntity
  8
MO_001_VIEW_PV
  6
BYBLOCK
100
AcDbLine
 10
-8.5
 20
-8.5
 30
0.0
 11
-8.5
 21
-29.285999
 31
0.0
  0
ENDBLK
  5
222
330
1DC
100
AcDbEntity
  8
0
100
AcDbBlockEnd
  0
BLOCK
  5
223
330
1DE
100
AcDbEntity
  8
0
100
AcDbBlockBegin
  2
*D4
 70
     1
 10
0.0
 20
0.0
 30
0.0
  3
*D4
  1

  0
TEXT
  5
224
330
1DE
100
AcDbEntity
  8
MO_001_VIEW_PV
  6
BYBLOCK
100
AcDbText
 10
-43.413392
 20
-24.375
 30
0.0
 40
1.5
  1
%%P0.5
100
AcDbText
  0
TEXT
  5
225
330
1DE
100
AcDbEntity
  8
MO_001_VIEW_PV
  6
BYBLOCK
100
AcDbText
 10
-49.199106
 20
-26.25
 30
0.0
 40
3.0
  1
16
100
AcDbText
  0
LINE
  5
226
330
1DE
100
AcDbEntity
  8
MO_001_VIEW_PV
  6
BYBLOCK
100
AcDbLine
 10
-52.49999599999999
 20
-27.0
 30
0.0
 11
-36.5
 21
-27.0
 31
0.0
  0
SOLID
  5
227
330
1DE
100
AcDbEntity
  8
MO_001_VIEW_PV
  6
BYBLOCK
100
AcDbTrace
 10
-49.181736
 20
-26.416488
 30
0.0
 11
-51.991996
 21
-27.0
 31
0.0
 12
-49.181736
 22
-27.58351199999999
 32
0.0
 13
-49.181736
 23
-27.58351199999999
 33
0.0
  0
SOLID
  5
228
330
1DE
100
AcDbEntity
  8
MO_001_VIEW_PV
  6
BYBLOCK
100
AcDbTrace
 10
-39.81825999999999
 20
-27.58351199999999
 30
0.0
 11
-37.008
 21
-27.0
 31
0.0
 12
-39.81825999999999
 22
-26.416488
 32
0.0
 13
-39.81825999999999
 23
-26.416488
 33
0.0
  0
LINE
  5
229
330
1DE
100
AcDbEntity
  8
MO_001_VIEW_PV
  6
BYBLOCK
100
AcDbLine
 10
-52.49999599999999
 20
-3.639244
 30
0.0
 11
-52.49999599999999
 21
-29.285999
 31
0.0
  0
LINE
  5
22A
330
1DE
100
AcDbEntity
  8
MO_001_VIEW_PV
  6
BYBLOCK
100
AcDbLine
 10
-36.5
 20
-8.5
 30
0.0
 11
-36.5
 21
-29.285999
 31
0.0
  0
ENDBLK
  5
22B
330
1DE
100
AcDbEntity
  8
0
100
AcDbBlockEnd
  0
BLOCK
  5
22C
330
1E0
100
AcDbEntity
  8
0
100
AcDbBlockBegin
  2
*D5
 70
     1
 10
0.0
 20
0.0
 30
0.0
  3
*D5
  1

  0
TEXT
  5
22D
330
1E0
100
AcDbEntity
  8
MO_001_VIEW_PV
  6
BYBLOCK
100
AcDbText
 10
-65.88086800000001
 20
-24.375
 30
0.0
 40
1.5
  1
%%P0.2
100
AcDbText
  0
TEXT
  5
22E
330
1E0
100
AcDbEntity
  8
MO_001_VIEW_PV
  6
BYBLOCK
100
AcDbText
 10
-68.66658199999999
 20
-26.25
 30
0.0
 40
3.0
  1
4
100
AcDbText
  0
LINE
  5
22F
330
1E0
100
AcDbEntity
  8
MO_001_VIEW_PV
  6
BYBLOCK
100
AcDbLine
 10
-56.499996
 20
-27.0
 30
0.0
 11
-52.49999599999999
 21
-27.0
 31
0.0
  0
LINE
  5
230
330
1E0
100
AcDbEntity
  8
MO_001_VIEW_PV
  6
BYBLOCK
100
AcDbLine
 10
-56.499996
 20
-27.0
 30
0.0
 11
-62.84999599999999
 21
-27.0
 31
0.0
  0
LINE
  5
231
330
1E0
100
AcDbEntity
  8
MO_001_VIEW_PV
  6
BYBLOCK
100
AcDbLine
 10
-52.49999599999999
 20
-27.0
 30
0.0
 11
-46.14999599999999
 21
-27.0
 31
0.0
  0
SOLID
  5
232
330
1E0
100
AcDbEntity
  8
MO_001_VIEW_PV
  6
BYBLOCK
100
AcDbTrace
 10
-59.818256
 20
-27.58351199999999
 30
0.0
 11
-57.00799599999999
 21
-27.0
 31
0.0
 12
-59.818256
 22
-26.416488
 32
0.0
 13
-59.818256
 23
-26.416488
 33
0.0
  0
SOLID
  5
233
330
1E0
100
AcDbEntity
  8
MO_001_VIEW_PV
  6
BYBLOCK
100
AcDbTrace
 10
-49.181736
 20
-26.416488
 30
0.0
 11
-51.991996
 21
-27.0
 31
0.0
 12
-49.181736
 22
-27.58351199999999
 32
0.0
 13
-49.181736
 23
-27.58351199999999
 33
0.0
  0
LINE
  5
234
330
1E0
100
AcDbEntity
  8
MO_001_VIEW_PV
  6
BYBLOCK
100
AcDbLine
 10
-56.499996
 20
-3.923012
 30
0.0
 11
-56.499996
 21
-29.285999
 31
0.0
  0
LINE
  5
235
330
1E0
100
AcDbEntity
  8
MO_001_VIEW_PV
  6
BYBLOCK
100
AcDbLine
 10
-52.49999599999999
 20
-3.639244
 30
0.0
 11
-52.49999599999999
 21
-29.285999
 31
0.0
  0
LINE
  5
236
330
1E0
100
AcDbEntity
  8
MO_001_VIEW_PV
  6
BYBLOCK
100
AcDbLine
 10
-69.63086700000001
 20
-27.0
 30
0.0
 11
-56.499996
 21
-27.0
 31
0.0
  0
ENDBLK
  5
237
330
1E0
100
AcDbEntity
  8
0
100
AcDbBlockEnd
  0
BLOCK
  5
238
330
1E2
100
AcDbEntity
  8
0
100
AcDbBlockBegin
  2
*D6
 70
     1
 10
0.0
 20
0.0
 30
0.0
  3
*D6
  1

  0
TEXT
  5
239
330
1E2
100
AcDbEntity
  8
MO_001_VIEW_PV
  6
BYBLOCK
100
AcDbText
 10
4.928570999999999
 20
-20.24999999999999
 30
0.0
 40
3.0
  1
(0.5)
100
AcDbText
  0
LINE
  5
23A
330
1E2
100
AcDbEntity
  8
MO_001_VIEW_PV
  6
BYBLOCK
100
AcDbLine
 10
0.0
 20
-21.0
 30
0.0
 11
0.5
 21
-21.0
 31
0.0
  0
LINE
  5
23B
330
1E2
100
AcDbEntity
  8
MO_001_VIEW_PV
  6
BYBLOCK
100
AcDbLine
 10
0.0
 20
-21.0
 30
0.0
 11
-6.349999999999999
 21
-21.0
 31
0.0
  0
LINE
  5
23C
330
1E2
100
AcDbEntity
  8
MO_001_VIEW_PV
  6
BYBLOCK
100
AcDbLine
 10
0.5
 20
-21.0
 30
0.0
 11
6.849999999999999
 21
-21.0
 31
0.0
  0
SOLID
  5
23D
330
1E2
100
AcDbEntity
  8
MO_001_VIEW_PV
  6
BYBLOCK
100
AcDbTrace
 10
-3.318259999999999
 20
-21.58351199999999
 30
0.0
 11
-0.508
 21
-21.0
 31
0.0
 12
-3.318259999999999
 22
-20.416488
 32
0.0
 13
-3.318259999999999
 23
-20.416488
 33
0.0
  0
SOLID
  5
23E
330
1E2
100
AcDbEntity
  8
MO_001_VIEW_PV
  6
BYBLOCK
100
AcDbTrace
 10
3.81826
 20
-20.416488
 30
0.0
 11
1.008
 21
-21.0
 31
0.0
 12
3.81826
 22
-21.58351199999999
 32
0.0
 13
3.81826
 23
-21.58351199999999
 33
0.0
  0
LINE
  5
23F
330
1E2
100
AcDbEntity
  8
MO_001_VIEW_PV
  6
BYBLOCK
100
AcDbLine
 10
0.0
 20
-9.5
 30
0.0
 11
0.0
 21
-23.28599899999999
 31
0.0
  0
LINE
  5
240
330
1E2
100
AcDbEntity
  8
MO_001_VIEW_PV
  6
BYBLOCK
100
AcDbLine
 10
0.5
 20
-1.75
 30
0.0
 11
0.5
 21
-23.28599899999999
 31
0.0
  0
LINE
  5
241
330
1E2
100
AcDbEntity
  8
MO_001_VIEW_PV
  6
BYBLOCK
100
AcDbLine
 10
0.5
 20
-21.0
 30
0.0
 11
20.035715
 21
-21.0
 31
0.0
  0
ENDBLK
  5
242
330
1E2
100
AcDbEntity
  8
0
100
AcDbBlockEnd
  0
BLOCK
  5
243
330
1E4
100
AcDbEntity
  8
0
100
AcDbBlockBegin
  2
*D7
 70
     1
 10
0.0
 20
0.0
 30
0.0
  3
*D7
  1

  0
LINE
  5
244
330
1E4
100
AcDbEntity
  8
MO_001_VIEW_PV
  6
BYBLOCK
100
AcDbLine
 10
47.0
 20
-27.0
 30
0.0
 11
0.0
 21
-27.0
 31
0.0
  0
SOLID
  5
245
330
1E4
100
AcDbEntity
  8
MO_001_VIEW_PV
  6
BYBLOCK
100
AcDbTrace
 10
43.68174
 20
-27.58351199999999
 30
0.0
 11
46.49199999999999
 21
-27.0
 31
0.0
 12
43.68174
 22
-26.416488
 32
0.0
 13
43.68174
 23
-26.416488
 33
0.0
  0
SOLID
  5
246
330
1E4
100
AcDbEntity
  8
MO_001_VIEW_PV
  6
BYBLOCK
100
AcDbTrace
 10
3.318259999999999
 20
-26.416488
 30
0.0
 11
0.508
 21
-27.0
 31
0.0
 12
3.318259999999999
 22
-27.58351199999999
 32
0.0
 13
3.318259999999999
 23
-27.58351199999999
 33
0.0
  0
LINE
  5
247
330
1E4
100
AcDbEntity
  8
MO_001_VIEW_PV
  6
BYBLOCK
100
AcDbLine
 10
47.0
 20
-11.740002
 30
0.0
 11
47.0
 21
-29.285999
 31
0.0
  0
LINE
  5
248
330
1E4
100
AcDbEntity
  8
MO_001_VIEW_PV
  6
BYBLOCK
100
AcDbLine
 10
0.0
 20
-9.5
 30
0.0
 11
0.0
 21
-29.285999
 31
0.0
  0
TEXT
  5
249
330
1E4
100
AcDbEntity
  8
MO_001_VIEW_PV
  6
BYBLOCK
100
AcDbText
 10
12.58928599999999
 20
-26.25
 30
0.0
 40
3.0
  1
長さ240以上
100
AcDbText
  0
ENDBLK
  5
24A
330
1E4
100
AcDbEntity
  8
0
100
AcDbBlockEnd
  0
BLOCK
  5
24B
330
1E6
100
AcDbEntity
  8
0
100
AcDbBlockBegin
  2
*D8
 70
     1
 10
0.0
 20
0.0
 30
0.0
  3
*D8
  1

  0
TEXT
  5
24C
330
1E6
100
AcDbEntity
  8
MO_001_VIEW_PV
  6
BYBLOCK
100
AcDbText
 10
21.375
 20
15.36965799999999
 30
0.0
 40
1.5
  1
%%P0.2
 50
90.0
100
AcDbText
  0
TEXT
  5
24D
330
1E6
100
AcDbEntity
  8
MO_001_VIEW_PV
  6
BYBLOCK
100
AcDbText
 10
23.25
 20
9.583944
 30
0.0
 40
3.0
  1
10
 50
90.0
100
AcDbText
  0
LINE
  5
24E
330
1E6
100
AcDbEntity
  8
MO_001_VIEW_PV
  6
BYBLOCK
100
AcDbLine
 10
24.0
 20
5.0
 30
0.0
 11
24.0
 21
-5.0
 31
0.0
  0
LINE
  5
24F
330
1E6
100
AcDbEntity
  8
MO_001_VIEW_PV
  6
BYBLOCK
100
AcDbLine
 10
24.0
 20
5.0
 30
0.0
 11
24.0
 21
11.35
 31
0.0
  0
LINE
  5
250
330
1E6
100
AcDbEntity
  8
MO_001_VIEW_PV
  6
BYBLOCK
100
AcDbLine
 10
24.0
 20
-5.0
 30
0.0
 11
24.0
 21
-11.35
 31
0.0
  0
SOLID
  5
251
330
1E6
100
AcDbEntity
  8
MO_001_VIEW_PV
  6
BYBLOCK
100
AcDbTrace
 10
23.416488
 20
8.31826
 30
0.0
 11
24.0
 21
5.507999999999999
 31
0.0
 12
24.583512
 22
8.31826
 32
0.0
 13
24.583512
 23
8.31826
 33
0.0
  0
SOLID
  5
252
330
1E6
100
AcDbEntity
  8
MO_001_VIEW_PV
  6
BYBLOCK
100
AcDbTrace
 10
24.583512
 20
-8.31826
 30
0.0
 11
24.0
 21
-5.507999999999999
 31
0.0
 12
23.416488
 22
-8.31826
 32
0.0
 13
23.416488
 23
-8.31826
 33
0.0
  0
LINE
  5
253
330
1E6
100
AcDbEntity
  8
MO_001_VIEW_PV
  6
BYBLOCK
100
AcDbLine
 10
-5.0
 20
5.0
 30
0.0
 11
26.285999
 21
5.0
 31
0.0
  0
LINE
  5
254
330
1E6
100
AcDbEntity
  8
MO_001_VIEW_PV
  6
BYBLOCK
100
AcDbLine
 10
-5.0
 20
-5.0
 30
0.0
 11
26.285999
 21
-5.0
 31
0.0
  0
LINE
  5
255
330
1E6
100
AcDbEntity
  8
MO_001_VIEW_PV
  6
BYBLOCK
100
AcDbLine
 10
24.0
 20
21.691088
 30
0.0
 11
24.0
 21
5.0
 31
0.0
  0
ENDBLK
  5
256
330
1E6
100
AcDbEntity
  8
0
100
AcDbBlockEnd
  0
BLOCK
  5
257
330
1E8
100
AcDbEntity
  8
0
100
AcDbBlockBegin
  2
*D9
 70
     1
 10
0.0
 20
0.0
 30
0.0
  3
*D9
  1

  0
TEXT
  5
258
330
1E8
100
AcDbEntity
  8
MO_001_VIEW_PV
  6
BYBLOCK
100
AcDbText
 10
-68.625
 20
14.46428599999999
 30
0.0
 40
1.5
  1
%%P0.05
 50
90.0
100
AcDbText
  0
TEXT
  5
259
330
1E8
100
AcDbEntity
  8
MO_001_VIEW_PV
  6
BYBLOCK
100
AcDbText
 10
-66.75
 20
8.678570999999999
 30
0.0
 40
3.0
  1
%%C9
 50
90.0
100
AcDbText
  0
LINE
  5
25A
330
1E8
100
AcDbEntity
  8
MO_001_VIEW_PV
  6
BYBLOCK
100
AcDbLine
 10
-66.0
 20
-4.5
 30
0.0
 11
-66.0
 21
4.5
 31
0.0
  0
LINE
  5
25B
330
1E8
100
AcDbEntity
  8
MO_001_VIEW_PV
  6
BYBLOCK
100
AcDbLine
 10
-66.0
 20
-4.5
 30
0.0
 11
-66.0
 21
-10.84999999999999
 31
0.0
  0
LINE
  5
25C
330
1E8
100
AcDbEntity
  8
MO_001_VIEW_PV
  6
BYBLOCK
100
AcDbLine
 10
-66.0
 20
4.5
 30
0.0
 11
-66.0
 21
10.84999999999999
 31
0.0
  0
SOLID
  5
25D
330
1E8
100
AcDbEntity
  8
MO_001_VIEW_PV
  6
BYBLOCK
100
AcDbTrace
 10
-65.416488
 20
-7.81826
 30
0.0
 11
-66.0
 21
-5.008
 31
0.0
 12
-66.583512
 22
-7.81826
 32
0.0
 13
-66.583512
 23
-7.81826
 33
0.0
  0
SOLID
  5
25E
330
1E8
100
AcDbEntity
  8
MO_001_VIEW_PV
  6
BYBLOCK
100
AcDbTrace
 10
-66.583512
 20
7.81826
 30
0.0
 11
-66.0
 21
5.008
 31
0.0
 12
-65.416488
 22
7.81826
 32
0.0
 13
-65.416488
 23
7.81826
 33
0.0
  0
LINE
  5
25F
330
1E8
100
AcDbEntity
  8
MO_001_VIEW_PV
  6
BYBLOCK
100
AcDbLine
 10
-48.499996
 20
-4.5
 30
0.0
 11
-68.28600300000001
 21
-4.5
 31
0.0
  0
LINE
  5
260
330
1E8
100
AcDbEntity
  8
MO_001_VIEW_PV
  6
BYBLOCK
100
AcDbLine
 10
-48.499996
 20
4.5
 30
0.0
 11
-68.28600300000001
 21
4.5
 31
0.0
  0
LINE
  5
261
330
1E8
100
AcDbEntity
  8
MO_001_VIEW_PV
  6
BYBLOCK
100
AcDbLine
 10
-66.0
 20
4.5
 30
0.0
 11
-66.0
 21
22.285713
 31
0.0
  0
ENDBLK
  5
262
330
1E8
100
AcDbEntity
  8
0
100
AcDbBlockEnd
  0
BLOCK
  5
263
330
1EA
100
AcDbEntity
  8
0
100
AcDbBlockBegin
  2
*D10
 70
     1
 10
0.0
 20
0.0
 30
0.0
  3
*D10
  1

  0
LINE
  5
264
330
1EA
100
AcDbEntity
  8
MO_001_VIEW_PV
  6
BYBLOCK
100
AcDbLine
 10
-98.50000000000001
 20
-21.0
 30
0.0
 11
-75.5
 21
-21.0
 31
0.0
  0
SOLID
  5
265
330
1EA
100
AcDbEntity
  8
MO_001_VIEW_PV
  6
BYBLOCK
100
AcDbTrace
 10
-95.18174
 20
-20.416488
 30
0.0
 11
-97.992
 21
-21.0
 31
0.0
 12
-95.18174
 22
-21.58351199999999
 32
0.0
 13
-95.18174
 23
-21.58351199999999
 33
0.0
  0
SOLID
  5
266
330
1EA
100
AcDbEntity
  8
MO_001_VIEW_PV
  6
BYBLOCK
100
AcDbTrace
 10
-78.81826
 20
-21.58351199999999
 30
0.0
 11
-76.00799999999999
 21
-21.0
 31
0.0
 12
-78.81826
 22
-20.416488
 32
0.0
 13
-78.81826
 23
-20.416488
 33
0.0
  0
LINE
  5
267
330
1EA
100
AcDbEntity
  8
MO_001_VIEW_PV
  6
BYBLOCK
100
AcDbLine
 10
-98.50000000000001
 20
-9.5
 30
0.0
 11
-98.50000000000001
 21
-23.28599899999999
 31
0.0
  0
LINE
  5
268
330
1EA
100
AcDbEntity
  8
MO_001_VIEW_PV
  6
BYBLOCK
100
AcDbLine
 10
-75.5
 20
-9.5
 30
0.0
 11
-75.5
 21
-23.28599899999999
 31
0.0
  0
TEXT
  5
269
330
1EA
100
AcDbEntity
  8
MO_001_VIEW_PV
  6
BYBLOCK
100
AcDbText
 10
-86.785714
 20
-18.375
 30
0.0
 40
1.5
  1
%%P0.3
100
AcDbText
  0
TEXT
  5
26A
330
1EA
100
AcDbEntity
  8
MO_001_VIEW_PV
  6
BYBLOCK
100
AcDbText
 10
-92.57142900000001
 20
-20.24999999999999
 30
0.0
 40
3.0
  1
23
100
AcDbText
  0
ENDBLK
  5
26B
330
1EA
100
AcDbEntity
  8
0
100
AcDbBlockEnd
  0
BLOCK
  5
26C
330
1EC
100
AcDbEntity
  8
0
100
AcDbBlockBegin
  2
*D11
 70
     1
 10
0.0
 20
0.0
 30
0.0
  3
*D11
  1

  0
LINE
  5
26D
330
1EC
100
AcDbEntity
  8
MO_001_VIEW_PV
  6
BYBLOCK
100
AcDbLine
 10
-108.0
 20
-9.5
 30
0.0
 11
-108.0
 21
9.5
 31
0.0
  0
SOLID
  5
26E
330
1EC
100
AcDbEntity
  8
MO_001_VIEW_PV
  6
BYBLOCK
100
AcDbTrace
 10
-108.583512
 20
-6.18174
 30
0.0
 11
-108.0
 21
-8.992
 31
0.0
 12
-107.4164879999999
 22
-6.18174
 32
0.0
 13
-107.4164879999999
 23
-6.18174
 33
0.0
  0
SOLID
  5
26F
330
1EC
100
AcDbEntity
  8
MO_001_VIEW_PV
  6
BYBLOCK
100
AcDbTrace
 10
-107.4164879999999
 20
6.18174
 30
0.0
 11
-108.0
 21
8.992
 31
0.0
 12
-108.583512
 22
6.18174
 32
0.0
 13
-108.583512
 23
6.18174
 33
0.0
  0
LINE
  5
270
330
1EC
100
AcDbEntity
  8
MO_001_VIEW_PV
  6
BYBLOCK
100
AcDbLine
 10
-98.50000000000001
 20
-9.5
 30
0.0
 11
-110.285995
 21
-9.5
 31
0.0
  0
LINE
  5
271
330
1EC
100
AcDbEntity
  8
MO_001_VIEW_PV
  6
BYBLOCK
100
AcDbLine
 10
-98.50000000000001
 20
9.5
 30
0.0
 11
-110.285995
 21
9.5
 31
0.0
  0
TEXT
  5
272
330
1EC
100
AcDbEntity
  8
MO_001_VIEW_PV
  6
BYBLOCK
100
AcDbText
 10
-110.6249999999999
 20
0.214286
 30
0.0
 40
1.5
  1
%%P0.3
 50
90.0
100
AcDbText
  0
TEXT
  5
273
330
1EC
100
AcDbEntity
  8
MO_001_VIEW_PV
  6
BYBLOCK
100
AcDbText
 10
-108.75
 20
-5.571429
 30
0.0
 40
3.0
  1
19
 50
90.0
100
AcDbText
  0
ENDBLK
  5
274
330
1EC
100
AcDbEntity
  8
0
100
AcDbBlockEnd
  0
BLOCK
  5
275
330
1EE
100
AcDbEntity
  8
0
100
AcDbBlockBegin
  2
*D12
 70
     1
 10
0.0
 20
0.0
 30
0.0
  3
*D12
  1

  0
LINE
  5
276
330
1EE
100
AcDbEntity
  8
MO_001_VIEW_PV
  6
BYBLOCK
100
AcDbLine
 10
-48.499996
 20
-42.0
 30
0.0
 11
-56.499996
 21
-42.0
 31
0.0
  0
LINE
  5
277
330
1EE
100
AcDbEntity
  8
MO_001_VIEW_PV
  6
BYBLOCK
100
AcDbLine
 10
-48.499996
 20
-42.0
 30
0.0
 11
-42.149996
 21
-42.0
 31
0.0
  0
LINE
  5
278
330
1EE
100
AcDbEntity
  8
MO_001_VIEW_PV
  6
BYBLOCK
100
AcDbLine
 10
-56.499996
 20
-42.0
 30
0.0
 11
-62.84999599999999
 21
-42.0
 31
0.0
  0
SOLID
  5
279
330
1EE
100
AcDbEntity
  8
MO_001_VIEW_PV
  6
BYBLOCK
100
AcDbTrace
 10
-45.18173599999999
 20
-41.416488
 30
0.0
 11
-47.991996
 21
-42.0
 31
0.0
 12
-45.18173599999999
 22
-42.58351199999999
 32
0.0
 13
-45.18173599999999
 23
-42.58351199999999
 33
0.0
  0
SOLID
  5
27A
330
1EE
100
AcDbEntity
  8
MO_001_VIEW_PV
  6
BYBLOCK
100
AcDbTrace
 10
-59.818256
 20
-42.58351199999999
 30
0.0
 11
-57.00799599999999
 21
-42.0
 31
0.0
 12
-59.818256
 22
-41.416488
 32
0.0
 13
-59.818256
 23
-41.416488
 33
0.0
  0
LINE
  5
27B
330
1EE
100
AcDbEntity
  8
MO_001_VIEW_PV
  6
BYBLOCK
100
AcDbLine
 10
-48.499996
 20
-58.5
 30
0.0
 11
-48.499996
 21
-39.713997
 31
0.0
  0
LINE
  5
27C
330
1EE
100
AcDbEntity
  8
MO_001_VIEW_PV
  6
BYBLOCK
100
AcDbLine
 10
-56.499996
 20
-55.800003
 30
0.0
 11
-56.499996
 21
-39.713997
 31
0.0
  0
TEXT
  5
27D
330
1EE
100
AcDbEntity
  8
MO_001_VIEW_PV
  6
BYBLOCK
100
AcDbText
 10
-64.98391099999999
 20
-39.375
 30
0.0
 40
1.5
  1
%%P0.3
100
AcDbText
  0
TEXT
  5
27E
330
1EE
100
AcDbEntity
  8
MO_001_VIEW_PV
  6
BYBLOCK
100
AcDbText
 10
-67.769625
 20
-41.25
 30
0.0
 40
3.0
  1
8
100
AcDbText
  0
LINE
  5
27F
330
1EE
100
AcDbEntity
  8
MO_001_VIEW_PV
  6
BYBLOCK
100
AcDbLine
 10
-56.499996
 20
-42.0
 30
0.0
 11
-68.73390999999999
 21
-42.0
 31
0.0
  0
ENDBLK
  5
280
330
1EE
100
AcDbEntity
  8
0
100
AcDbBlockEnd
  0
BLOCK
  5
281
330
1F0
100
AcDbEntity
  8
0
100
AcDbBlockBegin
  2
*D13
 70
     1
 10
0.0
 20
0.0
 30
0.0
  3
*D13
  1

  0
LINE
  5
282
330
1F0
100
AcDbEntity
  8
MO_001_VIEW_PV
  6
BYBLOCK
100
AcDbLine
 10
-45.499992
 20
-36.0
 30
0.0
 11
-56.499996
 21
-36.0
 31
0.0
  0
SOLID
  5
283
330
1F0
100
AcDbEntity
  8
MO_001_VIEW_PV
  6
BYBLOCK
100
AcDbTrace
 10
-48.818252
 20
-36.583512
 30
0.0
 11
-46.00799199999999
 21
-36.0
 31
0.0
 12
-48.818252
 22
-35.416488
 32
0.0
 13
-48.818252
 23
-35.416488
 33
0.0
  0
SOLID
  5
284
330
1F0
100
AcDbEntity
  8
MO_001_VIEW_PV
  6
BYBLOCK
100
AcDbTrace
 10
-53.181736
 20
-35.416488
 30
0.0
 11
-55.99199599999999
 21
-36.0
 31
0.0
 12
-53.181736
 22
-36.583512
 32
0.0
 13
-53.181736
 23
-36.583512
 33
0.0
  0
LINE
  5
285
330
1F0
100
AcDbEntity
  8
MO_001_VIEW_PV
  6
BYBLOCK
100
AcDbLine
 10
-45.499992
 20
-50.5
 30
0.0
 11
-45.499992
 21
-33.71399699999999
 31
0.0
  0
LINE
  5
286
330
1F0
100
AcDbEntity
  8
MO_001_VIEW_PV
  6
BYBLOCK
100
AcDbLine
 10
-56.499996
 20
-55.800003
 30
0.0
 11
-56.499996
 21
-33.71399699999999
 31
0.0
  0
TEXT
  5
287
330
1F0
100
AcDbEntity
  8
MO_001_VIEW_PV
  6
BYBLOCK
100
AcDbText
 10
-68.57142900000001
 20
-35.25
 30
0.0
 40
3.0
  1
(11)
100
AcDbText
  0
LINE
  5
288
330
1F0
100
AcDbEntity
  8
MO_001_VIEW_PV
  6
BYBLOCK
100
AcDbLine
 10
-56.499996
 20
-36.0
 30
0.0
 11
-69.535713
 21
-36.0
 31
0.0
  0
ENDBLK
  5
289
330
1F0
100
AcDbEntity
  8
0
100
AcDbBlockEnd
  0
BLOCK
  5
28A
330
1F2
100
AcDbEntity
  8
0
100
AcDbBlockBegin
  2
*D14
 70
     1
 10
0.0
 20
0.0
 30
0.0
  3
*D14
  1

  0
LINE
  5
28B
330
1F2
100
AcDbEntity
  8
MO_001_VIEW_PV
  6
BYBLOCK
100
AcDbLine
 10
-45.499992
 20
-36.0
 30
0.0
 11
0.0
 21
-36.0
 31
0.0
  0
SOLID
  5
28C
330
1F2
100
AcDbEntity
  8
MO_001_VIEW_PV
  6
BYBLOCK
100
AcDbTrace
 10
-42.181732
 20
-35.416488
 30
0.0
 11
-44.99199199999999
 21
-36.0
 31
0.0
 12
-42.181732
 22
-36.583512
 32
0.0
 13
-42.181732
 23
-36.583512
 33
0.0
  0
SOLID
  5
28D
330
1F2
100
AcDbEntity
  8
MO_001_VIEW_PV
  6
BYBLOCK
100
AcDbTrace
 10
-3.318259999999999
 20
-36.583512
 30
0.0
 11
-0.508
 21
-36.0
 31
0.0
 12
-3.318259999999999
 22
-35.416488
 32
0.0
 13
-3.318259999999999
 23
-35.416488
 33
0.0
  0
LINE
  5
28E
330
1F2
100
AcDbEntity
  8
MO_001_VIEW_PV
  6
BYBLOCK
100
AcDbLine
 10
-45.499992
 20
-50.5
 30
0.0
 11
-45.499992
 21
-33.71399699999999
 31
0.0
  0
LINE
  5
28F
330
1F2
100
AcDbEntity
  8
MO_001_VIEW_PV
  6
BYBLOCK
100
AcDbLine
 10
0.0
 20
-50.0
 30
0.0
 11
0.0
 21
-33.71399699999999
 31
0.0
  0
TEXT
  5
290
330
1F2
100
AcDbEntity
  8
MO_001_VIEW_PV
  6
BYBLOCK
100
AcDbText
 10
-19.53571099999999
 20
-33.375
 30
0.0
 40
1.5
  1
%%P0.5
100
AcDbText
  0
TEXT
  5
291
330
1F2
100
AcDbEntity
  8
MO_001_VIEW_PV
  6
BYBLOCK
100
AcDbText
 10
-31.321425
 20
-35.25
 30
0.0
 40
3.0
  1
45.5
100
AcDbText
  0
ENDBLK
  5
292
330
1F2
100
AcDbEntity
  8
0
100
AcDbBlockEnd
  0
BLOCK
  5
293
330
1F4
100
AcDbEntity
  8
0
100
AcDbBlockBegin
  2
*D15
 70
     1
 10
0.0
 20
0.0
 30
0.0
  3
*D15
  1

  0
LINE
  5
294
330
1F4
100
AcDbEntity
  8
MO_001_VIEW_PV
  6
BYBLOCK
100
AcDbLine
 10
-66.0
 20
-58.5
 30
0.0
 11
-66.0
 21
-61.5
 31
0.0
  0
LINE
  5
295
330
1F4
100
AcDbEntity
  8
MO_001_VIEW_PV
  6
BYBLOCK
100
AcDbLine
 10
-66.0
 20
-58.5
 30
0.0
 11
-66.0
 21
-52.14999999999999
 31
0.0
  0
LINE
  5
296
330
1F4
100
AcDbEntity
  8
MO_001_VIEW_PV
  6
BYBLOCK
100
AcDbLine
 10
-66.0
 20
-61.5
 30
0.0
 11
-66.0
 21
-67.85
 31
0.0
  0
SOLID
  5
297
330
1F4
100
AcDbEntity
  8
MO_001_VIEW_PV
  6
BYBLOCK
100
AcDbTrace
 10
-66.583512
 20
-55.18174000000001
 30
0.0
 11
-66.0
 21
-57.99199999999999
 31
0.0
 12
-65.416488
 22
-55.18174000000001
 32
0.0
 13
-65.416488
 23
-55.18174000000001
 33
0.0
  0
SOLID
  5
298
330
1F4
100
AcDbEntity
  8
MO_001_VIEW_PV
  6
BYBLOCK
100
AcDbTrace
 10
-65.416488
 20
-64.81825999999999
 30
0.0
 11
-66.0
 21
-62.008
 31
0.0
 12
-66.583512
 22
-64.81825999999999
 32
0.0
 13
-66.583512
 23
-64.81825999999999
 33
0.0
  0
LINE
  5
299
330
1F4
100
AcDbEntity
  8
MO_001_VIEW_PV
  6
BYBLOCK
100
AcDbLine
 10
-56.499996
 20
-58.5
 30
0.0
 11
-68.28600300000001
 21
-58.5
 31
0.0
  0
LINE
  5
29A
330
1F4
100
AcDbEntity
  8
MO_001_VIEW_PV
  6
BYBLOCK
100
AcDbLine
 10
-56.499996
 20
-61.5
 30
0.0
 11
-68.28600300000001
 21
-61.5
 31
0.0
  0
TEXT
  5
29B
330
1F4
100
AcDbEntity
  8
MO_001_VIEW_PV
  6
BYBLOCK
100
AcDbText
 10
-68.625
 20
-50.574731
 30
0.0
 40
1.5
  1
%%P0.3
 50
90.0
100
AcDbText
  0
TEXT
  5
29C
330
1F4
100
AcDbEntity
  8
MO_001_VIEW_PV
  6
BYBLOCK
100
AcDbText
 10
-66.75
 20
-53.36044499999999
 30
0.0
 40
3.0
  1
3
 50
90.0
100
AcDbText
  0
LINE
  5
29D
330
1F4
100
AcDbEntity
  8
MO_001_VIEW_PV
  6
BYBLOCK
100
AcDbLine
 10
-66.0
 20
-44.25330399999999
 30
0.0
 11
-66.0
 21
-58.5
 31
0.0
  0
ENDBLK
  5
29E
330
1F4
100
AcDbEntity
  8
0
100
AcDbBlockEnd
  0
BLOCK
  5
29F
330
1F6
100
AcDbEntity
  8
0
100
AcDbBlockBegin
  2
*D16
 70
     1
 10
0.0
 20
0.0
 30
0.0
  3
*D16
  1

  0
LINE
  5
2A0
330
1F6
100
AcDbEntity
  8
MO_001_VIEW_PV
  6
BYBLOCK
100
AcDbLine
 10
-51.923074
 20
1.384616
 30
0.0
 11
-53.076921
 21
-1.384614999999999
 31
0.0
  0
LINE
  5
2A1
330
1F6
100
AcDbEntity
  8
MO_001_VIEW_PV
  6
BYBLOCK
100
AcDbLine
 10
-51.923074
 20
1.384616
 30
0.0
 11
-49.480766
 21
7.246153999999999
 31
0.0
  0
LINE
  5
2A2
330
1F6
100
AcDbEntity
  8
MO_001_VIEW_PV
  6
BYBLOCK
100
AcDbLine
 10
-53.076921
 20
-1.384614999999999
 30
0.0
 11
-55.519229
 21
-7.246152999999999
 31
0.0
  0
SOLID
  5
2A3
330
1F6
100
AcDbEntity
  8
MO_001_VIEW_PV
  6
BYBLOCK
100
AcDbTrace
 10
-51.18544599999999
 20
4.672053
 30
0.0
 11
-51.72769
 21
1.853538999999999
 31
0.0
 12
-50.10819399999999
 22
4.223196999999999
 32
0.0
 13
-50.10819399999999
 23
4.223196999999999
 33
0.0
  0
SOLID
  5
2A4
330
1F6
100
AcDbEntity
  8
MO_001_VIEW_PV
  6
BYBLOCK
100
AcDbTrace
 10
-53.814549
 20
-4.672051999999999
 30
0.0
 11
-53.272306
 21
-1.853538
 31
0.0
 12
-54.891801
 22
-4.223195999999999
 32
0.0
 13
-54.891801
 23
-4.223195999999999
 33
0.0
  0
LINE
  5
2A5
330
1F6
100
AcDbEntity
  8
MO_001_VIEW_PV
  6
BYBLOCK
100
AcDbLine
 10
-53.076921
 20
-1.384614999999999
 30
0.0
 11
-60.002556
 21
-18.006133
 31
0.0
  0
ENDBLK
  5
2A6
330
1F6
100
AcDbEntity
  8
0
100
AcDbBlockEnd
  0
ENDSEC
  0
SECTION
  2
ENTITIES
  0
TEXT
  5
4B
330
1E
100
AcDbEntity
  8
OVERLAY_MAP
  6
C_SOLID_L
100
AcDbText
 10
0.0
 20
6.349999999999999
 30
0.0
 40
4.1672
  1
Model Overlay Name
100
AcDbText
  0
TEXT
  5
4C
330
1E
100
AcDbEntity
  8
OVERLAY_MAP
  6
C_SOLID_L
100
AcDbText
 10
126.999998
 20
0.0
 30
0.0
 40
4.1672
  1
Number
100
AcDbText
  0
TEXT
  5
4D
330
1E
100
AcDbEntity
  8
OVERLAY_MAP
  6
C_SOLID_L
100
AcDbText
 10
177.7999969999999
 20
0.0
 30
0.0
 40
4.1672
  1
File Text
100
AcDbText
  0
TEXT
  5
4E
330
1E
100
AcDbEntity
  8
OVERLAY_MAP
  6
C_SOLID_L
100
AcDbText
 10
0.0
 20
-6.349999999999999
 30
0.0
 40
4.1672
  1
op sk0946a 
100
AcDbText
  0
TEXT
  5
4F
330
1E
100
AcDbEntity
  8
OVERLAY_MAP
  6
C_SOLID_L
100
AcDbText
 10
126.999998
 20
-6.349999999999999
 30
0.0
 40
4.1672
  1
001
100
AcDbText
  0
TEXT
  5
50
330
1E
100
AcDbEntity
  8
OVERLAY_MAP
  6
C_SOLID_L
100
AcDbText
 10
177.7999969999999
 20
-6.349999999999999
 30
0.0
 40
4.1672
  1
                                                         90024 103100139
100
AcDbText
  0
LINE
  5
51
330
1E
100
AcDbEntity
  8
MO_001_VIEW_PV
  6
C_SOLID_M
100
AcDbLine
 10
-46.5
 20
-50.5
 30
0.0
 11
-2.0
 21
-50.5
 31
0.0
  0
LINE
  5
52
330
1E
100
AcDbEntity
  8
MO_001_VIEW_PV
  6
C_SOLID_M
100
AcDbLine
 10
-46.5
 20
-69.5
 30
0.0
 11
-2.0
 21
-69.5
 31
0.0
  0
LINE
  5
53
330
1E
100
AcDbEntity
  8
MO_001_VIEW_PV
  6
C_SOLID_M
100
AcDbLine
 10
-46.5
 20
-48.5
 30
0.0
 11
-1.5
 21
-48.5
 31
0.0
  0
LINE
  5
54
330
1E
100
AcDbEntity
  8
MO_001_VIEW_PV
  6
C_SOLID_M
100
AcDbLine
 10
-46.5
 20
-71.5
 30
0.0
 11
-1.5
 21
-71.5
 31
0.0
  0
LINE
  5
55
330
1E
100
AcDbEntity
  8
MO_001_VIEW_PV
  6
C_SOLID_M
100
AcDbLine
 10
-2.0
 20
-62.660004
 30
0.0
 11
-2.0
 21
-69.5
 31
0.0
  0
LINE
  5
56
330
1E
100
AcDbEntity
  8
MO_001_VIEW_PV
  6
C_SOLID_M
100
AcDbLine
 10
0.0
 20
-62.660004
 30
0.0
 11
0.0
 21
-70.0
 31
0.0
  0
LINE
  5
57
330
1E
100
AcDbEntity
  8
MO_001_VIEW_PV
  6
C_SOLID_M
100
AcDbLine
 10
-46.5
 20
-48.5
 30
0.0
 11
-46.5
 21
-50.5
 31
0.0
  0
ARC
  5
58
330
1E
100
AcDbEntity
  8
MO_001_VIEW_PV
  6
C_SOLID_M
100
AcDbCircle
 10
-1.5
 20
-50.0
 30
0.0
 40
1.5
100
AcDbArc
 50
0.0
 51
89.99998199999998
  0
ARC
  5
59
330
1E
100
AcDbEntity
  8
MO_001_VIEW_PV
  6
C_SOLID_M
100
AcDbCircle
 10
-1.5
 20
-70.0
 30
0.0
 40
1.5
100
AcDbArc
 50
270.0000179999999
 51
0.0
  0
LINE
  5
5A
330
1E
100
AcDbEntity
  8
MO_001_VIEW_PV
  6
C_SOLID_M
100
AcDbLine
 10
-46.5
 20
-69.5
 30
0.0
 11
-46.5
 21
-71.5
 31
0.0
  0
LINE
  5
5B
330
1E
100
AcDbEntity
  8
MO_001_VIEW_PV
  6
C_CENTER_L
100
AcDbLine
 10
-60.0
 20
-60.0
 30
0.0
 11
10.0
 21
-60.0
 31
0.0
  0
LINE
  5
5C
330
1E
100
AcDbEntity
  8
MO_001_VIEW_PV
  6
C_SOLID_M
100
AcDbLine
 10
-98.50000000000001
 20
-9.5
 30
0.0
 11
-98.50000000000001
 21
9.5
 31
0.0
  0
LINE
  5
5D
330
1E
100
AcDbEntity
  8
MO_001_VIEW_PV
  6
C_SOLID_M
100
AcDbLine
 10
-75.5
 20
-9.5
 30
0.0
 11
-75.5
 21
9.5
 31
0.0
  0
LINE
  5
5E
330
1E
100
AcDbEntity
  8
MO_001_VIEW_PV
  6
C_SOLID_M
100
AcDbLine
 10
-77.5
 20
4.372643
 30
0.0
 11
-77.5
 21
9.5
 31
0.0
  0
LINE
  5
5F
330
1E
100
AcDbEntity
  8
MO_001_VIEW_PV
  6
C_SOLID_M
100
AcDbLine
 10
-98.50000000000001
 20
-9.5
 30
0.0
 11
-75.5
 21
-9.5
 31
0.0
  0
LINE
  5
60
330
1E
100
AcDbEntity
  8
MO_001_VIEW_PV
  6
C_SOLID_M
100
AcDbLine
 10
-98.50000000000001
 20
9.5
 30
0.0
 11
-75.5
 21
9.5
 31
0.0
  0
LINE
  5
61
330
1E
100
AcDbEntity
  8
MO_001_VIEW_PV
  6
C_CENTER_L
100
AcDbLine
 10
-87.0
 20
-15.0
 30
0.0
 11
-87.0
 21
15.0
 31
0.0
  0
LINE
  5
62
330
1E
100
AcDbEntity
  8
MO_001_VIEW_PV
  6
C_SOLID_M
100
AcDbLine
 10
-42.899994
 20
-5.150001999999999
 30
0.0
 11
-42.899994
 21
5.150001999999999
 31
0.0
  0
LINE
  5
63
330
1E
100
AcDbEntity
  8
MO_001_VIEW_PV
  6
C_SOLID_M
100
AcDbLine
 10
-46.5
 20
9.5
 30
0.0
 11
0.0
 21
9.5
 31
0.0
  0
LINE
  5
64
330
1E
100
AcDbEntity
  8
MO_001_VIEW_PV
  6
C_SOLID_M
100
AcDbLine
 10
-46.5
 20
-9.5
 30
0.0
 11
0.0
 21
-9.5
 31
0.0
  0
LINE
  5
65
330
1E
100
AcDbEntity
  8
MO_001_VIEW_PV
  6
C_SOLID_M
100
AcDbLine
 10
0.0
 20
-9.5
 30
0.0
 11
0.0
 21
9.5
 31
0.0
  0
LINE
  5
66
330
1E
100
AcDbEntity
  8
MO_001_VIEW_PV
  6
C_CENTER_L
100
AcDbLine
 10
-60.0
 20
0.0
 30
0.0
 11
10.0
 21
0.0
 31
0.0
  0
LINE
  5
67
330
1E
100
AcDbEntity
  8
MO_001_VIEW_PV
  6
C_CENTER_L
100
AcDbLine
 10
-12.0
 20
5.0
 30
0.0
 11
-5.0
 21
5.0
 31
0.0
  0
LINE
  5
68
330
1E
100
AcDbEntity
  8
MO_001_VIEW_PV
  6
C_CENTER_L
100
AcDbLine
 10
-12.0
 20
-5.0
 30
0.0
 11
-5.0
 21
-5.0
 31
0.0
  0
LINE
  5
69
330
1E
100
AcDbEntity
  8
MO_001_VIEW_PV
  6
C_CENTER_L
100
AcDbLine
 10
-8.5
 20
1.5
 30
0.0
 11
-8.5
 21
8.5
 31
0.0
  0
LINE
  5
6A
330
1E
100
AcDbEntity
  8
MO_001_VIEW_PV
  6
C_CENTER_L
100
AcDbLine
 10
-36.5
 20
1.5
 30
0.0
 11
-36.5
 21
8.5
 31
0.0
  0
CIRCLE
  5
6B
330
1E
100
AcDbEntity
  8
MO_001_VIEW_PV
  6
C_SOLID_L
100
AcDbCircle
 10
-8.5
 20
-5.0
 30
0.0
 40
1.5
  0
CIRCLE
  5
6C
330
1E
100
AcDbEntity
  8
MO_001_VIEW_PV
  6
C_SOLID_L
100
AcDbCircle
 10
-8.5
 20
5.0
 30
0.0
 40
1.5
  0
CIRCLE
  5
6D
330
1E
100
AcDbEntity
  8
MO_001_VIEW_PV
  6
C_SOLID_L
100
AcDbCircle
 10
-36.5
 20
5.0
 30
0.0
 40
1.5
  0
CIRCLE
  5
6E
330
1E
100
AcDbEntity
  8
MO_001_VIEW_PV
  6
C_SOLID_L
100
AcDbCircle
 10
-36.5
 20
-5.0
 30
0.0
 40
1.5
  0
LINE
  5
6F
330
1E
100
AcDbEntity
  8
MO_001_VIEW_PV
  6
C_SOLID_M
100
AcDbLine
 10
-46.5
 20
5.422644999999999
 30
0.0
 11
-46.5
 21
4.372643
 31
0.0
  0
CIRCLE
  5
70
330
1E
100
AcDbEntity
  8
MO_001_VIEW_PV
  6
C_SOLID_M
100
AcDbCircle
 10
-36.5
 20
5.0
 30
0.0
 40
1.274999999999999
  0
CIRCLE
  5
71
330
1E
100
AcDbEntity
  8
MO_001_VIEW_PV
  6
C_SOLID_M
100
AcDbCircle
 10
-8.5
 20
5.0
 30
0.0
 40
1.274999999999999
  0
CIRCLE
  5
72
330
1E
100
AcDbEntity
  8
MO_001_VIEW_PV
  6
C_SOLID_M
100
AcDbCircle
 10
-36.5
 20
-5.0
 30
0.0
 40
1.274999999999999
  0
CIRCLE
  5
73
330
1E
100
AcDbEntity
  8
MO_001_VIEW_PV
  6
C_SOLID_M
100
AcDbCircle
 10
-8.5
 20
-5.0
 30
0.0
 40
1.274999999999999
  0
LINE
  5
74
330
1E
100
AcDbEntity
  8
MO_001_VIEW_PV
  6
C_SOLID_L
100
AcDbLine
 10
-42.899994
 20
-50.5
 30
0.0
 11
-42.899994
 21
-69.5
 31
0.0
  0
LINE
  5
75
330
1E
100
AcDbEntity
  8
MO_001_VIEW_PV
  6
C_CENTER_L
100
AcDbLine
 10
-40.0
 20
5.0
 30
0.0
 11
-33.0
 21
5.0
 31
0.0
  0
LINE
  5
76
330
1E
100
AcDbEntity
  8
MO_001_VIEW_PV
  6
C_CENTER_L
100
AcDbLine
 10
-40.0
 20
-5.0
 30
0.0
 11
-33.0
 21
-5.0
 31
0.0
  0
LINE
  5
77
330
1E
100
AcDbEntity
  8
MO_001_VIEW_PV
  6
C_CENTER_L
100
AcDbLine
 10
-36.5
 20
-8.5
 30
0.0
 11
-36.5
 21
-1.5
 31
0.0
  0
LINE
  5
78
330
1E
100
AcDbEntity
  8
MO_001_VIEW_PV
  6
C_CENTER_L
100
AcDbLine
 10
-8.5
 20
-8.5
 30
0.0
 11
-8.5
 21
-1.5
 31
0.0
  0
LINE
  5
79
330
1E
100
AcDbEntity
  8
MO_001_VIEW_PV
  6
C_SOLID_L
100
AcDbLine
 10
-45.499992
 20
-50.5
 30
0.0
 11
-45.499992
 21
-69.5
 31
0.0
  0
LINE
  5
7A
330
1E
100
AcDbEntity
  8
MO_001_VIEW_PV
  6
C_SOLID_M
100
AcDbLine
 10
-45.499992
 20
-4.949996999999999
 30
0.0
 11
-45.499992
 21
4.949996999999999
 31
0.0
  0
CIRCLE
  5
7B
330
1E
100
AcDbEntity
  8
MO_001_VIEW_PV
  6
C_SOLID_M
100
AcDbCircle
 10
-87.0
 20
0.0
 30
0.0
 40
5.0
  0
LINE
  5
7C
330
1E
100
AcDbEntity
  8
MO_001_VIEW_PV
  6
C_SOLID_M
100
AcDbLine
 10
-77.5
 20
-9.5
 30
0.0
 11
-77.5
 21
-4.372643
 31
0.0
  0
LINE
  5
7D
330
1E
100
AcDbEntity
  8
MO_001_VIEW_PV
  6
C_SOLID_M
100
AcDbLine
 10
-45.32887099999999
 20
5.048795
 30
0.0
 11
-42.899994
 21
5.150004
 31
0.0
  0
LINE
  5
7E
330
1E
100
AcDbEntity
  8
MO_001_VIEW_PV
  6
C_SOLID_M
100
AcDbLine
 10
-45.499992
 20
4.949996999999999
 30
0.0
 11
-42.899994
 21
4.949996999999999
 31
0.0
  0
LINE
  5
7F
330
1E
100
AcDbEntity
  8
MO_001_VIEW_PV
  6
C_SOLID_M
100
AcDbLine
 10
-45.499992
 20
-4.949996999999999
 30
0.0
 11
-42.899994
 21
-4.949996999999999
 31
0.0
  0
LINE
  5
80
330
1E
100
AcDbEntity
  8
MO_001_VIEW_PV
  6
C_SOLID_M
100
AcDbLine
 10
0.5
 20
-58.660004
 30
0.0
 11
0.5
 21
-61.339996
 31
0.0
  0
LINE
  5
81
330
1E
100
AcDbEntity
  8
MO_001_VIEW_PV
  6
C_SOLID_M
100
AcDbLine
 10
-56.499996
 20
-55.800003
 30
0.0
 11
-56.499996
 21
-58.5
 31
0.0
  0
LINE
  5
82
330
1E
100
AcDbEntity
  8
MO_001_VIEW_PV
  6
C_SOLID_M
100
AcDbLine
 10
-53.999996
 20
-55.5
 30
0.0
 11
-56.200001
 21
-55.5
 31
0.0
  0
LINE
  5
83
330
1E
100
AcDbEntity
  8
MO_001_VIEW_PV
  6
C_SOLID_M
100
AcDbLine
 10
-53.999996
 20
-64.5
 30
0.0
 11
-56.20000799999999
 21
-64.5
 31
0.0
  0
LINE
  5
84
330
1E
100
AcDbEntity
  8
MO_001_VIEW_PV
  6
C_SOLID_M
100
AcDbLine
 10
-56.50001899999999
 20
-55.800017
 30
0.0
 11
-56.200027
 21
-55.500021
 31
0.0
  0
LINE
  5
85
330
1E
100
AcDbEntity
  8
MO_001_VIEW_PV
  6
C_SOLID_M
100
AcDbLine
 10
-56.49998199999999
 20
-64.19999200000001
 30
0.0
 11
-56.199981
 21
-64.5
 31
0.0
  0
LINE
  5
86
330
1E
100
AcDbEntity
  8
MO_001_VIEW_PV
  6
C_SOLID_M
100
AcDbLine
 10
-48.499996
 20
-58.5
 30
0.0
 11
-48.499996
 21
-61.5
 31
0.0
  0
LINE
  5
87
330
1E
100
AcDbEntity
  8
MO_001_VIEW_PV
  6
C_SOLID_M
100
AcDbLine
 10
-48.499996
 20
-58.5
 30
0.0
 11
-56.499996
 21
-58.5
 31
0.0
  0
LINE
  5
88
330
1E
100
AcDbEntity
  8
MO_001_VIEW_PV
  6
C_SOLID_M
100
AcDbLine
 10
-48.499996
 20
-61.5
 30
0.0
 11
-56.499996
 21
-61.5
 31
0.0
  0
LINE
  5
89
330
1E
100
AcDbEntity
  8
MO_001_VIEW_PV
  6
C_CENTER_L
100
AcDbLine
 10
-52.49999599999999
 20
-54.875641
 30
0.0
 11
-52.49999599999999
 21
-65.58136000000001
 31
0.0
  0
LINE
  5
8A
330
1E
100
AcDbEntity
  8
MO_001_VIEW_PV
  6
C_DASHED_M
100
AcDbLine
 10
-53.999996
 20
-55.5
 30
0.0
 11
-53.999996
 21
-56.599998
 31
0.0
  0
LINE
  5
8B
330
1E
100
AcDbEntity
  8
MO_001_VIEW_PV
  6
C_DASHED_M
100
AcDbLine
 10
-50.999996
 20
-55.5
 30
0.0
 11
-50.999996
 21
-56.599998
 31
0.0
  0
LINE
  5
8C
330
1E
100
AcDbEntity
  8
MO_001_VIEW_PV
  6
C_DASHED_M
100
AcDbLine
 10
-50.999996
 20
-61.5
 30
0.0
 11
-50.999996
 21
-62.599998
 31
0.0
  0
LINE
  5
8D
330
1E
100
AcDbEntity
  8
MO_001_VIEW_PV
  6
C_DASHED_M
100
AcDbLine
 10
-53.999996
 20
-61.5
 30
0.0
 11
-53.999996
 21
-62.599998
 31
0.0
  0
LINE
  5
8E
330
1E
100
AcDbEntity
  8
MO_001_VIEW_PV
  6
C_SOLID_M
100
AcDbLine
 10
-56.499996
 20
-61.5
 30
0.0
 11
-56.499996
 21
-64.19999699999999
 31
0.0
  0
LINE
  5
8F
330
1E
100
AcDbEntity
  8
MO_001_VIEW_PV
  6
C_SOLID_M
100
AcDbLine
 10
-56.200001
 20
-61.5
 30
0.0
 11
-56.200001
 21
-64.5
 31
0.0
  0
LINE
  5
90
330
1E
100
AcDbEntity
  8
MO_001_VIEW_PV
  6
C_SOLID_M
100
AcDbLine
 10
-56.200001
 20
-55.5
 30
0.0
 11
-56.200001
 21
-58.5
 31
0.0
  0
LINE
  5
91
330
1E
100
AcDbEntity
  8
MO_001_VIEW_PV
  6
C_CENTER_L
100
AcDbLine
 10
-72.0
 20
0.0
 30
0.0
 11
-102.0
 21
0.0
 31
0.0
  0
LINE
  5
92
330
1E
100
AcDbEntity
  8
MO_001_VIEW_PV
  6
C_SOLID_M
100
AcDbLine
 10
-46.09999499999999
 20
-59.5
 30
0.0
 11
-48.499996
 21
-59.5
 31
0.0
  0
LINE
  5
93
330
1E
100
AcDbEntity
  8
MO_001_VIEW_PV
  6
C_SOLID_M
100
AcDbLine
 10
-46.09999499999999
 20
-60.5
 30
0.0
 11
-48.499996
 21
-60.5
 31
0.0
  0
ARC
  5
94
330
1E
100
AcDbEntity
  8
MO_001_VIEW_PV
  6
C_SOLID_M
100
AcDbCircle
 10
-87.0
 20
0.0
 30
0.0
 40
4.5
100
AcDbArc
 50
276.379367
 51
263.6206309999999
  0
LINE
  5
95
330
1E
100
AcDbEntity
  8
MO_001_VIEW_PV
  6
C_DASHED_M
100
AcDbLine
 10
-50.999996
 20
-57.400002
 30
0.0
 11
-50.999996
 21
-58.5
 31
0.0
  0
LINE
  5
96
330
1E
100
AcDbEntity
  8
MO_001_VIEW_PV
  6
C_DASHED_M
100
AcDbLine
 10
-53.999996
 20
-57.400002
 30
0.0
 11
-53.999996
 21
-58.5
 31
0.0
  0
LINE
  5
97
330
1E
100
AcDbEntity
  8
MO_001_VIEW_PV
  6
C_DASHED_M
100
AcDbLine
 10
-53.999996
 20
-63.400002
 30
0.0
 11
-53.999996
 21
-64.5
 31
0.0
  0
LINE
  5
98
330
1E
100
AcDbEntity
  8
MO_001_VIEW_PV
  6
C_DASHED_M
100
AcDbLine
 10
-50.999996
 20
-63.400002
 30
0.0
 11
-50.999996
 21
-64.5
 31
0.0
  0
LINE
  5
99
330
1E
100
AcDbEntity
  8
MO_001_VIEW_PV
  6
C_SOLID_M
100
AcDbLine
 10
-86.49998399999999
 20
-4.472157
 30
0.0
 11
-86.999984
 21
-3.972155999999999
 31
0.0
  0
LINE
  5
9A
330
1E
100
AcDbEntity
  8
MO_001_VIEW_PV
  6
C_SOLID_M
100
AcDbLine
 10
-87.499959
 20
-4.472167999999999
 30
0.0
 11
-86.999968
 21
-3.972179
 31
0.0
  0
POLYLINE
  5
9B
330
1E
100
AcDbEntity
  8
MO_001_VIEW_PV
  6
C_SOLID_M
100
AcDb2dPolyline
 66
     1
 10
0.0
 20
0.0
 30
0.0
 70
     1
  0
VERTEX
  5
2B8
330
9B
100
AcDbEntity
  8
MO_001_VIEW_PV
  6
C_SOLID_M
100
AcDbVertex
100
AcDb2dVertex
 10
-53.999996
 20
-55.5
 30
0.0
  0
VERTEX
  5
2B9
330
9B
100
AcDbEntity
  8
MO_001_VIEW_PV
  6
C_SOLID_M
100
AcDbVertex
100
AcDb2dVertex
 10
-53.992252
 20
-55.50289
 30
0.0
  0
VERTEX
  5
2BA
330
9B
100
AcDbEntity
  8
MO_001_VIEW_PV
  6
C_SOLID_M
100
AcDbVertex
100
AcDb2dVertex
 10
-53.973157
 20
-55.509774
 30
0.0
  0
VERTEX
  5
2BB
330
9B
100
AcDbEntity
  8
MO_001_VIEW_PV
  6
C_SOLID_M
100
AcDbVertex
100
AcDb2dVertex
 10
-53.913651
 20
-55.530026
 30
0.0
  0
VERTEX
  5
2BC
330
9B
100
AcDbEntity
  8
MO_001_VIEW_PV
  6
C_SOLID_M
100
AcDbVertex
100
AcDb2dVertex
 10
-53.84860699999999
 20
-55.550691
 30
0.0
  0
VERTEX
  5
2BD
330
9B
100
AcDbEntity
  8
MO_001_VIEW_PV
  6
C_SOLID_M
100
AcDbVertex
100
AcDb2dVertex
 10
-53.720965
 20
-55.58775699999999
 30
0.0
  0
VERTEX
  5
2BE
330
9B
100
AcDbEntity
  8
MO_001_VIEW_PV
  6
C_SOLID_M
100
AcDbVertex
100
AcDb2dVertex
 10
-53.56066
 20
-55.628677
 30
0.0
  0
VERTEX
  5
2BF
330
9B
100
AcDbEntity
  8
MO_001_VIEW_PV
  6
C_SOLID_M
100
AcDbVertex
100
AcDb2dVertex
 10
-53.338665
 20
-55.67592600000001
 30
0.0
  0
VERTEX
  5
2C0
330
9B
100
AcDbEntity
  8
MO_001_VIEW_PV
  6
C_SOLID_M
100
AcDbVertex
100
AcDb2dVertex
 10
-53.150314
 20
-55.707734
 30
0.0
  0
VERTEX
  5
2C1
330
9B
100
AcDbEntity
  8
MO_001_VIEW_PV
  6
C_SOLID_M
100
AcDbVertex
100
AcDb2dVertex
 10
-52.83875899999999
 20
-55.743518
 30
0.0
  0
VERTEX
  5
2C2
330
9B
100
AcDbEntity
  8
MO_001_VIEW_PV
  6
C_SOLID_M
100
AcDbVertex
100
AcDb2dVertex
 10
-52.50000400000001
 20
-55.757355
 30
0.0
  0
VERTEX
  5
2C3
330
9B
100
AcDbEntity
  8
MO_001_VIEW_PV
  6
C_SOLID_M
100
AcDbVertex
100
AcDb2dVertex
 10
-52.197701
 20
-55.746297
 30
0.0
  0
VERTEX
  5
2C4
330
9B
100
AcDbEntity
  8
MO_001_VIEW_PV
  6
C_SOLID_M
100
AcDbVertex
100
AcDb2dVertex
 10
-51.984252
 20
-55.72579799999999
 30
0.0
  0
VERTEX
  5
2C5
330
9B
100
AcDbEntity
  8
MO_001_VIEW_PV
  6
C_SOLID_M
100
AcDbVertex
100
AcDb2dVertex
 10
-51.691516
 20
-55.681532
 30
0.0
  0
VERTEX
  5
2C6
330
9B
100
AcDbEntity
  8
MO_001_VIEW_PV
  6
C_SOLID_M
100
AcDbVertex
100
AcDb2dVertex
 10
-51.559821
 20
-55.655641
 30
0.0
  0
VERTEX
  5
2C7
330
9B
100
AcDbEntity
  8
MO_001_VIEW_PV
  6
C_SOLID_M
100
AcDbVertex
100
AcDb2dVertex
 10
-51.439339
 20
-55.628677
 30
0.0
  0
VERTEX
  5
2C8
330
9B
100
AcDbEntity
  8
MO_001_VIEW_PV
  6
C_SOLID_M
100
AcDbVertex
100
AcDb2dVertex
 10
-51.34252599999999
 20
-55.60467599999999
 30
0.0
  0
VERTEX
  5
2C9
330
9B
100
AcDbEntity
  8
MO_001_VIEW_PV
  6
C_SOLID_M
100
AcDbVertex
100
AcDb2dVertex
 10
-51.198731
 20
-55.564941
 30
0.0
  0
VERTEX
  5
2CA
330
9B
100
AcDbEntity
  8
MO_001_VIEW_PV
  6
C_SOLID_M
100
AcDbVertex
100
AcDb2dVertex
 10
-51.114341
 20
-55.539087
 30
0.0
  0
VERTEX
  5
2CB
330
9B
100
AcDbEntity
  8
MO_001_VIEW_PV
  6
C_SOLID_M
100
AcDbVertex
100
AcDb2dVertex
 10
-51.06539399999999
 20
-55.523065
 30
0.0
  0
VERTEX
  5
2CC
330
9B
100
AcDbEntity
  8
MO_001_VIEW_PV
  6
C_SOLID_M
100
AcDbVertex
100
AcDb2dVertex
 10
-51.01675
 20
-55.506171
 30
0.0
  0
VERTEX
  5
2CD
330
9B
100
AcDbEntity
  8
MO_001_VIEW_PV
  6
C_SOLID_M
100
AcDbVertex
100
AcDb2dVertex
 10
-50.999996
 20
-55.5
 30
0.0
  0
VERTEX
  5
2CE
330
9B
100
AcDbEntity
  8
MO_001_VIEW_PV
  6
C_SOLID_M
100
AcDbVertex
100
AcDb2dVertex
 10
-51.00774000000001
 20
-55.50289
 30
0.0
  0
VERTEX
  5
2CF
330
9B
100
AcDbEntity
  8
MO_001_VIEW_PV
  6
C_SOLID_M
100
AcDbVertex
100
AcDb2dVertex
 10
-51.02683599999999
 20
-55.509774
 30
0.0
  0
VERTEX
  5
2D0
330
9B
100
AcDbEntity
  8
MO_001_VIEW_PV
  6
C_SOLID_M
100
AcDbVertex
100
AcDb2dVertex
 10
-51.086342
 20
-55.530026
 30
0.0
  0
VERTEX
  5
2D1
330
9B
100
AcDbEntity
  8
MO_001_VIEW_PV
  6
C_SOLID_M
100
AcDbVertex
100
AcDb2dVertex
 10
-51.151387
 20
-55.550691
 30
0.0
  0
VERTEX
  5
2D2
330
9B
100
AcDbEntity
  8
MO_001_VIEW_PV
  6
C_SOLID_M
100
AcDbVertex
100
AcDb2dVertex
 10
-51.279029
 20
-55.58775699999999
 30
0.0
  0
VERTEX
  5
2D3
330
9B
100
AcDbEntity
  8
MO_001_VIEW_PV
  6
C_SOLID_M
100
AcDbVertex
100
AcDb2dVertex
 10
-51.439335
 20
-55.628677
 30
0.0
  0
VERTEX
  5
2D4
330
9B
100
AcDbEntity
  8
MO_001_VIEW_PV
  6
C_SOLID_M
100
AcDbVertex
100
AcDb2dVertex
 10
-51.66133099999999
 20
-55.67592600000001
 30
0.0
  0
VERTEX
  5
2D5
330
9B
100
AcDbEntity
  8
MO_001_VIEW_PV
  6
C_SOLID_M
100
AcDbVertex
100
AcDb2dVertex
 10
-51.849684
 20
-55.707734
 30
0.0
  0
VERTEX
  5
2D6
330
9B
100
AcDbEntity
  8
MO_001_VIEW_PV
  6
C_SOLID_M
100
AcDbVertex
100
AcDb2dVertex
 10
-52.16124
 20
-55.743518
 30
0.0
  0
VERTEX
  5
2D7
330
9B
100
AcDbEntity
  8
MO_001_VIEW_PV
  6
C_SOLID_M
100
AcDbVertex
100
AcDb2dVertex
 10
-52.49999599999999
 20
-55.757355
 30
0.0
  0
VERTEX
  5
2D8
330
9B
100
AcDbEntity
  8
MO_001_VIEW_PV
  6
C_SOLID_M
100
AcDbVertex
100
AcDb2dVertex
 10
-52.802298
 20
-55.746297
 30
0.0
  0
VERTEX
  5
2D9
330
9B
100
AcDbEntity
  8
MO_001_VIEW_PV
  6
C_SOLID_M
100
AcDbVertex
100
AcDb2dVertex
 10
-53.01574599999999
 20
-55.72579799999999
 30
0.0
  0
VERTEX
  5
2DA
330
9B
100
AcDbEntity
  8
MO_001_VIEW_PV
  6
C_SOLID_M
100
AcDbVertex
100
AcDb2dVertex
 10
-53.30848
 20
-55.681532
 30
0.0
  0
VERTEX
  5
2DB
330
9B
100
AcDbEntity
  8
MO_001_VIEW_PV
  6
C_SOLID_M
100
AcDbVertex
100
AcDb2dVertex
 10
-53.440175
 20
-55.655641
 30
0.0
  0
VERTEX
  5
2DC
330
9B
100
AcDbEntity
  8
MO_001_VIEW_PV
  6
C_SOLID_M
100
AcDbVertex
100
AcDb2dVertex
 10
-53.560656
 20
-55.628677
 30
0.0
  0
VERTEX
  5
2DD
330
9B
100
AcDbEntity
  8
MO_001_VIEW_PV
  6
C_SOLID_M
100
AcDbVertex
100
AcDb2dVertex
 10
-53.65746899999999
 20
-55.60467599999999
 30
0.0
  0
VERTEX
  5
2DE
330
9B
100
AcDbEntity
  8
MO_001_VIEW_PV
  6
C_SOLID_M
100
AcDbVertex
100
AcDb2dVertex
 10
-53.801263
 20
-55.564941
 30
0.0
  0
VERTEX
  5
2DF
330
9B
100
AcDbEntity
  8
MO_001_VIEW_PV
  6
C_SOLID_M
100
AcDbVertex
100
AcDb2dVertex
 10
-53.885652
 20
-55.539087
 30
0.0
  0
VERTEX
  5
2E0
330
9B
100
AcDbEntity
  8
MO_001_VIEW_PV
  6
C_SOLID_M
100
AcDbVertex
100
AcDb2dVertex
 10
-53.93459899999999
 20
-55.523065
 30
0.0
  0
VERTEX
  5
2E1
330
9B
100
AcDbEntity
  8
MO_001_VIEW_PV
  6
C_SOLID_M
100
AcDbVertex
100
AcDb2dVertex
 10
-53.98324200000001
 20
-55.506171
 30
0.0
  0
VERTEX
  5
2E2
330
9B
100
AcDbEntity
  8
MO_001_VIEW_PV
  6
C_SOLID_M
100
AcDbVertex
100
AcDb2dVertex
 10
-53.999996
 20
-55.5
 30
0.0
  0
SEQEND
  5
2E3
330
9B
100
AcDbEntity
  8
MO_001_VIEW_PV
  6
C_SOLID_M
  0
POLYLINE
  5
C8
330
1E
100
AcDbEntity
  8
MO_001_VIEW_PV
  6
C_SOLID_M
100
AcDb2dPolyline
 66
     1
 10
0.0
 20
0.0
 30
0.0
 70
     1
  0
VERTEX
  5
2E4
330
C8
100
AcDbEntity
  8
MO_001_VIEW_PV
  6
C_SOLID_M
100
AcDbVertex
100
AcDb2dVertex
 10
-53.999996
 20
-64.5
 30
0.0
  0
VERTEX
  5
2E5
330
C8
100
AcDbEntity
  8
MO_001_VIEW_PV
  6
C_SOLID_M
100
AcDbVertex
100
AcDb2dVertex
 10
-53.992252
 20
-64.49710999999999
 30
0.0
  0
VERTEX
  5
2E6
330
C8
100
AcDbEntity
  8
MO_001_VIEW_PV
  6
C_SOLID_M
100
AcDbVertex
100
AcDb2dVertex
 10
-53.973157
 20
-64.49022600000001
 30
0.0
  0
VERTEX
  5
2E7
330
C8
100
AcDbEntity
  8
MO_001_VIEW_PV
  6
C_SOLID_M
100
AcDbVertex
100
AcDb2dVertex
 10
-53.91365
 20
-64.46997500000001
 30
0.0
  0
VERTEX
  5
2E8
330
C8
100
AcDbEntity
  8
MO_001_VIEW_PV
  6
C_SOLID_M
100
AcDbVertex
100
AcDb2dVertex
 10
-53.84860500000001
 20
-64.449309
 30
0.0
  0
VERTEX
  5
2E9
330
C8
100
AcDbEntity
  8
MO_001_VIEW_PV
  6
C_SOLID_M
100
AcDbVertex
100
AcDb2dVertex
 10
-53.720962
 20
-64.412243
 30
0.0
  0
VERTEX
  5
2EA
330
C8
100
AcDbEntity
  8
MO_001_VIEW_PV
  6
C_SOLID_M
100
AcDbVertex
100
AcDb2dVertex
 10
-53.560656
 20
-64.371323
 30
0.0
  0
VERTEX
  5
2EB
330
C8
100
AcDbEntity
  8
MO_001_VIEW_PV
  6
C_SOLID_M
100
AcDbVertex
100
AcDb2dVertex
 10
-53.33866
 20
-64.32407399999999
 30
0.0
  0
VERTEX
  5
2EC
330
C8
100
AcDbEntity
  8
MO_001_VIEW_PV
  6
C_SOLID_M
100
AcDbVertex
100
AcDb2dVertex
 10
-53.15030799999999
 20
-64.29226599999999
 30
0.0
  0
VERTEX
  5
2ED
330
C8
100
AcDbEntity
  8
MO_001_VIEW_PV
  6
C_SOLID_M
100
AcDbVertex
100
AcDb2dVertex
 10
-52.838751
 20
-64.25648199999999
 30
0.0
  0
VERTEX
  5
2EE
330
C8
100
AcDbEntity
  8
MO_001_VIEW_PV
  6
C_SOLID_M
100
AcDbVertex
100
AcDb2dVertex
 10
-52.49999599999999
 20
-64.24264499999999
 30
0.0
  0
VERTEX
  5
2EF
330
C8
100
AcDbEntity
  8
MO_001_VIEW_PV
  6
C_SOLID_M
100
AcDbVertex
100
AcDb2dVertex
 10
-52.197693
 20
-64.253703
 30
0.0
  0
VERTEX
  5
2F0
330
C8
100
AcDbEntity
  8
MO_001_VIEW_PV
  6
C_SOLID_M
100
AcDbVertex
100
AcDb2dVertex
 10
-51.984245
 20
-64.274202
 30
0.0
  0
VERTEX
  5
2F1
330
C8
100
AcDbEntity
  8
MO_001_VIEW_PV
  6
C_SOLID_M
100
AcDbVertex
100
AcDb2dVertex
 10
-51.691511
 20
-64.31846800000001
 30
0.0
  0
VERTEX
  5
2F2
330
C8
100
AcDbEntity
  8
MO_001_VIEW_PV
  6
C_SOLID_M
100
AcDbVertex
100
AcDb2dVertex
 10
-51.559816
 20
-64.344359
 30
0.0
  0
VERTEX
  5
2F3
330
C8
100
AcDbEntity
  8
MO_001_VIEW_PV
  6
C_SOLID_M
100
AcDbVertex
100
AcDb2dVertex
 10
-51.439335
 20
-64.371323
 30
0.0
  0
VERTEX
  5
2F4
330
C8
100
AcDbEntity
  8
MO_001_VIEW_PV
  6
C_SOLID_M
100
AcDbVertex
100
AcDb2dVertex
 10
-51.34252299999999
 20
-64.395324
 30
0.0
  0
VERTEX
  5
2F5
330
C8
100
AcDbEntity
  8
MO_001_VIEW_PV
  6
C_SOLID_M
100
AcDbVertex
100
AcDb2dVertex
 10
-51.198729
 20
-64.43505899999999
 30
0.0
  0
VERTEX
  5
2F6
330
C8
100
AcDbEntity
  8
MO_001_VIEW_PV
  6
C_SOLID_M
100
AcDbVertex
100
AcDb2dVertex
 10
-51.11434
 20
-64.460913
 30
0.0
  0
VERTEX
  5
2F7
330
C8
100
AcDbEntity
  8
MO_001_VIEW_PV
  6
C_SOLID_M
100
AcDbVertex
100
AcDb2dVertex
 10
-51.065393
 20
-64.47693499999999
 30
0.0
  0
VERTEX
  5
2F8
330
C8
100
AcDbEntity
  8
MO_001_VIEW_PV
  6
C_SOLID_M
100
AcDbVertex
100
AcDb2dVertex
 10
-51.01675
 20
-64.493829
 30
0.0
  0
VERTEX
  5
2F9
330
C8
100
AcDbEntity
  8
MO_001_VIEW_PV
  6
C_SOLID_M
100
AcDbVertex
100
AcDb2dVertex
 10
-50.999996
 20
-64.5
 30
0.0
  0
VERTEX
  5
2FA
330
C8
100
AcDbEntity
  8
MO_001_VIEW_PV
  6
C_SOLID_M
100
AcDbVertex
100
AcDb2dVertex
 10
-51.00774099999999
 20
-64.49710999999999
 30
0.0
  0
VERTEX
  5
2FB
330
C8
100
AcDbEntity
  8
MO_001_VIEW_PV
  6
C_SOLID_M
100
AcDbVertex
100
AcDb2dVertex
 10
-51.02683599999999
 20
-64.49022600000001
 30
0.0
  0
VERTEX
  5
2FC
330
C8
100
AcDbEntity
  8
MO_001_VIEW_PV
  6
C_SOLID_M
100
AcDbVertex
100
AcDb2dVertex
 10
-51.086342
 20
-64.46997399999999
 30
0.0
  0
VERTEX
  5
2FD
330
C8
100
AcDbEntity
  8
MO_001_VIEW_PV
  6
C_SOLID_M
100
AcDbVertex
100
AcDb2dVertex
 10
-51.151388
 20
-64.449309
 30
0.0
  0
VERTEX
  5
2FE
330
C8
100
AcDbEntity
  8
MO_001_VIEW_PV
  6
C_SOLID_M
100
AcDbVertex
100
AcDb2dVertex
 10
-51.279032
 20
-64.412243
 30
0.0
  0
VERTEX
  5
2FF
330
C8
100
AcDbEntity
  8
MO_001_VIEW_PV
  6
C_SOLID_M
100
AcDbVertex
100
AcDb2dVertex
 10
-51.439339
 20
-64.371323
 30
0.0
  0
VERTEX
  5
300
330
C8
100
AcDbEntity
  8
MO_001_VIEW_PV
  6
C_SOLID_M
100
AcDbVertex
100
AcDb2dVertex
 10
-51.66133699999999
 20
-64.32407399999999
 30
0.0
  0
VERTEX
  5
301
330
C8
100
AcDbEntity
  8
MO_001_VIEW_PV
  6
C_SOLID_M
100
AcDbVertex
100
AcDb2dVertex
 10
-51.84969
 20
-64.29226599999999
 30
0.0
  0
VERTEX
  5
302
330
C8
100
AcDbEntity
  8
MO_001_VIEW_PV
  6
C_SOLID_M
100
AcDbVertex
100
AcDb2dVertex
 10
-52.16124699999999
 20
-64.25648199999999
 30
0.0
  0
VERTEX
  5
303
330
C8
100
AcDbEntity
  8
MO_001_VIEW_PV
  6
C_SOLID_M
100
AcDbVertex
100
AcDb2dVertex
 10
-52.50000400000001
 20
-64.24264499999999
 30
0.0
  0
VERTEX
  5
304
330
C8
100
AcDbEntity
  8
MO_001_VIEW_PV
  6
C_SOLID_M
100
AcDbVertex
100
AcDb2dVertex
 10
-52.802305
 20
-64.253703
 30
0.0
  0
VERTEX
  5
305
330
C8
100
AcDbEntity
  8
MO_001_VIEW_PV
  6
C_SOLID_M
100
AcDbVertex
100
AcDb2dVertex
 10
-53.015753
 20
-64.274202
 30
0.0
  0
VERTEX
  5
306
330
C8
100
AcDbEntity
  8
MO_001_VIEW_PV
  6
C_SOLID_M
100
AcDbVertex
100
AcDb2dVertex
 10
-53.308486
 20
-64.31846800000001
 30
0.0
  0
VERTEX
  5
307
330
C8
100
AcDbEntity
  8
MO_001_VIEW_PV
  6
C_SOLID_M
100
AcDbVertex
100
AcDb2dVertex
 10
-53.440179
 20
-64.344359
 30
0.0
  0
VERTEX
  5
308
330
C8
100
AcDbEntity
  8
MO_001_VIEW_PV
  6
C_SOLID_M
100
AcDbVertex
100
AcDb2dVertex
 10
-53.56066
 20
-64.371323
 30
0.0
  0
VERTEX
  5
309
330
C8
100
AcDbEntity
  8
MO_001_VIEW_PV
  6
C_SOLID_M
100
AcDbVertex
100
AcDb2dVertex
 10
-53.657472
 20
-64.395324
 30
0.0
  0
VERTEX
  5
30A
330
C8
100
AcDbEntity
  8
MO_001_VIEW_PV
  6
C_SOLID_M
100
AcDbVertex
100
AcDb2dVertex
 10
-53.801265
 20
-64.435058
 30
0.0
  0
VERTEX
  5
30B
330
C8
100
AcDbEntity
  8
MO_001_VIEW_PV
  6
C_SOLID_M
100
AcDbVertex
100
AcDb2dVertex
 10
-53.885653
 20
-64.460913
 30
0.0
  0
VERTEX
  5
30C
330
C8
100
AcDbEntity
  8
MO_001_VIEW_PV
  6
C_SOLID_M
100
AcDbVertex
100
AcDb2dVertex
 10
-53.93459899999999
 20
-64.47693499999999
 30
0.0
  0
VERTEX
  5
30D
330
C8
100
AcDbEntity
  8
MO_001_VIEW_PV
  6
C_SOLID_M
100
AcDbVertex
100
AcDb2dVertex
 10
-53.98324200000001
 20
-64.493829
 30
0.0
  0
VERTEX
  5
30E
330
C8
100
AcDbEntity
  8
MO_001_VIEW_PV
  6
C_SOLID_M
100
AcDbVertex
100
AcDb2dVertex
 10
-53.999996
 20
-64.5
 30
0.0
  0
SEQEND
  5
30F
330
C8
100
AcDbEntity
  8
MO_001_VIEW_PV
  6
C_SOLID_M
  0
POLYLINE
  5
F5
330
1E
100
AcDbEntity
  8
MO_001_VIEW_PV
  6
C_DASHED_M
100
AcDb2dPolyline
 66
     1
 10
0.0
 20
0.0
 30
0.0
 70
     1
  0
VERTEX
  5
310
330
F5
100
AcDbEntity
  8
MO_001_VIEW_PV
  6
C_DASHED_M
100
AcDbVertex
100
AcDb2dVertex
 10
-53.700001
 20
-55.800003
 30
0.0
  0
VERTEX
  5
311
330
F5
100
AcDbEntity
  8
MO_001_VIEW_PV
  6
C_DASHED_M
100
AcDbVertex
100
AcDb2dVertex
 10
-53.693805
 20
-55.80196899999999
 30
0.0
  0
VERTEX
  5
312
330
F5
100
AcDbEntity
  8
MO_001_VIEW_PV
  6
C_DASHED_M
100
AcDbVertex
100
AcDb2dVertex
 10
-53.654478
 20
-55.813741
 30
0.0
  0
VERTEX
  5
313
330
F5
100
AcDbEntity
  8
MO_001_VIEW_PV
  6
C_DASHED_M
100
AcDbVertex
100
AcDb2dVertex
 10
-53.60283199999999
 20
-55.82813299999999
 30
0.0
  0
VERTEX
  5
314
330
F5
100
AcDbEntity
  8
MO_001_VIEW_PV
  6
C_DASHED_M
100
AcDbVertex
100
AcDb2dVertex
 10
-53.49303199999999
 20
-55.855881
 30
0.0
  0
VERTEX
  5
315
330
F5
100
AcDbEntity
  8
MO_001_VIEW_PV
  6
C_DASHED_M
100
AcDbVertex
100
AcDb2dVertex
 10
-53.348527
 20
-55.88754300000001
 30
0.0
  0
VERTEX
  5
316
330
F5
100
AcDbEntity
  8
MO_001_VIEW_PV
  6
C_DASHED_M
100
AcDbVertex
100
AcDb2dVertex
 10
-53.170929
 20
-55.919686
 30
0.0
  0
VERTEX
  5
317
330
F5
100
AcDbEntity
  8
MO_001_VIEW_PV
  6
C_DASHED_M
100
AcDbVertex
100
AcDb2dVertex
 10
-53.020247
 20
-55.941325
 30
0.0
  0
VERTEX
  5
318
330
F5
100
AcDbEntity
  8
MO_001_VIEW_PV
  6
C_DASHED_M
100
AcDbVertex
100
AcDb2dVertex
 10
-52.771001
 20
-55.96566899999999
 30
0.0
  0
VERTEX
  5
319
330
F5
100
AcDbEntity
  8
MO_001_VIEW_PV
  6
C_DASHED_M
100
AcDbVertex
100
AcDb2dVertex
 10
-52.49999599999999
 20
-55.975082
 30
0.0
  0
VERTEX
  5
31A
330
F5
100
AcDbEntity
  8
MO_001_VIEW_PV
  6
C_DASHED_M
100
AcDbVertex
100
AcDb2dVertex
 10
-52.258154
 20
-55.96755899999999
 30
0.0
  0
VERTEX
  5
31B
330
F5
100
AcDbEntity
  8
MO_001_VIEW_PV
  6
C_DASHED_M
100
AcDbVertex
100
AcDb2dVertex
 10
-52.08739600000001
 20
-55.953614
 30
0.0
  0
VERTEX
  5
31C
330
F5
100
AcDbEntity
  8
MO_001_VIEW_PV
  6
C_DASHED_M
100
AcDbVertex
100
AcDb2dVertex
 10
-51.853209
 20
-55.92349999999999
 30
0.0
  0
VERTEX
  5
31D
330
F5
100
AcDbEntity
  8
MO_001_VIEW_PV
  6
C_DASHED_M
100
AcDbVertex
100
AcDb2dVertex
 10
-51.65147000000001
 20
-55.88754300000001
 30
0.0
  0
VERTEX
  5
31E
330
F5
100
AcDbEntity
  8
MO_001_VIEW_PV
  6
C_DASHED_M
100
AcDbVertex
100
AcDb2dVertex
 10
-51.504939
 20
-55.855399
 30
0.0
  0
VERTEX
  5
31F
330
F5
100
AcDbEntity
  8
MO_001_VIEW_PV
  6
C_DASHED_M
100
AcDbVertex
100
AcDb2dVertex
 10
-51.418332
 20
-55.83376
 30
0.0
  0
VERTEX
  5
320
330
F5
100
AcDbEntity
  8
MO_001_VIEW_PV
  6
C_DASHED_M
100
AcDbVertex
100
AcDb2dVertex
 10
-51.367849
 20
-55.820087
 30
0.0
  0
VERTEX
  5
321
330
F5
100
AcDbEntity
  8
MO_001_VIEW_PV
  6
C_DASHED_M
100
AcDbVertex
100
AcDb2dVertex
 10
-51.31744499999999
 20
-55.805435
 30
0.0
  0
VERTEX
  5
322
330
F5
100
AcDbEntity
  8
MO_001_VIEW_PV
  6
C_DASHED_M
100
AcDbVertex
100
AcDb2dVertex
 10
-51.299999
 20
-55.800003
 30
0.0
  0
VERTEX
  5
323
330
F5
100
AcDbEntity
  8
MO_001_VIEW_PV
  6
C_DASHED_M
100
AcDbVertex
100
AcDb2dVertex
 10
-51.306195
 20
-55.80196899999999
 30
0.0
  0
VERTEX
  5
324
330
F5
100
AcDbEntity
  8
MO_001_VIEW_PV
  6
C_DASHED_M
100
AcDbVertex
100
AcDb2dVertex
 10
-51.34552199999999
 20
-55.813741
 30
0.0
  0
VERTEX
  5
325
330
F5
100
AcDbEntity
  8
MO_001_VIEW_PV
  6
C_DASHED_M
100
AcDbVertex
100
AcDb2dVertex
 10
-51.397167
 20
-55.82813299999999
 30
0.0
  0
VERTEX
  5
326
330
F5
100
AcDbEntity
  8
MO_001_VIEW_PV
  6
C_DASHED_M
100
AcDbVertex
100
AcDb2dVertex
 10
-51.506965
 20
-55.855881
 30
0.0
  0
VERTEX
  5
327
330
F5
100
AcDbEntity
  8
MO_001_VIEW_PV
  6
C_DASHED_M
100
AcDbVertex
100
AcDb2dVertex
 10
-51.65146899999999
 20
-55.88754300000001
 30
0.0
  0
VERTEX
  5
328
330
F5
100
AcDbEntity
  8
MO_001_VIEW_PV
  6
C_DASHED_M
100
AcDbVertex
100
AcDb2dVertex
 10
-51.82906599999999
 20
-55.919686
 30
0.0
  0
VERTEX
  5
329
330
F5
100
AcDbEntity
  8
MO_001_VIEW_PV
  6
C_DASHED_M
100
AcDbVertex
100
AcDb2dVertex
 10
-51.97974699999999
 20
-55.941325
 30
0.0
  0
VERTEX
  5
32A
330
F5
100
AcDbEntity
  8
MO_001_VIEW_PV
  6
C_DASHED_M
100
AcDbVertex
100
AcDb2dVertex
 10
-52.228992
 20
-55.96566899999999
 30
0.0
  0
VERTEX
  5
32B
330
F5
100
AcDbEntity
  8
MO_001_VIEW_PV
  6
C_DASHED_M
100
AcDbVertex
100
AcDb2dVertex
 10
-52.49999599999999
 20
-55.975082
 30
0.0
  0
VERTEX
  5
32C
330
F5
100
AcDbEntity
  8
MO_001_VIEW_PV
  6
C_DASHED_M
100
AcDbVertex
100
AcDb2dVertex
 10
-52.741838
 20
-55.96755899999999
 30
0.0
  0
VERTEX
  5
32D
330
F5
100
AcDbEntity
  8
MO_001_VIEW_PV
  6
C_DASHED_M
100
AcDbVertex
100
AcDb2dVertex
 10
-52.912597
 20
-55.953614
 30
0.0
  0
VERTEX
  5
32E
330
F5
100
AcDbEntity
  8
MO_001_VIEW_PV
  6
C_DASHED_M
100
AcDbVertex
100
AcDb2dVertex
 10
-53.14678499999999
 20
-55.92349999999999
 30
0.0
  0
VERTEX
  5
32F
330
F5
100
AcDbEntity
  8
MO_001_VIEW_PV
  6
C_DASHED_M
100
AcDbVertex
100
AcDb2dVertex
 10
-53.348527
 20
-55.88754300000001
 30
0.0
  0
VERTEX
  5
330
330
F5
100
AcDbEntity
  8
MO_001_VIEW_PV
  6
C_DASHED_M
100
AcDbVertex
100
AcDb2dVertex
 10
-53.49505799999999
 20
-55.855399
 30
0.0
  0
VERTEX
  5
331
330
F5
100
AcDbEntity
  8
MO_001_VIEW_PV
  6
C_DASHED_M
100
AcDbVertex
100
AcDb2dVertex
 10
-53.581667
 20
-55.83376
 30
0.0
  0
VERTEX
  5
332
330
F5
100
AcDbEntity
  8
MO_001_VIEW_PV
  6
C_DASHED_M
100
AcDbVertex
100
AcDb2dVertex
 10
-53.63215
 20
-55.820087
 30
0.0
  0
VERTEX
  5
333
330
F5
100
AcDbEntity
  8
MO_001_VIEW_PV
  6
C_DASHED_M
100
AcDbVertex
100
AcDb2dVertex
 10
-53.682555
 20
-55.805435
 30
0.0
  0
VERTEX
  5
334
330
F5
100
AcDbEntity
  8
MO_001_VIEW_PV
  6
C_DASHED_M
100
AcDbVertex
100
AcDb2dVertex
 10
-53.700001
 20
-55.800003
 30
0.0
  0
SEQEND
  5
335
330
F5
100
AcDbEntity
  8
MO_001_VIEW_PV
  6
C_DASHED_M
  0
POLYLINE
  5
11C
330
1E
100
AcDbEntity
  8
MO_001_VIEW_PV
  6
C_DASHED_M
100
AcDb2dPolyline
 66
     1
 10
0.0
 20
0.0
 30
0.0
 70
     1
  0
VERTEX
  5
336
330
11C
100
AcDbEntity
  8
MO_001_VIEW_PV
  6
C_DASHED_M
100
AcDbVertex
100
AcDb2dVertex
 10
-53.700001
 20
-64.19999699999999
 30
0.0
  0
VERTEX
  5
337
330
11C
100
AcDbEntity
  8
MO_001_VIEW_PV
  6
C_DASHED_M
100
AcDbVertex
100
AcDb2dVertex
 10
-53.693805
 20
-64.198031
 30
0.0
  0
VERTEX
  5
338
330
11C
100
AcDbEntity
  8
MO_001_VIEW_PV
  6
C_DASHED_M
100
AcDbVertex
100
AcDb2dVertex
 10
-53.654478
 20
-64.18625899999999
 30
0.0
  0
VERTEX
  5
339
330
11C
100
AcDbEntity
  8
MO_001_VIEW_PV
  6
C_DASHED_M
100
AcDbVertex
100
AcDb2dVertex
 10
-53.60283199999999
 20
-64.17186700000001
 30
0.0
  0
VERTEX
  5
33A
330
11C
100
AcDbEntity
  8
MO_001_VIEW_PV
  6
C_DASHED_M
100
AcDbVertex
100
AcDb2dVertex
 10
-53.49303199999999
 20
-64.14411899999999
 30
0.0
  0
VERTEX
  5
33B
330
11C
100
AcDbEntity
  8
MO_001_VIEW_PV
  6
C_DASHED_M
100
AcDbVertex
100
AcDb2dVertex
 10
-53.348527
 20
-64.11245699999999
 30
0.0
  0
VERTEX
  5
33C
330
11C
100
AcDbEntity
  8
MO_001_VIEW_PV
  6
C_DASHED_M
100
AcDbVertex
100
AcDb2dVertex
 10
-53.170929
 20
-64.080314
 30
0.0
  0
VERTEX
  5
33D
330
11C
100
AcDbEntity
  8
MO_001_VIEW_PV
  6
C_DASHED_M
100
AcDbVertex
100
AcDb2dVertex
 10
-53.020247
 20
-64.05867499999999
 30
0.0
  0
VERTEX
  5
33E
330
11C
100
AcDbEntity
  8
MO_001_VIEW_PV
  6
C_DASHED_M
100
AcDbVertex
100
AcDb2dVertex
 10
-52.771001
 20
-64.034331
 30
0.0
  0
VERTEX
  5
33F
330
11C
100
AcDbEntity
  8
MO_001_VIEW_PV
  6
C_DASHED_M
100
AcDbVertex
100
AcDb2dVertex
 10
-52.49999599999999
 20
-64.02491799999999
 30
0.0
  0
VERTEX
  5
340
330
11C
100
AcDbEntity
  8
MO_001_VIEW_PV
  6
C_DASHED_M
100
AcDbVertex
100
AcDb2dVertex
 10
-52.258154
 20
-64.03244100000001
 30
0.0
  0
VERTEX
  5
341
330
11C
100
AcDbEntity
  8
MO_001_VIEW_PV
  6
C_DASHED_M
100
AcDbVertex
100
AcDb2dVertex
 10
-52.08739600000001
 20
-64.046386
 30
0.0
  0
VERTEX
  5
342
330
11C
100
AcDbEntity
  8
MO_001_VIEW_PV
  6
C_DASHED_M
100
AcDbVertex
100
AcDb2dVertex
 10
-51.853209
 20
-64.0765
 30
0.0
  0
VERTEX
  5
343
330
11C
100
AcDbEntity
  8
MO_001_VIEW_PV
  6
C_DASHED_M
100
AcDbVertex
100
AcDb2dVertex
 10
-51.65146899999999
 20
-64.11245699999999
 30
0.0
  0
VERTEX
  5
344
330
11C
100
AcDbEntity
  8
MO_001_VIEW_PV
  6
C_DASHED_M
100
AcDbVertex
100
AcDb2dVertex
 10
-51.504939
 20
-64.14460099999999
 30
0.0
  0
VERTEX
  5
345
330
11C
100
AcDbEntity
  8
MO_001_VIEW_PV
  6
C_DASHED_M
100
AcDbVertex
100
AcDb2dVertex
 10
-51.418332
 20
-64.16624
 30
0.0
  0
VERTEX
  5
346
330
11C
100
AcDbEntity
  8
MO_001_VIEW_PV
  6
C_DASHED_M
100
AcDbVertex
100
AcDb2dVertex
 10
-51.367849
 20
-64.179913
 30
0.0
  0
VERTEX
  5
347
330
11C
100
AcDbEntity
  8
MO_001_VIEW_PV
  6
C_DASHED_M
100
AcDbVertex
100
AcDb2dVertex
 10
-51.31744499999999
 20
-64.19456499999999
 30
0.0
  0
VERTEX
  5
348
330
11C
100
AcDbEntity
  8
MO_001_VIEW_PV
  6
C_DASHED_M
100
AcDbVertex
100
AcDb2dVertex
 10
-51.299999
 20
-64.19999699999999
 30
0.0
  0
VERTEX
  5
349
330
11C
100
AcDbEntity
  8
MO_001_VIEW_PV
  6
C_DASHED_M
100
AcDbVertex
100
AcDb2dVertex
 10
-51.306195
 20
-64.198031
 30
0.0
  0
VERTEX
  5
34A
330
11C
100
AcDbEntity
  8
MO_001_VIEW_PV
  6
C_DASHED_M
100
AcDbVertex
100
AcDb2dVertex
 10
-51.34552199999999
 20
-64.18625899999999
 30
0.0
  0
VERTEX
  5
34B
330
11C
100
AcDbEntity
  8
MO_001_VIEW_PV
  6
C_DASHED_M
100
AcDbVertex
100
AcDb2dVertex
 10
-51.397167
 20
-64.17186700000001
 30
0.0
  0
VERTEX
  5
34C
330
11C
100
AcDbEntity
  8
MO_001_VIEW_PV
  6
C_DASHED_M
100
AcDbVertex
100
AcDb2dVertex
 10
-51.506965
 20
-64.14411899999999
 30
0.0
  0
VERTEX
  5
34D
330
11C
100
AcDbEntity
  8
MO_001_VIEW_PV
  6
C_DASHED_M
100
AcDbVertex
100
AcDb2dVertex
 10
-51.65147000000001
 20
-64.11245699999999
 30
0.0
  0
VERTEX
  5
34E
330
11C
100
AcDbEntity
  8
MO_001_VIEW_PV
  6
C_DASHED_M
100
AcDbVertex
100
AcDb2dVertex
 10
-51.82906599999999
 20
-64.080314
 30
0.0
  0
VERTEX
  5
34F
330
11C
100
AcDbEntity
  8
MO_001_VIEW_PV
  6
C_DASHED_M
100
AcDbVertex
100
AcDb2dVertex
 10
-51.97974699999999
 20
-64.05867499999999
 30
0.0
  0
VERTEX
  5
350
330
11C
100
AcDbEntity
  8
MO_001_VIEW_PV
  6
C_DASHED_M
100
AcDbVertex
100
AcDb2dVertex
 10
-52.228992
 20
-64.034331
 30
0.0
  0
VERTEX
  5
351
330
11C
100
AcDbEntity
  8
MO_001_VIEW_PV
  6
C_DASHED_M
100
AcDbVertex
100
AcDb2dVertex
 10
-52.49999599999999
 20
-64.02491799999999
 30
0.0
  0
VERTEX
  5
352
330
11C
100
AcDbEntity
  8
MO_001_VIEW_PV
  6
C_DASHED_M
100
AcDbVertex
100
AcDb2dVertex
 10
-52.741838
 20
-64.03244100000001
 30
0.0
  0
VERTEX
  5
353
330
11C
100
AcDbEntity
  8
MO_001_VIEW_PV
  6
C_DASHED_M
100
AcDbVertex
100
AcDb2dVertex
 10
-52.912597
 20
-64.046386
 30
0.0
  0
VERTEX
  5
354
330
11C
100
AcDbEntity
  8
MO_001_VIEW_PV
  6
C_DASHED_M
100
AcDbVertex
100
AcDb2dVertex
 10
-53.14678499999999
 20
-64.0765
 30
0.0
  0
VERTEX
  5
355
330
11C
100
AcDbEntity
  8
MO_001_VIEW_PV
  6
C_DASHED_M
100
AcDbVertex
100
AcDb2dVertex
 10
-53.348527
 20
-64.11245699999999
 30
0.0
  0
VERTEX
  5
356
330
11C
100
AcDbEntity
  8
MO_001_VIEW_PV
  6
C_DASHED_M
100
AcDbVertex
100
AcDb2dVertex
 10
-53.49505799999999
 20
-64.14460099999999
 30
0.0
  0
VERTEX
  5
357
330
11C
100
AcDbEntity
  8
MO_001_VIEW_PV
  6
C_DASHED_M
100
AcDbVertex
100
AcDb2dVertex
 10
-53.581667
 20
-64.16624
 30
0.0
  0
VERTEX
  5
358
330
11C
100
AcDbEntity
  8
MO_001_VIEW_PV
  6
C_DASHED_M
100
AcDbVertex
100
AcDb2dVertex
 10
-53.63215
 20
-64.179913
 30
0.0
  0
VERTEX
  5
359
330
11C
100
AcDbEntity
  8
MO_001_VIEW_PV
  6
C_DASHED_M
100
AcDbVertex
100
AcDb2dVertex
 10
-53.682555
 20
-64.19456499999999
 30
0.0
  0
VERTEX
  5
35A
330
11C
100
AcDbEntity
  8
MO_001_VIEW_PV
  6
C_DASHED_M
100
AcDbVertex
100
AcDb2dVertex
 10
-53.700001
 20
-64.19999699999999
 30
0.0
  0
SEQEND
  5
35B
330
11C
100
AcDbEntity
  8
MO_001_VIEW_PV
  6
C_DASHED_M
  0
LINE
  5
143
330
1E
100
AcDbEntity
  8
MO_001_VIEW_PV
  6
C_DASHED_M
100
AcDbLine
 10
-53.699977
 20
-64.199993
 30
0.0
 11
-53.99998100000001
 21
-64.499998
 31
0.0
  0
LINE
  5
144
330
1E
100
AcDbEntity
  8
MO_001_VIEW_PV
  6
C_DASHED_M
100
AcDbLine
 10
-51.29998
 20
-64.199991
 30
0.0
 11
-50.999981
 21
-64.49999100000001
 31
0.0
  0
LINE
  5
145
330
1E
100
AcDbEntity
  8
MO_001_VIEW_PV
  6
C_DASHED_M
100
AcDbLine
 10
-53.69997399999999
 20
-55.79999399999999
 30
0.0
 11
-53.99997800000001
 21
-55.499989
 31
0.0
  0
LINE
  5
146
330
1E
100
AcDbEntity
  8
MO_001_VIEW_PV
  6
C_DASHED_M
100
AcDbLine
 10
-51.29999
 20
-55.800006
 30
0.0
 11
-50.99999099999999
 21
-55.500007
 31
0.0
  0
LINE
  5
147
330
1E
100
AcDbEntity
  8
MO_001_VIEW_PV
  6
C_SOLID_M
100
AcDbLine
 10
-46.09999499999999
 20
-64.5
 30
0.0
 11
-50.999996
 21
-64.5
 31
0.0
  0
LINE
  5
148
330
1E
100
AcDbEntity
  8
MO_001_VIEW_PV
  6
C_SOLID_M
100
AcDbLine
 10
-46.09999499999999
 20
-55.5
 30
0.0
 11
-50.999996
 21
-55.5
 31
0.0
  0
LINE
  5
149
330
1E
100
AcDbEntity
  8
MO_001_VIEW_PV
  6
C_SOLID_M
100
AcDbLine
 10
-56.499996
 20
3.923004
 30
0.0
 11
-56.499996
 21
-3.923012
 31
0.0
  0
LINE
  5
14A
330
1E
100
AcDbEntity
  8
MO_001_VIEW_PV
  6
C_CENTER_L
100
AcDbLine
 10
-52.49999599999999
 20
3.620563999999999
 30
0.0
 11
-52.49999599999999
 21
-3.639244
 31
0.0
  0
LINE
  5
14B
330
1E
100
AcDbEntity
  8
MO_001_VIEW_PV
  6
C_SOLID_M
100
AcDbLine
 10
-56.200001
 20
4.242637999999999
 30
0.0
 11
-56.200001
 21
-4.242637999999999
 31
0.0
  0
LINE
  5
14C
330
1E
100
AcDbEntity
  8
MO_001_VIEW_PV
  6
C_SOLID_M
100
AcDbLine
 10
-46.5
 20
4.5
 30
0.0
 11
-48.499996
 21
4.5
 31
0.0
  0
LINE
  5
14D
330
1E
100
AcDbEntity
  8
MO_001_VIEW_PV
  6
C_SOLID_M
100
AcDbLine
 10
-46.09999499999999
 20
-60.0
 30
0.0
 11
-48.499996
 21
-60.0
 31
0.0
  0
ARC
  5
14E
330
1E
100
AcDbEntity
  8
MO_001_VIEW_PV
  6
C_SOLID_M
100
AcDbCircle
 10
-87.0
 20
0.0
 30
0.0
 40
4.2
100
AcDbArc
 50
290.924835
 51
69.07516499999999
  0
LINE
  5
14F
330
1E
100
AcDbEntity
  8
MO_001_VIEW_PV
  6
C_SOLID_M
100
AcDbLine
 10
-85.5
 20
4.242637999999999
 30
0.0
 11
-85.5
 21
-4.242637999999999
 31
0.0
  0
LINE
  5
150
330
1E
100
AcDbEntity
  8
MO_001_VIEW_PV
  6
C_SOLID_M
100
AcDbLine
 10
-88.49999999999999
 20
4.242637999999999
 30
0.0
 11
-88.49999999999999
 21
-4.242637999999999
 31
0.0
  0
ARC
  5
151
330
1E
100
AcDbEntity
  8
MO_001_VIEW_PV
  6
C_SOLID_M
100
AcDbCircle
 10
-87.0
 20
0.0
 30
0.0
 40
4.2
100
AcDbArc
 50
110.924833
 51
249.07517
  0
LINE
  5
152
330
1E
100
AcDbEntity
  8
MO_001_VIEW_PV
  6
C_SOLID_M
100
AcDbLine
 10
-48.499996
 20
4.5
 30
0.0
 11
-48.499996
 21
4.242637999999999
 31
0.0
  0
LINE
  5
153
330
1E
100
AcDbEntity
  8
MO_001_VIEW_PV
  6
C_SOLID_M
100
AcDbLine
 10
-48.499996
 20
4.242637999999999
 30
0.0
 11
-56.200001
 21
4.242637999999999
 31
0.0
  0
CIRCLE
  5
154
330
1E
100
AcDbEntity
  8
MO_001_VIEW_PV
  6
C_SOLID_M
100
AcDbCircle
 10
-52.49999599999999
 20
0.0
 30
0.0
 40
1.5
  0
CIRCLE
  5
155
330
1E
100
AcDbEntity
  8
MO_001_VIEW_PV
  6
C_SOLID_M
100
AcDbCircle
 10
-52.49999599999999
 20
0.0
 30
0.0
 40
1.8
  0
LINE
  5
156
330
1E
100
AcDbEntity
  8
MO_001_VIEW_PV
  6
C_SOLID_M
100
AcDbLine
 10
-56.499988
 20
3.923008999999999
 30
0.0
 11
-56.199993
 21
4.242634999999999
 31
0.0
  0
LINE
  5
157
330
1E
100
AcDbEntity
  8
MO_001_VIEW_PV
  6
C_SOLID_M
100
AcDbLine
 10
-48.499996
 20
-4.242637999999999
 30
0.0
 11
-56.200001
 21
-4.242637999999999
 31
0.0
  0
LINE
  5
158
330
1E
100
AcDbEntity
  8
MO_001_VIEW_PV
  6
C_SOLID_M
100
AcDbLine
 10
-56.49999399999999
 20
-3.923008999999999
 30
0.0
 11
-56.200001
 21
-4.242632
 31
0.0
  0
LINE
  5
159
330
1E
100
AcDbEntity
  8
MO_001_VIEW_PV
  6
C_SOLID_M
100
AcDbLine
 10
-48.499996
 20
-4.5
 30
0.0
 11
-48.499996
 21
-4.242637999999999
 31
0.0
  0
LINE
  5
15A
330
1E
100
AcDbEntity
  8
MO_001_VIEW_PV
  6
C_SOLID_M
100
AcDbLine
 10
0.0
 20
1.75
 30
0.0
 11
0.5
 21
1.75
 31
0.0
  0
LINE
  5
15B
330
1E
100
AcDbEntity
  8
MO_001_VIEW_PV
  6
C_SOLID_M
100
AcDbLine
 10
0.5
 20
1.75
 30
0.0
 11
0.5
 21
-1.75
 31
0.0
  0
LINE
  5
15C
330
1E
100
AcDbEntity
  8
MO_001_VIEW_PV
  6
C_SOLID_M
100
AcDbLine
 10
0.0
 20
-1.75
 30
0.0
 11
0.5
 21
-1.75
 31
0.0
  0
LINE
  5
15D
330
1E
100
AcDbEntity
  8
MO_001_VIEW_PV
  6
C_SOLID_M
100
AcDbLine
 10
-2.299992
 20
-62.660004
 30
0.0
 11
-2.299992
 21
-65.75
 31
0.0
  0
LINE
  5
15E
330
1E
100
AcDbEntity
  8
MO_001_VIEW_PV
  6
C_SOLID_M
100
AcDbLine
 10
-46.09999499999999
 20
-54.34999799999999
 30
0.0
 11
-46.09999499999999
 21
-65.650002
 31
0.0
  0
LINE
  5
15F
330
1E
100
AcDbEntity
  8
MO_001_VIEW_PV
  6
C_SOLID_M
100
AcDbLine
 10
-41.69999299999999
 20
-50.5
 30
0.0
 11
-41.69999299999999
 21
-69.5
 31
0.0
  0
LINE
  5
160
330
1E
100
AcDbEntity
  8
MO_001_VIEW_PV
  6
C_SOLID_M
100
AcDbLine
 10
-3.899998
 20
-62.660004
 30
0.0
 11
-3.899998
 21
-69.5
 31
0.0
  0
LINE
  5
161
330
1E
100
AcDbEntity
  8
MO_001_VIEW_PV
  6
C_SOLID_M
100
AcDbLine
 10
-2.700000999999999
 20
-62.660004
 30
0.0
 11
-2.700000999999999
 21
-69.5
 31
0.0
  0
LINE
  5
162
330
1E
100
AcDbEntity
  8
MO_001_VIEW_PV
  6
C_SOLID_M
100
AcDbLine
 10
-42.899994
 20
-50.5
 30
0.0
 11
-41.69999299999999
 21
-50.5
 31
0.0
  0
LINE
  5
163
330
1E
100
AcDbEntity
  8
MO_001_VIEW_PV
  6
C_SOLID_M
100
AcDbLine
 10
-42.899994
 20
-69.5
 30
0.0
 11
-41.69999299999999
 21
-69.5
 31
0.0
  0
LINE
  5
164
330
1E
100
AcDbEntity
  8
MO_001_VIEW_PV
  6
C_SOLID_M
100
AcDbLine
 10
-3.899998
 20
-69.5
 30
0.0
 11
-2.700000999999999
 21
-69.5
 31
0.0
  0
LINE
  5
165
330
1E
100
AcDbEntity
  8
MO_001_VIEW_PV
  6
C_SOLID_M
100
AcDbLine
 10
-3.899998
 20
-50.5
 30
0.0
 11
-2.700000999999999
 21
-50.5
 31
0.0
  0
ARC
  5
166
330
1E
100
AcDbEntity
  8
MO_001_VIEW_PV
  6
C_SOLID_M
100
AcDbCircle
 10
-2.799992
 20
-54.25
 30
0.0
 40
0.5
100
AcDbArc
 50
0.0
 51
78.46411999999999
  0
ARC
  5
167
330
1E
100
AcDbEntity
  8
MO_001_VIEW_PV
  6
C_SOLID_M
100
AcDbCircle
 10
-2.799992
 20
-65.75
 30
0.0
 40
0.5
100
AcDbArc
 50
281.5358799999999
 51
0.0
  0
ARC
  5
168
330
1E
100
AcDbEntity
  8
MO_001_VIEW_PV
  6
C_SOLID_M
100
AcDbCircle
 10
-45.499992
 20
-65.650002
 30
0.0
 40
0.6
100
AcDbArc
 50
180.000022
 51
269.999998
  0
ARC
  5
169
330
1E
100
AcDbEntity
  8
MO_001_VIEW_PV
  6
C_SOLID_M
100
AcDbCircle
 10
-45.499992
 20
-54.34999799999999
 30
0.0
 40
0.6
100
AcDbArc
 50
89.99998199999998
 51
180.0000189999999
  0
LINE
  5
16A
330
1E
100
AcDbEntity
  8
MO_001_VIEW_PV
  6
C_SOLID_M
100
AcDbLine
 10
-41.69999299999999
 20
-51.5
 30
0.0
 11
-3.899998
 21
-51.5
 31
0.0
  0
LINE
  5
16B
330
1E
100
AcDbEntity
  8
MO_001_VIEW_PV
  6
C_SOLID_M
100
AcDbLine
 10
-41.69999299999999
 20
-68.5
 30
0.0
 11
-3.899998
 21
-68.5
 31
0.0
  0
LINE
  5
16C
330
1E
100
AcDbEntity
  8
MO_001_VIEW_PV
  6
C_SOLID_M
100
AcDbLine
 10
-46.09999499999999
 20
4.603585999999999
 30
0.0
 11
-46.09999499999999
 21
-4.603585999999999
 31
0.0
  0
CIRCLE
  5
16D
330
1E
100
AcDbEntity
  8
MO_001_VIEW_PV
  6
C_SOLID_M
100
AcDbCircle
 10
-87.0
 20
0.0
 30
0.0
 40
6.25
  0
LINE
  5
16E
330
1E
100
AcDbEntity
  8
MO_001_VIEW_PV
  6
C_SOLID_M
100
AcDbLine
 10
47.0
 20
-11.25999799999999
 30
0.0
 11
47.0
 21
-11.740002
 31
0.0
  0
LINE
  5
16F
330
1E
100
AcDbEntity
  8
MO_001_VIEW_PV
  6
C_SOLID_M
100
AcDbLine
 10
42.0
 20
-10.84
 30
0.0
 11
42.0
 21
-12.16
 31
0.0
  0
LINE
  5
170
330
1E
100
AcDbEntity
  8
MO_001_VIEW_PV
  6
C_SOLID_M
100
AcDbLine
 10
-0.649996
 20
-10.84
 30
0.0
 11
42.0
 21
-10.84
 31
0.0
  0
LINE
  5
171
330
1E
100
AcDbEntity
  8
MO_001_VIEW_PV
  6
C_SOLID_M
100
AcDbLine
 10
-0.649996
 20
-12.16
 30
0.0
 11
42.0
 21
-12.16
 31
0.0
  0
LINE
  5
172
330
1E
100
AcDbEntity
  8
MO_001_VIEW_PV
  6
C_SOLID_M
100
AcDbLine
 10
42.0
 20
-11.25999799999999
 30
0.0
 11
47.0
 21
-11.25999799999999
 31
0.0
  0
LINE
  5
173
330
1E
100
AcDbEntity
  8
MO_001_VIEW_PV
  6
C_SOLID_M
100
AcDbLine
 10
42.0
 20
-11.740002
 30
0.0
 11
47.0
 21
-11.740002
 31
0.0
  0
ARC
  5
174
330
1E
100
AcDbEntity
  8
MO_001_VIEW_PV
  6
C_SOLID_M
100
AcDbCircle
 10
-0.649996
 20
-8.839999999999999
 30
0.0
 40
2.0
100
AcDbArc
 50
204.890543
 51
269.999998
  0
ARC
  5
175
330
1E
100
AcDbEntity
  8
MO_001_VIEW_PV
  6
C_SOLID_M
100
AcDbCircle
 10
-0.649996
 20
-8.839999999999999
 30
0.0
 40
3.319999999999999
100
AcDbArc
 50
204.890557
 51
269.999998
  0
ARC
  5
176
330
1E
100
AcDbEntity
  8
MO_001_VIEW_PV
  6
C_SOLID_M
100
AcDbCircle
 10
-6.382952999999999
 20
-11.5
 30
0.0
 40
3.0
100
AcDbArc
 50
24.890524
 51
41.81031700000001
  0
ARC
  5
177
330
1E
100
AcDbEntity
  8
MO_001_VIEW_PV
  6
C_SOLID_M
100
AcDbCircle
 10
-6.382952999999999
 20
-11.5
 30
0.0
 40
4.32
100
AcDbArc
 50
24.890524
 51
27.57847
  0
LINE
  5
178
330
1E
100
AcDbEntity
  8
MO_001_VIEW_PV
  6
C_SOLID_M
100
AcDbLine
 10
47.0
 20
-57.759995
 30
0.0
 11
47.0
 21
-58.240005
 31
0.0
  0
LINE
  5
179
330
1E
100
AcDbEntity
  8
MO_001_VIEW_PV
  6
C_SOLID_M
100
AcDbLine
 10
42.0
 20
-57.339996
 30
0.0
 11
42.0
 21
-58.660004
 31
0.0
  0
LINE
  5
17A
330
1E
100
AcDbEntity
  8
MO_001_VIEW_PV
  6
C_SOLID_M
100
AcDbLine
 10
-4.559998
 20
-57.339996
 30
0.0
 11
42.0
 21
-57.339996
 31
0.0
  0
LINE
  5
17B
330
1E
100
AcDbEntity
  8
MO_001_VIEW_PV
  6
C_SOLID_M
100
AcDbLine
 10
-4.559998
 20
-58.660004
 30
0.0
 11
42.0
 21
-58.660004
 31
0.0
  0
LINE
  5
17C
330
1E
100
AcDbEntity
  8
MO_001_VIEW_PV
  6
C_SOLID_M
100
AcDbLine
 10
42.0
 20
-57.759995
 30
0.0
 11
47.0
 21
-57.759995
 31
0.0
  0
LINE
  5
17D
330
1E
100
AcDbEntity
  8
MO_001_VIEW_PV
  6
C_SOLID_M
100
AcDbLine
 10
42.0
 20
-58.240005
 30
0.0
 11
47.0
 21
-58.240005
 31
0.0
  0
LINE
  5
17E
330
1E
100
AcDbEntity
  8
MO_001_VIEW_PV
  6
C_SOLID_M
100
AcDbLine
 10
47.0
 20
-61.75999499999999
 30
0.0
 11
47.0
 21
-62.240005
 31
0.0
  0
LINE
  5
17F
330
1E
100
AcDbEntity
  8
MO_001_VIEW_PV
  6
C_SOLID_M
100
AcDbLine
 10
42.0
 20
-61.339996
 30
0.0
 11
42.0
 21
-62.660004
 31
0.0
  0
LINE
  5
180
330
1E
100
AcDbEntity
  8
MO_001_VIEW_PV
  6
C_SOLID_M
100
AcDbLine
 10
-4.559998
 20
-61.339996
 30
0.0
 11
42.0
 21
-61.339996
 31
0.0
  0
LINE
  5
181
330
1E
100
AcDbEntity
  8
MO_001_VIEW_PV
  6
C_SOLID_M
100
AcDbLine
 10
-4.559998
 20
-62.660004
 30
0.0
 11
42.0
 21
-62.660004
 31
0.0
  0
LINE
  5
182
330
1E
100
AcDbEntity
  8
MO_001_VIEW_PV
  6
C_SOLID_M
100
AcDbLine
 10
42.0
 20
-61.75999499999999
 30
0.0
 11
47.0
 21
-61.75999499999999
 31
0.0
  0
LINE
  5
183
330
1E
100
AcDbEntity
  8
MO_001_VIEW_PV
  6
C_SOLID_M
100
AcDbLine
 10
42.0
 20
-62.240005
 30
0.0
 11
47.0
 21
-62.240005
 31
0.0
  0
ARC
  5
184
330
1E
100
AcDbEntity
  8
MO_001_VIEW_PV
  6
C_SOLID_M
100
AcDbCircle
 10
-4.559998
 20
-58.0
 30
0.0
 40
0.6600000000000001
100
AcDbArc
 50
90.000002
 51
270.000001
  0
ARC
  5
185
330
1E
100
AcDbEntity
  8
MO_001_VIEW_PV
  6
C_SOLID_M
100
AcDbCircle
 10
-4.559998
 20
-62.0
 30
0.0
 40
0.6600000000000001
100
AcDbArc
 50
90.000002
 51
270.000001
  0
LINE
  5
186
330
1E
100
AcDbEntity
  8
MO_001_VIEW_PV
  6
C_SOLID_M
100
AcDbLine
 10
-2.0
 20
-58.660004
 30
0.0
 11
-2.0
 21
-61.339996
 31
0.0
  0
LINE
  5
187
330
1E
100
AcDbEntity
  8
MO_001_VIEW_PV
  6
C_SOLID_M
100
AcDbLine
 10
0.0
 20
-58.660004
 30
0.0
 11
0.0
 21
-61.339996
 31
0.0
  0
LINE
  5
188
330
1E
100
AcDbEntity
  8
MO_001_VIEW_PV
  6
C_SOLID_M
100
AcDbLine
 10
-2.299992
 20
-58.660004
 30
0.0
 11
-2.299992
 21
-61.339996
 31
0.0
  0
LINE
  5
189
330
1E
100
AcDbEntity
  8
MO_001_VIEW_PV
  6
C_SOLID_M
100
AcDbLine
 10
-3.899998
 20
-58.660004
 30
0.0
 11
-3.899998
 21
-61.339996
 31
0.0
  0
LINE
  5
18A
330
1E
100
AcDbEntity
  8
MO_001_VIEW_PV
  6
C_SOLID_M
100
AcDbLine
 10
-2.700000999999999
 20
-58.660004
 30
0.0
 11
-2.700000999999999
 21
-61.339996
 31
0.0
  0
LINE
  5
18B
330
1E
100
AcDbEntity
  8
MO_001_VIEW_PV
  6
C_SOLID_M
100
AcDbLine
 10
-2.0
 20
-50.5
 30
0.0
 11
-2.0
 21
-57.339996
 31
0.0
  0
LINE
  5
18C
330
1E
100
AcDbEntity
  8
MO_001_VIEW_PV
  6
C_SOLID_M
100
AcDbLine
 10
0.0
 20
-50.0
 30
0.0
 11
0.0
 21
-57.339996
 31
0.0
  0
LINE
  5
18D
330
1E
100
AcDbEntity
  8
MO_001_VIEW_PV
  6
C_SOLID_M
100
AcDbLine
 10
-2.299992
 20
-54.25
 30
0.0
 11
-2.299992
 21
-57.339996
 31
0.0
  0
LINE
  5
18E
330
1E
100
AcDbEntity
  8
MO_001_VIEW_PV
  6
C_SOLID_M
100
AcDbLine
 10
-3.899998
 20
-50.5
 30
0.0
 11
-3.899998
 21
-57.339996
 31
0.0
  0
LINE
  5
18F
330
1E
100
AcDbEntity
  8
MO_001_VIEW_PV
  6
C_SOLID_M
100
AcDbLine
 10
-2.700000999999999
 20
-50.5
 30
0.0
 11
-2.700000999999999
 21
-57.339996
 31
0.0
  0
LINE
  5
190
330
1E
100
AcDbEntity
  8
MO_001_VIEW_PV
  6
C_SOLID_M
100
AcDbLine
 10
-46.49999799999999
 20
4.372643
 30
0.0
 11
-45.328866
 21
5.048796
 31
0.0
  0
LINE
  5
191
330
1E
100
AcDbEntity
  8
MO_001_VIEW_PV
  6
C_SOLID_M
100
AcDbLine
 10
-46.09999499999999
 20
4.5
 30
0.0
 11
-46.279411
 21
4.5
 31
0.0
  0
LINE
  5
192
330
1E
100
AcDbEntity
  8
MO_001_VIEW_PV
  6
C_SOLID_M
100
AcDbLine
 10
-46.49999799999999
 20
5.422644999999999
 30
0.0
 11
-45.49999
 21
6.0
 31
0.0
  0
LINE
  5
193
330
1E
100
AcDbEntity
  8
MO_001_VIEW_PV
  6
C_SOLID_M
100
AcDbLine
 10
-46.499996
 20
6.176327999999999
 30
0.0
 11
-45.499989
 21
6.0
 31
0.0
  0
LINE
  5
194
330
1E
100
AcDbEntity
  8
MO_001_VIEW_PV
  6
C_SOLID_M
100
AcDbLine
 10
-46.5
 20
9.5
 30
0.0
 11
-46.5
 21
6.176328999999999
 31
0.0
  0
LINE
  5
195
330
1E
100
AcDbEntity
  8
MO_001_VIEW_PV
  6
C_SOLID_M
100
AcDbLine
 10
-46.5
 20
-5.422644999999999
 30
0.0
 11
-46.5
 21
-4.372643
 31
0.0
  0
LINE
  5
196
330
1E
100
AcDbEntity
  8
MO_001_VIEW_PV
  6
C_SOLID_M
100
AcDbLine
 10
-45.32887099999999
 20
-5.048796
 30
0.0
 11
-42.899994
 21
-5.150005
 31
0.0
  0
LINE
  5
197
330
1E
100
AcDbEntity
  8
MO_001_VIEW_PV
  6
C_SOLID_M
100
AcDbLine
 10
-46.5
 20
-4.5
 30
0.0
 11
-48.499996
 21
-4.5
 31
0.0
  0
LINE
  5
198
330
1E
100
AcDbEntity
  8
MO_001_VIEW_PV
  6
C_SOLID_M
100
AcDbLine
 10
-46.49999799999999
 20
-4.372643
 30
0.0
 11
-45.328866
 21
-5.048796
 31
0.0
  0
LINE
  5
199
330
1E
100
AcDbEntity
  8
MO_001_VIEW_PV
  6
C_SOLID_M
100
AcDbLine
 10
-46.09999499999999
 20
-4.5
 30
0.0
 11
-46.279411
 21
-4.5
 31
0.0
  0
LINE
  5
19A
330
1E
100
AcDbEntity
  8
MO_001_VIEW_PV
  6
C_SOLID_M
100
AcDbLine
 10
-46.49999799999999
 20
-5.422644999999999
 30
0.0
 11
-45.49999
 21
-6.0
 31
0.0
  0
LINE
  5
19B
330
1E
100
AcDbEntity
  8
MO_001_VIEW_PV
  6
C_SOLID_M
100
AcDbLine
 10
-46.49999199999999
 20
-6.176326999999999
 30
0.0
 11
-45.499985
 21
-5.999998999999999
 31
0.0
  0
LINE
  5
19C
330
1E
100
AcDbEntity
  8
MO_001_VIEW_PV
  6
C_SOLID_M
100
AcDbLine
 10
-46.5
 20
-9.5
 30
0.0
 11
-46.5
 21
-6.176328999999999
 31
0.0
  0
LINE
  5
19D
330
1E
100
AcDbEntity
  8
MO_001_VIEW_PV
  6
C_SOLID_M
100
AcDbLine
 10
-77.5
 20
4.372643
 30
0.0
 11
-75.5
 21
4.372643
 31
0.0
  0
LINE
  5
19E
330
1E
100
AcDbEntity
  8
MO_001_VIEW_PV
  6
C_SOLID_M
100
AcDbLine
 10
-77.5
 20
5.430798999999999
 30
0.0
 11
-75.5
 21
5.430798999999999
 31
0.0
  0
LINE
  5
19F
330
1E
100
AcDbEntity
  8
MO_001_VIEW_PV
  6
C_SOLID_M
100
AcDbLine
 10
-77.5
 20
6.176327999999999
 30
0.0
 11
-75.5
 21
6.176327999999999
 31
0.0
  0
LINE
  5
1A0
330
1E
100
AcDbEntity
  8
MO_001_VIEW_PV
  6
C_SOLID_M
100
AcDbLine
 10
-77.5
 20
6.0
 30
0.0
 11
-75.5
 21
6.0
 31
0.0
  0
LINE
  5
1A1
330
1E
100
AcDbEntity
  8
MO_001_VIEW_PV
  6
C_SOLID_M
100
AcDbLine
 10
-77.5
 20
-4.372643
 30
0.0
 11
-75.5
 21
-4.372643
 31
0.0
  0
LINE
  5
1A2
330
1E
100
AcDbEntity
  8
MO_001_VIEW_PV
  6
C_SOLID_M
100
AcDbLine
 10
-77.5
 20
-5.430798999999999
 30
0.0
 11
-75.5
 21
-5.430798999999999
 31
0.0
  0
LINE
  5
1A3
330
1E
100
AcDbEntity
  8
MO_001_VIEW_PV
  6
C_SOLID_M
100
AcDbLine
 10
-77.5
 20
-6.176327999999999
 30
0.0
 11
-75.5
 21
-6.176327999999999
 31
0.0
  0
LINE
  5
1A4
330
1E
100
AcDbEntity
  8
MO_001_VIEW_PV
  6
C_SOLID_M
100
AcDbLine
 10
-77.5
 20
-6.0
 30
0.0
 11
-75.5
 21
-6.0
 31
0.0
  0
LINE
  5
1A5
330
1E
100
AcDbEntity
  8
MO_001_VIEW_PV
  6
C_SOLID_M
100
AcDbLine
 10
-96.5
 20
4.372643
 30
0.0
 11
-96.5
 21
9.5
 31
0.0
  0
LINE
  5
1A6
330
1E
100
AcDbEntity
  8
MO_001_VIEW_PV
  6
C_SOLID_M
100
AcDbLine
 10
-96.5
 20
-9.5
 30
0.0
 11
-96.5
 21
-4.372643
 31
0.0
  0
LINE
  5
1A7
330
1E
100
AcDbEntity
  8
MO_001_VIEW_PV
  6
C_SOLID_M
100
AcDbLine
 10
-96.5
 20
4.372643
 30
0.0
 11
-98.50000000000001
 21
4.372643
 31
0.0
  0
LINE
  5
1A8
330
1E
100
AcDbEntity
  8
MO_001_VIEW_PV
  6
C_SOLID_M
100
AcDbLine
 10
-96.5
 20
5.430798999999999
 30
0.0
 11
-98.50000000000001
 21
5.430798999999999
 31
0.0
  0
LINE
  5
1A9
330
1E
100
AcDbEntity
  8
MO_001_VIEW_PV
  6
C_SOLID_M
100
AcDbLine
 10
-96.5
 20
6.176327999999999
 30
0.0
 11
-98.50000000000001
 21
6.176327999999999
 31
0.0
  0
LINE
  5
1AA
330
1E
100
AcDbEntity
  8
MO_001_VIEW_PV
  6
C_SOLID_M
100
AcDbLine
 10
-96.5
 20
6.0
 30
0.0
 11
-98.50000000000001
 21
6.0
 31
0.0
  0
LINE
  5
1AB
330
1E
100
AcDbEntity
  8
MO_001_VIEW_PV
  6
C_SOLID_M
100
AcDbLine
 10
-96.5
 20
-4.372643
 30
0.0
 11
-98.50000000000001
 21
-4.372643
 31
0.0
  0
LINE
  5
1AC
330
1E
100
AcDbEntity
  8
MO_001_VIEW_PV
  6
C_SOLID_M
100
AcDbLine
 10
-96.5
 20
-5.430798999999999
 30
0.0
 11
-98.50000000000001
 21
-5.430798999999999
 31
0.0
  0
LINE
  5
1AD
330
1E
100
AcDbEntity
  8
MO_001_VIEW_PV
  6
C_SOLID_M
100
AcDbLine
 10
-96.5
 20
-6.176327999999999
 30
0.0
 11
-98.50000000000001
 21
-6.176327999999999
 31
0.0
  0
LINE
  5
1AE
330
1E
100
AcDbEntity
  8
MO_001_VIEW_PV
  6
C_SOLID_M
100
AcDbLine
 10
-96.5
 20
-6.0
 30
0.0
 11
-98.50000000000001
 21
-6.0
 31
0.0
  0
LINE
  5
1AF
330
1E
100
AcDbEntity
  8
MO_001_VIEW_PV
  6
C_SOLID_L
100
AcDbLine
 10
-72.0
 20
-18.0
 30
0.0
 11
-60.0
 21
-18.0
 31
0.0
  0
LINE
  5
1B0
330
1E
100
AcDbEntity
  8
MO_001_VIEW_PV
  6
C_SOLID_L
100
AcDbLine
 10
12.845849
 20
24.0
 30
0.0
 11
37.794132
 21
24.0
 31
0.0
  0
TEXT
  5
1B1
330
1E
100
AcDbEntity
  8
MO_001_VIEW_PV
  6
C_SOLID_L
100
AcDbText
 10
-103.488281
 20
-86.08359399999999
 30
0.0
 40
4.167187
  1
SK0946A
100
AcDbText
  0
TEXT
  5
1B2
330
1E
100
AcDbEntity
  8
MO_001_VIEW_PV
  6
C_SOLID_L
100
AcDbText
 10
-61.071429
 20
-79.5
 30
0.0
 40
3.0
  1
板厚1.6mm、ネジ突き出しは0.8mm以下
100
AcDbText
  0
TEXT
  5
1B3
330
1E
100
AcDbEntity
  8
MO_001_VIEW_PV
  6
C_SOLID_L
100
AcDbText
 10
13.51171899999999
 20
-86.08359399999999
 30
0.0
 40
4.167187
  1
単位：mm
100
AcDbText
  0
TEXT
  5
1B4
330
1E
100
AcDbEntity
  8
MO_001_VIEW_PV
  6
C_SOLID_L
100
AcDbText
 10
13.51171899999999
 20
-92.08359399999999
 30
0.0
 40
4.167187
  1
図は励磁時を示す
100
AcDbText
  0
TEXT
  5
1B5
330
1E
100
AcDbEntity
  8
MO_001_VIEW_PV
  6
C_SOLID_L
100
AcDbText
 10
4.428570999999999
 20
-30.75
 30
0.0
 40
3.0
  1
UL1007 AWG.26
100
AcDbText
  0
TEXT
  5
1B6
330
1E
100
AcDbEntity
  8
MO_001_VIEW_PV
  6
C_SOLID_L
100
AcDbText
 10
13.27442
 20
24.75
 30
0.0
 40
3.0
  1
4-M3X0.5
100
AcDbText
  0
TEXT
  5
1B7
330
1E
100
AcDbEntity
  8
MO_001_VIEW_PV
  6
C_SOLID_L
100
AcDbText
 10
-65.785714
 20
-15.375
 30
0.0
 40
1.5
  1
+0.1
100
AcDbText
  0
TEXT
  5
1B8
330
1E
100
AcDbEntity
  8
MO_001_VIEW_PV
  6
C_SOLID_L
100
AcDbText
 10
-65.785714
 20
-17.625
 30
0.0
 40
1.5
  1
 0
100
AcDbText
  0
TEXT
  5
1B9
330
1E
100
AcDbEntity
  8
MO_001_VIEW_PV
  6
C_SOLID_L
100
AcDbText
 10
-71.57142900000001
 20
-17.25
 30
0.0
 40
3.0
  1
%%C3
100
AcDbText
  0
POLYLINE
  5
1BA
330
1E
100
AcDbEntity
  8
MO_001_NOSHOW
  6
C_SOLID_M
100
AcDb2dPolyline
 66
     1
 10
0.0
 20
0.0
 30
0.0
 70
     5
 75
     6
  0
VERTEX
  5
1BB
330
1BA
100
AcDbEntity
  8
MO_001_NOSHOW
  6
C_SOLID_M
100
AcDbVertex
100
AcDb2dVertex
 10
-53.999996
 20
-55.5
 30
0.0
 50
165.963758
  0
VERTEX
  5
1BC
330
1BA
100
AcDbEntity
  8
MO_001_NOSHOW
  6
C_SOLID_M
100
AcDbVertex
100
AcDb2dVertex
 10
-52.50000400000001
 20
-55.757355
 30
0.0
 50
359.817493
  0
VERTEX
  5
1BD
330
1BA
100
AcDbEntity
  8
MO_001_NOSHOW
  6
C_SOLID_M
100
AcDbVertex
100
AcDb2dVertex
 10
-50.999996
 20
-55.5
 30
0.0
 50
333.2524439999999
  0
VERTEX
  5
1BE
330
1BA
100
AcDbEntity
  8
MO_001_NOSHOW
  6
C_SOLID_M
100
AcDbVertex
100
AcDb2dVertex
 10
-52.49999599999999
 20
-55.757355
 30
0.0
 50
179.817496
  0
VERTEX
  5
1BF
330
1BA
100
AcDbEntity
  8
MO_001_NOSHOW
  6
C_SOLID_M
100
AcDbVertex
100
AcDb2dVertex
 10
-53.999996
 20
-55.5
 30
0.0
 50
90.00000099999999
  0
SEQEND
  5
1C0
330
1BA
100
AcDbEntity
  8
0
  0
POLYLINE
  5
1C1
330
1E
100
AcDbEntity
  8
MO_001_NOSHOW
  6
C_SOLID_M
100
AcDb2dPolyline
 66
     1
 10
0.0
 20
0.0
 30
0.0
 70
     5
 75
     6
  0
VERTEX
  5
1C2
330
1C1
100
AcDbEntity
  8
MO_001_NOSHOW
  6
C_SOLID_M
100
AcDbVertex
100
AcDb2dVertex
 10
-53.999996
 20
-64.5
 30
0.0
 50
269.817495
  0
VERTEX
  5
1C3
330
1C1
100
AcDbEntity
  8
MO_001_NOSHOW
  6
C_SOLID_M
100
AcDbVertex
100
AcDb2dVertex
 10
-52.49999599999999
 20
-64.24264499999999
 30
0.0
 50
359.817494
  0
VERTEX
  5
1C4
330
1C1
100
AcDbEntity
  8
MO_001_NOSHOW
  6
C_SOLID_M
100
AcDbVertex
100
AcDb2dVertex
 10
-50.999996
 20
-64.5
 30
0.0
 50
123.690066
  0
VERTEX
  5
1C5
330
1C1
100
AcDbEntity
  8
MO_001_NOSHOW
  6
C_SOLID_M
100
AcDbVertex
100
AcDb2dVertex
 10
-52.50000400000001
 20
-64.24264499999999
 30
0.0
 50
179.817498
  0
VERTEX
  5
1C6
330
1C1
100
AcDbEntity
  8
MO_001_NOSHOW
  6
C_SOLID_M
100
AcDbVertex
100
AcDb2dVertex
 10
-53.999996
 20
-64.5
 30
0.0
 50
322.9475979999999
  0
SEQEND
  5
1C7
330
1C1
100
AcDbEntity
  8
0
  0
POLYLINE
  5
1C8
330
1E
100
AcDbEntity
  8
MO_001_NOSHOW
  6
C_SOLID_M
100
AcDb2dPolyline
 66
     1
 10
0.0
 20
0.0
 30
0.0
 70
     5
 75
     6
  0
VERTEX
  5
1C9
330
1C8
100
AcDbEntity
  8
MO_001_NOSHOW
  6
C_SOLID_M
100
AcDbVertex
100
AcDb2dVertex
 10
-53.700001
 20
-55.800003
 30
0.0
 50
165.963757
  0
VERTEX
  5
1CA
330
1C8
100
AcDbEntity
  8
MO_001_NOSHOW
  6
C_SOLID_M
100
AcDbVertex
100
AcDb2dVertex
 10
-52.49999599999999
 20
-55.975082
 30
0.0
 50
359.817493
  0
VERTEX
  5
1CB
330
1C8
100
AcDbEntity
  8
MO_001_NOSHOW
  6
C_SOLID_M
100
AcDbVertex
100
AcDb2dVertex
 10
-51.299999
 20
-55.800003
 30
0.0
 50
333.2524439999999
  0
VERTEX
  5
1CC
330
1C8
100
AcDbEntity
  8
MO_001_NOSHOW
  6
C_SOLID_M
100
AcDbVertex
100
AcDb2dVertex
 10
-52.49999599999999
 20
-55.975082
 30
0.0
 50
179.817496
  0
VERTEX
  5
1CD
330
1C8
100
AcDbEntity
  8
MO_001_NOSHOW
  6
C_SOLID_M
100
AcDbVertex
100
AcDb2dVertex
 10
-53.700001
 20
-55.800003
 30
0.0
 50
89.99999800000001
  0
SEQEND
  5
1CE
330
1C8
100
AcDbEntity
  8
0
  0
POLYLINE
  5
1CF
330
1E
100
AcDbEntity
  8
MO_001_NOSHOW
  6
C_SOLID_M
100
AcDb2dPolyline
 66
     1
 10
0.0
 20
0.0
 30
0.0
 70
     5
 75
     6
  0
VERTEX
  5
1D0
330
1CF
100
AcDbEntity
  8
MO_001_NOSHOW
  6
C_SOLID_M
100
AcDbVertex
100
AcDb2dVertex
 10
-53.700001
 20
-64.19999699999999
 30
0.0
 50
269.817495
  0
VERTEX
  5
1D1
330
1CF
100
AcDbEntity
  8
MO_001_NOSHOW
  6
C_SOLID_M
100
AcDbVertex
100
AcDb2dVertex
 10
-52.49999599999999
 20
-64.02491799999999
 30
0.0
 50
359.817495
  0
VERTEX
  5
1D2
330
1CF
100
AcDbEntity
  8
MO_001_NOSHOW
  6
C_SOLID_M
100
AcDbVertex
100
AcDb2dVertex
 10
-51.299999
 20
-64.19999699999999
 30
0.0
 50
123.690067
  0
VERTEX
  5
1D3
330
1CF
100
AcDbEntity
  8
MO_001_NOSHOW
  6
C_SOLID_M
100
AcDbVertex
100
AcDb2dVertex
 10
-52.49999599999999
 20
-64.02491799999999
 30
0.0
 50
179.817498
  0
VERTEX
  5
1D4
330
1CF
100
AcDbEntity
  8
MO_001_NOSHOW
  6
C_SOLID_M
100
AcDbVertex
100
AcDb2dVertex
 10
-53.700001
 20
-64.19999699999999
 30
0.0
 50
322.947592
  0
SEQEND
  5
1D5
330
1CF
100
AcDbEntity
  8
0
  0
DIMENSION
  5
1D7
330
1E
100
AcDbEntity
  8
MO_001_VIEW_PV
  6
C_SOLID_M
100
AcDbDimension
  2
*D0
 10
-21.0
 20
18.0
 30
0.0
 11
-21.0
 21
18.0
 31
0.0
  1
(8.5)
  3
STANDARD
100
AcDbAlignedDimension
 13
-8.5
 23
8.5
 33
0.0
 14
0.0
 24
9.5
 34
0.0
100
AcDbRotatedDimension
  0
DIMENSION
  5
1D9
330
1E
100
AcDbEntity
  8
MO_001_VIEW_PV
  6
C_SOLID_M
100
AcDbDimension
  2
*D1
 10
-27.0
 20
24.0
 30
0.0
 11
-27.0
 21
24.0
 31
0.0
  3
STANDARD
100
AcDbAlignedDimension
 13
-46.5
 23
9.5
 33
0.0
 14
0.0
 24
9.5
 34
0.0
100
AcDbRotatedDimension
  0
DIMENSION
  5
1DB
330
1E
100
AcDbEntity
  8
MO_001_VIEW_PV
  6
C_SOLID_M
100
AcDbDimension
  2
*D2
 10
-30.0
 20
30.0
 30
0.0
 11
-30.0
 21
30.0
 31
0.0
  1
56.5
  3
STANDARD
100
AcDbAlignedDimension
 13
-56.499996
 23
3.923004
 33
0.0
 14
0.0
 24
9.5
 34
0.0
100
AcDbRotatedDimension
  0
DIMENSION
  5
1DD
330
1E
100
AcDbEntity
  8
MO_001_VIEW_PV
  6
C_SOLID_M
100
AcDbDimension
  2
*D3
 10
-22.5
 20
-27.0
 30
0.0
 11
-22.5
 21
-27.0
 31
0.0
  3
STANDARD
100
AcDbAlignedDimension
 13
-36.5
 23
-8.5
 33
0.0
 14
-8.5
 24
-8.5
 34
0.0
100
AcDbRotatedDimension
  0
DIMENSION
  5
1DF
330
1E
100
AcDbEntity
  8
MO_001_VIEW_PV
  6
C_SOLID_M
100
AcDbDimension
  2
*D4
 10
-43.627678
 20
-27.0
 30
0.0
 11
-43.627678
 21
-27.0
 31
0.0
  3
STANDARD
100
AcDbAlignedDimension
 13
-52.49999599999999
 23
-3.639244
 33
0.0
 14
-36.5
 24
-8.5
 34
0.0
100
AcDbRotatedDimension
  0
DIMENSION
  5
1E1
330
1E
100
AcDbEntity
  8
MO_001_VIEW_PV
  6
C_SOLID_M
100
AcDbDimension
  2
*D5
 10
-64.595154
 20
-27.0
 30
0.0
 11
-64.595154
 21
-27.0
 31
0.0
  3
STANDARD
100
AcDbAlignedDimension
 13
-56.499996
 23
-3.923012
 33
0.0
 14
-52.49999599999999
 24
-3.639244
 34
0.0
100
AcDbRotatedDimension
  0
DIMENSION
  5
1E3
330
1E
100
AcDbEntity
  8
MO_001_VIEW_PV
  6
C_SOLID_M
100
AcDbDimension
  2
*D6
 10
12.0
 20
-21.0
 30
0.0
 11
12.0
 21
-21.0
 31
0.0
  1
(0.5)
  3
STANDARD
100
AcDbAlignedDimension
 13
0.0
 23
-9.5
 33
0.0
 14
0.5
 24
-1.75
 34
0.0
100
AcDbRotatedDimension
  0
DIMENSION
  5
1E5
330
1E
100
AcDbEntity
  8
MO_001_VIEW_PV
  6
C_SOLID_M
100
AcDbDimension
  2
*D7
 10
22.660715
 20
-27.0
 30
0.0
 11
22.660715
 21
-27.0
 31
0.0
  1
長さ240以上
  3
STANDARD
100
AcDbAlignedDimension
 13
0.0
 23
-9.5
 33
0.0
 14
47.0
 24
-11.740002
 34
0.0
100
AcDbRotatedDimension
  0
DIMENSION
  5
1E7
330
1E
100
AcDbEntity
  8
MO_001_VIEW_PV
  6
C_SOLID_M
100
AcDbDimension
  2
*D8
 10
24.0
 20
15.155373
 30
0.0
 11
24.0
 21
15.155373
 31
0.0
  3
STANDARD
100
AcDbAlignedDimension
 13
-5.0
 23
5.0
 33
0.0
 14
-5.0
 24
-5.0
 34
0.0
 50
270.012145
100
AcDbRotatedDimension
  0
DIMENSION
  5
1E9
330
1E
100
AcDbEntity
  8
MO_001_VIEW_PV
  6
C_SOLID_M
100
AcDbDimension
  2
*D9
 10
-66.0
 20
15.0
 30
0.0
 11
-66.0
 21
15.0
 31
0.0
  3
STANDARD
100
AcDbAlignedDimension
 13
-48.499996
 23
-4.5
 33
0.0
 14
-48.499996
 24
4.5
 34
0.0
 50
89.98785500000002
100
AcDbRotatedDimension
  0
DIMENSION
  5
1EB
330
1E
100
AcDbEntity
  8
MO_001_VIEW_PV
  6
C_SOLID_M
100
AcDbDimension
  2
*D10
 10
-87.0
 20
-21.0
 30
0.0
 11
-87.0
 21
-21.0
 31
0.0
  3
STANDARD
100
AcDbAlignedDimension
 13
-75.5
 23
-9.5
 33
0.0
 14
-98.50000000000001
 24
-9.5
 34
0.0
100
AcDbRotatedDimension
  0
DIMENSION
  5
1ED
330
1E
100
AcDbEntity
  8
MO_001_VIEW_PV
  6
C_SOLID_M
100
AcDbDimension
  2
*D11
 10
-108.0
 20
0.0
 30
0.0
 11
-108.0
 21
0.0
 31
0.0
  3
STANDARD
100
AcDbAlignedDimension
 13
-98.50000000000001
 23
9.5
 33
0.0
 14
-98.50000000000001
 24
-9.5
 34
0.0
 50
89.999523
100
AcDbRotatedDimension
  0
DIMENSION
  5
1EF
330
1E
100
AcDbEntity
  8
MO_001_VIEW_PV
  6
C_SOLID_M
100
AcDbDimension
  2
*D12
 10
-63.69819599999999
 20
-42.0
 30
0.0
 11
-63.69819599999999
 21
-42.0
 31
0.0
  3
STANDARD
100
AcDbAlignedDimension
 13
-56.499996
 23
-55.800003
 33
0.0
 14
-48.499996
 24
-58.5
 34
0.0
100
AcDbRotatedDimension
  0
DIMENSION
  5
1F1
330
1E
100
AcDbEntity
  8
MO_001_VIEW_PV
  6
C_SOLID_M
100
AcDbDimension
  2
*D13
 10
-63.0
 20
-36.0
 30
0.0
 11
-63.0
 21
-36.0
 31
0.0
  1
(11)
  3
STANDARD
100
AcDbAlignedDimension
 13
-56.499996
 23
-55.800003
 33
0.0
 14
-45.499992
 24
-50.5
 34
0.0
100
AcDbRotatedDimension
  0
DIMENSION
  5
1F3
330
1E
100
AcDbEntity
  8
MO_001_VIEW_PV
  6
C_SOLID_M
100
AcDbDimension
  2
*D14
 10
-22.749996
 20
-36.0
 30
0.0
 11
-22.749996
 21
-36.0
 31
0.0
  3
STANDARD
100
AcDbAlignedDimension
 13
0.0
 23
-50.0
 33
0.0
 14
-45.499992
 24
-50.5
 34
0.0
100
AcDbRotatedDimension
  0
DIMENSION
  5
1F5
330
1E
100
AcDbEntity
  8
MO_001_VIEW_PV
  6
C_SOLID_M
100
AcDbDimension
  2
*D15
 10
-66.0
 20
-49.289017
 30
0.0
 11
-66.0
 21
-49.289017
 31
0.0
  3
STANDARD
100
AcDbAlignedDimension
 13
-56.499996
 23
-61.5
 33
0.0
 14
-56.499996
 24
-58.5
 34
0.0
 50
89.999523
100
AcDbRotatedDimension
  0
DIMENSION
  5
1F7
330
1E
100
AcDbEntity
  8
MO_001_VIEW_PV
  6
C_SOLID_M
100
AcDbDimension
  2
*D16
 10
-53.98498499999999
 20
0.21168
 30
0.0
 11
-60.0
 21
-18.0
 31
0.0
 70
     3
  1
<>
  3
STANDARD
100
AcDbDiametricDimension
 15
-51.015007
 25
-0.21168
 35
0.0
 40
0.0
  0
LINE
  5
1F8
330
1E
100
AcDbEntity
  8
MO_001_VIEW_PV
  6
C_SOLID_L
100
AcDbLine
 10
-7.547627
 20
5.84771
 30
0.0
 11
12.845849
 21
24.0
 31
0.0
  0
POLYLINE
  5
1F9
330
1E
100
AcDbEntity
  8
MO_001_VIEW_PV
  6
C_SOLID_L
100
AcDb2dPolyline
 66
     1
 10
0.0
 20
0.0
 30
0.0
 70
     1
  0
VERTEX
  5
35C
330
1F9
100
AcDbEntity
  8
MO_001_VIEW_PV
  6
C_SOLID_L
100
AcDbVertex
100
AcDb2dVertex
 10
-5.456983
 20
8.489780999999998
 30
0.0
  0
VERTEX
  5
35D
330
1F9
100
AcDbEntity
  8
MO_001_VIEW_PV
  6
C_SOLID_L
100
AcDbVertex
100
AcDb2dVertex
 10
-7.168172
 20
6.185463999999999
 30
0.0
  0
VERTEX
  5
35E
330
1F9
100
AcDbEntity
  8
MO_001_VIEW_PV
  6
C_SOLID_L
100
AcDbVertex
100
AcDb2dVertex
 10
-4.681064
 20
7.618063
 30
0.0
  0
SEQEND
  5
35F
330
1F9
100
AcDbEntity
  8
MO_001_VIEW_PV
  6
C_SOLID_L
  0
ENDSEC
  0
SECTION
  2
OBJECTS
  0
DICTIONARY
  5
1A
330
0
100
AcDbDictionary
  3
ACAD_GROUP
350
1B
  3
ACAD_MLINESTYLE
350
1C
  3
ACAD_LAYOUT
350
2AE
  3
ACAD_PLOTSETTINGS
350
2AF
1001
ACAD
1000
TREAT_AS_HARD
1070
     0
  0
DICTIONARY
  5
2B4
330
1E
100
AcDbDictionary
  3
ACAD_LAYOUTSELFREF
350
2B5
  0
DICTIONARY
  5
2B6
330
1F
100
AcDbDictionary
  3
ACAD_LAYOUTSELFREF
350
2B7
  0
DICTIONARY
  5
1B
102
{ACAD_REACTORS
330
1A
102
}
330
1A
100
AcDbDictionary
1001
ACAD
1000
TREAT_AS_HARD
1070
     0
  0
DICTIONARY
  5
1C
102
{ACAD_REACTORS
330
1A
102
}
330
1A
100
AcDbDictionary
  3
STANDARD
350
1D
1001
ACAD
1000
TREAT_AS_HARD
1070
     0
  0
DICTIONARY
  5
2AE
102
{ACAD_REACTORS
330
1A
102
}
330
1A
100
AcDbDictionary
1001
ACAD
1000
TREAT_AS_HARD
1070
     0
  0
DICTIONARY
  5
2AF
102
{ACAD_REACTORS
330
1A
102
}
330
1A
100
AcDbDictionary
1001
ACAD
1000
TREAT_AS_HARD
1070
     0
  0
XRECORD
  5
2B5
102
{ACAD_REACTORS
330
2B4
102
}
330
2B4
100
AcDbXrecord
340
1E
  0
XRECORD
  5
2B7
102
{ACAD_REACTORS
330
2B6
102
}
330
2B6
100
AcDbXrecord
340
1F
  0
MLINESTYLE
  5
1D
102
{ACAD_REACTORS
330
1C
102
}
330
1C
100
AcDbMlineStyle
  2
STANDARD
 70
     0
  3

 62
     0
 51
90.0
 52
90.0
 71
     2
 49
0.5
 62
   256
  6
BYLAYER
 49
-0.5
 62
   256
  6
BYLAYER
  0
ENDSEC
  0
EOF
