  0
SECTION
  2
HEADER
  9
$ACADVER
  1
AC1012
  9
$DWGCODEPAGE
  3
dos932
  9
$INSBASE
 10
0.0
 20
0.0
 30
0.0
  9
$EXTMIN
 10
-112.491045418087
 20
-98.09364297573683
 30
-0.0015258207003583
  9
$EXTMAX
 10
55.13299600298899
 20
33.75352143757686
 30
0.0000000349246037
  9
$LIMMIN
 10
-114.0
 20
-101.208984
  9
$LIMMAX
 10
49.998047
 20
36.0
  9
$ORTHOMODE
 70
     0
  9
$REGENMODE
 70
     1
  9
$FILLMODE
 70
     1
  9
$QTEXTMODE
 70
     0
  9
$MIRRTEXT
 70
     1
  9
$DRAGMODE
 70
     2
  9
$LTSCALE
 40
1.0
  9
$OSMODE
 70
    37
  9
$ATTMODE
 70
     1
  9
$TEXTSIZE
 40
4.1672
  9
$TRACEWID
 40
0.05
  9
$TEXTSTYLE
  7
STANDARD
  9
$CLAYER
  8
0
  9
$CELTYPE
  6
CONTINUOUS
  9
$CECOLOR
 62
   256
  9
$CELTSCALE
 40
1.0
  9
$DELOBJ
 70
     1
  9
$DISPSILH
 70
     0
  9
$DIMSCALE
 40
1.0
  9
$DIMASZ
 40
0.18
  9
$DIMEXO
 40
0.0625
  9
$DIMDLI
 40
0.38
  9
$DIMRND
 40
0.0
  9
$DIMDLE
 40
0.0
  9
$DIMEXE
 40
0.18
  9
$DIMTP
 40
0.0
  9
$DIMTM
 40
0.0
  9
$DIMTXT
 40
0.18
  9
$DIMCEN
 40
0.09
  9
$DIMTSZ
 40
0.0
  9
$DIMTOL
 70
     0
  9
$DIMLIM
 70
     0
  9
$DIMTIH
 70
     1
  9
$DIMTOH
 70
     1
  9
$DIMSE1
 70
     0
  9
$DIMSE2
 70
     0
  9
$DIMTAD
 70
     0
  9
$DIMZIN
 70
     0
  9
$DIMBLK
  1

  9
$DIMASO
 70
     1
  9
$DIMSHO
 70
     1
  9
$DIMPOST
  1

  9
$DIMAPOST
  1

  9
$DIMALT
 70
     0
  9
$DIMALTD
 70
     2
  9
$DIMALTF
 40
25.4
  9
$DIMLFAC
 40
1.0
  9
$DIMTOFL
 70
     0
  9
$DIMTVP
 40
0.0
  9
$DIMTIX
 70
     0
  9
$DIMSOXD
 70
     0
  9
$DIMSAH
 70
     0
  9
$DIMBLK1
  1

  9
$DIMBLK2
  1

  9
$DIMSTYLE
  2
STANDARD
  9
$DIMCLRD
 70
     0
  9
$DIMCLRE
 70
     0
  9
$DIMCLRT
 70
     0
  9
$DIMTFAC
 40
1.0
  9
$DIMGAP
 40
0.09
  9
$DIMJUST
 70
     0
  9
$DIMSD1
 70
     0
  9
$DIMSD2
 70
     0
  9
$DIMTOLJ
 70
     1
  9
$DIMTZIN
 70
     0
  9
$DIMALTZ
 70
     0
  9
$DIMALTTZ
 70
     0
  9
$DIMFIT
 70
     3
  9
$DIMUPT
 70
     0
  9
$DIMUNIT
 70
     2
  9
$DIMDEC
 70
     4
  9
$DIMTDEC
 70
     4
  9
$DIMALTU
 70
     2
  9
$DIMALTTD
 70
     2
  9
$DIMTXSTY
  7
STANDARD
  9
$DIMAUNIT
 70
     0
  9
$LUNITS
 70
     2
  9
$LUPREC
 70
     6
  9
$SKETCHINC
 40
0.1
  9
$FILLETRAD
 40
0.0
  9
$AUNITS
 70
     0
  9
$AUPREC
 70
     4
  9
$MENU
  1
acad
  9
$ELEVATION
 40
0.0
  9
$PELEVATION
 40
0.0
  9
$THICKNESS
 40
0.0
  9
$LIMCHECK
 70
     0
  9
$BLIPMODE
 70
     0
  9
$CHAMFERA
 40
0.0
  9
$CHAMFERB
 40
0.0
  9
$CHAMFERC
 40
0.0
  9
$CHAMFERD
 40
0.0
  9
$SKPOLY
 70
     0
  9
$TDCREATE
 40
2376126.114275972
  9
$TDUPDATE
 40
2451683.851025925
  9
$TDINDWG
 40
0.0006046296
  9
$TDUSRTIMER
 40
0.0006046296
  9
$USRTIMER
 70
     1
  9
$ANGBASE
 50
0.0
  9
$ANGDIR
 70
     0
  9
$PDMODE
 70
     0
  9
$PDSIZE
 40
0.0
  9
$PLINEWID
 40
0.0
  9
$COORDS
 70
     1
  9
$SPLFRAME
 70
     0
  9
$SPLINETYPE
 70
     6
  9
$SPLINESEGS
 70
     8
  9
$ATTDIA
 70
     0
  9
$ATTREQ
 70
     1
  9
$HANDLING
 70
 10241
  9
$HANDSEED
  5
32E
  9
$SURFTAB1
 70
     6
  9
$SURFTAB2
 70
     6
  9
$SURFTYPE
 70
     6
  9
$SURFU
 70
     6
  9
$SURFV
 70
     6
  9
$UCSNAME
  2

  9
$UCSORG
 10
0.0
 20
0.0
 30
0.0
  9
$UCSXDIR
 10
1.0
 20
0.0
 30
0.0
  9
$UCSYDIR
 10
0.0
 20
1.0
 30
0.0
  9
$PUCSNAME
  2

  9
$PUCSORG
 10
0.0
 20
0.0
 30
0.0
  9
$PUCSXDIR
 10
1.0
 20
0.0
 30
0.0
  9
$PUCSYDIR
 10
0.0
 20
1.0
 30
0.0
  9
$USERI1
 70
     0
  9
$USERI2
 70
     0
  9
$USERI3
 70
     0
  9
$USERI4
 70
     0
  9
$USERI5
 70
     0
  9
$USERR1
 40
0.0
  9
$USERR2
 40
0.0
  9
$USERR3
 40
0.0
  9
$USERR4
 40
0.0
  9
$USERR5
 40
0.0
  9
$WORLDVIEW
 70
     1
  9
$SHADEDGE
 70
     3
  9
$SHADEDIF
 70
    70
  9
$TILEMODE
 70
     1
  9
$MAXACTVP
 70
    16
  9
$PINSBASE
 10
0.0
 20
0.0
 30
0.0
  9
$PLIMCHECK
 70
     0
  9
$PEXTMIN
 10
-114.0
 20
-101.208984
 30
1.000000000000000E+20
  9
$PEXTMAX
 10
49.998047
 20
36.0
 30
-1.000000000000000E+20
  9
$PLIMMIN
 10
0.0
 20
0.0
  9
$PLIMMAX
 10
12.0
 20
9.0
  9
$UNITMODE
 70
     0
  9
$VISRETAIN
 70
     0
  9
$PLINEGEN
 70
     0
  9
$PSLTSCALE
 70
     1
  9
$TREEDEPTH
 70
  3020
  9
$PICKSTYLE
 70
     1
  9
$CMLSTYLE
  2
STANDARD
  9
$CMLJUST
 70
     0
  9
$CMLSCALE
 40
1.0
  9
$SAVEIMAGES
 70
     1
  0
ENDSEC
  0
SECTION
  2
CLASSES
  0
CLASS
  1
ACDBDICTIONARYWDFLT
  2
AcDbDictionaryWithDefault
  3
AutoCAD 2000
 90
    32768
280
     0
281
     0
  0
CLASS
  1
ACDBPLACEHOLDER
  2
AcDbPlaceHolder
  3
AutoCAD 2000
 90
    32768
280
     0
281
     0
  0
CLASS
  1
LAYOUT
  2
AcDbLayout
  3
AutoCAD 2000
 90
    32768
280
     0
281
     0
  0
CLASS
  1
LONG_TRANSACTION
  2
AcDbLongTransaction
  3
AutoCAD 2000
 90
    32768
280
     0
281
     0
  0
CLASS
  1
LWPOLYLINE
  2
AcDbPolyline
  3
AutoCAD 2000
 90
    32768
280
     0
281
     1
  0
CLASS
  1
HATCH
  2
AcDbHatch
  3
AutoCAD 2000
 90
    32768
280
     0
281
     1
  0
CLASS
  1
XRECORD
  2
AcDbXrecord
  3
AutoCAD 2000
 90
    32768
280
     0
281
     0
  0
ENDSEC
  0
SECTION
  2
TABLES
  0
TABLE
  2
VPORT
  5
7
330
0
100
AcDbSymbolTable
 70
     2
  0
VPORT
  5
293
330
7
100
AcDbSymbolTableRecord
100
AcDbViewportTableRecord
  2
*ACTIVE
 70
     0
 10
0.0
 20
0.0
 11
1.0
 21
1.0
 12
-29.4335019985055
 22
-32.604492
 13
0.0
 23
0.0
 14
6.349999999999999
 24
6.349999999999999
 15
6.349999999999999
 25
6.349999999999999
 16
0.0
 26
0.0
 36
1.0
 17
0.0
 27
0.0
 37
0.0
 40
138.7335282666666
 41
1.619666048237476
 42
50.0
 43
0.0
 44
0.0
 50
0.0
 51
0.0
 71
     0
 72
   100
 73
     1
 74
     1
 75
     0
 76
     0
 77
     0
 78
     0
  0
ENDTAB
  0
TABLE
  2
LTYPE
  5
4
330
0
100
AcDbSymbolTable
 70
    37
  0
LTYPE
  5
12
330
4
100
AcDbSymbolTableRecord
100
AcDbLinetypeTableRecord
  2
BYBLOCK
 70
     0
  3

 72
    65
 73
     0
 40
0.0
  0
LTYPE
  5
13
330
4
100
AcDbSymbolTableRecord
100
AcDbLinetypeTableRecord
  2
BYLAYER
 70
     0
  3

 72
    65
 73
     0
 40
0.0
  0
LTYPE
  5
14
330
4
100
AcDbSymbolTableRecord
100
AcDbLinetypeTableRecord
  2
CONTINUOUS
 70
     0
  3
DXF Default line type
 72
    65
 73
     0
 40
0.0
  0
LTYPE
  5
20
330
4
100
AcDbSymbolTableRecord
100
AcDbLinetypeTableRecord
  2
DASHED
 70
     0
  3
DXF Dashed
 72
    65
 73
     2
 40
0.75
 49
0.5
 74
     0
 49
-0.25
 74
     0
  0
LTYPE
  5
21
330
4
100
AcDbSymbolTableRecord
100
AcDbLinetypeTableRecord
  2
HIDDEN
 70
     0
  3
DXF Hidden
 72
    65
 73
     2
 40
0.375
 49
0.25
 74
     0
 49
-0.125
 74
     0
  0
LTYPE
  5
22
330
4
100
AcDbSymbolTableRecord
100
AcDbLinetypeTableRecord
  2
CENTER
 70
     0
  3
DXF Center
 72
    65
 73
     4
 40
2.0
 49
1.25
 74
     0
 49
-0.25
 74
     0
 49
0.25
 74
     0
 49
-0.25
 74
     0
  0
LTYPE
  5
23
330
4
100
AcDbSymbolTableRecord
100
AcDbLinetypeTableRecord
  2
PHANTOM
 70
     0
  3
DXF Phantom
 72
    65
 73
     6
 40
2.5
 49
1.25
 74
     0
 49
-0.25
 74
     0
 49
0.25
 74
     0
 49
-0.25
 74
     0
 49
0.25
 74
     0
 49
-0.25
 74
     0
  0
LTYPE
  5
24
330
4
100
AcDbSymbolTableRecord
100
AcDbLinetypeTableRecord
  2
DOT
 70
     0
  3
DXF DOT
 72
    65
 73
     2
 40
0.25
 49
0.0
 74
     0
 49
-0.25
 74
     0
  0
LTYPE
  5
25
330
4
100
AcDbSymbolTableRecord
100
AcDbLinetypeTableRecord
  2
DASHDOT
 70
     0
  3
DXF Dash Dot
 72
    65
 73
     4
 40
1.0
 49
0.5
 74
     0
 49
-0.25
 74
     0
 49
0.0
 74
     0
 49
-0.25
 74
     0
  0
LTYPE
  5
26
330
4
100
AcDbSymbolTableRecord
100
AcDbLinetypeTableRecord
  2
BORDER
 70
     0
  3
DXF Border
 72
    65
 73
     6
 40
1.75
 49
0.5
 74
     0
 49
-0.25
 74
     0
 49
0.5
 74
     0
 49
-0.25
 74
     0
 49
0.0
 74
     0
 49
-0.25
 74
     0
  0
LTYPE
  5
27
330
4
100
AcDbSymbolTableRecord
100
AcDbLinetypeTableRecord
  2
DIVIDE
 70
     0
  3
DXF Divide
 72
    65
 73
     6
 40
1.25
 49
0.5
 74
     0
 49
-0.25
 74
     0
 49
0.0
 74
     0
 49
-0.25
 74
     0
 49
0.0
 74
     0
 49
-0.25
 74
     0
  0
LTYPE
  5
28
330
4
100
AcDbSymbolTableRecord
100
AcDbLinetypeTableRecord
  2
C_SOLID_L
 70
     0
  3
CADAM Solid Light
 72
    65
 73
     0
 40
0.0
  0
LTYPE
  5
29
330
4
100
AcDbSymbolTableRecord
100
AcDbLinetypeTableRecord
  2
C_SOLID_M
 70
     0
  3
CADAM Solid Medium
 72
    65
 73
     0
 40
0.0
  0
LTYPE
  5
2A
330
4
100
AcDbSymbolTableRecord
100
AcDbLinetypeTableRecord
  2
C_SOLID_H
 70
     0
  3
CADAM Solid Heavy
 72
    65
 73
     0
 40
0.0
  0
LTYPE
  5
2B
330
4
100
AcDbSymbolTableRecord
100
AcDbLinetypeTableRecord
  2
C_DASHED_L
 70
     0
  3
CADAM Dashed Light
 72
    65
 73
     2
 40
0.375
 49
0.25
 74
     0
 49
-0.125
 74
     0
  0
LTYPE
  5
2C
330
4
100
AcDbSymbolTableRecord
100
AcDbLinetypeTableRecord
  2
C_DASHED_M
 70
     0
  3
CADAM Dashed Medium
 72
    65
 73
     2
 40
0.5
 49
0.375
 74
     0
 49
-0.125
 74
     0
  0
LTYPE
  5
2D
330
4
100
AcDbSymbolTableRecord
100
AcDbLinetypeTableRecord
  2
C_CENTER_L
 70
     0
  3
CADAM Center Light
 72
    65
 73
     4
 40
2.0
 49
1.25
 74
     0
 49
-0.25
 74
     0
 49
0.25
 74
     0
 49
-0.25
 74
     0
  0
LTYPE
  5
2E
330
4
100
AcDbSymbolTableRecord
100
AcDbLinetypeTableRecord
  2
C_PHANTOM_L
 70
     0
  3
CADAM Phantom Light
 72
    65
 73
     6
 40
2.5
 49
1.25
 74
     0
 49
-0.25
 74
     0
 49
0.25
 74
     0
 49
-0.25
 74
     0
 49
0.25
 74
     0
 49
-0.25
 74
     0
  0
LTYPE
  5
2F
330
4
100
AcDbSymbolTableRecord
100
AcDbLinetypeTableRecord
  2
C_BREAK_M
 70
     0
  3
CADAM Break Medium
 72
    65
 73
     4
 40
1.0
 49
0.5
 74
     0
 49
-0.25
 74
     0
 49
0.0
 74
     0
 49
-0.25
 74
     0
  0
LTYPE
  5
30
330
4
100
AcDbSymbolTableRecord
100
AcDbLinetypeTableRecord
  2
C_NC
 70
     0
  3
CADAM NC
 72
    65
 73
     0
 40
0.0
  0
LTYPE
  5
31
330
4
100
AcDbSymbolTableRecord
100
AcDbLinetypeTableRecord
  2
DSH1
 70
     0
  3
CADAM Style2 Type 1 Dashed Line
 72
    65
 73
     2
 40
0.075
 49
0.04
 74
     0
 49
-0.035
 74
     0
  0
LTYPE
  5
32
330
4
100
AcDbSymbolTableRecord
100
AcDbLinetypeTableRecord
  2
DSH2
 70
     0
  3
CADAM Style2 Type 2 Dashed Line
 72
    65
 73
     2
 40
0.15
 49
0.11
 74
     0
 49
-0.04
 74
     0
  0
LTYPE
  5
33
330
4
100
AcDbSymbolTableRecord
100
AcDbLinetypeTableRecord
  2
DSH3
 70
     0
  3
CADAM Style2 Type 3 Dashed Line
 72
    65
 73
     2
 40
0.2
 49
0.15
 74
     0
 49
-0.05
 74
     0
  0
LTYPE
  5
34
330
4
100
AcDbSymbolTableRecord
100
AcDbLinetypeTableRecord
  2
DSH4
 70
     0
  3
CADAM Style2 Type 4 Dashed Line
 72
    65
 73
     2
 40
0.36
 49
0.28
 74
     0
 49
-0.08
 74
     0
  0
LTYPE
  5
35
330
4
100
AcDbSymbolTableRecord
100
AcDbLinetypeTableRecord
  2
DSH5
 70
     0
  3
CADAM Style2 Type 5 Dashed Line
 72
    65
 73
     2
 40
0.47
 49
0.39
 74
     0
 49
-0.08
 74
     0
  0
LTYPE
  5
36
330
4
100
AcDbSymbolTableRecord
100
AcDbLinetypeTableRecord
  2
DSH6
 70
     0
  3
CADAM Style2 Type 6 Dashed Line
 72
    65
 73
     2
 40
0.9
 49
0.8100000000000001
 74
     0
 49
-0.09
 74
     0
  0
LTYPE
  5
37
330
4
100
AcDbSymbolTableRecord
100
AcDbLinetypeTableRecord
  2
PL1
 70
     0
  3
Style 2 Type 1 Phantom Line
 72
    65
 73
     6
 40
1.0
 49
0.6
 74
     0
 49
-0.08
 74
     0
 49
0.08
 74
     0
 49
-0.08
 74
     0
 49
0.08
 74
     0
 49
-0.08
 74
     0
  0
LTYPE
  5
38
330
4
100
AcDbSymbolTableRecord
100
AcDbLinetypeTableRecord
  2
PL2
 70
     0
  3
Style 2 Type 2 Phantom Line
 72
    65
 73
     6
 40
1.08
 49
0.6
 74
     0
 49
-0.08
 74
     0
 49
0.12
 74
     0
 49
-0.08
 74
     0
 49
0.12
 74
     0
 49
-0.08
 74
     0
  0
LTYPE
  5
39
330
4
100
AcDbSymbolTableRecord
100
AcDbLinetypeTableRecord
  2
PL3
 70
     0
  3
Style 2 Type 3 Phantom Line
 72
    65
 73
     6
 40
2.0
 49
1.439999999999999
 74
     0
 49
-0.08
 74
     0
 49
0.16
 74
     0
 49
-0.08
 74
     0
 49
0.16
 74
     0
 49
-0.08
 74
     0
  0
LTYPE
  5
3A
330
4
100
AcDbSymbolTableRecord
100
AcDbLinetypeTableRecord
  2
CL1
 70
     0
  3
CADAM Style 2 Type 1 Center Line
 72
    65
 73
     4
 40
0.7
 49
0.45
 74
     0
 49
-0.06
 74
     0
 49
0.13
 74
     0
 49
-0.06
 74
     0
  0
LTYPE
  5
3B
330
4
100
AcDbSymbolTableRecord
100
AcDbLinetypeTableRecord
  2
CL2
 70
     0
  3
CADAM Style 2 Type 2 Center Line
 72
    65
 73
     4
 40
1.199999999999999
 49
1.01
 74
     0
 49
-0.06
 74
     0
 49
0.11
 74
     0
 49
-0.06
 74
     0
  0
LTYPE
  5
3C
330
4
100
AcDbSymbolTableRecord
100
AcDbLinetypeTableRecord
  2
CL3
 70
     0
  3
CADAM Style 2 Type 3 Center Line
 72
    65
 73
     4
 40
1.199999999999999
 49
0.98
 74
     0
 49
-0.06
 74
     0
 49
0.1
 74
     0
 49
-0.06
 74
     0
  0
LTYPE
  5
3D
330
4
100
AcDbSymbolTableRecord
100
AcDbLinetypeTableRecord
  2
CL4
 70
     0
  3
CADAM Style 2 Type 4 Center Line
 72
    65
 73
     4
 40
2.2
 49
1.929999999999999
 74
     0
 49
-0.07
 74
     0
 49
0.13
 74
     0
 49
-0.07
 74
     0
  0
LTYPE
  5
3E
330
4
100
AcDbSymbolTableRecord
100
AcDbLinetypeTableRecord
  2
CL5
 70
     0
  3
CADAM Style 2 Type 5 Center Line
 72
    65
 73
     4
 40
2.2
 49
1.879999999999999
 74
     0
 49
-0.07
 74
     0
 49
0.18
 74
     0
 49
-0.07
 74
     0
  0
LTYPE
  5
3F
330
4
100
AcDbSymbolTableRecord
100
AcDbLinetypeTableRecord
  2
SBK1
 70
     0
  3
CADAM Style 2 Type 1 SetBack Line
 72
    65
 73
     8
 40
2.7
 49
0.1
 74
     0
 49
-0.08
 74
     0
 49
0.1
 74
     0
 49
-0.8
 74
     0
 49
0.0
 74
     0
 49
0.0
 74
     0
 49
0.0
 74
     0
 49
0.0
 74
     0
  0
LTYPE
  5
40
330
4
100
AcDbSymbolTableRecord
100
AcDbLinetypeTableRecord
  2
SBK2
 70
     0
  3
CADAM Style 2 Type 2 SetBack Line
 72
    65
 73
     8
 40
3.709999999999999
 49
0.13
 74
     0
 49
-0.08
 74
     0
 49
0.13
 74
     0
 49
-0.8
 74
     0
 49
0.0
 74
     0
 49
0.0
 74
     0
 49
0.0
 74
     0
 49
0.0
 74
     0
  0
LTYPE
  5
41
330
4
100
AcDbSymbolTableRecord
100
AcDbLinetypeTableRecord
  2
STCH
 70
     0
  3
CADAM Style2 Stitch Line
 72
    65
 73
     2
 40
0.25
 49
0.0
 74
     0
 49
-0.25
 74
     0
  0
LTYPE
  5
42
330
4
100
AcDbSymbolTableRecord
100
AcDbLinetypeTableRecord
  2
MTCH
 70
     0
  3
CADAM Style2 Match Line
 72
    65
 73
     6
 40
2.0
 49
1.439999999999999
 74
     0
 49
-0.8
 74
     0
 49
0.16
 74
     0
 49
-0.08
 74
     0
 49
0.16
 74
     0
 49
-0.08
 74
     0
  0
LTYPE
  5
43
330
4
100
AcDbSymbolTableRecord
100
AcDbLinetypeTableRecord
  2
SLD
 70
     0
  3
CADAM Solid_EXT2
 72
    65
 73
     0
 40
0.0
  0
ENDTAB
  0
TABLE
  2
LAYER
  5
2
330
0
100
AcDbSymbolTable
 70
     7
  0
LAYER
  5
15
330
2
100
AcDbSymbolTableRecord
100
AcDbLayerTableRecord
  2
0
 70
     0
 62
     7
  6
CONTINUOUS
  0
LAYER
  5
44
330
2
100
AcDbSymbolTableRecord
100
AcDbLayerTableRecord
  2
MO_001_NOSHOW
 70
     1
 62
     7
  6
CONTINUOUS
  0
LAYER
  5
45
330
2
100
AcDbSymbolTableRecord
100
AcDbLayerTableRecord
  2
MO_001_VIEW_PV
 70
     0
 62
     7
  6
CONTINUOUS
  0
LAYER
  5
46
330
2
100
AcDbSymbolTableRecord
100
AcDbLayerTableRecord
  2
OVERLAY_MAP
 70
     1
 62
     7
  6
CONTINUOUS
  0
LAYER
  5
47
330
2
100
AcDbSymbolTableRecord
100
AcDbLayerTableRecord
  2
DITTOS
 70
     0
 62
     7
  6
CONTINUOUS
  0
LAYER
  5
48
330
2
100
AcDbSymbolTableRecord
100
AcDbLayerTableRecord
  2
SYMBOLS
 70
     0
 62
     7
  6
CONTINUOUS
  0
LAYER
  5
49
330
2
100
AcDbSymbolTableRecord
100
AcDbLayerTableRecord
  2
SETS
 70
     0
 62
     7
  6
CONTINUOUS
  0
ENDTAB
  0
TABLE
  2
STYLE
  5
3
330
0
100
AcDbSymbolTable
 70
     1
  0
STYLE
  5
18
330
3
100
AcDbSymbolTableRecord
100
AcDbTextStyleTableRecord
  2
STANDARD
 70
     0
 40
4.1672
 41
1.0
 50
0.0
 71
     0
 42
4.1672
  3
monotxt
  4
BIGFONT
  0
ENDTAB
  0
TABLE
  2
VIEW
  5
5
330
0
100
AcDbSymbolTable
 70
     0
  0
ENDTAB
  0
TABLE
  2
UCS
  5
6
330
0
100
AcDbSymbolTable
 70
     1
  0
UCS
  5
4A
330
6
100
AcDbSymbolTableRecord
100
AcDbUCSTableRecord
  2
MO_001_VIEW_PV_P
 70
     0
 10
0.0
 20
0.0
 30
0.0
 11
1.0
 21
0.0
 31
0.0
 12
-0.0000000002051034
 22
1.0
 32
0.0
  0
ENDTAB
  0
TABLE
  2
APPID
  5
8
330
0
100
AcDbSymbolTable
 70
     1
  0
APPID
  5
17
330
8
100
AcDbSymbolTableRecord
100
AcDbRegAppTableRecord
  2
ACAD
 70
     0
  0
ENDTAB
  0
TABLE
  2
DIMSTYLE
  5
9
330
0
100
AcDbSymbolTable
 70
     1
  0
DIMSTYLE
105
19
102
{ACAD_REACTORS
330
1B9
330
1BB
330
1BD
330
1BF
330
1C1
330
1C3
330
1C5
330
1C7
330
1C9
330
1CB
330
1CD
330
1CF
330
1D1
330
1D3
330
1D5
330
1D7
330
1D9
102
}
330
9
100
AcDbSymbolTableRecord
100
AcDbDimStyleTableRecord
  2
STANDARD
 70
     0
  3

  4

  5

  6

  7

 40
1.0
 41
0.18
 42
0.0625
 43
0.38
 44
0.18
 45
0.0
 46
0.0
 47
0.0
 48
0.0
140
0.18
141
0.09
142
0.0
143
25.4
144
1.0
145
0.0
146
1.0
147
0.09
 71
     0
 72
     0
 73
     1
 74
     1
 75
     0
 76
     0
 77
     0
 78
     0
170
     0
171
     2
172
     0
173
     0
174
     0
175
     0
176
     0
177
     0
178
     0
270
     2
271
     4
272
     4
273
     2
274
     2
340
18
275
     0
280
     0
281
     0
282
     0
283
     1
284
     0
285
     0
286
     0
287
     3
288
     0
  0
ENDTAB
  0
TABLE
  2
BLOCK_RECORD
  5
C
330
0
100
AcDbSymbolTable
 70
    17
  0
BLOCK_RECORD
  5
1E
102
{ACAD_XDICTIONARY
360
294
102
}
330
C
100
AcDbSymbolTableRecord
100
AcDbBlockTableRecord
  2
*MODEL_SPACE
  0
BLOCK_RECORD
  5
1F
102
{ACAD_XDICTIONARY
360
296
102
}
330
C
100
AcDbSymbolTableRecord
100
AcDbBlockTableRecord
  2
*PAPER_SPACE
  0
BLOCK_RECORD
  5
1B8
330
C
100
AcDbSymbolTableRecord
100
AcDbBlockTableRecord
  2
*D0
  0
BLOCK_RECORD
  5
1BA
330
C
100
AcDbSymbolTableRecord
100
AcDbBlockTableRecord
  2
*D1
  0
BLOCK_RECORD
  5
1BC
330
C
100
AcDbSymbolTableRecord
100
AcDbBlockTableRecord
  2
*D2
  0
BLOCK_RECORD
  5
1BE
330
C
100
AcDbSymbolTableRecord
100
AcDbBlockTableRecord
  2
*D3
  0
BLOCK_RECORD
  5
1C0
330
C
100
AcDbSymbolTableRecord
100
AcDbBlockTableRecord
  2
*D4
  0
BLOCK_RECORD
  5
1C2
330
C
100
AcDbSymbolTableRecord
100
AcDbBlockTableRecord
  2
*D5
  0
BLOCK_RECORD
  5
1C4
330
C
100
AcDbSymbolTableRecord
100
AcDbBlockTableRecord
  2
*D6
  0
BLOCK_RECORD
  5
1C6
330
C
100
AcDbSymbolTableRecord
100
AcDbBlockTableRecord
  2
*D7
  0
BLOCK_RECORD
  5
1C8
330
C
100
AcDbSymbolTableRecord
100
AcDbBlockTableRecord
  2
*D8
  0
BLOCK_RECORD
  5
1CA
330
C
100
AcDbSymbolTableRecord
100
AcDbBlockTableRecord
  2
*D9
  0
BLOCK_RECORD
  5
1CC
330
C
100
AcDbSymbolTableRecord
100
AcDbBlockTableRecord
  2
*D10
  0
BLOCK_RECORD
  5
1CE
330
C
100
AcDbSymbolTableRecord
100
AcDbBlockTableRecord
  2
*D11
  0
BLOCK_RECORD
  5
1D0
330
C
100
AcDbSymbolTableRecord
100
AcDbBlockTableRecord
  2
*D12
  0
BLOCK_RECORD
  5
1D2
330
C
100
AcDbSymbolTableRecord
100
AcDbBlockTableRecord
  2
*D13
  0
BLOCK_RECORD
  5
1D4
330
C
100
AcDbSymbolTableRecord
100
AcDbBlockTableRecord
  2
*D14
  0
BLOCK_RECORD
  5
1D6
330
C
100
AcDbSymbolTableRecord
100
AcDbBlockTableRecord
  2
*D15
  0
BLOCK_RECORD
  5
1D8
330
C
100
AcDbSymbolTableRecord
100
AcDbBlockTableRecord
  2
*D16
  0
ENDTAB
  0
ENDSEC
  0
SECTION
  2
BLOCKS
  0
BLOCK
  5
E
330
1E
100
AcDbEntity
  8
0
100
AcDbBlockBegin
  2
*MODEL_SPACE
 70
     0
 10
0.0
 20
0.0
 30
0.0
  3
*MODEL_SPACE
  1

  0
ENDBLK
  5
F
330
1E
100
AcDbEntity
  8
0
100
AcDbBlockEnd
  0
BLOCK
  5
10
330
1F
100
AcDbEntity
 67
     1
  8
0
100
AcDbBlockBegin
  2
*PAPER_SPACE
 70
     0
 10
0.0
 20
0.0
 30
0.0
  3
*PAPER_SPACE
  1

  0
ENDBLK
  5
11
330
1F
100
AcDbEntity
 67
     1
  8
0
100
AcDbBlockEnd
  0
BLOCK
  5
1E0
330
1B8
100
AcDbEntity
  8
0
100
AcDbBlockBegin
  2
*D0
 70
     1
 10
0.0
 20
0.0
 30
0.0
  3
*D0
  1

  0
TEXT
  5
1E1
330
1B8
100
AcDbEntity
  8
MO_001_VIEW_PV
  6
BYBLOCK
100
AcDbText
 10
-26.571429
 20
18.75
 30
0.0
 40
3.0
  1
(12)
100
AcDbText
  0
LINE
  5
1E2
330
1B8
100
AcDbEntity
  8
MO_001_VIEW_PV
  6
BYBLOCK
100
AcDbLine
 10
-11.999998
 20
18.0
 30
0.0
 11
0.0
 21
18.0
 31
0.0
  0
LINE
  5
1E3
330
1B8
100
AcDbEntity
  8
MO_001_VIEW_PV
  6
BYBLOCK
100
AcDbLine
 10
-11.999998
 20
18.0
 30
0.0
 11
-18.349998
 21
18.0
 31
0.0
  0
LINE
  5
1E4
330
1B8
100
AcDbEntity
  8
MO_001_VIEW_PV
  6
BYBLOCK
100
AcDbLine
 10
0.0
 20
18.0
 30
0.0
 11
6.349999999999999
 21
18.0
 31
0.0
  0
SOLID
  5
1E5
330
1B8
100
AcDbEntity
  8
MO_001_VIEW_PV
  6
BYBLOCK
100
AcDbTrace
 10
-15.318258
 20
17.416488
 30
0.0
 11
-12.507998
 21
18.0
 31
0.0
 12
-15.318258
 22
18.58351199999999
 32
0.0
 13
-15.318258
 23
18.58351199999999
 33
0.0
  0
SOLID
  5
1E6
330
1B8
100
AcDbEntity
  8
MO_001_VIEW_PV
  6
BYBLOCK
100
AcDbTrace
 10
3.318259999999999
 20
18.58351199999999
 30
0.0
 11
0.508
 21
18.0
 31
0.0
 12
3.318259999999999
 22
17.416488
 32
0.0
 13
3.318259999999999
 23
17.416488
 33
0.0
  0
LINE
  5
1E7
330
1B8
100
AcDbEntity
  8
MO_001_VIEW_PV
  6
BYBLOCK
100
AcDbLine
 10
-11.999998
 20
13.199997
 30
0.0
 11
-11.999998
 21
20.285999
 31
0.0
  0
LINE
  5
1E8
330
1B8
100
AcDbEntity
  8
MO_001_VIEW_PV
  6
BYBLOCK
100
AcDbLine
 10
0.0
 20
12.0
 30
0.0
 11
0.0
 21
20.285999
 31
0.0
  0
LINE
  5
1E9
330
1B8
100
AcDbEntity
  8
MO_001_VIEW_PV
  6
BYBLOCK
100
AcDbLine
 10
-27.535715
 20
18.0
 30
0.0
 11
-11.999998
 21
18.0
 31
0.0
  0
ENDBLK
  5
1EA
330
1B8
100
AcDbEntity
  8
0
100
AcDbBlockEnd
  0
BLOCK
  5
1EB
330
1BA
100
AcDbEntity
  8
0
100
AcDbBlockBegin
  2
*D1
 70
     1
 10
0.0
 20
0.0
 30
0.0
  3
*D1
  1

  0
TEXT
  5
1EC
330
1BA
100
AcDbEntity
  8
MO_001_VIEW_PV
  6
BYBLOCK
100
AcDbText
 10
-19.785716
 20
26.625
 30
0.0
 40
1.5
  1
%%P0.3
100
AcDbText
  0
TEXT
  5
1ED
330
1BA
100
AcDbEntity
  8
MO_001_VIEW_PV
  6
BYBLOCK
100
AcDbText
 10
-25.57142999999999
 20
24.75
 30
0.0
 40
3.0
  1
40
100
AcDbText
  0
LINE
  5
1EE
330
1BA
100
AcDbEntity
  8
MO_001_VIEW_PV
  6
BYBLOCK
100
AcDbLine
 10
0.0
 20
24.0
 30
0.0
 11
-40.000004
 21
24.0
 31
0.0
  0
SOLID
  5
1EF
330
1BA
100
AcDbEntity
  8
MO_001_VIEW_PV
  6
BYBLOCK
100
AcDbTrace
 10
-3.318259999999999
 20
23.416488
 30
0.0
 11
-0.508
 21
24.0
 31
0.0
 12
-3.318259999999999
 22
24.583512
 32
0.0
 13
-3.318259999999999
 23
24.583512
 33
0.0
  0
SOLID
  5
1F0
330
1BA
100
AcDbEntity
  8
MO_001_VIEW_PV
  6
BYBLOCK
100
AcDbTrace
 10
-36.681744
 20
24.583512
 30
0.0
 11
-39.492004
 21
24.0
 31
0.0
 12
-36.681744
 22
23.416488
 32
0.0
 13
-36.681744
 23
23.416488
 33
0.0
  0
LINE
  5
1F1
330
1BA
100
AcDbEntity
  8
MO_001_VIEW_PV
  6
BYBLOCK
100
AcDbLine
 10
0.0
 20
12.0
 30
0.0
 11
0.0
 21
26.285999
 31
0.0
  0
LINE
  5
1F2
330
1BA
100
AcDbEntity
  8
MO_001_VIEW_PV
  6
BYBLOCK
100
AcDbLine
 10
-40.000004
 20
6.685086999999999
 30
0.0
 11
-40.000004
 21
26.285999
 31
0.0
  0
ENDBLK
  5
1F3
330
1BA
100
AcDbEntity
  8
0
100
AcDbBlockEnd
  0
BLOCK
  5
1F4
330
1BC
100
AcDbEntity
  8
0
100
AcDbBlockBegin
  2
*D2
 70
     1
 10
0.0
 20
0.0
 30
0.0
  3
*D2
  1

  0
TEXT
  5
1F5
330
1BC
100
AcDbEntity
  8
MO_001_VIEW_PV
  6
BYBLOCK
100
AcDbText
 10
-27.571432
 20
30.75
 30
0.0
 40
3.0
  1
50
100
AcDbText
  0
LINE
  5
1F6
330
1BC
100
AcDbEntity
  8
MO_001_VIEW_PV
  6
BYBLOCK
100
AcDbLine
 10
-50.000008
 20
30.0
 30
0.0
 11
0.0
 21
30.0
 31
0.0
  0
SOLID
  5
1F7
330
1BC
100
AcDbEntity
  8
MO_001_VIEW_PV
  6
BYBLOCK
100
AcDbTrace
 10
-46.681748
 20
30.583512
 30
0.0
 11
-49.49200799999999
 21
30.0
 31
0.0
 12
-46.681748
 22
29.416488
 32
0.0
 13
-46.681748
 23
29.416488
 33
0.0
  0
SOLID
  5
1F8
330
1BC
100
AcDbEntity
  8
MO_001_VIEW_PV
  6
BYBLOCK
100
AcDbTrace
 10
-3.318259999999999
 20
29.416488
 30
0.0
 11
-0.508
 21
30.0
 31
0.0
 12
-3.318259999999999
 22
30.583512
 32
0.0
 13
-3.318259999999999
 23
30.583512
 33
0.0
  0
LINE
  5
1F9
330
1BC
100
AcDbEntity
  8
MO_001_VIEW_PV
  6
BYBLOCK
100
AcDbLine
 10
-50.000008
 20
4.242644999999999
 30
0.0
 11
-50.000008
 21
32.28599899999999
 31
0.0
  0
LINE
  5
1FA
330
1BC
100
AcDbEntity
  8
MO_001_VIEW_PV
  6
BYBLOCK
100
AcDbLine
 10
0.0
 20
12.0
 30
0.0
 11
0.0
 21
32.28599899999999
 31
0.0
  0
ENDBLK
  5
1FB
330
1BC
100
AcDbEntity
  8
0
100
AcDbBlockEnd
  0
BLOCK
  5
1FC
330
1BE
100
AcDbEntity
  8
0
100
AcDbBlockBegin
  2
*D3
 70
     1
 10
0.0
 20
0.0
 30
0.0
  3
*D3
  1

  0
TEXT
  5
1FD
330
1BE
100
AcDbEntity
  8
MO_001_VIEW_PV
  6
BYBLOCK
100
AcDbText
 10
-20.04448
 20
-24.375
 30
0.0
 40
1.5
  1
%%P0.2
100
AcDbText
  0
TEXT
  5
1FE
330
1BE
100
AcDbEntity
  8
MO_001_VIEW_PV
  6
BYBLOCK
100
AcDbText
 10
-25.830195
 20
-26.25
 30
0.0
 40
3.0
  1
18
100
AcDbText
  0
LINE
  5
1FF
330
1BE
100
AcDbEntity
  8
MO_001_VIEW_PV
  6
BYBLOCK
100
AcDbLine
 10
-29.99999799999999
 20
-27.0
 30
0.0
 11
-11.999998
 21
-27.0
 31
0.0
  0
SOLID
  5
200
330
1BE
100
AcDbEntity
  8
MO_001_VIEW_PV
  6
BYBLOCK
100
AcDbTrace
 10
-26.68173799999999
 20
-26.416488
 30
0.0
 11
-29.491998
 21
-27.0
 31
0.0
 12
-26.68173799999999
 22
-27.58351199999999
 32
0.0
 13
-26.68173799999999
 23
-27.58351199999999
 33
0.0
  0
SOLID
  5
201
330
1BE
100
AcDbEntity
  8
MO_001_VIEW_PV
  6
BYBLOCK
100
AcDbTrace
 10
-15.318258
 20
-27.58351199999999
 30
0.0
 11
-12.507998
 21
-27.0
 31
0.0
 12
-15.318258
 22
-26.416488
 32
0.0
 13
-15.318258
 23
-26.416488
 33
0.0
  0
LINE
  5
202
330
1BE
100
AcDbEntity
  8
MO_001_VIEW_PV
  6
BYBLOCK
100
AcDbLine
 10
-29.99999799999999
 20
-13.199997
 30
0.0
 11
-29.99999799999999
 21
-29.285999
 31
0.0
  0
LINE
  5
203
330
1BE
100
AcDbEntity
  8
MO_001_VIEW_PV
  6
BYBLOCK
100
AcDbLine
 10
-11.999998
 20
-13.199997
 30
0.0
 11
-11.999998
 21
-29.285999
 31
0.0
  0
ENDBLK
  5
204
330
1BE
100
AcDbEntity
  8
0
100
AcDbBlockEnd
  0
BLOCK
  5
205
330
1C0
100
AcDbEntity
  8
0
100
AcDbBlockBegin
  2
*D4
 70
     1
 10
0.0
 20
0.0
 30
0.0
  3
*D4
  1

  0
TEXT
  5
206
330
1C0
100
AcDbEntity
  8
MO_001_VIEW_PV
  6
BYBLOCK
100
AcDbText
 10
-37.788232
 20
-24.375
 30
0.0
 40
1.5
  1
%%P0.5
100
AcDbText
  0
TEXT
  5
207
330
1C0
100
AcDbEntity
  8
MO_001_VIEW_PV
  6
BYBLOCK
100
AcDbText
 10
-43.573946
 20
-26.25
 30
0.0
 40
3.0
  1
17
100
AcDbText
  0
LINE
  5
208
330
1C0
100
AcDbEntity
  8
MO_001_VIEW_PV
  6
BYBLOCK
100
AcDbLine
 10
-29.99999799999999
 20
-27.0
 30
0.0
 11
-47.000008
 21
-27.0
 31
0.0
  0
SOLID
  5
209
330
1C0
100
AcDbEntity
  8
MO_001_VIEW_PV
  6
BYBLOCK
100
AcDbTrace
 10
-33.318258
 20
-27.58351199999999
 30
0.0
 11
-30.507998
 21
-27.0
 31
0.0
 12
-33.318258
 22
-26.416488
 32
0.0
 13
-33.318258
 23
-26.416488
 33
0.0
  0
SOLID
  5
20A
330
1C0
100
AcDbEntity
  8
MO_001_VIEW_PV
  6
BYBLOCK
100
AcDbTrace
 10
-43.681748
 20
-26.416488
 30
0.0
 11
-46.492008
 21
-27.0
 31
0.0
 12
-43.681748
 22
-27.58351199999999
 32
0.0
 13
-43.681748
 23
-27.58351199999999
 33
0.0
  0
LINE
  5
20B
330
1C0
100
AcDbEntity
  8
MO_001_VIEW_PV
  6
BYBLOCK
100
AcDbLine
 10
-29.99999799999999
 20
-13.199997
 30
0.0
 11
-29.99999799999999
 21
-29.285999
 31
0.0
  0
LINE
  5
20C
330
1C0
100
AcDbEntity
  8
MO_001_VIEW_PV
  6
BYBLOCK
100
AcDbLine
 10
-47.000008
 20
-3.298919999999999
 30
0.0
 11
-47.000008
 21
-29.285999
 31
0.0
  0
ENDBLK
  5
20D
330
1C0
100
AcDbEntity
  8
0
100
AcDbBlockEnd
  0
BLOCK
  5
20E
330
1C2
100
AcDbEntity
  8
0
100
AcDbBlockBegin
  2
*D5
 70
     1
 10
0.0
 20
0.0
 30
0.0
  3
*D5
  1

  0
TEXT
  5
20F
330
1C2
100
AcDbEntity
  8
MO_001_VIEW_PV
  6
BYBLOCK
100
AcDbText
 10
-59.81532399999999
 20
-24.375
 30
0.0
 40
1.5
  1
%%P0.2
100
AcDbText
  0
TEXT
  5
210
330
1C2
100
AcDbEntity
  8
MO_001_VIEW_PV
  6
BYBLOCK
100
AcDbText
 10
-62.601038
 20
-26.25
 30
0.0
 40
3.0
  1
3
100
AcDbText
  0
LINE
  5
211
330
1C2
100
AcDbEntity
  8
MO_001_VIEW_PV
  6
BYBLOCK
100
AcDbLine
 10
-47.000008
 20
-27.0
 30
0.0
 11
-50.000008
 21
-27.0
 31
0.0
  0
LINE
  5
212
330
1C2
100
AcDbEntity
  8
MO_001_VIEW_PV
  6
BYBLOCK
100
AcDbLine
 10
-47.000008
 20
-27.0
 30
0.0
 11
-40.65000799999999
 21
-27.0
 31
0.0
  0
LINE
  5
213
330
1C2
100
AcDbEntity
  8
MO_001_VIEW_PV
  6
BYBLOCK
100
AcDbLine
 10
-50.000008
 20
-27.0
 30
0.0
 11
-56.350008
 21
-27.0
 31
0.0
  0
SOLID
  5
214
330
1C2
100
AcDbEntity
  8
MO_001_VIEW_PV
  6
BYBLOCK
100
AcDbTrace
 10
-43.681748
 20
-26.416488
 30
0.0
 11
-46.492008
 21
-27.0
 31
0.0
 12
-43.681748
 22
-27.58351199999999
 32
0.0
 13
-43.681748
 23
-27.58351199999999
 33
0.0
  0
SOLID
  5
215
330
1C2
100
AcDbEntity
  8
MO_001_VIEW_PV
  6
BYBLOCK
100
AcDbTrace
 10
-53.318268
 20
-27.58351199999999
 30
0.0
 11
-50.50800800000001
 21
-27.0
 31
0.0
 12
-53.318268
 22
-26.416488
 32
0.0
 13
-53.318268
 23
-26.416488
 33
0.0
  0
LINE
  5
216
330
1C2
100
AcDbEntity
  8
MO_001_VIEW_PV
  6
BYBLOCK
100
AcDbLine
 10
-47.000008
 20
-3.298919999999999
 30
0.0
 11
-47.000008
 21
-29.285999
 31
0.0
  0
LINE
  5
217
330
1C2
100
AcDbEntity
  8
MO_001_VIEW_PV
  6
BYBLOCK
100
AcDbLine
 10
-50.000008
 20
-4.242637999999999
 30
0.0
 11
-50.000008
 21
-29.285999
 31
0.0
  0
LINE
  5
218
330
1C2
100
AcDbEntity
  8
MO_001_VIEW_PV
  6
BYBLOCK
100
AcDbLine
 10
-50.000008
 20
-27.0
 30
0.0
 11
-63.565323
 21
-27.0
 31
0.0
  0
ENDBLK
  5
219
330
1C2
100
AcDbEntity
  8
0
100
AcDbBlockEnd
  0
BLOCK
  5
21A
330
1C4
100
AcDbEntity
  8
0
100
AcDbBlockBegin
  2
*D6
 70
     1
 10
0.0
 20
0.0
 30
0.0
  3
*D6
  1

  0
TEXT
  5
21B
330
1C4
100
AcDbEntity
  8
MO_001_VIEW_PV
  6
BYBLOCK
100
AcDbText
 10
4.928570999999999
 20
-20.24999999999999
 30
0.0
 40
3.0
  1
(0.5)
100
AcDbText
  0
LINE
  5
21C
330
1C4
100
AcDbEntity
  8
MO_001_VIEW_PV
  6
BYBLOCK
100
AcDbLine
 10
0.0
 20
-21.0
 30
0.0
 11
0.5
 21
-21.0
 31
0.0
  0
LINE
  5
21D
330
1C4
100
AcDbEntity
  8
MO_001_VIEW_PV
  6
BYBLOCK
100
AcDbLine
 10
0.0
 20
-21.0
 30
0.0
 11
-6.349999999999999
 21
-21.0
 31
0.0
  0
LINE
  5
21E
330
1C4
100
AcDbEntity
  8
MO_001_VIEW_PV
  6
BYBLOCK
100
AcDbLine
 10
0.5
 20
-21.0
 30
0.0
 11
6.849999999999999
 21
-21.0
 31
0.0
  0
SOLID
  5
21F
330
1C4
100
AcDbEntity
  8
MO_001_VIEW_PV
  6
BYBLOCK
100
AcDbTrace
 10
-3.318259999999999
 20
-21.58351199999999
 30
0.0
 11
-0.508
 21
-21.0
 31
0.0
 12
-3.318259999999999
 22
-20.416488
 32
0.0
 13
-3.318259999999999
 23
-20.416488
 33
0.0
  0
SOLID
  5
220
330
1C4
100
AcDbEntity
  8
MO_001_VIEW_PV
  6
BYBLOCK
100
AcDbTrace
 10
3.81826
 20
-20.416488
 30
0.0
 11
1.008
 21
-21.0
 31
0.0
 12
3.81826
 22
-21.58351199999999
 32
0.0
 13
3.81826
 23
-21.58351199999999
 33
0.0
  0
LINE
  5
221
330
1C4
100
AcDbEntity
  8
MO_001_VIEW_PV
  6
BYBLOCK
100
AcDbLine
 10
0.0
 20
-12.0
 30
0.0
 11
0.0
 21
-23.28599899999999
 31
0.0
  0
LINE
  5
222
330
1C4
100
AcDbEntity
  8
MO_001_VIEW_PV
  6
BYBLOCK
100
AcDbLine
 10
0.5
 20
-2.0
 30
0.0
 11
0.5
 21
-23.28599899999999
 31
0.0
  0
LINE
  5
223
330
1C4
100
AcDbEntity
  8
MO_001_VIEW_PV
  6
BYBLOCK
100
AcDbLine
 10
0.5
 20
-21.0
 30
0.0
 11
20.035715
 21
-21.0
 31
0.0
  0
ENDBLK
  5
224
330
1C4
100
AcDbEntity
  8
0
100
AcDbBlockEnd
  0
BLOCK
  5
225
330
1C6
100
AcDbEntity
  8
0
100
AcDbBlockBegin
  2
*D7
 70
     1
 10
0.0
 20
0.0
 30
0.0
  3
*D7
  1

  0
LINE
  5
226
330
1C6
100
AcDbEntity
  8
MO_001_VIEW_PV
  6
BYBLOCK
100
AcDbLine
 10
0.0
 20
-27.0
 30
0.0
 11
47.0
 21
-27.0
 31
0.0
  0
SOLID
  5
227
330
1C6
100
AcDbEntity
  8
MO_001_VIEW_PV
  6
BYBLOCK
100
AcDbTrace
 10
3.318259999999999
 20
-26.416488
 30
0.0
 11
0.508
 21
-27.0
 31
0.0
 12
3.318259999999999
 22
-27.58351199999999
 32
0.0
 13
3.318259999999999
 23
-27.58351199999999
 33
0.0
  0
SOLID
  5
228
330
1C6
100
AcDbEntity
  8
MO_001_VIEW_PV
  6
BYBLOCK
100
AcDbTrace
 10
43.68174
 20
-27.58351199999999
 30
0.0
 11
46.49199999999999
 21
-27.0
 31
0.0
 12
43.68174
 22
-26.416488
 32
0.0
 13
43.68174
 23
-26.416488
 33
0.0
  0
LINE
  5
229
330
1C6
100
AcDbEntity
  8
MO_001_VIEW_PV
  6
BYBLOCK
100
AcDbLine
 10
0.0
 20
-12.0
 30
0.0
 11
0.0
 21
-29.285999
 31
0.0
  0
LINE
  5
22A
330
1C6
100
AcDbEntity
  8
MO_001_VIEW_PV
  6
BYBLOCK
100
AcDbLine
 10
47.0
 20
-13.900002
 30
0.0
 11
47.0
 21
-29.285999
 31
0.0
  0
TEXT
  5
22B
330
1C6
100
AcDbEntity
  8
MO_001_VIEW_PV
  6
BYBLOCK
100
AcDbText
 10
13.428571
 20
-26.25
 30
0.0
 40
3.0
  1
長さ240以上
100
AcDbText
  0
ENDBLK
  5
22C
330
1C6
100
AcDbEntity
  8
0
100
AcDbBlockEnd
  0
BLOCK
  5
22D
330
1C8
100
AcDbEntity
  8
0
100
AcDbBlockBegin
  2
*D8
 70
     1
 10
0.0
 20
0.0
 30
0.0
  3
*D8
  1

  0
TEXT
  5
22E
330
1C8
100
AcDbEntity
  8
MO_001_VIEW_PV
  6
BYBLOCK
100
AcDbText
 10
-65.625
 20
18.96428599999999
 30
0.0
 40
1.5
  1
%%P0.05
 50
90.0
100
AcDbText
  0
TEXT
  5
22F
330
1C8
100
AcDbEntity
  8
MO_001_VIEW_PV
  6
BYBLOCK
100
AcDbText
 10
-63.75
 20
10.178571
 30
0.0
 40
3.0
  1
%%C10
 50
90.0
100
AcDbText
  0
LINE
  5
230
330
1C8
100
AcDbEntity
  8
MO_001_VIEW_PV
  6
BYBLOCK
100
AcDbLine
 10
-63.0
 20
5.0
 30
0.0
 11
-63.0
 21
-5.0
 31
0.0
  0
LINE
  5
231
330
1C8
100
AcDbEntity
  8
MO_001_VIEW_PV
  6
BYBLOCK
100
AcDbLine
 10
-63.0
 20
5.0
 30
0.0
 11
-63.0
 21
11.35
 31
0.0
  0
LINE
  5
232
330
1C8
100
AcDbEntity
  8
MO_001_VIEW_PV
  6
BYBLOCK
100
AcDbLine
 10
-63.0
 20
-5.0
 30
0.0
 11
-63.0
 21
-11.35
 31
0.0
  0
SOLID
  5
233
330
1C8
100
AcDbEntity
  8
MO_001_VIEW_PV
  6
BYBLOCK
100
AcDbTrace
 10
-63.583512
 20
8.31826
 30
0.0
 11
-63.0
 21
5.507999999999999
 31
0.0
 12
-62.416488
 22
8.31826
 32
0.0
 13
-62.416488
 23
8.31826
 33
0.0
  0
SOLID
  5
234
330
1C8
100
AcDbEntity
  8
MO_001_VIEW_PV
  6
BYBLOCK
100
AcDbTrace
 10
-62.416488
 20
-8.31826
 30
0.0
 11
-63.0
 21
-5.507999999999999
 31
0.0
 12
-63.583512
 22
-8.31826
 32
0.0
 13
-63.583512
 23
-8.31826
 33
0.0
  0
LINE
  5
235
330
1C8
100
AcDbEntity
  8
MO_001_VIEW_PV
  6
BYBLOCK
100
AcDbLine
 10
-42.000008
 20
5.0
 30
0.0
 11
-65.286003
 21
5.0
 31
0.0
  0
LINE
  5
236
330
1C8
100
AcDbEntity
  8
MO_001_VIEW_PV
  6
BYBLOCK
100
AcDbLine
 10
-42.000008
 20
-5.0
 30
0.0
 11
-65.286003
 21
-5.0
 31
0.0
  0
LINE
  5
237
330
1C8
100
AcDbEntity
  8
MO_001_VIEW_PV
  6
BYBLOCK
100
AcDbLine
 10
-63.0
 20
26.785713
 30
0.0
 11
-63.0
 21
5.0
 31
0.0
  0
ENDBLK
  5
238
330
1C8
100
AcDbEntity
  8
0
100
AcDbBlockEnd
  0
BLOCK
  5
239
330
1CA
100
AcDbEntity
  8
0
100
AcDbBlockBegin
  2
*D9
 70
     1
 10
0.0
 20
0.0
 30
0.0
  3
*D9
  1

  0
LINE
  5
23A
330
1CA
100
AcDbEntity
  8
MO_001_VIEW_PV
  6
BYBLOCK
100
AcDbLine
 10
-46.45634
 20
1.398006999999999
 30
0.0
 11
-47.54367799999999
 21
-1.398007999999999
 31
0.0
  0
LINE
  5
23B
330
1CA
100
AcDbEntity
  8
MO_001_VIEW_PV
  6
BYBLOCK
100
AcDbLine
 10
-46.45634
 20
1.398006999999999
 30
0.0
 11
-44.154808
 21
7.316236999999999
 31
0.0
  0
LINE
  5
23C
330
1CA
100
AcDbEntity
  8
MO_001_VIEW_PV
  6
BYBLOCK
100
AcDbLine
 10
-47.54367799999999
 20
-1.398007999999999
 30
0.0
 11
-49.845209
 21
-7.316238
 31
0.0
  0
SOLID
  5
23D
330
1CA
100
AcDbEntity
  8
MO_001_VIEW_PV
  6
BYBLOCK
100
AcDbTrace
 10
-45.797486
 20
4.702132999999999
 30
0.0
 11
-46.27221699999999
 21
1.871465
 31
0.0
 12
-44.709814
 22
4.279149999999999
 32
0.0
 13
-44.709814
 23
4.279149999999999
 33
0.0
  0
SOLID
  5
23E
330
1CA
100
AcDbEntity
  8
MO_001_VIEW_PV
  6
BYBLOCK
100
AcDbTrace
 10
-48.20253199999999
 20
-4.702132999999999
 30
0.0
 11
-47.7278
 21
-1.871466
 31
0.0
 12
-49.29020300000001
 22
-4.279151
 32
0.0
 13
-49.29020300000001
 23
-4.279151
 33
0.0
  0
LINE
  5
23F
330
1CA
100
AcDbEntity
  8
MO_001_VIEW_PV
  6
BYBLOCK
100
AcDbLine
 10
-47.54367799999999
 20
-1.398007999999999
 30
0.0
 11
-54.002385
 21
-18.00613
 31
0.0
  0
ENDBLK
  5
240
330
1CA
100
AcDbEntity
  8
0
100
AcDbBlockEnd
  0
BLOCK
  5
241
330
1CC
100
AcDbEntity
  8
0
100
AcDbBlockBegin
  2
*D10
 70
     1
 10
0.0
 20
0.0
 30
0.0
  3
*D10
  1

  0
TEXT
  5
242
330
1CC
100
AcDbEntity
  8
MO_001_VIEW_PV
  6
BYBLOCK
100
AcDbText
 10
21.375
 20
21.884807
 30
0.0
 40
1.5
  1
%%P0.2
 50
90.0
100
AcDbText
  0
TEXT
  5
243
330
1CC
100
AcDbEntity
  8
MO_001_VIEW_PV
  6
BYBLOCK
100
AcDbText
 10
23.25
 20
10.099092
 30
0.0
 40
3.0
  1
19.4
 50
90.0
100
AcDbText
  0
LINE
  5
244
330
1CC
100
AcDbEntity
  8
MO_001_VIEW_PV
  6
BYBLOCK
100
AcDbLine
 10
24.0
 20
9.699996999999999
 30
0.0
 11
24.0
 21
-9.699996999999999
 31
0.0
  0
SOLID
  5
245
330
1CC
100
AcDbEntity
  8
MO_001_VIEW_PV
  6
BYBLOCK
100
AcDbTrace
 10
24.583512
 20
6.381737
 30
0.0
 11
24.0
 21
9.191997
 31
0.0
 12
23.416488
 22
6.381737
 32
0.0
 13
23.416488
 23
6.381737
 33
0.0
  0
SOLID
  5
246
330
1CC
100
AcDbEntity
  8
MO_001_VIEW_PV
  6
BYBLOCK
100
AcDbTrace
 10
23.416488
 20
-6.381737
 30
0.0
 11
24.0
 21
-9.191997
 31
0.0
 12
24.583512
 22
-6.381737
 32
0.0
 13
24.583512
 23
-6.381737
 33
0.0
  0
LINE
  5
247
330
1CC
100
AcDbEntity
  8
MO_001_VIEW_PV
  6
BYBLOCK
100
AcDbLine
 10
-8.499997999999999
 20
9.699996999999999
 30
0.0
 11
26.285999
 21
9.699996999999999
 31
0.0
  0
LINE
  5
248
330
1CC
100
AcDbEntity
  8
MO_001_VIEW_PV
  6
BYBLOCK
100
AcDbLine
 10
-8.499997999999999
 20
-9.699996999999999
 30
0.0
 11
26.285999
 21
-9.699996999999999
 31
0.0
  0
LINE
  5
249
330
1CC
100
AcDbEntity
  8
MO_001_VIEW_PV
  6
BYBLOCK
100
AcDbLine
 10
24.0
 20
28.206234
 30
0.0
 11
24.0
 21
9.699996999999999
 31
0.0
  0
ENDBLK
  5
24A
330
1CC
100
AcDbEntity
  8
0
100
AcDbBlockEnd
  0
BLOCK
  5
24B
330
1CE
100
AcDbEntity
  8
0
100
AcDbBlockBegin
  2
*D11
 70
     1
 10
0.0
 20
0.0
 30
0.0
  3
*D11
  1

  0
LINE
  5
24C
330
1CE
100
AcDbEntity
  8
MO_001_VIEW_PV
  6
BYBLOCK
100
AcDbLine
 10
-101.5
 20
-21.0
 30
0.0
 11
-72.5
 21
-21.0
 31
0.0
  0
SOLID
  5
24D
330
1CE
100
AcDbEntity
  8
MO_001_VIEW_PV
  6
BYBLOCK
100
AcDbTrace
 10
-98.18174
 20
-20.416488
 30
0.0
 11
-100.992
 21
-21.0
 31
0.0
 12
-98.18174
 22
-21.58351199999999
 32
0.0
 13
-98.18174
 23
-21.58351199999999
 33
0.0
  0
SOLID
  5
24E
330
1CE
100
AcDbEntity
  8
MO_001_VIEW_PV
  6
BYBLOCK
100
AcDbTrace
 10
-75.81825999999999
 20
-21.58351199999999
 30
0.0
 11
-73.00799999999999
 21
-21.0
 31
0.0
 12
-75.81825999999999
 22
-20.416488
 32
0.0
 13
-75.81825999999999
 23
-20.416488
 33
0.0
  0
LINE
  5
24F
330
1CE
100
AcDbEntity
  8
MO_001_VIEW_PV
  6
BYBLOCK
100
AcDbLine
 10
-101.5
 20
-12.0
 30
0.0
 11
-101.5
 21
-23.28599899999999
 31
0.0
  0
LINE
  5
250
330
1CE
100
AcDbEntity
  8
MO_001_VIEW_PV
  6
BYBLOCK
100
AcDbLine
 10
-72.5
 20
-12.0
 30
0.0
 11
-72.5
 21
-23.28599899999999
 31
0.0
  0
TEXT
  5
251
330
1CE
100
AcDbEntity
  8
MO_001_VIEW_PV
  6
BYBLOCK
100
AcDbText
 10
-86.785714
 20
-18.375
 30
0.0
 40
1.5
  1
%%P0.3
100
AcDbText
  0
TEXT
  5
252
330
1CE
100
AcDbEntity
  8
MO_001_VIEW_PV
  6
BYBLOCK
100
AcDbText
 10
-92.57142900000001
 20
-20.24999999999999
 30
0.0
 40
3.0
  1
29
100
AcDbText
  0
ENDBLK
  5
253
330
1CE
100
AcDbEntity
  8
0
100
AcDbBlockEnd
  0
BLOCK
  5
254
330
1D0
100
AcDbEntity
  8
0
100
AcDbBlockBegin
  2
*D12
 70
     1
 10
0.0
 20
0.0
 30
0.0
  3
*D12
  1

  0
LINE
  5
255
330
1D0
100
AcDbEntity
  8
MO_001_VIEW_PV
  6
BYBLOCK
100
AcDbLine
 10
-108.0
 20
12.0
 30
0.0
 11
-108.0
 21
-12.0
 31
0.0
  0
SOLID
  5
256
330
1D0
100
AcDbEntity
  8
MO_001_VIEW_PV
  6
BYBLOCK
100
AcDbTrace
 10
-107.4164879999999
 20
8.681739999999999
 30
0.0
 11
-108.0
 21
11.492
 31
0.0
 12
-108.583512
 22
8.681739999999999
 32
0.0
 13
-108.583512
 23
8.681739999999999
 33
0.0
  0
SOLID
  5
257
330
1D0
100
AcDbEntity
  8
MO_001_VIEW_PV
  6
BYBLOCK
100
AcDbTrace
 10
-108.583512
 20
-8.681739999999999
 30
0.0
 11
-108.0
 21
-11.492
 31
0.0
 12
-107.4164879999999
 22
-8.681739999999999
 32
0.0
 13
-107.4164879999999
 23
-8.681739999999999
 33
0.0
  0
LINE
  5
258
330
1D0
100
AcDbEntity
  8
MO_001_VIEW_PV
  6
BYBLOCK
100
AcDbLine
 10
-101.5
 20
12.0
 30
0.0
 11
-110.285995
 21
12.0
 31
0.0
  0
LINE
  5
259
330
1D0
100
AcDbEntity
  8
MO_001_VIEW_PV
  6
BYBLOCK
100
AcDbLine
 10
-101.5
 20
-12.0
 30
0.0
 11
-110.285995
 21
-12.0
 31
0.0
  0
TEXT
  5
25A
330
1D0
100
AcDbEntity
  8
MO_001_VIEW_PV
  6
BYBLOCK
100
AcDbText
 10
-110.6249999999999
 20
0.214286
 30
0.0
 40
1.5
  1
%%P0.3
 50
90.0
100
AcDbText
  0
TEXT
  5
25B
330
1D0
100
AcDbEntity
  8
MO_001_VIEW_PV
  6
BYBLOCK
100
AcDbText
 10
-108.75
 20
-5.571429
 30
0.0
 40
3.0
  1
24
 50
90.0
100
AcDbText
  0
ENDBLK
  5
25C
330
1D0
100
AcDbEntity
  8
0
100
AcDbBlockEnd
  0
BLOCK
  5
25D
330
1D2
100
AcDbEntity
  8
0
100
AcDbBlockBegin
  2
*D13
 70
     1
 10
0.0
 20
0.0
 30
0.0
  3
*D13
  1

  0
LINE
  5
25E
330
1D2
100
AcDbEntity
  8
MO_001_VIEW_PV
  6
BYBLOCK
100
AcDbLine
 10
-60.0
 20
-61.5
 30
0.0
 11
-60.0
 21
-64.5
 31
0.0
  0
LINE
  5
25F
330
1D2
100
AcDbEntity
  8
MO_001_VIEW_PV
  6
BYBLOCK
100
AcDbLine
 10
-60.0
 20
-61.5
 30
0.0
 11
-60.0
 21
-55.15
 31
0.0
  0
LINE
  5
260
330
1D2
100
AcDbEntity
  8
MO_001_VIEW_PV
  6
BYBLOCK
100
AcDbLine
 10
-60.0
 20
-64.5
 30
0.0
 11
-60.0
 21
-70.84999999999999
 31
0.0
  0
SOLID
  5
261
330
1D2
100
AcDbEntity
  8
MO_001_VIEW_PV
  6
BYBLOCK
100
AcDbTrace
 10
-60.583512
 20
-58.18174
 30
0.0
 11
-60.0
 21
-60.99199999999999
 31
0.0
 12
-59.416488
 22
-58.18174
 32
0.0
 13
-59.416488
 23
-58.18174
 33
0.0
  0
SOLID
  5
262
330
1D2
100
AcDbEntity
  8
MO_001_VIEW_PV
  6
BYBLOCK
100
AcDbTrace
 10
-59.416488
 20
-67.81825999999999
 30
0.0
 11
-60.0
 21
-65.00799999999999
 31
0.0
 12
-60.583512
 22
-67.81825999999999
 32
0.0
 13
-60.583512
 23
-67.81825999999999
 33
0.0
  0
LINE
  5
263
330
1D2
100
AcDbEntity
  8
MO_001_VIEW_PV
  6
BYBLOCK
100
AcDbLine
 10
-50.000008
 20
-61.5
 30
0.0
 11
-62.28599899999999
 21
-61.5
 31
0.0
  0
LINE
  5
264
330
1D2
100
AcDbEntity
  8
MO_001_VIEW_PV
  6
BYBLOCK
100
AcDbLine
 10
-50.000008
 20
-64.5
 30
0.0
 11
-62.28599899999999
 21
-64.5
 31
0.0
  0
TEXT
  5
265
330
1D2
100
AcDbEntity
  8
MO_001_VIEW_PV
  6
BYBLOCK
100
AcDbText
 10
-62.625
 20
-54.199762
 30
0.0
 40
1.5
  1
%%P0.3
 50
90.0
100
AcDbText
  0
TEXT
  5
266
330
1D2
100
AcDbEntity
  8
MO_001_VIEW_PV
  6
BYBLOCK
100
AcDbText
 10
-60.75
 20
-56.985476
 30
0.0
 40
3.0
  1
3
 50
90.0
100
AcDbText
  0
LINE
  5
267
330
1D2
100
AcDbEntity
  8
MO_001_VIEW_PV
  6
BYBLOCK
100
AcDbLine
 10
-60.0
 20
-47.878334
 30
0.0
 11
-60.0
 21
-61.5
 31
0.0
  0
ENDBLK
  5
268
330
1D2
100
AcDbEntity
  8
0
100
AcDbBlockEnd
  0
BLOCK
  5
269
330
1D4
100
AcDbEntity
  8
0
100
AcDbBlockBegin
  2
*D14
 70
     1
 10
0.0
 20
0.0
 30
0.0
  3
*D14
  1

  0
TEXT
  5
26A
330
1D4
100
AcDbEntity
  8
MO_001_VIEW_PV
  6
BYBLOCK
100
AcDbText
 10
-58.285714
 20
-42.37499999999999
 30
0.0
 40
1.5
  1
%%P0.3
100
AcDbText
  0
TEXT
  5
26B
330
1D4
100
AcDbEntity
  8
MO_001_VIEW_PV
  6
BYBLOCK
100
AcDbText
 10
-61.071429
 20
-44.24999999999999
 30
0.0
 40
3.0
  1
8
100
AcDbText
  0
LINE
  5
26C
330
1D4
100
AcDbEntity
  8
MO_001_VIEW_PV
  6
BYBLOCK
100
AcDbLine
 10
-50.000008
 20
-45.0
 30
0.0
 11
-42.000008
 21
-45.0
 31
0.0
  0
LINE
  5
26D
330
1D4
100
AcDbEntity
  8
MO_001_VIEW_PV
  6
BYBLOCK
100
AcDbLine
 10
-50.000008
 20
-45.0
 30
0.0
 11
-56.350008
 21
-45.0
 31
0.0
  0
LINE
  5
26E
330
1D4
100
AcDbEntity
  8
MO_001_VIEW_PV
  6
BYBLOCK
100
AcDbLine
 10
-42.000008
 20
-45.0
 30
0.0
 11
-35.65000799999999
 21
-45.0
 31
0.0
  0
SOLID
  5
26F
330
1D4
100
AcDbEntity
  8
MO_001_VIEW_PV
  6
BYBLOCK
100
AcDbTrace
 10
-53.318268
 20
-45.58351199999999
 30
0.0
 11
-50.50800800000001
 21
-45.0
 31
0.0
 12
-53.318268
 22
-44.416488
 32
0.0
 13
-53.318268
 23
-44.416488
 33
0.0
  0
SOLID
  5
270
330
1D4
100
AcDbEntity
  8
MO_001_VIEW_PV
  6
BYBLOCK
100
AcDbTrace
 10
-38.681748
 20
-44.416488
 30
0.0
 11
-41.492008
 21
-45.0
 31
0.0
 12
-38.681748
 22
-45.58351199999999
 32
0.0
 13
-38.681748
 23
-45.58351199999999
 33
0.0
  0
LINE
  5
271
330
1D4
100
AcDbEntity
  8
MO_001_VIEW_PV
  6
BYBLOCK
100
AcDbLine
 10
-50.000008
 20
-58.5
 30
0.0
 11
-50.000008
 21
-42.714001
 31
0.0
  0
LINE
  5
272
330
1D4
100
AcDbEntity
  8
MO_001_VIEW_PV
  6
BYBLOCK
100
AcDbLine
 10
-42.000008
 20
-61.5
 30
0.0
 11
-42.000008
 21
-42.714001
 31
0.0
  0
LINE
  5
273
330
1D4
100
AcDbEntity
  8
MO_001_VIEW_PV
  6
BYBLOCK
100
AcDbLine
 10
-62.035713
 20
-45.0
 30
0.0
 11
-50.000008
 21
-45.0
 31
0.0
  0
ENDBLK
  5
274
330
1D4
100
AcDbEntity
  8
0
100
AcDbBlockEnd
  0
BLOCK
  5
275
330
1D6
100
AcDbEntity
  8
0
100
AcDbBlockBegin
  2
*D15
 70
     1
 10
0.0
 20
0.0
 30
0.0
  3
*D15
  1

  0
TEXT
  5
276
330
1D6
100
AcDbEntity
  8
MO_001_VIEW_PV
  6
BYBLOCK
100
AcDbText
 10
-62.571429
 20
-38.25
 30
0.0
 40
3.0
  1
(11)
100
AcDbText
  0
LINE
  5
277
330
1D6
100
AcDbEntity
  8
MO_001_VIEW_PV
  6
BYBLOCK
100
AcDbLine
 10
-39.0
 20
-39.0
 30
0.0
 11
-50.000008
 21
-39.0
 31
0.0
  0
SOLID
  5
278
330
1D6
100
AcDbEntity
  8
MO_001_VIEW_PV
  6
BYBLOCK
100
AcDbTrace
 10
-42.31825999999999
 20
-39.583512
 30
0.0
 11
-39.508
 21
-39.0
 31
0.0
 12
-42.31825999999999
 22
-38.416488
 32
0.0
 13
-42.31825999999999
 23
-38.416488
 33
0.0
  0
SOLID
  5
279
330
1D6
100
AcDbEntity
  8
MO_001_VIEW_PV
  6
BYBLOCK
100
AcDbTrace
 10
-46.681748
 20
-38.416488
 30
0.0
 11
-49.49200799999999
 21
-39.0
 31
0.0
 12
-46.681748
 22
-39.583512
 32
0.0
 13
-46.681748
 23
-39.583512
 33
0.0
  0
LINE
  5
27A
330
1D6
100
AcDbEntity
  8
MO_001_VIEW_PV
  6
BYBLOCK
100
AcDbLine
 10
-39.0
 20
-50.5
 30
0.0
 11
-39.0
 21
-36.714001
 31
0.0
  0
LINE
  5
27B
330
1D6
100
AcDbEntity
  8
MO_001_VIEW_PV
  6
BYBLOCK
100
AcDbLine
 10
-50.000008
 20
-58.5
 30
0.0
 11
-50.000008
 21
-36.714001
 31
0.0
  0
LINE
  5
27C
330
1D6
100
AcDbEntity
  8
MO_001_VIEW_PV
  6
BYBLOCK
100
AcDbLine
 10
-50.000008
 20
-39.0
 30
0.0
 11
-63.535713
 21
-39.0
 31
0.0
  0
ENDBLK
  5
27D
330
1D6
100
AcDbEntity
  8
0
100
AcDbBlockEnd
  0
BLOCK
  5
27E
330
1D8
100
AcDbEntity
  8
0
100
AcDbBlockBegin
  2
*D16
 70
     1
 10
0.0
 20
0.0
 30
0.0
  3
*D16
  1

  0
TEXT
  5
27F
330
1D8
100
AcDbEntity
  8
MO_001_VIEW_PV
  6
BYBLOCK
100
AcDbText
 10
-19.285714
 20
-36.375
 30
0.0
 40
1.5
  1
%%P0.5
100
AcDbText
  0
TEXT
  5
280
330
1D8
100
AcDbEntity
  8
MO_001_VIEW_PV
  6
BYBLOCK
100
AcDbText
 10
-25.071429
 20
-38.25
 30
0.0
 40
3.0
  1
39
100
AcDbText
  0
LINE
  5
281
330
1D8
100
AcDbEntity
  8
MO_001_VIEW_PV
  6
BYBLOCK
100
AcDbLine
 10
-39.0
 20
-39.0
 30
0.0
 11
0.0
 21
-39.0
 31
0.0
  0
SOLID
  5
282
330
1D8
100
AcDbEntity
  8
MO_001_VIEW_PV
  6
BYBLOCK
100
AcDbTrace
 10
-35.68174
 20
-38.416488
 30
0.0
 11
-38.49199999999999
 21
-39.0
 31
0.0
 12
-35.68174
 22
-39.583512
 32
0.0
 13
-35.68174
 23
-39.583512
 33
0.0
  0
SOLID
  5
283
330
1D8
100
AcDbEntity
  8
MO_001_VIEW_PV
  6
BYBLOCK
100
AcDbTrace
 10
-3.318259999999999
 20
-39.583512
 30
0.0
 11
-0.508
 21
-39.0
 31
0.0
 12
-3.318259999999999
 22
-38.416488
 32
0.0
 13
-3.318259999999999
 23
-38.416488
 33
0.0
  0
LINE
  5
284
330
1D8
100
AcDbEntity
  8
MO_001_VIEW_PV
  6
BYBLOCK
100
AcDbLine
 10
-39.0
 20
-50.5
 30
0.0
 11
-39.0
 21
-36.714001
 31
0.0
  0
LINE
  5
285
330
1D8
100
AcDbEntity
  8
MO_001_VIEW_PV
  6
BYBLOCK
100
AcDbLine
 10
0.0
 20
-50.5
 30
0.0
 11
0.0
 21
-36.714001
 31
0.0
  0
ENDBLK
  5
286
330
1D8
100
AcDbEntity
  8
0
100
AcDbBlockEnd
  0
ENDSEC
  0
SECTION
  2
ENTITIES
  0
TEXT
  5
4B
330
1E
100
AcDbEntity
  8
OVERLAY_MAP
  6
C_SOLID_L
100
AcDbText
 10
0.0
 20
6.349999999999999
 30
0.0
 40
4.1672
  1
Model Overlay Name
100
AcDbText
  0
TEXT
  5
4C
330
1E
100
AcDbEntity
  8
OVERLAY_MAP
  6
C_SOLID_L
100
AcDbText
 10
126.999998
 20
0.0
 30
0.0
 40
4.1672
  1
Number
100
AcDbText
  0
TEXT
  5
4D
330
1E
100
AcDbEntity
  8
OVERLAY_MAP
  6
C_SOLID_L
100
AcDbText
 10
177.7999969999999
 20
0.0
 30
0.0
 40
4.1672
  1
File Text
100
AcDbText
  0
TEXT
  5
4E
330
1E
100
AcDbEntity
  8
OVERLAY_MAP
  6
C_SOLID_L
100
AcDbText
 10
0.0
 20
-6.349999999999999
 30
0.0
 40
4.1672
  1
op sk1040a 
100
AcDbText
  0
TEXT
  5
4F
330
1E
100
AcDbEntity
  8
OVERLAY_MAP
  6
C_SOLID_L
100
AcDbText
 10
126.999998
 20
-6.349999999999999
 30
0.0
 40
4.1672
  1
001
100
AcDbText
  0
TEXT
  5
50
330
1E
100
AcDbEntity
  8
OVERLAY_MAP
  6
C_SOLID_L
100
AcDbText
 10
177.7999969999999
 20
-6.349999999999999
 30
0.0
 40
4.1672
  1
                                                         90024 104000139
100
AcDbText
  0
LINE
  5
51
330
1E
100
AcDbEntity
  8
MO_001_VIEW_PV
  6
C_CENTER_L
100
AcDbLine
 10
-54.489254
 20
-63.0
 30
0.0
 11
3.26087
 21
-63.0
 31
0.0
  0
LINE
  5
52
330
1E
100
AcDbEntity
  8
MO_001_VIEW_PV
  6
C_SOLID_M
100
AcDbLine
 10
-2.0
 20
-50.5
 30
0.0
 11
-2.0
 21
-60.339996
 31
0.0
  0
LINE
  5
53
330
1E
100
AcDbEntity
  8
MO_001_VIEW_PV
  6
C_SOLID_M
100
AcDbLine
 10
-40.0
 20
-75.5
 30
0.0
 11
-40.0
 21
-77.5
 31
0.0
  0
LINE
  5
54
330
1E
100
AcDbEntity
  8
MO_001_VIEW_PV
  6
C_SOLID_M
100
AcDbLine
 10
-40.0
 20
-50.5
 30
0.0
 11
-2.0
 21
-50.5
 31
0.0
  0
LINE
  5
55
330
1E
100
AcDbEntity
  8
MO_001_VIEW_PV
  6
C_SOLID_M
100
AcDbLine
 10
-40.0
 20
-75.5
 30
0.0
 11
-2.0
 21
-75.5
 31
0.0
  0
LINE
  5
56
330
1E
100
AcDbEntity
  8
MO_001_VIEW_PV
  6
C_SOLID_M
100
AcDbLine
 10
-36.099998
 20
-50.5
 30
0.0
 11
-36.099998
 21
-75.5
 31
0.0
  0
LINE
  5
57
330
1E
100
AcDbEntity
  8
MO_001_VIEW_PV
  6
C_SOLID_M
100
AcDbLine
 10
-40.0
 20
-48.5
 30
0.0
 11
-40.0
 21
-50.5
 31
0.0
  0
LINE
  5
58
330
1E
100
AcDbEntity
  8
MO_001_VIEW_PV
  6
C_SOLID_M
100
AcDbLine
 10
0.0
 20
-50.5
 30
0.0
 11
0.0
 21
-60.339996
 31
0.0
  0
LINE
  5
59
330
1E
100
AcDbEntity
  8
MO_001_VIEW_PV
  6
C_SOLID_M
100
AcDbLine
 10
-40.0
 20
-48.5
 30
0.0
 11
-2.0
 21
-48.5
 31
0.0
  0
LINE
  5
5A
330
1E
100
AcDbEntity
  8
MO_001_VIEW_PV
  6
C_SOLID_M
100
AcDbLine
 10
-40.0
 20
-77.5
 30
0.0
 11
-2.0
 21
-77.5
 31
0.0
  0
ARC
  5
5B
330
1E
100
AcDbEntity
  8
MO_001_VIEW_PV
  6
C_SOLID_M
100
AcDbCircle
 10
-2.0
 20
-75.5
 30
0.0
 40
2.0
100
AcDbArc
 50
269.999998
 51
0.00001
  0
ARC
  5
5C
330
1E
100
AcDbEntity
  8
MO_001_VIEW_PV
  6
C_SOLID_M
100
AcDbCircle
 10
-2.0
 20
-50.5
 30
0.0
 40
2.0
100
AcDbArc
 50
0.0
 51
89.99998900000001
  0
LINE
  5
5D
330
1E
100
AcDbEntity
  8
MO_001_VIEW_PV
  6
C_SOLID_M
100
AcDbLine
 10
0.0
 20
-12.0
 30
0.0
 11
0.0
 21
12.0
 31
0.0
  0
LINE
  5
5E
330
1E
100
AcDbEntity
  8
MO_001_VIEW_PV
  6
C_SOLID_M
100
AcDbLine
 10
-36.00000399999999
 20
-12.0
 30
0.0
 11
0.0
 21
-12.0
 31
0.0
  0
LINE
  5
5F
330
1E
100
AcDbEntity
  8
MO_001_VIEW_PV
  6
C_SOLID_M
100
AcDbLine
 10
-36.00000399999999
 20
12.0
 30
0.0
 11
0.0
 21
12.0
 31
0.0
  0
LINE
  5
60
330
1E
100
AcDbEntity
  8
MO_001_VIEW_PV
  6
C_CENTER_L
100
AcDbLine
 10
-54.608501
 20
0.0
 30
0.0
 11
4.347826
 21
0.0
 31
0.0
  0
LINE
  5
61
330
1E
100
AcDbEntity
  8
MO_001_VIEW_PV
  6
C_SOLID_M
100
AcDbLine
 10
-40.000004
 20
5.635083999999999
 30
0.0
 11
-40.000004
 21
6.685086999999999
 31
0.0
  0
LINE
  5
62
330
1E
100
AcDbEntity
  8
MO_001_VIEW_PV
  6
C_SOLID_M
100
AcDbLine
 10
-36.00000399999999
 20
5.800003
 30
0.0
 11
-36.00000399999999
 21
12.0
 31
0.0
  0
LINE
  5
63
330
1E
100
AcDbEntity
  8
MO_001_VIEW_PV
  6
C_SOLID_M
100
AcDbLine
 10
-36.00000399999999
 20
-12.0
 30
0.0
 11
-36.00000399999999
 21
-5.799998999999999
 31
0.0
  0
CIRCLE
  5
64
330
1E
100
AcDbEntity
  8
MO_001_VIEW_PV
  6
C_SOLID_L
100
AcDbCircle
 10
-29.99999799999999
 20
9.699996999999999
 30
0.0
 40
1.5
  0
CIRCLE
  5
65
330
1E
100
AcDbEntity
  8
MO_001_VIEW_PV
  6
C_SOLID_M
100
AcDbCircle
 10
-29.99999799999999
 20
9.699996999999999
 30
0.0
 40
1.199999999999999
  0
CIRCLE
  5
66
330
1E
100
AcDbEntity
  8
MO_001_VIEW_PV
  6
C_SOLID_M
100
AcDbCircle
 10
-29.99999799999999
 20
-9.699996999999999
 30
0.0
 40
1.199999999999999
  0
CIRCLE
  5
67
330
1E
100
AcDbEntity
  8
MO_001_VIEW_PV
  6
C_SOLID_L
100
AcDbCircle
 10
-29.99999799999999
 20
-9.699996999999999
 30
0.0
 40
1.5
  0
CIRCLE
  5
68
330
1E
100
AcDbEntity
  8
MO_001_VIEW_PV
  6
C_SOLID_M
100
AcDbCircle
 10
-11.999998
 20
-9.699996999999999
 30
0.0
 40
1.199999999999999
  0
CIRCLE
  5
69
330
1E
100
AcDbEntity
  8
MO_001_VIEW_PV
  6
C_SOLID_L
100
AcDbCircle
 10
-11.999998
 20
-9.699996999999999
 30
0.0
 40
1.5
  0
CIRCLE
  5
6A
330
1E
100
AcDbEntity
  8
MO_001_VIEW_PV
  6
C_SOLID_M
100
AcDbCircle
 10
-11.999998
 20
9.699996999999999
 30
0.0
 40
1.199999999999999
  0
CIRCLE
  5
6B
330
1E
100
AcDbEntity
  8
MO_001_VIEW_PV
  6
C_SOLID_L
100
AcDbCircle
 10
-11.999998
 20
9.699996999999999
 30
0.0
 40
1.5
  0
LINE
  5
6C
330
1E
100
AcDbEntity
  8
MO_001_VIEW_PV
  6
C_CENTER_L
100
AcDbLine
 10
-29.99999799999999
 20
13.199997
 30
0.0
 11
-29.99999799999999
 21
6.199996999999999
 31
0.0
  0
LINE
  5
6D
330
1E
100
AcDbEntity
  8
MO_001_VIEW_PV
  6
C_CENTER_L
100
AcDbLine
 10
-11.999998
 20
13.199997
 30
0.0
 11
-11.999998
 21
6.199996999999999
 31
0.0
  0
LINE
  5
6E
330
1E
100
AcDbEntity
  8
MO_001_VIEW_PV
  6
C_CENTER_L
100
AcDbLine
 10
-11.999998
 20
-6.199996999999999
 30
0.0
 11
-11.999998
 21
-13.199997
 31
0.0
  0
LINE
  5
6F
330
1E
100
AcDbEntity
  8
MO_001_VIEW_PV
  6
C_CENTER_L
100
AcDbLine
 10
-29.99999799999999
 20
-6.199996999999999
 30
0.0
 11
-29.99999799999999
 21
-13.199997
 31
0.0
  0
LINE
  5
70
330
1E
100
AcDbEntity
  8
MO_001_VIEW_PV
  6
C_CENTER_L
100
AcDbLine
 10
-33.5
 20
-9.699996999999999
 30
0.0
 11
-26.49999799999999
 21
-9.699996999999999
 31
0.0
  0
LINE
  5
71
330
1E
100
AcDbEntity
  8
MO_001_VIEW_PV
  6
C_CENTER_L
100
AcDbLine
 10
-15.499998
 20
-9.699996999999999
 30
0.0
 11
-8.499997999999999
 21
-9.699996999999999
 31
0.0
  0
LINE
  5
72
330
1E
100
AcDbEntity
  8
MO_001_VIEW_PV
  6
C_CENTER_L
100
AcDbLine
 10
-15.499998
 20
9.699996999999999
 30
0.0
 11
-8.499997999999999
 21
9.699996999999999
 31
0.0
  0
LINE
  5
73
330
1E
100
AcDbEntity
  8
MO_001_VIEW_PV
  6
C_CENTER_L
100
AcDbLine
 10
-33.5
 20
9.699996999999999
 30
0.0
 11
-26.49999799999999
 21
9.699996999999999
 31
0.0
  0
LINE
  5
74
330
1E
100
AcDbEntity
  8
MO_001_VIEW_PV
  6
C_CENTER_L
100
AcDbLine
 10
-104.4999999999999
 20
0.0
 30
0.0
 11
-69.5
 21
0.0
 31
0.0
  0
LINE
  5
75
330
1E
100
AcDbEntity
  8
MO_001_VIEW_PV
  6
C_CENTER_L
100
AcDbLine
 10
-87.0
 20
14.103828
 30
0.0
 11
-87.0
 21
-14.27722499999999
 31
0.0
  0
LINE
  5
76
330
1E
100
AcDbEntity
  8
MO_001_VIEW_PV
  6
C_SOLID_M
100
AcDbLine
 10
-72.5
 20
12.0
 30
0.0
 11
-101.5
 21
12.0
 31
0.0
  0
LINE
  5
77
330
1E
100
AcDbEntity
  8
MO_001_VIEW_PV
  6
C_SOLID_M
100
AcDbLine
 10
-72.5
 20
-12.0
 30
0.0
 11
-101.5
 21
-12.0
 31
0.0
  0
LINE
  5
78
330
1E
100
AcDbEntity
  8
MO_001_VIEW_PV
  6
C_SOLID_M
100
AcDbLine
 10
-72.5
 20
-12.0
 30
0.0
 11
-72.5
 21
12.0
 31
0.0
  0
LINE
  5
79
330
1E
100
AcDbEntity
  8
MO_001_VIEW_PV
  6
C_SOLID_M
100
AcDbLine
 10
-101.5
 20
-12.0
 30
0.0
 11
-101.5
 21
12.0
 31
0.0
  0
LINE
  5
7A
330
1E
100
AcDbEntity
  8
MO_001_VIEW_PV
  6
C_SOLID_M
100
AcDbLine
 10
-74.5
 20
-6.685086999999999
 30
0.0
 11
-74.5
 21
6.685086999999999
 31
0.0
  0
LINE
  5
7B
330
1E
100
AcDbEntity
  8
MO_001_VIEW_PV
  6
C_SOLID_M
100
AcDbLine
 10
-38.700881
 20
5.935037999999999
 30
0.0
 11
-36.00000099999999
 21
5.799997
 31
0.0
  0
LINE
  5
7C
330
1E
100
AcDbEntity
  8
MO_001_VIEW_PV
  6
C_SOLID_M
100
AcDbLine
 10
-38.900005
 20
-6.050003
 30
0.0
 11
-36.100002
 21
-6.050003
 31
0.0
  0
LINE
  5
7D
330
1E
100
AcDbEntity
  8
MO_001_VIEW_PV
  6
C_SOLID_M
100
AcDbLine
 10
-39.00000399999999
 20
-12.0
 30
0.0
 11
-39.00000399999999
 21
-6.107737
 31
0.0
  0
LINE
  5
7E
330
1E
100
AcDbEntity
  8
MO_001_VIEW_PV
  6
C_SOLID_M
100
AcDbLine
 10
-38.900005
 20
6.050003
 30
0.0
 11
-36.100002
 21
6.050003
 31
0.0
  0
LINE
  5
7F
330
1E
100
AcDbEntity
  8
MO_001_VIEW_PV
  6
C_SOLID_M
100
AcDbLine
 10
-39.00000399999999
 20
12.0
 30
0.0
 11
-39.00000399999999
 21
6.107737
 31
0.0
  0
LINE
  5
80
330
1E
100
AcDbEntity
  8
MO_001_VIEW_PV
  6
C_SOLID_M
100
AcDbLine
 10
-39.0
 20
-50.5
 30
0.0
 11
-39.0
 21
-75.5
 31
0.0
  0
CIRCLE
  5
81
330
1E
100
AcDbEntity
  8
MO_001_VIEW_PV
  6
C_SOLID_M
100
AcDbCircle
 10
-87.0
 20
0.0
 30
0.0
 40
5.4
  0
LINE
  5
82
330
1E
100
AcDbEntity
  8
MO_001_VIEW_PV
  6
C_SOLID_M
100
AcDbLine
 10
-48.800003
 20
-58.0
 30
0.0
 11
-49.500008
 21
-58.0
 31
0.0
  0
LINE
  5
83
330
1E
100
AcDbEntity
  8
MO_001_VIEW_PV
  6
C_SOLID_M
100
AcDbLine
 10
-48.800003
 20
-68.0
 30
0.0
 11
-49.500008
 21
-68.0
 31
0.0
  0
LINE
  5
84
330
1E
100
AcDbEntity
  8
MO_001_VIEW_PV
  6
C_SOLID_M
100
AcDbLine
 10
-50.000008
 20
-58.5
 30
0.0
 11
-50.000008
 21
-61.5
 31
0.0
  0
LINE
  5
85
330
1E
100
AcDbEntity
  8
MO_001_VIEW_PV
  6
C_SOLID_M
100
AcDbLine
 10
-42.000008
 20
-61.5
 30
0.0
 11
-42.000008
 21
-64.5
 31
0.0
  0
LINE
  5
86
330
1E
100
AcDbEntity
  8
MO_001_VIEW_PV
  6
C_SOLID_M
100
AcDbLine
 10
-42.000008
 20
-61.5
 30
0.0
 11
-50.000008
 21
-61.5
 31
0.0
  0
LINE
  5
87
330
1E
100
AcDbEntity
  8
MO_001_VIEW_PV
  6
C_SOLID_M
100
AcDbLine
 10
-42.000008
 20
-64.5
 30
0.0
 11
-50.000008
 21
-64.5
 31
0.0
  0
LINE
  5
88
330
1E
100
AcDbEntity
  8
MO_001_VIEW_PV
  6
C_SOLID_M
100
AcDbLine
 10
-49.50004299999999
 20
-58.000029
 30
0.0
 11
-50.000043
 21
-58.500029
 31
0.0
  0
LINE
  5
89
330
1E
100
AcDbEntity
  8
MO_001_VIEW_PV
  6
C_SOLID_M
100
AcDbLine
 10
-49.50003699999999
 20
-68.00003700000001
 30
0.0
 11
-50.000037
 21
-67.50003599999999
 31
0.0
  0
LINE
  5
8A
330
1E
100
AcDbEntity
  8
MO_001_VIEW_PV
  6
C_SOLID_M
100
AcDbLine
 10
-50.000008
 20
-64.5
 30
0.0
 11
-50.000008
 21
-67.5
 31
0.0
  0
LINE
  5
8B
330
1E
100
AcDbEntity
  8
MO_001_VIEW_PV
  6
C_SOLID_M
100
AcDbLine
 10
-49.500008
 20
-58.0
 30
0.0
 11
-49.500008
 21
-61.5
 31
0.0
  0
LINE
  5
8C
330
1E
100
AcDbEntity
  8
MO_001_VIEW_PV
  6
C_SOLID_M
100
AcDbLine
 10
-49.500008
 20
-64.5
 30
0.0
 11
-49.500008
 21
-68.0
 31
0.0
  0
LINE
  5
8D
330
1E
100
AcDbEntity
  8
MO_001_VIEW_PV
  6
C_CENTER_L
100
AcDbLine
 10
-47.000008
 20
-56.95765699999999
 30
0.0
 11
-47.000008
 21
-69.11959799999999
 31
0.0
  0
LINE
  5
8E
330
1E
100
AcDbEntity
  8
MO_001_VIEW_PV
  6
C_DASHED_M
100
AcDbLine
 10
-48.500008
 20
-58.300003
 30
0.0
 11
-48.500008
 21
-61.5
 31
0.0
  0
LINE
  5
8F
330
1E
100
AcDbEntity
  8
MO_001_VIEW_PV
  6
C_DASHED_M
100
AcDbLine
 10
-45.49999999999999
 20
-58.300003
 30
0.0
 11
-45.49999999999999
 21
-61.5
 31
0.0
  0
LINE
  5
90
330
1E
100
AcDbEntity
  8
MO_001_VIEW_PV
  6
C_DASHED_M
100
AcDbLine
 10
-45.49999999999999
 20
-64.5
 30
0.0
 11
-45.49999999999999
 21
-67.69999699999999
 31
0.0
  0
LINE
  5
91
330
1E
100
AcDbEntity
  8
MO_001_VIEW_PV
  6
C_DASHED_M
100
AcDbLine
 10
-48.500008
 20
-64.5
 30
0.0
 11
-48.500008
 21
-67.69999699999999
 31
0.0
  0
LINE
  5
92
330
1E
100
AcDbEntity
  8
MO_001_VIEW_PV
  6
C_SOLID_M
100
AcDbLine
 10
-39.0
 20
-62.5
 30
0.0
 11
-42.000008
 21
-62.5
 31
0.0
  0
LINE
  5
93
330
1E
100
AcDbEntity
  8
MO_001_VIEW_PV
  6
C_SOLID_M
100
AcDbLine
 10
-39.0
 20
-63.5
 30
0.0
 11
-42.000008
 21
-63.5
 31
0.0
  0
POLYLINE
  5
94
330
1E
100
AcDbEntity
  8
MO_001_VIEW_PV
  6
C_DASHED_M
100
AcDb2dPolyline
 66
     1
 10
0.0
 20
0.0
 30
0.0
  0
VERTEX
  5
298
330
94
100
AcDbEntity
  8
MO_001_VIEW_PV
  6
C_DASHED_M
100
AcDbVertex
100
AcDb2dVertex
 10
-48.500008
 20
-58.300003
 30
0.0
  0
VERTEX
  5
299
330
94
100
AcDbEntity
  8
MO_001_VIEW_PV
  6
C_DASHED_M
100
AcDbVertex
100
AcDb2dVertex
 10
-48.492263
 20
-58.302763
 30
0.0
  0
VERTEX
  5
29A
330
94
100
AcDbEntity
  8
MO_001_VIEW_PV
  6
C_DASHED_M
100
AcDbVertex
100
AcDb2dVertex
 10
-48.473168
 20
-58.309338
 30
0.0
  0
VERTEX
  5
29B
330
94
100
AcDbEntity
  8
MO_001_VIEW_PV
  6
C_DASHED_M
100
AcDbVertex
100
AcDb2dVertex
 10
-48.413662
 20
-58.328679
 30
0.0
  0
VERTEX
  5
29C
330
94
100
AcDbEntity
  8
MO_001_VIEW_PV
  6
C_DASHED_M
100
AcDbVertex
100
AcDb2dVertex
 10
-48.348617
 20
-58.348416
 30
0.0
  0
VERTEX
  5
29D
330
94
100
AcDbEntity
  8
MO_001_VIEW_PV
  6
C_DASHED_M
100
AcDbVertex
100
AcDb2dVertex
 10
-48.220974
 20
-58.383816
 30
0.0
  0
VERTEX
  5
29E
330
94
100
AcDbEntity
  8
MO_001_VIEW_PV
  6
C_DASHED_M
100
AcDbVertex
100
AcDb2dVertex
 10
-48.06066799999999
 20
-58.422897
 30
0.0
  0
VERTEX
  5
29F
330
94
100
AcDbEntity
  8
MO_001_VIEW_PV
  6
C_DASHED_M
100
AcDbVertex
100
AcDb2dVertex
 10
-47.83867199999999
 20
-58.468023
 30
0.0
  0
VERTEX
  5
2A0
330
94
100
AcDbEntity
  8
MO_001_VIEW_PV
  6
C_DASHED_M
100
AcDbVertex
100
AcDb2dVertex
 10
-47.650319
 20
-58.498401
 30
0.0
  0
VERTEX
  5
2A1
330
94
100
AcDbEntity
  8
MO_001_VIEW_PV
  6
C_DASHED_M
100
AcDbVertex
100
AcDb2dVertex
 10
-47.338763
 20
-58.532577
 30
0.0
  0
VERTEX
  5
2A2
330
94
100
AcDbEntity
  8
MO_001_VIEW_PV
  6
C_DASHED_M
100
AcDbVertex
100
AcDb2dVertex
 10
-47.000008
 20
-58.545792
 30
0.0
  0
VERTEX
  5
2A3
330
94
100
AcDbEntity
  8
MO_001_VIEW_PV
  6
C_DASHED_M
100
AcDbVertex
100
AcDb2dVertex
 10
-46.697705
 20
-58.53523
 30
0.0
  0
VERTEX
  5
2A4
330
94
100
AcDbEntity
  8
MO_001_VIEW_PV
  6
C_DASHED_M
100
AcDbVertex
100
AcDb2dVertex
 10
-46.48425699999999
 20
-58.515653
 30
0.0
  0
VERTEX
  5
2A5
330
94
100
AcDbEntity
  8
MO_001_VIEW_PV
  6
C_DASHED_M
100
AcDbVertex
100
AcDb2dVertex
 10
-46.19152299999999
 20
-58.473376
 30
0.0
  0
VERTEX
  5
2A6
330
94
100
AcDbEntity
  8
MO_001_VIEW_PV
  6
C_DASHED_M
100
AcDbVertex
100
AcDb2dVertex
 10
-46.059828
 20
-58.448649
 30
0.0
  0
VERTEX
  5
2A7
330
94
100
AcDbEntity
  8
MO_001_VIEW_PV
  6
C_DASHED_M
100
AcDbVertex
100
AcDb2dVertex
 10
-45.939347
 20
-58.422897
 30
0.0
  0
VERTEX
  5
2A8
330
94
100
AcDbEntity
  8
MO_001_VIEW_PV
  6
C_DASHED_M
100
AcDbVertex
100
AcDb2dVertex
 10
-45.842534
 20
-58.39997499999999
 30
0.0
  0
VERTEX
  5
2A9
330
94
100
AcDbEntity
  8
MO_001_VIEW_PV
  6
C_DASHED_M
100
AcDbVertex
100
AcDb2dVertex
 10
-45.69874
 20
-58.362026
 30
0.0
  0
VERTEX
  5
2AA
330
94
100
AcDbEntity
  8
MO_001_VIEW_PV
  6
C_DASHED_M
100
AcDbVertex
100
AcDb2dVertex
 10
-45.614352
 20
-58.33733299999999
 30
0.0
  0
VERTEX
  5
2AB
330
94
100
AcDbEntity
  8
MO_001_VIEW_PV
  6
C_DASHED_M
100
AcDbVertex
100
AcDb2dVertex
 10
-45.56540499999999
 20
-58.322031
 30
0.0
  0
VERTEX
  5
2AC
330
94
100
AcDbEntity
  8
MO_001_VIEW_PV
  6
C_DASHED_M
100
AcDbVertex
100
AcDb2dVertex
 10
-45.516762
 20
-58.30589699999999
 30
0.0
  0
VERTEX
  5
2AD
330
94
100
AcDbEntity
  8
MO_001_VIEW_PV
  6
C_DASHED_M
100
AcDbVertex
100
AcDb2dVertex
 10
-45.500008
 20
-58.300003
 30
0.0
  0
SEQEND
  5
2AE
330
94
100
AcDbEntity
  8
MO_001_VIEW_PV
  6
C_DASHED_M
  0
POLYLINE
  5
AC
330
1E
100
AcDbEntity
  8
MO_001_VIEW_PV
  6
C_DASHED_M
100
AcDb2dPolyline
 66
     1
 10
0.0
 20
0.0
 30
0.0
  0
VERTEX
  5
2AF
330
AC
100
AcDbEntity
  8
MO_001_VIEW_PV
  6
C_DASHED_M
100
AcDbVertex
100
AcDb2dVertex
 10
-48.500008
 20
-67.69999699999999
 30
0.0
  0
VERTEX
  5
2B0
330
AC
100
AcDbEntity
  8
MO_001_VIEW_PV
  6
C_DASHED_M
100
AcDbVertex
100
AcDb2dVertex
 10
-48.492263
 20
-67.697237
 30
0.0
  0
VERTEX
  5
2B1
330
AC
100
AcDbEntity
  8
MO_001_VIEW_PV
  6
C_DASHED_M
100
AcDbVertex
100
AcDb2dVertex
 10
-48.473168
 20
-67.69066200000001
 30
0.0
  0
VERTEX
  5
2B2
330
AC
100
AcDbEntity
  8
MO_001_VIEW_PV
  6
C_DASHED_M
100
AcDbVertex
100
AcDb2dVertex
 10
-48.413662
 20
-67.67132099999999
 30
0.0
  0
VERTEX
  5
2B3
330
AC
100
AcDbEntity
  8
MO_001_VIEW_PV
  6
C_DASHED_M
100
AcDbVertex
100
AcDb2dVertex
 10
-48.348617
 20
-67.651584
 30
0.0
  0
VERTEX
  5
2B4
330
AC
100
AcDbEntity
  8
MO_001_VIEW_PV
  6
C_DASHED_M
100
AcDbVertex
100
AcDb2dVertex
 10
-48.220974
 20
-67.61618399999999
 30
0.0
  0
VERTEX
  5
2B5
330
AC
100
AcDbEntity
  8
MO_001_VIEW_PV
  6
C_DASHED_M
100
AcDbVertex
100
AcDb2dVertex
 10
-48.06066799999999
 20
-67.57710300000001
 30
0.0
  0
VERTEX
  5
2B6
330
AC
100
AcDbEntity
  8
MO_001_VIEW_PV
  6
C_DASHED_M
100
AcDbVertex
100
AcDb2dVertex
 10
-47.83867199999999
 20
-67.531977
 30
0.0
  0
VERTEX
  5
2B7
330
AC
100
AcDbEntity
  8
MO_001_VIEW_PV
  6
C_DASHED_M
100
AcDbVertex
100
AcDb2dVertex
 10
-47.650319
 20
-67.50159899999999
 30
0.0
  0
VERTEX
  5
2B8
330
AC
100
AcDbEntity
  8
MO_001_VIEW_PV
  6
C_DASHED_M
100
AcDbVertex
100
AcDb2dVertex
 10
-47.338763
 20
-67.467423
 30
0.0
  0
VERTEX
  5
2B9
330
AC
100
AcDbEntity
  8
MO_001_VIEW_PV
  6
C_DASHED_M
100
AcDbVertex
100
AcDb2dVertex
 10
-47.000008
 20
-67.45420799999999
 30
0.0
  0
VERTEX
  5
2BA
330
AC
100
AcDbEntity
  8
MO_001_VIEW_PV
  6
C_DASHED_M
100
AcDbVertex
100
AcDb2dVertex
 10
-46.697705
 20
-67.46477
 30
0.0
  0
VERTEX
  5
2BB
330
AC
100
AcDbEntity
  8
MO_001_VIEW_PV
  6
C_DASHED_M
100
AcDbVertex
100
AcDb2dVertex
 10
-46.48425699999999
 20
-67.484347
 30
0.0
  0
VERTEX
  5
2BC
330
AC
100
AcDbEntity
  8
MO_001_VIEW_PV
  6
C_DASHED_M
100
AcDbVertex
100
AcDb2dVertex
 10
-46.19152299999999
 20
-67.526624
 30
0.0
  0
VERTEX
  5
2BD
330
AC
100
AcDbEntity
  8
MO_001_VIEW_PV
  6
C_DASHED_M
100
AcDbVertex
100
AcDb2dVertex
 10
-46.059828
 20
-67.551351
 30
0.0
  0
VERTEX
  5
2BE
330
AC
100
AcDbEntity
  8
MO_001_VIEW_PV
  6
C_DASHED_M
100
AcDbVertex
100
AcDb2dVertex
 10
-45.939347
 20
-67.57710300000001
 30
0.0
  0
VERTEX
  5
2BF
330
AC
100
AcDbEntity
  8
MO_001_VIEW_PV
  6
C_DASHED_M
100
AcDbVertex
100
AcDb2dVertex
 10
-45.842534
 20
-67.600025
 30
0.0
  0
VERTEX
  5
2C0
330
AC
100
AcDbEntity
  8
MO_001_VIEW_PV
  6
C_DASHED_M
100
AcDbVertex
100
AcDb2dVertex
 10
-45.69874
 20
-67.637974
 30
0.0
  0
VERTEX
  5
2C1
330
AC
100
AcDbEntity
  8
MO_001_VIEW_PV
  6
C_DASHED_M
100
AcDbVertex
100
AcDb2dVertex
 10
-45.614352
 20
-67.662667
 30
0.0
  0
VERTEX
  5
2C2
330
AC
100
AcDbEntity
  8
MO_001_VIEW_PV
  6
C_DASHED_M
100
AcDbVertex
100
AcDb2dVertex
 10
-45.56540499999999
 20
-67.67796899999999
 30
0.0
  0
VERTEX
  5
2C3
330
AC
100
AcDbEntity
  8
MO_001_VIEW_PV
  6
C_DASHED_M
100
AcDbVertex
100
AcDb2dVertex
 10
-45.516762
 20
-67.69410400000001
 30
0.0
  0
VERTEX
  5
2C4
330
AC
100
AcDbEntity
  8
MO_001_VIEW_PV
  6
C_DASHED_M
100
AcDbVertex
100
AcDb2dVertex
 10
-45.500008
 20
-67.69999699999999
 30
0.0
  0
SEQEND
  5
2C5
330
AC
100
AcDbEntity
  8
MO_001_VIEW_PV
  6
C_DASHED_M
  0
POLYLINE
  5
C4
330
1E
100
AcDbEntity
  8
MO_001_VIEW_PV
  6
C_SOLID_M
100
AcDb2dPolyline
 66
     1
 10
0.0
 20
0.0
 30
0.0
 70
     1
  0
VERTEX
  5
2C6
330
C4
100
AcDbEntity
  8
MO_001_VIEW_PV
  6
C_SOLID_M
100
AcDbVertex
100
AcDb2dVertex
 10
-48.800003
 20
-58.0
 30
0.0
  0
VERTEX
  5
2C7
330
C4
100
AcDbEntity
  8
MO_001_VIEW_PV
  6
C_SOLID_M
100
AcDbVertex
100
AcDb2dVertex
 10
-48.79070999999999
 20
-58.003765
 30
0.0
  0
VERTEX
  5
2C8
330
C4
100
AcDbEntity
  8
MO_001_VIEW_PV
  6
C_SOLID_M
100
AcDbVertex
100
AcDb2dVertex
 10
-48.767796
 20
-58.01273199999999
 30
0.0
  0
VERTEX
  5
2C9
330
C4
100
AcDbEntity
  8
MO_001_VIEW_PV
  6
C_SOLID_M
100
AcDbVertex
100
AcDb2dVertex
 10
-48.736928
 20
-58.02437900000001
 30
0.0
  0
VERTEX
  5
2CA
330
C4
100
AcDbEntity
  8
MO_001_VIEW_PV
  6
C_SOLID_M
100
AcDbVertex
100
AcDb2dVertex
 10
-48.659882
 20
-58.05192099999999
 30
0.0
  0
VERTEX
  5
2CB
330
C4
100
AcDbEntity
  8
MO_001_VIEW_PV
  6
C_SOLID_M
100
AcDbVertex
100
AcDb2dVertex
 10
-48.583969
 20
-58.07735699999999
 30
0.0
  0
VERTEX
  5
2CC
330
C4
100
AcDbEntity
  8
MO_001_VIEW_PV
  6
C_SOLID_M
100
AcDbVertex
100
AcDb2dVertex
 10
-48.44316599999999
 20
-58.12080600000001
 30
0.0
  0
VERTEX
  5
2CD
330
C4
100
AcDbEntity
  8
MO_001_VIEW_PV
  6
C_SOLID_M
100
AcDbVertex
100
AcDb2dVertex
 10
-48.272796
 20
-58.167618
 30
0.0
  0
VERTEX
  5
2CE
330
C4
100
AcDbEntity
  8
MO_001_VIEW_PV
  6
C_SOLID_M
100
AcDbVertex
100
AcDb2dVertex
 10
-48.144971
 20
-58.198882
 30
0.0
  0
VERTEX
  5
2CF
330
C4
100
AcDbEntity
  8
MO_001_VIEW_PV
  6
C_SOLID_M
100
AcDbVertex
100
AcDb2dVertex
 10
-47.89596699999999
 20
-58.250641
 30
0.0
  0
VERTEX
  5
2D0
330
C4
100
AcDbEntity
  8
MO_001_VIEW_PV
  6
C_SOLID_M
100
AcDbVertex
100
AcDb2dVertex
 10
-47.690536
 20
-58.28431999999999
 30
0.0
  0
VERTEX
  5
2D1
330
C4
100
AcDbEntity
  8
MO_001_VIEW_PV
  6
C_SOLID_M
100
AcDbVertex
100
AcDb2dVertex
 10
-47.35727299999999
 20
-58.321258
 30
0.0
  0
VERTEX
  5
2D2
330
C4
100
AcDbEntity
  8
MO_001_VIEW_PV
  6
C_SOLID_M
100
AcDbVertex
100
AcDb2dVertex
 10
-47.000008
 20
-58.335236
 30
0.0
  0
VERTEX
  5
2D3
330
C4
100
AcDbEntity
  8
MO_001_VIEW_PV
  6
C_SOLID_M
100
AcDbVertex
100
AcDb2dVertex
 10
-46.637243
 20
-58.32083100000001
 30
0.0
  0
VERTEX
  5
2D4
330
C4
100
AcDbEntity
  8
MO_001_VIEW_PV
  6
C_SOLID_M
100
AcDbVertex
100
AcDb2dVertex
 10
-46.38110499999999
 20
-58.29412900000001
 30
0.0
  0
VERTEX
  5
2D5
330
C4
100
AcDbEntity
  8
MO_001_VIEW_PV
  6
C_SOLID_M
100
AcDbVertex
100
AcDb2dVertex
 10
-46.20002399999999
 20
-58.26739599999999
 30
0.0
  0
VERTEX
  5
2D6
330
C4
100
AcDbEntity
  8
MO_001_VIEW_PV
  6
C_SOLID_M
100
AcDbVertex
100
AcDb2dVertex
 10
-45.94920499999999
 20
-58.219867
 30
0.0
  0
VERTEX
  5
2D7
330
C4
100
AcDbEntity
  8
MO_001_VIEW_PV
  6
C_SOLID_M
100
AcDbVertex
100
AcDb2dVertex
 10
-45.727212
 20
-58.167618
 30
0.0
  0
VERTEX
  5
2D8
330
C4
100
AcDbEntity
  8
MO_001_VIEW_PV
  6
C_SOLID_M
100
AcDbVertex
100
AcDb2dVertex
 10
-45.61103699999999
 20
-58.136353
 30
0.0
  0
VERTEX
  5
2D9
330
C4
100
AcDbEntity
  8
MO_001_VIEW_PV
  6
C_SOLID_M
100
AcDbVertex
100
AcDb2dVertex
 10
-45.519651
 20
-58.109769
 30
0.0
  0
VERTEX
  5
2DA
330
C4
100
AcDbEntity
  8
MO_001_VIEW_PV
  6
C_SOLID_M
100
AcDbVertex
100
AcDb2dVertex
 10
-45.38467899999999
 20
-58.06703399999999
 30
0.0
  0
VERTEX
  5
2DB
330
C4
100
AcDbEntity
  8
MO_001_VIEW_PV
  6
C_SOLID_M
100
AcDbVertex
100
AcDb2dVertex
 10
-45.305939
 20
-58.039938
 30
0.0
  0
VERTEX
  5
2DC
330
C4
100
AcDbEntity
  8
MO_001_VIEW_PV
  6
C_SOLID_M
100
AcDbVertex
100
AcDb2dVertex
 10
-45.26046
 20
-58.02340699999999
 30
0.0
  0
VERTEX
  5
2DD
330
C4
100
AcDbEntity
  8
MO_001_VIEW_PV
  6
C_SOLID_M
100
AcDbVertex
100
AcDb2dVertex
 10
-45.21544399999999
 20
-58.006205
 30
0.0
  0
VERTEX
  5
2DE
330
C4
100
AcDbEntity
  8
MO_001_VIEW_PV
  6
C_SOLID_M
100
AcDbVertex
100
AcDb2dVertex
 10
-45.200005
 20
-58.0
 30
0.0
  0
VERTEX
  5
2DF
330
C4
100
AcDbEntity
  8
MO_001_VIEW_PV
  6
C_SOLID_M
100
AcDbVertex
100
AcDb2dVertex
 10
-45.209298
 20
-58.003765
 30
0.0
  0
VERTEX
  5
2E0
330
C4
100
AcDbEntity
  8
MO_001_VIEW_PV
  6
C_SOLID_M
100
AcDbVertex
100
AcDb2dVertex
 10
-45.232212
 20
-58.01273199999999
 30
0.0
  0
VERTEX
  5
2E1
330
C4
100
AcDbEntity
  8
MO_001_VIEW_PV
  6
C_SOLID_M
100
AcDbVertex
100
AcDb2dVertex
 10
-45.26308
 20
-58.02437900000001
 30
0.0
  0
VERTEX
  5
2E2
330
C4
100
AcDbEntity
  8
MO_001_VIEW_PV
  6
C_SOLID_M
100
AcDbVertex
100
AcDb2dVertex
 10
-45.34012599999999
 20
-58.05192099999999
 30
0.0
  0
VERTEX
  5
2E3
330
C4
100
AcDbEntity
  8
MO_001_VIEW_PV
  6
C_SOLID_M
100
AcDbVertex
100
AcDb2dVertex
 10
-45.41603799999999
 20
-58.07735699999999
 30
0.0
  0
VERTEX
  5
2E4
330
C4
100
AcDbEntity
  8
MO_001_VIEW_PV
  6
C_SOLID_M
100
AcDbVertex
100
AcDb2dVertex
 10
-45.55684199999999
 20
-58.12080600000001
 30
0.0
  0
VERTEX
  5
2E5
330
C4
100
AcDbEntity
  8
MO_001_VIEW_PV
  6
C_SOLID_M
100
AcDbVertex
100
AcDb2dVertex
 10
-45.727212
 20
-58.167618
 30
0.0
  0
VERTEX
  5
2E6
330
C4
100
AcDbEntity
  8
MO_001_VIEW_PV
  6
C_SOLID_M
100
AcDbVertex
100
AcDb2dVertex
 10
-45.855037
 20
-58.198882
 30
0.0
  0
VERTEX
  5
2E7
330
C4
100
AcDbEntity
  8
MO_001_VIEW_PV
  6
C_SOLID_M
100
AcDbVertex
100
AcDb2dVertex
 10
-46.104042
 20
-58.250641
 30
0.0
  0
VERTEX
  5
2E8
330
C4
100
AcDbEntity
  8
MO_001_VIEW_PV
  6
C_SOLID_M
100
AcDbVertex
100
AcDb2dVertex
 10
-46.309474
 20
-58.284321
 30
0.0
  0
VERTEX
  5
2E9
330
C4
100
AcDbEntity
  8
MO_001_VIEW_PV
  6
C_SOLID_M
100
AcDbVertex
100
AcDb2dVertex
 10
-46.642739
 20
-58.321258
 30
0.0
  0
VERTEX
  5
2EA
330
C4
100
AcDbEntity
  8
MO_001_VIEW_PV
  6
C_SOLID_M
100
AcDbVertex
100
AcDb2dVertex
 10
-47.000008
 20
-58.335236
 30
0.0
  0
VERTEX
  5
2EB
330
C4
100
AcDbEntity
  8
MO_001_VIEW_PV
  6
C_SOLID_M
100
AcDbVertex
100
AcDb2dVertex
 10
-47.362769
 20
-58.32083100000001
 30
0.0
  0
VERTEX
  5
2EC
330
C4
100
AcDbEntity
  8
MO_001_VIEW_PV
  6
C_SOLID_M
100
AcDbVertex
100
AcDb2dVertex
 10
-47.618906
 20
-58.29412900000001
 30
0.0
  0
VERTEX
  5
2ED
330
C4
100
AcDbEntity
  8
MO_001_VIEW_PV
  6
C_SOLID_M
100
AcDbVertex
100
AcDb2dVertex
 10
-47.79998599999999
 20
-58.26739599999999
 30
0.0
  0
VERTEX
  5
2EE
330
C4
100
AcDbEntity
  8
MO_001_VIEW_PV
  6
C_SOLID_M
100
AcDbVertex
100
AcDb2dVertex
 10
-48.050804
 20
-58.219867
 30
0.0
  0
VERTEX
  5
2EF
330
C4
100
AcDbEntity
  8
MO_001_VIEW_PV
  6
C_SOLID_M
100
AcDbVertex
100
AcDb2dVertex
 10
-48.272796
 20
-58.167618
 30
0.0
  0
VERTEX
  5
2F0
330
C4
100
AcDbEntity
  8
MO_001_VIEW_PV
  6
C_SOLID_M
100
AcDbVertex
100
AcDb2dVertex
 10
-48.388971
 20
-58.136353
 30
0.0
  0
VERTEX
  5
2F1
330
C4
100
AcDbEntity
  8
MO_001_VIEW_PV
  6
C_SOLID_M
100
AcDbVertex
100
AcDb2dVertex
 10
-48.480357
 20
-58.109769
 30
0.0
  0
VERTEX
  5
2F2
330
C4
100
AcDbEntity
  8
MO_001_VIEW_PV
  6
C_SOLID_M
100
AcDbVertex
100
AcDb2dVertex
 10
-48.615329
 20
-58.06703399999999
 30
0.0
  0
VERTEX
  5
2F3
330
C4
100
AcDbEntity
  8
MO_001_VIEW_PV
  6
C_SOLID_M
100
AcDbVertex
100
AcDb2dVertex
 10
-48.694068
 20
-58.039938
 30
0.0
  0
VERTEX
  5
2F4
330
C4
100
AcDbEntity
  8
MO_001_VIEW_PV
  6
C_SOLID_M
100
AcDbVertex
100
AcDb2dVertex
 10
-48.73954799999999
 20
-58.02340699999999
 30
0.0
  0
VERTEX
  5
2F5
330
C4
100
AcDbEntity
  8
MO_001_VIEW_PV
  6
C_SOLID_M
100
AcDbVertex
100
AcDb2dVertex
 10
-48.78456400000001
 20
-58.006205
 30
0.0
  0
VERTEX
  5
2F6
330
C4
100
AcDbEntity
  8
MO_001_VIEW_PV
  6
C_SOLID_M
100
AcDbVertex
100
AcDb2dVertex
 10
-48.800003
 20
-58.0
 30
0.0
  0
SEQEND
  5
2F7
330
C4
100
AcDbEntity
  8
MO_001_VIEW_PV
  6
C_SOLID_M
  0
POLYLINE
  5
F7
330
1E
100
AcDbEntity
  8
MO_001_VIEW_PV
  6
C_SOLID_M
100
AcDb2dPolyline
 66
     1
 10
0.0
 20
0.0
 30
0.0
 70
     1
  0
VERTEX
  5
2F8
330
F7
100
AcDbEntity
  8
MO_001_VIEW_PV
  6
C_SOLID_M
100
AcDbVertex
100
AcDb2dVertex
 10
-48.800003
 20
-68.0
 30
0.0
  0
VERTEX
  5
2F9
330
F7
100
AcDbEntity
  8
MO_001_VIEW_PV
  6
C_SOLID_M
100
AcDbVertex
100
AcDb2dVertex
 10
-48.79070999999999
 20
-67.996235
 30
0.0
  0
VERTEX
  5
2FA
330
F7
100
AcDbEntity
  8
MO_001_VIEW_PV
  6
C_SOLID_M
100
AcDbVertex
100
AcDb2dVertex
 10
-48.767796
 20
-67.987268
 30
0.0
  0
VERTEX
  5
2FB
330
F7
100
AcDbEntity
  8
MO_001_VIEW_PV
  6
C_SOLID_M
100
AcDbVertex
100
AcDb2dVertex
 10
-48.736928
 20
-67.97562099999999
 30
0.0
  0
VERTEX
  5
2FC
330
F7
100
AcDbEntity
  8
MO_001_VIEW_PV
  6
C_SOLID_M
100
AcDbVertex
100
AcDb2dVertex
 10
-48.659882
 20
-67.94807900000001
 30
0.0
  0
VERTEX
  5
2FD
330
F7
100
AcDbEntity
  8
MO_001_VIEW_PV
  6
C_SOLID_M
100
AcDbVertex
100
AcDb2dVertex
 10
-48.583969
 20
-67.92264300000001
 30
0.0
  0
VERTEX
  5
2FE
330
F7
100
AcDbEntity
  8
MO_001_VIEW_PV
  6
C_SOLID_M
100
AcDbVertex
100
AcDb2dVertex
 10
-48.44316599999999
 20
-67.87919399999999
 30
0.0
  0
VERTEX
  5
2FF
330
F7
100
AcDbEntity
  8
MO_001_VIEW_PV
  6
C_SOLID_M
100
AcDbVertex
100
AcDb2dVertex
 10
-48.272796
 20
-67.83238199999999
 30
0.0
  0
VERTEX
  5
300
330
F7
100
AcDbEntity
  8
MO_001_VIEW_PV
  6
C_SOLID_M
100
AcDbVertex
100
AcDb2dVertex
 10
-48.144971
 20
-67.801118
 30
0.0
  0
VERTEX
  5
301
330
F7
100
AcDbEntity
  8
MO_001_VIEW_PV
  6
C_SOLID_M
100
AcDbVertex
100
AcDb2dVertex
 10
-47.89596699999999
 20
-67.749359
 30
0.0
  0
VERTEX
  5
302
330
F7
100
AcDbEntity
  8
MO_001_VIEW_PV
  6
C_SOLID_M
100
AcDbVertex
100
AcDb2dVertex
 10
-47.690536
 20
-67.715679
 30
0.0
  0
VERTEX
  5
303
330
F7
100
AcDbEntity
  8
MO_001_VIEW_PV
  6
C_SOLID_M
100
AcDbVertex
100
AcDb2dVertex
 10
-47.35727299999999
 20
-67.678742
 30
0.0
  0
VERTEX
  5
304
330
F7
100
AcDbEntity
  8
MO_001_VIEW_PV
  6
C_SOLID_M
100
AcDbVertex
100
AcDb2dVertex
 10
-47.000008
 20
-67.66476400000001
 30
0.0
  0
VERTEX
  5
305
330
F7
100
AcDbEntity
  8
MO_001_VIEW_PV
  6
C_SOLID_M
100
AcDbVertex
100
AcDb2dVertex
 10
-46.637243
 20
-67.67916899999999
 30
0.0
  0
VERTEX
  5
306
330
F7
100
AcDbEntity
  8
MO_001_VIEW_PV
  6
C_SOLID_M
100
AcDbVertex
100
AcDb2dVertex
 10
-46.38110499999999
 20
-67.705871
 30
0.0
  0
VERTEX
  5
307
330
F7
100
AcDbEntity
  8
MO_001_VIEW_PV
  6
C_SOLID_M
100
AcDbVertex
100
AcDb2dVertex
 10
-46.20002399999999
 20
-67.73260400000001
 30
0.0
  0
VERTEX
  5
308
330
F7
100
AcDbEntity
  8
MO_001_VIEW_PV
  6
C_SOLID_M
100
AcDbVertex
100
AcDb2dVertex
 10
-45.94920499999999
 20
-67.78013399999998
 30
0.0
  0
VERTEX
  5
309
330
F7
100
AcDbEntity
  8
MO_001_VIEW_PV
  6
C_SOLID_M
100
AcDbVertex
100
AcDb2dVertex
 10
-45.727212
 20
-67.83238199999999
 30
0.0
  0
VERTEX
  5
30A
330
F7
100
AcDbEntity
  8
MO_001_VIEW_PV
  6
C_SOLID_M
100
AcDbVertex
100
AcDb2dVertex
 10
-45.61103699999999
 20
-67.863647
 30
0.0
  0
VERTEX
  5
30B
330
F7
100
AcDbEntity
  8
MO_001_VIEW_PV
  6
C_SOLID_M
100
AcDbVertex
100
AcDb2dVertex
 10
-45.519651
 20
-67.890231
 30
0.0
  0
VERTEX
  5
30C
330
F7
100
AcDbEntity
  8
MO_001_VIEW_PV
  6
C_SOLID_M
100
AcDbVertex
100
AcDb2dVertex
 10
-45.384678
 20
-67.93296600000001
 30
0.0
  0
VERTEX
  5
30D
330
F7
100
AcDbEntity
  8
MO_001_VIEW_PV
  6
C_SOLID_M
100
AcDbVertex
100
AcDb2dVertex
 10
-45.305939
 20
-67.96006199999999
 30
0.0
  0
VERTEX
  5
30E
330
F7
100
AcDbEntity
  8
MO_001_VIEW_PV
  6
C_SOLID_M
100
AcDbVertex
100
AcDb2dVertex
 10
-45.26046
 20
-67.97659300000001
 30
0.0
  0
VERTEX
  5
30F
330
F7
100
AcDbEntity
  8
MO_001_VIEW_PV
  6
C_SOLID_M
100
AcDbVertex
100
AcDb2dVertex
 10
-45.21544399999999
 20
-67.99379499999999
 30
0.0
  0
VERTEX
  5
310
330
F7
100
AcDbEntity
  8
MO_001_VIEW_PV
  6
C_SOLID_M
100
AcDbVertex
100
AcDb2dVertex
 10
-45.200005
 20
-68.0
 30
0.0
  0
VERTEX
  5
311
330
F7
100
AcDbEntity
  8
MO_001_VIEW_PV
  6
C_SOLID_M
100
AcDbVertex
100
AcDb2dVertex
 10
-45.209298
 20
-67.996235
 30
0.0
  0
VERTEX
  5
312
330
F7
100
AcDbEntity
  8
MO_001_VIEW_PV
  6
C_SOLID_M
100
AcDbVertex
100
AcDb2dVertex
 10
-45.232212
 20
-67.987268
 30
0.0
  0
VERTEX
  5
313
330
F7
100
AcDbEntity
  8
MO_001_VIEW_PV
  6
C_SOLID_M
100
AcDbVertex
100
AcDb2dVertex
 10
-45.26308
 20
-67.97562099999999
 30
0.0
  0
VERTEX
  5
314
330
F7
100
AcDbEntity
  8
MO_001_VIEW_PV
  6
C_SOLID_M
100
AcDbVertex
100
AcDb2dVertex
 10
-45.34012599999999
 20
-67.94807900000001
 30
0.0
  0
VERTEX
  5
315
330
F7
100
AcDbEntity
  8
MO_001_VIEW_PV
  6
C_SOLID_M
100
AcDbVertex
100
AcDb2dVertex
 10
-45.41603900000001
 20
-67.92264300000001
 30
0.0
  0
VERTEX
  5
316
330
F7
100
AcDbEntity
  8
MO_001_VIEW_PV
  6
C_SOLID_M
100
AcDbVertex
100
AcDb2dVertex
 10
-45.55684199999999
 20
-67.87919399999999
 30
0.0
  0
VERTEX
  5
317
330
F7
100
AcDbEntity
  8
MO_001_VIEW_PV
  6
C_SOLID_M
100
AcDbVertex
100
AcDb2dVertex
 10
-45.727212
 20
-67.83238199999999
 30
0.0
  0
VERTEX
  5
318
330
F7
100
AcDbEntity
  8
MO_001_VIEW_PV
  6
C_SOLID_M
100
AcDbVertex
100
AcDb2dVertex
 10
-45.855037
 20
-67.801118
 30
0.0
  0
VERTEX
  5
319
330
F7
100
AcDbEntity
  8
MO_001_VIEW_PV
  6
C_SOLID_M
100
AcDbVertex
100
AcDb2dVertex
 10
-46.104042
 20
-67.749358
 30
0.0
  0
VERTEX
  5
31A
330
F7
100
AcDbEntity
  8
MO_001_VIEW_PV
  6
C_SOLID_M
100
AcDbVertex
100
AcDb2dVertex
 10
-46.309474
 20
-67.715679
 30
0.0
  0
VERTEX
  5
31B
330
F7
100
AcDbEntity
  8
MO_001_VIEW_PV
  6
C_SOLID_M
100
AcDbVertex
100
AcDb2dVertex
 10
-46.642739
 20
-67.678742
 30
0.0
  0
VERTEX
  5
31C
330
F7
100
AcDbEntity
  8
MO_001_VIEW_PV
  6
C_SOLID_M
100
AcDbVertex
100
AcDb2dVertex
 10
-47.000008
 20
-67.66476400000001
 30
0.0
  0
VERTEX
  5
31D
330
F7
100
AcDbEntity
  8
MO_001_VIEW_PV
  6
C_SOLID_M
100
AcDbVertex
100
AcDb2dVertex
 10
-47.362769
 20
-67.67916899999999
 30
0.0
  0
VERTEX
  5
31E
330
F7
100
AcDbEntity
  8
MO_001_VIEW_PV
  6
C_SOLID_M
100
AcDbVertex
100
AcDb2dVertex
 10
-47.618906
 20
-67.705871
 30
0.0
  0
VERTEX
  5
31F
330
F7
100
AcDbEntity
  8
MO_001_VIEW_PV
  6
C_SOLID_M
100
AcDbVertex
100
AcDb2dVertex
 10
-47.79998599999999
 20
-67.73260400000001
 30
0.0
  0
VERTEX
  5
320
330
F7
100
AcDbEntity
  8
MO_001_VIEW_PV
  6
C_SOLID_M
100
AcDbVertex
100
AcDb2dVertex
 10
-48.050804
 20
-67.78013299999999
 30
0.0
  0
VERTEX
  5
321
330
F7
100
AcDbEntity
  8
MO_001_VIEW_PV
  6
C_SOLID_M
100
AcDbVertex
100
AcDb2dVertex
 10
-48.272796
 20
-67.83238199999999
 30
0.0
  0
VERTEX
  5
322
330
F7
100
AcDbEntity
  8
MO_001_VIEW_PV
  6
C_SOLID_M
100
AcDbVertex
100
AcDb2dVertex
 10
-48.388971
 20
-67.863647
 30
0.0
  0
VERTEX
  5
323
330
F7
100
AcDbEntity
  8
MO_001_VIEW_PV
  6
C_SOLID_M
100
AcDbVertex
100
AcDb2dVertex
 10
-48.480357
 20
-67.890231
 30
0.0
  0
VERTEX
  5
324
330
F7
100
AcDbEntity
  8
MO_001_VIEW_PV
  6
C_SOLID_M
100
AcDbVertex
100
AcDb2dVertex
 10
-48.615329
 20
-67.93296600000001
 30
0.0
  0
VERTEX
  5
325
330
F7
100
AcDbEntity
  8
MO_001_VIEW_PV
  6
C_SOLID_M
100
AcDbVertex
100
AcDb2dVertex
 10
-48.694068
 20
-67.96006199999999
 30
0.0
  0
VERTEX
  5
326
330
F7
100
AcDbEntity
  8
MO_001_VIEW_PV
  6
C_SOLID_M
100
AcDbVertex
100
AcDb2dVertex
 10
-48.73954799999999
 20
-67.97659300000001
 30
0.0
  0
VERTEX
  5
327
330
F7
100
AcDbEntity
  8
MO_001_VIEW_PV
  6
C_SOLID_M
100
AcDbVertex
100
AcDb2dVertex
 10
-48.78456400000001
 20
-67.99379499999999
 30
0.0
  0
VERTEX
  5
328
330
F7
100
AcDbEntity
  8
MO_001_VIEW_PV
  6
C_SOLID_M
100
AcDbVertex
100
AcDb2dVertex
 10
-48.800003
 20
-68.0
 30
0.0
  0
SEQEND
  5
329
330
F7
100
AcDbEntity
  8
MO_001_VIEW_PV
  6
C_SOLID_M
  0
LINE
  5
12A
330
1E
100
AcDbEntity
  8
MO_001_VIEW_PV
  6
C_DASHED_M
100
AcDbLine
 10
-45.49998
 20
-67.699974
 30
0.0
 11
-45.19998
 21
-67.99997399999999
 31
0.0
  0
LINE
  5
12B
330
1E
100
AcDbEntity
  8
MO_001_VIEW_PV
  6
C_DASHED_M
100
AcDbLine
 10
-48.49999
 20
-67.69999
 30
0.0
 11
-48.799989
 21
-67.99998999999999
 31
0.0
  0
LINE
  5
12C
330
1E
100
AcDbEntity
  8
MO_001_VIEW_PV
  6
C_DASHED_M
100
AcDbLine
 10
-48.799981
 20
-57.999978
 30
0.0
 11
-48.49998
 21
-58.299981
 31
0.0
  0
LINE
  5
12D
330
1E
100
AcDbEntity
  8
MO_001_VIEW_PV
  6
C_DASHED_M
100
AcDbLine
 10
-45.19998
 20
-57.99997499999999
 30
0.0
 11
-45.499979
 21
-58.29997399999999
 31
0.0
  0
LINE
  5
12E
330
1E
100
AcDbEntity
  8
MO_001_VIEW_PV
  6
C_SOLID_M
100
AcDbLine
 10
-39.0
 20
-68.0
 30
0.0
 11
-45.200005
 21
-68.0
 31
0.0
  0
LINE
  5
12F
330
1E
100
AcDbEntity
  8
MO_001_VIEW_PV
  6
C_SOLID_M
100
AcDbLine
 10
-39.0
 20
-58.0
 30
0.0
 11
-45.200005
 21
-58.0
 31
0.0
  0
LINE
  5
130
330
1E
100
AcDbEntity
  8
MO_001_VIEW_PV
  6
C_SOLID_M
100
AcDbLine
 10
-50.000008
 20
4.242644999999999
 30
0.0
 11
-50.000008
 21
-4.242637999999999
 31
0.0
  0
LINE
  5
131
330
1E
100
AcDbEntity
  8
MO_001_VIEW_PV
  6
C_CENTER_L
100
AcDbLine
 10
-47.000008
 20
3.258025999999999
 30
0.0
 11
-47.000008
 21
-3.298919999999999
 31
0.0
  0
ARC
  5
132
330
1E
100
AcDbEntity
  8
MO_001_VIEW_PV
  6
C_SOLID_M
100
AcDbCircle
 10
-87.0
 20
0.0
 30
0.0
 40
5.0
100
AcDbArc
 50
275.739187
 51
264.2608109999999
  0
LINE
  5
133
330
1E
100
AcDbEntity
  8
MO_001_VIEW_PV
  6
C_SOLID_M
100
AcDbLine
 10
-86.999971
 20
-4.474931999999999
 30
0.0
 11
-87.49997200000001
 21
-4.974933
 31
0.0
  0
LINE
  5
134
330
1E
100
AcDbEntity
  8
MO_001_VIEW_PV
  6
C_SOLID_M
100
AcDbLine
 10
-86.999971
 20
-4.474931999999999
 30
0.0
 11
-86.49996999999999
 21
-4.974933
 31
0.0
  0
LINE
  5
135
330
1E
100
AcDbEntity
  8
MO_001_VIEW_PV
  6
C_SOLID_M
100
AcDbLine
 10
-38.900005
 20
5.0
 30
0.0
 11
-42.000008
 21
5.0
 31
0.0
  0
ARC
  5
136
330
1E
100
AcDbEntity
  8
MO_001_VIEW_PV
  6
C_SOLID_M
100
AcDbCircle
 10
-87.0
 20
0.0
 30
0.0
 40
4.5
100
AcDbArc
 50
289.471221
 51
70.52877200000001
  0
LINE
  5
137
330
1E
100
AcDbEntity
  8
MO_001_VIEW_PV
  6
C_SOLID_M
100
AcDbLine
 10
-85.5
 20
4.769699
 30
0.0
 11
-85.5
 21
-4.769699
 31
0.0
  0
LINE
  5
138
330
1E
100
AcDbEntity
  8
MO_001_VIEW_PV
  6
C_SOLID_M
100
AcDbLine
 10
-88.49999999999999
 20
4.769699
 30
0.0
 11
-88.49999999999999
 21
-4.769699
 31
0.0
  0
ARC
  5
139
330
1E
100
AcDbEntity
  8
MO_001_VIEW_PV
  6
C_SOLID_M
100
AcDbCircle
 10
-87.0
 20
0.0
 30
0.0
 40
4.5
100
AcDbArc
 50
109.471233
 51
250.5287709999999
  0
LINE
  5
13A
330
1E
100
AcDbEntity
  8
MO_001_VIEW_PV
  6
C_SOLID_M
100
AcDbLine
 10
-42.000008
 20
5.0
 30
0.0
 11
-42.000008
 21
4.769699
 31
0.0
  0
LINE
  5
13B
330
1E
100
AcDbEntity
  8
MO_001_VIEW_PV
  6
C_SOLID_M
100
AcDbLine
 10
-42.000008
 20
4.769699
 30
0.0
 11
-49.500008
 21
4.769699
 31
0.0
  0
LINE
  5
13C
330
1E
100
AcDbEntity
  8
MO_001_VIEW_PV
  6
C_SOLID_M
100
AcDbLine
 10
-50.00000299999999
 20
4.242641
 30
0.0
 11
-49.500004
 21
4.769696999999999
 31
0.0
  0
LINE
  5
13D
330
1E
100
AcDbEntity
  8
MO_001_VIEW_PV
  6
C_SOLID_M
100
AcDbLine
 10
-49.500008
 20
4.769699
 30
0.0
 11
-49.500008
 21
-4.769694999999999
 31
0.0
  0
CIRCLE
  5
13E
330
1E
100
AcDbEntity
  8
MO_001_VIEW_PV
  6
C_SOLID_M
100
AcDbCircle
 10
-47.000008
 20
0.0
 30
0.0
 40
1.5
  0
CIRCLE
  5
13F
330
1E
100
AcDbEntity
  8
MO_001_VIEW_PV
  6
C_SOLID_M
100
AcDbCircle
 10
-47.000008
 20
0.0
 30
0.0
 40
1.8
  0
LINE
  5
140
330
1E
100
AcDbEntity
  8
MO_001_VIEW_PV
  6
C_SOLID_M
100
AcDbLine
 10
-50.00000700000001
 20
-4.242637
 30
0.0
 11
-49.500005
 21
-4.769695999999999
 31
0.0
  0
LINE
  5
141
330
1E
100
AcDbEntity
  8
MO_001_VIEW_PV
  6
C_SOLID_M
100
AcDbLine
 10
-42.000008
 20
-4.769699
 30
0.0
 11
-49.500008
 21
-4.769699
 31
0.0
  0
LINE
  5
142
330
1E
100
AcDbEntity
  8
MO_001_VIEW_PV
  6
C_SOLID_M
100
AcDbLine
 10
-42.000008
 20
-5.0
 30
0.0
 11
-42.000008
 21
-4.769699
 31
0.0
  0
LINE
  5
143
330
1E
100
AcDbEntity
  8
MO_001_VIEW_PV
  6
C_SOLID_M
100
AcDbLine
 10
-38.900002
 20
-63.0
 30
0.0
 11
-42.000008
 21
-63.0
 31
0.0
  0
LINE
  5
144
330
1E
100
AcDbEntity
  8
MO_001_VIEW_PV
  6
C_SOLID_M
100
AcDbLine
 10
0.5
 20
-61.660004
 30
0.0
 11
0.5
 21
-64.33999599999999
 31
0.0
  0
LINE
  5
145
330
1E
100
AcDbEntity
  8
MO_001_VIEW_PV
  6
C_SOLID_M
100
AcDbLine
 10
0.0
 20
2.0
 30
0.0
 11
0.5
 21
2.0
 31
0.0
  0
LINE
  5
146
330
1E
100
AcDbEntity
  8
MO_001_VIEW_PV
  6
C_SOLID_M
100
AcDbLine
 10
0.5
 20
2.0
 30
0.0
 11
0.5
 21
-2.0
 31
0.0
  0
LINE
  5
147
330
1E
100
AcDbEntity
  8
MO_001_VIEW_PV
  6
C_SOLID_M
100
AcDbLine
 10
0.0
 20
-2.0
 30
0.0
 11
0.5
 21
-2.0
 31
0.0
  0
LINE
  5
148
330
1E
100
AcDbEntity
  8
MO_001_VIEW_PV
  6
C_SOLID_M
100
AcDbLine
 10
-34.900002
 20
-75.350006
 30
0.0
 11
-36.0
 21
-75.350006
 31
0.0
  0
LINE
  5
149
330
1E
100
AcDbEntity
  8
MO_001_VIEW_PV
  6
C_SOLID_M
100
AcDbLine
 10
-2.0
 20
-75.44999699999999
 30
0.0
 11
-2.0
 21
-65.660004
 31
0.0
  0
LINE
  5
14A
330
1E
100
AcDbEntity
  8
MO_001_VIEW_PV
  6
C_SOLID_M
100
AcDbLine
 10
-36.0
 20
-75.350006
 30
0.0
 11
-36.0
 21
-50.650002
 31
0.0
  0
LINE
  5
14B
330
1E
100
AcDbEntity
  8
MO_001_VIEW_PV
  6
C_SOLID_M
100
AcDbLine
 10
-2.0
 20
-75.44999699999999
 30
0.0
 11
-3.100001999999999
 21
-75.44999699999999
 31
0.0
  0
LINE
  5
14C
330
1E
100
AcDbEntity
  8
MO_001_VIEW_PV
  6
C_SOLID_M
100
AcDbLine
 10
-34.900002
 20
-50.650002
 30
0.0
 11
-36.0
 21
-50.650002
 31
0.0
  0
LINE
  5
14D
330
1E
100
AcDbEntity
  8
MO_001_VIEW_PV
  6
C_SOLID_M
100
AcDbLine
 10
-34.900002
 20
-50.650002
 30
0.0
 11
-34.900002
 21
-75.350006
 31
0.0
  0
LINE
  5
14E
330
1E
100
AcDbEntity
  8
MO_001_VIEW_PV
  6
C_SOLID_M
100
AcDbLine
 10
-3.100001999999999
 20
-50.550003
 30
0.0
 11
-3.100001999999999
 21
-60.339996
 31
0.0
  0
LINE
  5
14F
330
1E
100
AcDbEntity
  8
MO_001_VIEW_PV
  6
C_SOLID_M
100
AcDbLine
 10
-2.0
 20
-50.550003
 30
0.0
 11
-3.100001999999999
 21
-50.550003
 31
0.0
  0
LINE
  5
150
330
1E
100
AcDbEntity
  8
MO_001_VIEW_PV
  6
C_SOLID_M
100
AcDbLine
 10
-3.100001999999999
 20
-51.650002
 30
0.0
 11
-34.900002
 21
-51.650002
 31
0.0
  0
LINE
  5
151
330
1E
100
AcDbEntity
  8
MO_001_VIEW_PV
  6
C_SOLID_M
100
AcDbLine
 10
-3.100001999999999
 20
-74.35000600000001
 30
0.0
 11
-34.900002
 21
-74.35000600000001
 31
0.0
  0
LINE
  5
152
330
1E
100
AcDbEntity
  8
MO_001_VIEW_PV
  6
C_SOLID_M
100
AcDbLine
 10
47.0
 20
-60.75999499999999
 30
0.0
 11
47.0
 21
-61.24000500000001
 31
0.0
  0
LINE
  5
153
330
1E
100
AcDbEntity
  8
MO_001_VIEW_PV
  6
C_SOLID_M
100
AcDbLine
 10
42.0
 20
-60.339996
 30
0.0
 11
42.0
 21
-61.660004
 31
0.0
  0
LINE
  5
154
330
1E
100
AcDbEntity
  8
MO_001_VIEW_PV
  6
C_SOLID_M
100
AcDbLine
 10
-4.559998
 20
-60.339996
 30
0.0
 11
42.0
 21
-60.339996
 31
0.0
  0
LINE
  5
155
330
1E
100
AcDbEntity
  8
MO_001_VIEW_PV
  6
C_SOLID_M
100
AcDbLine
 10
-4.559998
 20
-61.660004
 30
0.0
 11
42.0
 21
-61.660004
 31
0.0
  0
LINE
  5
156
330
1E
100
AcDbEntity
  8
MO_001_VIEW_PV
  6
C_SOLID_M
100
AcDbLine
 10
42.0
 20
-60.75999499999999
 30
0.0
 11
47.0
 21
-60.75999499999999
 31
0.0
  0
LINE
  5
157
330
1E
100
AcDbEntity
  8
MO_001_VIEW_PV
  6
C_SOLID_M
100
AcDbLine
 10
42.0
 20
-61.24000500000001
 30
0.0
 11
47.0
 21
-61.24000500000001
 31
0.0
  0
LINE
  5
158
330
1E
100
AcDbEntity
  8
MO_001_VIEW_PV
  6
C_SOLID_M
100
AcDbLine
 10
47.0
 20
-64.75999499999999
 30
0.0
 11
47.0
 21
-65.24000500000001
 31
0.0
  0
LINE
  5
159
330
1E
100
AcDbEntity
  8
MO_001_VIEW_PV
  6
C_SOLID_M
100
AcDbLine
 10
42.0
 20
-64.33999599999999
 30
0.0
 11
42.0
 21
-65.660004
 31
0.0
  0
LINE
  5
15A
330
1E
100
AcDbEntity
  8
MO_001_VIEW_PV
  6
C_SOLID_M
100
AcDbLine
 10
-4.559998
 20
-64.33999599999999
 30
0.0
 11
42.0
 21
-64.33999599999999
 31
0.0
  0
LINE
  5
15B
330
1E
100
AcDbEntity
  8
MO_001_VIEW_PV
  6
C_SOLID_M
100
AcDbLine
 10
-4.559998
 20
-65.660004
 30
0.0
 11
42.0
 21
-65.660004
 31
0.0
  0
LINE
  5
15C
330
1E
100
AcDbEntity
  8
MO_001_VIEW_PV
  6
C_SOLID_M
100
AcDbLine
 10
42.0
 20
-64.75999499999999
 30
0.0
 11
47.0
 21
-64.75999499999999
 31
0.0
  0
LINE
  5
15D
330
1E
100
AcDbEntity
  8
MO_001_VIEW_PV
  6
C_SOLID_M
100
AcDbLine
 10
42.0
 20
-65.24000500000001
 30
0.0
 11
47.0
 21
-65.24000500000001
 31
0.0
  0
ARC
  5
15E
330
1E
100
AcDbEntity
  8
MO_001_VIEW_PV
  6
C_SOLID_M
100
AcDbCircle
 10
-4.559998
 20
-65.0
 30
0.0
 40
0.6600000000000001
100
AcDbArc
 50
90.000002
 51
270.000001
  0
ARC
  5
15F
330
1E
100
AcDbEntity
  8
MO_001_VIEW_PV
  6
C_SOLID_M
100
AcDbCircle
 10
-4.559998
 20
-61.0
 30
0.0
 40
0.6600000000000001
100
AcDbArc
 50
90.000002
 51
270.000001
  0
LINE
  5
160
330
1E
100
AcDbEntity
  8
MO_001_VIEW_PV
  6
C_SOLID_M
100
AcDbLine
 10
-2.0
 20
-65.660004
 30
0.0
 11
-2.0
 21
-75.5
 31
0.0
  0
LINE
  5
161
330
1E
100
AcDbEntity
  8
MO_001_VIEW_PV
  6
C_SOLID_M
100
AcDbLine
 10
0.0
 20
-65.660004
 30
0.0
 11
0.0
 21
-75.5
 31
0.0
  0
LINE
  5
162
330
1E
100
AcDbEntity
  8
MO_001_VIEW_PV
  6
C_SOLID_M
100
AcDbLine
 10
-2.0
 20
-64.33999599999999
 30
0.0
 11
-2.0
 21
-61.660004
 31
0.0
  0
LINE
  5
163
330
1E
100
AcDbEntity
  8
MO_001_VIEW_PV
  6
C_SOLID_M
100
AcDbLine
 10
-3.100001999999999
 20
-65.660004
 30
0.0
 11
-3.100001999999999
 21
-75.44999699999999
 31
0.0
  0
LINE
  5
164
330
1E
100
AcDbEntity
  8
MO_001_VIEW_PV
  6
C_SOLID_M
100
AcDbLine
 10
-2.0
 20
-61.660004
 30
0.0
 11
-2.0
 21
-64.33999599999999
 31
0.0
  0
LINE
  5
165
330
1E
100
AcDbEntity
  8
MO_001_VIEW_PV
  6
C_SOLID_M
100
AcDbLine
 10
0.0
 20
-61.660004
 30
0.0
 11
0.0
 21
-64.33999599999999
 31
0.0
  0
LINE
  5
166
330
1E
100
AcDbEntity
  8
MO_001_VIEW_PV
  6
C_SOLID_M
100
AcDbLine
 10
-3.100001999999999
 20
-61.660004
 30
0.0
 11
-3.100001999999999
 21
-64.33999599999999
 31
0.0
  0
LINE
  5
167
330
1E
100
AcDbEntity
  8
MO_001_VIEW_PV
  6
C_SOLID_M
100
AcDbLine
 10
-2.0
 20
-60.339996
 30
0.0
 11
-2.0
 21
-50.550003
 31
0.0
  0
LINE
  5
168
330
1E
100
AcDbEntity
  8
MO_001_VIEW_PV
  6
C_SOLID_M
100
AcDbLine
 10
47.0
 20
-13.419998
 30
0.0
 11
47.0
 21
-13.900002
 31
0.0
  0
LINE
  5
169
330
1E
100
AcDbEntity
  8
MO_001_VIEW_PV
  6
C_SOLID_M
100
AcDbLine
 10
42.0
 20
-13.0
 30
0.0
 11
42.0
 21
-14.32
 31
0.0
  0
LINE
  5
16A
330
1E
100
AcDbEntity
  8
MO_001_VIEW_PV
  6
C_SOLID_M
100
AcDbLine
 10
-2.100001999999999
 20
-13.0
 30
0.0
 11
42.0
 21
-13.0
 31
0.0
  0
LINE
  5
16B
330
1E
100
AcDbEntity
  8
MO_001_VIEW_PV
  6
C_SOLID_M
100
AcDbLine
 10
-2.100001999999999
 20
-14.32
 30
0.0
 11
42.0
 21
-14.32
 31
0.0
  0
LINE
  5
16C
330
1E
100
AcDbEntity
  8
MO_001_VIEW_PV
  6
C_SOLID_M
100
AcDbLine
 10
42.0
 20
-13.419998
 30
0.0
 11
47.0
 21
-13.419998
 31
0.0
  0
LINE
  5
16D
330
1E
100
AcDbEntity
  8
MO_001_VIEW_PV
  6
C_SOLID_M
100
AcDbLine
 10
42.0
 20
-13.900002
 30
0.0
 11
47.0
 21
-13.900002
 31
0.0
  0
ARC
  5
16E
330
1E
100
AcDbEntity
  8
MO_001_VIEW_PV
  6
C_SOLID_M
100
AcDbCircle
 10
-2.100001999999999
 20
-11.0
 30
0.0
 40
2.0
100
AcDbArc
 50
210.0000029999999
 51
269.999998
  0
ARC
  5
16F
330
1E
100
AcDbEntity
  8
MO_001_VIEW_PV
  6
C_SOLID_M
100
AcDbCircle
 10
-2.100001999999999
 20
-11.0
 30
0.0
 40
3.319999999999999
100
AcDbArc
 50
202.0824059999999
 51
269.999998
  0
ARC
  5
170
330
1E
100
AcDbEntity
  8
MO_001_VIEW_PV
  6
C_SOLID_M
100
AcDbCircle
 10
-7.029747999999999
 20
-13.0
 30
0.0
 40
2.0
100
AcDbArc
 50
22.082439
 51
30.000001
  0
LINE
  5
171
330
1E
100
AcDbEntity
  8
MO_001_VIEW_PV
  6
C_SOLID_M
100
AcDbLine
 10
-40.00000299999999
 20
6.685086999999999
 30
0.0
 11
-38.700882
 21
5.935039999999999
 31
0.0
  0
LINE
  5
172
330
1E
100
AcDbEntity
  8
MO_001_VIEW_PV
  6
C_SOLID_M
100
AcDbLine
 10
-40.00000299999999
 20
5.635083999999999
 30
0.0
 11
-38.900005
 21
5.0
 31
0.0
  0
LINE
  5
173
330
1E
100
AcDbEntity
  8
MO_001_VIEW_PV
  6
C_SOLID_M
100
AcDbLine
 10
-40.000004
 20
4.80604
 30
0.0
 11
-38.900003
 21
5.0
 31
0.0
  0
LINE
  5
174
330
1E
100
AcDbEntity
  8
MO_001_VIEW_PV
  6
C_SOLID_M
100
AcDbLine
 10
-40.000004
 20
-4.80604
 30
0.0
 11
-40.000004
 21
4.806041
 31
0.0
  0
LINE
  5
175
330
1E
100
AcDbEntity
  8
MO_001_VIEW_PV
  6
C_SOLID_M
100
AcDbLine
 10
-38.900005
 20
-5.0
 30
0.0
 11
-42.000008
 21
-5.0
 31
0.0
  0
LINE
  5
176
330
1E
100
AcDbEntity
  8
MO_001_VIEW_PV
  6
C_SOLID_M
100
AcDbLine
 10
-40.000004
 20
-4.80604
 30
0.0
 11
-38.900003
 21
-4.999998999999999
 31
0.0
  0
LINE
  5
177
330
1E
100
AcDbEntity
  8
MO_001_VIEW_PV
  6
C_SOLID_M
100
AcDbLine
 10
-40.00000299999999
 20
-5.635083999999999
 30
0.0
 11
-38.900005
 21
-5.0
 31
0.0
  0
LINE
  5
178
330
1E
100
AcDbEntity
  8
MO_001_VIEW_PV
  6
C_SOLID_M
100
AcDbLine
 10
-40.000004
 20
-5.635083999999999
 30
0.0
 11
-40.000004
 21
-6.685086999999999
 31
0.0
  0
LINE
  5
179
330
1E
100
AcDbEntity
  8
MO_001_VIEW_PV
  6
C_SOLID_M
100
AcDbLine
 10
-40.00000299999999
 20
-6.685086999999999
 30
0.0
 11
-38.700882
 21
-5.935039999999999
 31
0.0
  0
LINE
  5
17A
330
1E
100
AcDbEntity
  8
MO_001_VIEW_PV
  6
C_SOLID_M
100
AcDbLine
 10
-38.700881
 20
-5.935037999999999
 30
0.0
 11
-36.00000099999999
 21
-5.799996
 31
0.0
  0
LINE
  5
17B
330
1E
100
AcDbEntity
  8
MO_001_VIEW_PV
  6
C_SOLID_M
100
AcDbLine
 10
-74.5
 20
4.806041
 30
0.0
 11
-72.5
 21
4.806041
 31
0.0
  0
LINE
  5
17C
330
1E
100
AcDbEntity
  8
MO_001_VIEW_PV
  6
C_SOLID_M
100
AcDbLine
 10
-74.5
 20
5.635083999999999
 30
0.0
 11
-72.5
 21
5.635083999999999
 31
0.0
  0
LINE
  5
17D
330
1E
100
AcDbEntity
  8
MO_001_VIEW_PV
  6
C_SOLID_M
100
AcDbLine
 10
-74.5
 20
5.0
 30
0.0
 11
-72.5
 21
5.0
 31
0.0
  0
LINE
  5
17E
330
1E
100
AcDbEntity
  8
MO_001_VIEW_PV
  6
C_SOLID_M
100
AcDbLine
 10
-74.5
 20
6.685086999999999
 30
0.0
 11
-72.5
 21
6.685086999999999
 31
0.0
  0
LINE
  5
17F
330
1E
100
AcDbEntity
  8
MO_001_VIEW_PV
  6
C_SOLID_M
100
AcDbLine
 10
-74.5
 20
-4.806041
 30
0.0
 11
-72.5
 21
-4.806041
 31
0.0
  0
LINE
  5
180
330
1E
100
AcDbEntity
  8
MO_001_VIEW_PV
  6
C_SOLID_M
100
AcDbLine
 10
-74.5
 20
-5.635083999999999
 30
0.0
 11
-72.5
 21
-5.635083999999999
 31
0.0
  0
LINE
  5
181
330
1E
100
AcDbEntity
  8
MO_001_VIEW_PV
  6
C_SOLID_M
100
AcDbLine
 10
-74.5
 20
-5.0
 30
0.0
 11
-72.5
 21
-5.0
 31
0.0
  0
LINE
  5
182
330
1E
100
AcDbEntity
  8
MO_001_VIEW_PV
  6
C_SOLID_M
100
AcDbLine
 10
-74.5
 20
-6.685086999999999
 30
0.0
 11
-72.5
 21
-6.685086999999999
 31
0.0
  0
LINE
  5
183
330
1E
100
AcDbEntity
  8
MO_001_VIEW_PV
  6
C_SOLID_M
100
AcDbLine
 10
-99.50000000000001
 20
-6.685086999999999
 30
0.0
 11
-99.50000000000001
 21
6.685086999999999
 31
0.0
  0
LINE
  5
184
330
1E
100
AcDbEntity
  8
MO_001_VIEW_PV
  6
C_SOLID_M
100
AcDbLine
 10
-99.50000000000001
 20
4.806041
 30
0.0
 11
-101.5
 21
4.806041
 31
0.0
  0
LINE
  5
185
330
1E
100
AcDbEntity
  8
MO_001_VIEW_PV
  6
C_SOLID_M
100
AcDbLine
 10
-99.50000000000001
 20
5.635083999999999
 30
0.0
 11
-101.5
 21
5.635083999999999
 31
0.0
  0
LINE
  5
186
330
1E
100
AcDbEntity
  8
MO_001_VIEW_PV
  6
C_SOLID_M
100
AcDbLine
 10
-99.50000000000001
 20
5.0
 30
0.0
 11
-101.5
 21
5.0
 31
0.0
  0
LINE
  5
187
330
1E
100
AcDbEntity
  8
MO_001_VIEW_PV
  6
C_SOLID_M
100
AcDbLine
 10
-99.50000000000001
 20
6.685086999999999
 30
0.0
 11
-101.5
 21
6.685086999999999
 31
0.0
  0
LINE
  5
188
330
1E
100
AcDbEntity
  8
MO_001_VIEW_PV
  6
C_SOLID_M
100
AcDbLine
 10
-99.50000000000001
 20
-4.806041
 30
0.0
 11
-101.5
 21
-4.806041
 31
0.0
  0
LINE
  5
189
330
1E
100
AcDbEntity
  8
MO_001_VIEW_PV
  6
C_SOLID_M
100
AcDbLine
 10
-99.50000000000001
 20
-5.635083999999999
 30
0.0
 11
-101.5
 21
-5.635083999999999
 31
0.0
  0
LINE
  5
18A
330
1E
100
AcDbEntity
  8
MO_001_VIEW_PV
  6
C_SOLID_M
100
AcDbLine
 10
-99.50000000000001
 20
-5.0
 30
0.0
 11
-101.5
 21
-5.0
 31
0.0
  0
LINE
  5
18B
330
1E
100
AcDbEntity
  8
MO_001_VIEW_PV
  6
C_SOLID_M
100
AcDbLine
 10
-99.50000000000001
 20
-6.685086999999999
 30
0.0
 11
-101.5
 21
-6.685086999999999
 31
0.0
  0
LINE
  5
18C
330
1E
100
AcDbEntity
  8
MO_001_VIEW_PV
  6
C_SOLID_M
100
AcDbLine
 10
-36.0
 20
-50.650002
 30
0.0
 11
-36.0
 21
-75.350006
 31
0.0
  0
LINE
  5
18D
330
1E
100
AcDbEntity
  8
MO_001_VIEW_PV
  6
C_SOLID_M
100
AcDbLine
 10
-36.100002
 20
-12.0
 30
0.0
 11
-36.100002
 21
-5.799998999999999
 31
0.0
  0
LINE
  5
18E
330
1E
100
AcDbEntity
  8
MO_001_VIEW_PV
  6
C_SOLID_M
100
AcDbLine
 10
-36.100002
 20
5.800003
 30
0.0
 11
-36.100002
 21
12.0
 31
0.0
  0
LINE
  5
18F
330
1E
100
AcDbEntity
  8
MO_001_VIEW_PV
  6
C_SOLID_M
100
AcDbLine
 10
-39.00000399999999
 20
-12.0
 30
0.0
 11
-36.100002
 21
-12.0
 31
0.0
  0
LINE
  5
190
330
1E
100
AcDbEntity
  8
MO_001_VIEW_PV
  6
C_SOLID_M
100
AcDbLine
 10
-39.00000399999999
 20
12.0
 30
0.0
 11
-36.100002
 21
12.0
 31
0.0
  0
LINE
  5
191
330
1E
100
AcDbEntity
  8
MO_001_VIEW_PV
  6
C_SOLID_L
100
AcDbLine
 10
-66.0
 20
-18.0
 30
0.0
 11
-54.0
 21
-18.0
 31
0.0
  0
LINE
  5
192
330
1E
100
AcDbEntity
  8
MO_001_VIEW_PV
  6
C_SOLID_L
100
AcDbLine
 10
6.0
 20
30.0
 30
0.0
 11
30.799805
 21
30.0
 31
0.0
  0
TEXT
  5
193
330
1E
100
AcDbEntity
  8
MO_001_VIEW_PV
  6
C_SOLID_L
100
AcDbText
 10
-112.488281
 20
-92.08359399999999
 30
0.0
 40
4.167187
  1
SK1040A
100
AcDbText
  0
TEXT
  5
194
330
1E
100
AcDbEntity
  8
MO_001_VIEW_PV
  6
C_SOLID_L
100
AcDbText
 10
4.428570999999999
 20
-30.75
 30
0.0
 40
3.0
  1
UL1007 AWG.26
100
AcDbText
  0
TEXT
  5
195
330
1E
100
AcDbEntity
  8
MO_001_VIEW_PV
  6
C_SOLID_L
100
AcDbText
 10
-61.071429
 20
-85.5
 30
0.0
 40
3.0
  1
板厚2.0mm、ネジ突き出しは1.0mm以下
100
AcDbText
  0
TEXT
  5
196
330
1E
100
AcDbEntity
  8
MO_001_VIEW_PV
  6
C_SOLID_L
100
AcDbText
 10
16.511719
 20
-98.083594
 30
0.0
 40
4.167187
  1
図は励磁時を示す
100
AcDbText
  0
TEXT
  5
197
330
1E
100
AcDbEntity
  8
MO_001_VIEW_PV
  6
C_SOLID_L
100
AcDbText
 10
16.511719
 20
-92.08359399999999
 30
0.0
 40
4.167187
  1
単位：mm
100
AcDbText
  0
TEXT
  5
198
330
1E
100
AcDbEntity
  8
MO_001_VIEW_PV
  6
C_SOLID_L
100
AcDbText
 10
-59.78571399999999
 20
-15.375
 30
0.0
 40
1.5
  1
+0.1
100
AcDbText
  0
TEXT
  5
199
330
1E
100
AcDbEntity
  8
MO_001_VIEW_PV
  6
C_SOLID_L
100
AcDbText
 10
-59.78571399999999
 20
-17.625
 30
0.0
 40
1.5
  1
 0
100
AcDbText
  0
TEXT
  5
19A
330
1E
100
AcDbEntity
  8
MO_001_VIEW_PV
  6
C_SOLID_L
100
AcDbText
 10
-65.57142900000001
 20
-17.25
 30
0.0
 40
3.0
  1
%%C3
100
AcDbText
  0
TEXT
  5
19B
330
1E
100
AcDbEntity
  8
MO_001_VIEW_PV
  6
C_SOLID_L
100
AcDbText
 10
6.428570999999999
 20
30.75
 30
0.0
 40
3.0
  1
4-M3x0.5
100
AcDbText
  0
POLYLINE
  5
19C
330
1E
100
AcDbEntity
  8
MO_001_NOSHOW
  6
C_SOLID_M
100
AcDb2dPolyline
 66
     1
 10
0.0
 20
0.0
 30
0.0
 70
     5
 75
     6
  0
VERTEX
  5
19D
330
19C
100
AcDbEntity
  8
MO_001_NOSHOW
  6
C_SOLID_M
100
AcDbVertex
100
AcDb2dVertex
 10
-48.500008
 20
-58.300003
 30
0.0
 50
165.963756
  0
VERTEX
  5
19E
330
19C
100
AcDbEntity
  8
MO_001_NOSHOW
  6
C_SOLID_M
100
AcDbVertex
100
AcDb2dVertex
 10
-47.000008
 20
-58.545792
 30
0.0
 50
359.817493
  0
VERTEX
  5
19F
330
19C
100
AcDbEntity
  8
MO_001_NOSHOW
  6
C_SOLID_M
100
AcDbVertex
100
AcDb2dVertex
 10
-45.500008
 20
-58.300003
 30
0.0
 50
333.2524439999999
  0
VERTEX
  5
1A0
330
19C
100
AcDbEntity
  8
MO_001_NOSHOW
  6
C_SOLID_M
100
AcDbVertex
100
AcDb2dVertex
 10
-47.000008
 20
-58.545792
 30
0.0
 50
179.817496
  0
VERTEX
  5
1A1
330
19C
100
AcDbEntity
  8
MO_001_NOSHOW
  6
C_SOLID_M
100
AcDbVertex
100
AcDb2dVertex
 10
-48.500008
 20
-58.300003
 30
0.0
 50
90.00002499999999
  0
SEQEND
  5
1A2
330
19C
100
AcDbEntity
  8
0
  0
POLYLINE
  5
1A3
330
1E
100
AcDbEntity
  8
MO_001_NOSHOW
  6
C_SOLID_M
100
AcDb2dPolyline
 66
     1
 10
0.0
 20
0.0
 30
0.0
 70
     5
 75
     6
  0
VERTEX
  5
1A4
330
1A3
100
AcDbEntity
  8
MO_001_NOSHOW
  6
C_SOLID_M
100
AcDbVertex
100
AcDb2dVertex
 10
-48.500008
 20
-67.69999699999999
 30
0.0
 50
269.817495
  0
VERTEX
  5
1A5
330
1A3
100
AcDbEntity
  8
MO_001_NOSHOW
  6
C_SOLID_M
100
AcDbVertex
100
AcDb2dVertex
 10
-47.000008
 20
-67.45420799999999
 30
0.0
 50
359.817494
  0
VERTEX
  5
1A6
330
1A3
100
AcDbEntity
  8
MO_001_NOSHOW
  6
C_SOLID_M
100
AcDbVertex
100
AcDb2dVertex
 10
-45.500008
 20
-67.69999699999999
 30
0.0
 50
123.690068
  0
VERTEX
  5
1A7
330
1A3
100
AcDbEntity
  8
MO_001_NOSHOW
  6
C_SOLID_M
100
AcDbVertex
100
AcDb2dVertex
 10
-47.000008
 20
-67.45420799999999
 30
0.0
 50
179.817498
  0
VERTEX
  5
1A8
330
1A3
100
AcDbEntity
  8
MO_001_NOSHOW
  6
C_SOLID_M
100
AcDbVertex
100
AcDb2dVertex
 10
-48.500008
 20
-67.69999699999999
 30
0.0
 50
322.947602
  0
SEQEND
  5
1A9
330
1A3
100
AcDbEntity
  8
0
  0
POLYLINE
  5
1AA
330
1E
100
AcDbEntity
  8
MO_001_NOSHOW
  6
C_SOLID_M
100
AcDb2dPolyline
 66
     1
 10
0.0
 20
0.0
 30
0.0
 70
     5
 75
     6
  0
VERTEX
  5
1AB
330
1AA
100
AcDbEntity
  8
MO_001_NOSHOW
  6
C_SOLID_M
100
AcDbVertex
100
AcDb2dVertex
 10
-48.800003
 20
-58.0
 30
0.0
 50
165.963757
  0
VERTEX
  5
1AC
330
1AA
100
AcDbEntity
  8
MO_001_NOSHOW
  6
C_SOLID_M
100
AcDbVertex
100
AcDb2dVertex
 10
-47.000008
 20
-58.335236
 30
0.0
 50
359.817492
  0
VERTEX
  5
1AD
330
1AA
100
AcDbEntity
  8
MO_001_NOSHOW
  6
C_SOLID_M
100
AcDbVertex
100
AcDb2dVertex
 10
-45.200005
 20
-58.0
 30
0.0
 50
333.2524439999999
  0
VERTEX
  5
1AE
330
1AA
100
AcDbEntity
  8
MO_001_NOSHOW
  6
C_SOLID_M
100
AcDbVertex
100
AcDb2dVertex
 10
-47.000008
 20
-58.335236
 30
0.0
 50
179.817496
  0
VERTEX
  5
1AF
330
1AA
100
AcDbEntity
  8
MO_001_NOSHOW
  6
C_SOLID_M
100
AcDbVertex
100
AcDb2dVertex
 10
-48.800003
 20
-58.0
 30
0.0
 50
90.00000300000001
  0
SEQEND
  5
1B0
330
1AA
100
AcDbEntity
  8
0
  0
POLYLINE
  5
1B1
330
1E
100
AcDbEntity
  8
MO_001_NOSHOW
  6
C_SOLID_M
100
AcDb2dPolyline
 66
     1
 10
0.0
 20
0.0
 30
0.0
 70
     5
 75
     6
  0
VERTEX
  5
1B2
330
1B1
100
AcDbEntity
  8
MO_001_NOSHOW
  6
C_SOLID_M
100
AcDbVertex
100
AcDb2dVertex
 10
-48.800003
 20
-68.0
 30
0.0
 50
269.817495
  0
VERTEX
  5
1B3
330
1B1
100
AcDbEntity
  8
MO_001_NOSHOW
  6
C_SOLID_M
100
AcDbVertex
100
AcDb2dVertex
 10
-47.000008
 20
-67.66476400000001
 30
0.0
 50
359.817494
  0
VERTEX
  5
1B4
330
1B1
100
AcDbEntity
  8
MO_001_NOSHOW
  6
C_SOLID_M
100
AcDbVertex
100
AcDb2dVertex
 10
-45.200005
 20
-68.0
 30
0.0
 50
123.690067
  0
VERTEX
  5
1B5
330
1B1
100
AcDbEntity
  8
MO_001_NOSHOW
  6
C_SOLID_M
100
AcDbVertex
100
AcDb2dVertex
 10
-47.000008
 20
-67.66476400000001
 30
0.0
 50
179.817498
  0
VERTEX
  5
1B6
330
1B1
100
AcDbEntity
  8
MO_001_NOSHOW
  6
C_SOLID_M
100
AcDbVertex
100
AcDb2dVertex
 10
-48.800003
 20
-68.0
 30
0.0
 50
322.947602
  0
SEQEND
  5
1B7
330
1B1
100
AcDbEntity
  8
0
  0
DIMENSION
  5
1B9
330
1E
100
AcDbEntity
  8
MO_001_VIEW_PV
  6
C_SOLID_M
100
AcDbDimension
  2
*D0
 10
-21.0
 20
18.0
 30
0.0
 11
-21.0
 21
18.0
 31
0.0
  1
(12)
  3
STANDARD
100
AcDbAlignedDimension
 13
-11.999998
 23
13.199997
 33
0.0
 14
0.0
 24
12.0
 34
0.0
100
AcDbRotatedDimension
  0
DIMENSION
  5
1BB
330
1E
100
AcDbEntity
  8
MO_001_VIEW_PV
  6
C_SOLID_M
100
AcDbDimension
  2
*D1
 10
-20.000002
 20
24.0
 30
0.0
 11
-20.000002
 21
24.0
 31
0.0
  3
STANDARD
100
AcDbAlignedDimension
 13
0.0
 23
12.0
 33
0.0
 14
-40.000004
 24
6.685086999999999
 34
0.0
 50
179.97571
100
AcDbRotatedDimension
  0
DIMENSION
  5
1BD
330
1E
100
AcDbEntity
  8
MO_001_VIEW_PV
  6
C_SOLID_M
100
AcDbDimension
  2
*D2
 10
-25.000004
 20
30.0
 30
0.0
 11
-25.000004
 21
30.0
 31
0.0
  1
50
  3
STANDARD
100
AcDbAlignedDimension
 13
-50.000008
 23
4.242644999999999
 33
0.0
 14
0.0
 24
12.0
 34
0.0
100
AcDbRotatedDimension
  0
DIMENSION
  5
1BF
330
1E
100
AcDbEntity
  8
MO_001_VIEW_PV
  6
C_SOLID_M
100
AcDbDimension
  2
*D3
 10
-20.258766
 20
-27.0
 30
0.0
 11
-20.258766
 21
-27.0
 31
0.0
  3
STANDARD
100
AcDbAlignedDimension
 13
-29.99999799999999
 23
-13.199997
 33
0.0
 14
-11.999998
 24
-13.199997
 34
0.0
100
AcDbRotatedDimension
  0
DIMENSION
  5
1C1
330
1E
100
AcDbEntity
  8
MO_001_VIEW_PV
  6
C_SOLID_M
100
AcDbDimension
  2
*D4
 10
-38.002518
 20
-27.0
 30
0.0
 11
-38.002518
 21
-27.0
 31
0.0
  3
STANDARD
100
AcDbAlignedDimension
 13
-29.99999799999999
 23
-13.199997
 33
0.0
 14
-47.000008
 24
-3.298919999999999
 34
0.0
 50
179.97571
100
AcDbRotatedDimension
  0
DIMENSION
  5
1C3
330
1E
100
AcDbEntity
  8
MO_001_VIEW_PV
  6
C_SOLID_M
100
AcDbDimension
  2
*D5
 10
-58.52961
 20
-27.0
 30
0.0
 11
-58.52961
 21
-27.0
 31
0.0
  3
STANDARD
100
AcDbAlignedDimension
 13
-47.000008
 23
-3.298919999999999
 33
0.0
 14
-50.000008
 24
-4.242637999999999
 34
0.0
 50
179.97571
100
AcDbRotatedDimension
  0
DIMENSION
  5
1C5
330
1E
100
AcDbEntity
  8
MO_001_VIEW_PV
  6
C_SOLID_M
100
AcDbDimension
  2
*D6
 10
12.0
 20
-21.0
 30
0.0
 11
12.0
 21
-21.0
 31
0.0
  1
(0.5)
  3
STANDARD
100
AcDbAlignedDimension
 13
0.0
 23
-12.0
 33
0.0
 14
0.5
 24
-2.0
 34
0.0
100
AcDbRotatedDimension
  0
DIMENSION
  5
1C7
330
1E
100
AcDbEntity
  8
MO_001_VIEW_PV
  6
C_SOLID_M
100
AcDbDimension
  2
*D7
 10
23.5
 20
-27.0
 30
0.0
 11
23.5
 21
-27.0
 31
0.0
  1
長さ240以上
  3
STANDARD
100
AcDbAlignedDimension
 13
47.0
 23
-13.900002
 33
0.0
 14
0.0
 24
-12.0
 34
0.0
100
AcDbRotatedDimension
  0
DIMENSION
  5
1C9
330
1E
100
AcDbEntity
  8
MO_001_VIEW_PV
  6
C_SOLID_M
100
AcDbDimension
  2
*D8
 10
-63.0
 20
18.0
 30
0.0
 11
-63.0
 21
18.0
 31
0.0
  3
STANDARD
100
AcDbAlignedDimension
 13
-42.000008
 23
5.0
 33
0.0
 14
-42.000008
 24
-5.0
 34
0.0
 50
270.012145
100
AcDbRotatedDimension
  0
DIMENSION
  5
1CB
330
1E
100
AcDbEntity
  8
MO_001_VIEW_PV
  6
C_SOLID_M
100
AcDbDimension
  2
*D9
 10
-48.484996
 20
0.21168
 30
0.0
 11
-54.0
 21
-18.0
 31
0.0
 70
     3
  1
<>
  3
STANDARD
100
AcDbDiametricDimension
 15
-45.515019
 25
-0.21168
 35
0.0
 40
0.0
  0
DIMENSION
  5
1CD
330
1E
100
AcDbEntity
  8
MO_001_VIEW_PV
  6
C_SOLID_M
100
AcDbDimension
  2
*D10
 10
24.0
 20
18.670521
 30
0.0
 11
24.0
 21
18.670521
 31
0.0
  3
STANDARD
100
AcDbAlignedDimension
 13
-8.499997999999999
 23
9.699996999999999
 33
0.0
 14
-8.499997999999999
 24
-9.699996999999999
 34
0.0
 50
270.012145
100
AcDbRotatedDimension
  0
DIMENSION
  5
1CF
330
1E
100
AcDbEntity
  8
MO_001_VIEW_PV
  6
C_SOLID_M
100
AcDbDimension
  2
*D11
 10
-87.0
 20
-21.0
 30
0.0
 11
-87.0
 21
-21.0
 31
0.0
  3
STANDARD
100
AcDbAlignedDimension
 13
-72.5
 23
-12.0
 33
0.0
 14
-101.5
 24
-12.0
 34
0.0
100
AcDbRotatedDimension
  0
DIMENSION
  5
1D1
330
1E
100
AcDbEntity
  8
MO_001_VIEW_PV
  6
C_SOLID_M
100
AcDbDimension
  2
*D12
 10
-108.0
 20
0.0
 30
0.0
 11
-108.0
 21
0.0
 31
0.0
  3
STANDARD
100
AcDbAlignedDimension
 13
-101.5
 23
-12.0
 33
0.0
 14
-101.5
 24
12.0
 34
0.0
 50
89.999523
100
AcDbRotatedDimension
  0
DIMENSION
  5
1D3
330
1E
100
AcDbEntity
  8
MO_001_VIEW_PV
  6
C_SOLID_M
100
AcDbDimension
  2
*D13
 10
-60.0
 20
-52.914047
 30
0.0
 11
-60.0
 21
-52.914047
 31
0.0
  3
STANDARD
100
AcDbAlignedDimension
 13
-50.000008
 23
-64.5
 33
0.0
 14
-50.000008
 24
-61.5
 34
0.0
 50
89.999523
100
AcDbRotatedDimension
  0
DIMENSION
  5
1D5
330
1E
100
AcDbEntity
  8
MO_001_VIEW_PV
  6
C_SOLID_M
100
AcDbDimension
  2
*D14
 10
-57.0
 20
-45.0
 30
0.0
 11
-57.0
 21
-45.0
 31
0.0
  3
STANDARD
100
AcDbAlignedDimension
 13
-42.000008
 23
-61.5
 33
0.0
 14
-50.000008
 24
-58.5
 34
0.0
100
AcDbRotatedDimension
  0
DIMENSION
  5
1D7
330
1E
100
AcDbEntity
  8
MO_001_VIEW_PV
  6
C_SOLID_M
100
AcDbDimension
  2
*D15
 10
-57.0
 20
-39.0
 30
0.0
 11
-57.0
 21
-39.0
 31
0.0
  1
(11)
  3
STANDARD
100
AcDbAlignedDimension
 13
-50.000008
 23
-58.5
 33
0.0
 14
-39.0
 24
-50.5
 34
0.0
100
AcDbRotatedDimension
  0
DIMENSION
  5
1D9
330
1E
100
AcDbEntity
  8
MO_001_VIEW_PV
  6
C_SOLID_M
100
AcDbDimension
  2
*D16
 10
-19.5
 20
-39.0
 30
0.0
 11
-19.5
 21
-39.0
 31
0.0
  3
STANDARD
100
AcDbAlignedDimension
 13
0.0
 23
-50.5
 33
0.0
 14
-39.0
 24
-50.5
 34
0.0
100
AcDbRotatedDimension
  0
LINE
  5
1DA
330
1E
100
AcDbEntity
  8
MO_001_VIEW_PV
  6
C_SOLID_L
100
AcDbLine
 10
-11.004826
 20
10.82233
 30
0.0
 11
6.0
 21
30.0
 31
0.0
  0
POLYLINE
  5
1DB
330
1E
100
AcDbEntity
  8
MO_001_VIEW_PV
  6
C_SOLID_L
100
AcDb2dPolyline
 66
     1
 10
0.0
 20
0.0
 30
0.0
 70
     1
  0
VERTEX
  5
32A
330
1DB
100
AcDbEntity
  8
MO_001_VIEW_PV
  6
C_SOLID_L
100
AcDbVertex
100
AcDb2dVertex
 10
-9.239927999999999
 20
13.692256
 30
0.0
  0
VERTEX
  5
32B
330
1DB
100
AcDbEntity
  8
MO_001_VIEW_PV
  6
C_SOLID_L
100
AcDbVertex
100
AcDb2dVertex
 10
-10.667794
 20
11.202427
 30
0.0
  0
VERTEX
  5
32C
330
1DB
100
AcDbEntity
  8
MO_001_VIEW_PV
  6
C_SOLID_L
100
AcDbVertex
100
AcDb2dVertex
 10
-8.366735999999999
 20
12.917997
 30
0.0
  0
SEQEND
  5
32D
330
1DB
100
AcDbEntity
  8
MO_001_VIEW_PV
  6
C_SOLID_L
  0
ENDSEC
  0
SECTION
  2
OBJECTS
  0
DICTIONARY
  5
1A
330
0
100
AcDbDictionary
  3
ACAD_GROUP
350
1B
  3
ACAD_MLINESTYLE
350
1C
  3
ACAD_LAYOUT
350
28E
  3
ACAD_PLOTSETTINGS
350
28F
1001
ACAD
1000
TREAT_AS_HARD
1070
     0
  0
DICTIONARY
  5
294
330
1E
100
AcDbDictionary
  3
ACAD_LAYOUTSELFREF
350
295
  0
DICTIONARY
  5
296
330
1F
100
AcDbDictionary
  3
ACAD_LAYOUTSELFREF
350
297
  0
DICTIONARY
  5
1B
102
{ACAD_REACTORS
330
1A
102
}
330
1A
100
AcDbDictionary
1001
ACAD
1000
TREAT_AS_HARD
1070
     0
  0
DICTIONARY
  5
1C
102
{ACAD_REACTORS
330
1A
102
}
330
1A
100
AcDbDictionary
  3
STANDARD
350
1D
1001
ACAD
1000
TREAT_AS_HARD
1070
     0
  0
DICTIONARY
  5
28E
102
{ACAD_REACTORS
330
1A
102
}
330
1A
100
AcDbDictionary
1001
ACAD
1000
TREAT_AS_HARD
1070
     0
  0
DICTIONARY
  5
28F
102
{ACAD_REACTORS
330
1A
102
}
330
1A
100
AcDbDictionary
1001
ACAD
1000
TREAT_AS_HARD
1070
     0
  0
XRECORD
  5
295
102
{ACAD_REACTORS
330
294
102
}
330
294
100
AcDbXrecord
340
1E
  0
XRECORD
  5
297
102
{ACAD_REACTORS
330
296
102
}
330
296
100
AcDbXrecord
340
1F
  0
MLINESTYLE
  5
1D
102
{ACAD_REACTORS
330
1C
102
}
330
1C
100
AcDbMlineStyle
  2
STANDARD
 70
     0
  3

 62
     0
 51
90.0
 52
90.0
 71
     2
 49
0.5
 62
   256
  6
BYLAYER
 49
-0.5
 62
   256
  6
BYLAYER
  0
ENDSEC
  0
EOF
