  0
SECTION
  2
HEADER
  9
$ACADVER
  1
AC1012
  9
$DWGCODEPAGE
  3
dos932
  9
$INSBASE
 10
0.0
 20
0.0
 30
0.0
  9
$EXTMIN
 10
-127.1345261603354
 20
-113.0875814015668
 30
-0.0015258207003583
  9
$EXTMAX
 10
55.13834168016217
 20
39.75973643215718
 30
0.0000000349246037
  9
$LIMMIN
 10
-129.0
 20
-116.208984
  9
$LIMMAX
 10
49.998047
 20
42.0
  9
$ORTHOMODE
 70
     0
  9
$REGENMODE
 70
     1
  9
$FILLMODE
 70
     1
  9
$QTEXTMODE
 70
     0
  9
$MIRRTEXT
 70
     1
  9
$DRAGMODE
 70
     2
  9
$LTSCALE
 40
1.0
  9
$OSMODE
 70
    37
  9
$ATTMODE
 70
     1
  9
$TEXTSIZE
 40
4.1672
  9
$TRACEWID
 40
0.05
  9
$TEXTSTYLE
  7
STANDARD
  9
$CLAYER
  8
0
  9
$CELTYPE
  6
CONTINUOUS
  9
$CECOLOR
 62
   256
  9
$CELTSCALE
 40
1.0
  9
$DELOBJ
 70
     1
  9
$DISPSILH
 70
     0
  9
$DIMSCALE
 40
1.0
  9
$DIMASZ
 40
0.18
  9
$DIMEXO
 40
0.0625
  9
$DIMDLI
 40
0.38
  9
$DIMRND
 40
0.0
  9
$DIMDLE
 40
0.0
  9
$DIMEXE
 40
0.18
  9
$DIMTP
 40
0.0
  9
$DIMTM
 40
0.0
  9
$DIMTXT
 40
0.18
  9
$DIMCEN
 40
0.09
  9
$DIMTSZ
 40
0.0
  9
$DIMTOL
 70
     0
  9
$DIMLIM
 70
     0
  9
$DIMTIH
 70
     1
  9
$DIMTOH
 70
     1
  9
$DIMSE1
 70
     0
  9
$DIMSE2
 70
     0
  9
$DIMTAD
 70
     0
  9
$DIMZIN
 70
     0
  9
$DIMBLK
  1

  9
$DIMASO
 70
     1
  9
$DIMSHO
 70
     1
  9
$DIMPOST
  1

  9
$DIMAPOST
  1

  9
$DIMALT
 70
     0
  9
$DIMALTD
 70
     2
  9
$DIMALTF
 40
25.4
  9
$DIMLFAC
 40
1.0
  9
$DIMTOFL
 70
     0
  9
$DIMTVP
 40
0.0
  9
$DIMTIX
 70
     0
  9
$DIMSOXD
 70
     0
  9
$DIMSAH
 70
     0
  9
$DIMBLK1
  1

  9
$DIMBLK2
  1

  9
$DIMSTYLE
  2
STANDARD
  9
$DIMCLRD
 70
     0
  9
$DIMCLRE
 70
     0
  9
$DIMCLRT
 70
     0
  9
$DIMTFAC
 40
1.0
  9
$DIMGAP
 40
0.09
  9
$DIMJUST
 70
     0
  9
$DIMSD1
 70
     0
  9
$DIMSD2
 70
     0
  9
$DIMTOLJ
 70
     1
  9
$DIMTZIN
 70
     0
  9
$DIMALTZ
 70
     0
  9
$DIMALTTZ
 70
     0
  9
$DIMFIT
 70
     3
  9
$DIMUPT
 70
     0
  9
$DIMUNIT
 70
     2
  9
$DIMDEC
 70
     4
  9
$DIMTDEC
 70
     4
  9
$DIMALTU
 70
     2
  9
$DIMALTTD
 70
     2
  9
$DIMTXSTY
  7
STANDARD
  9
$DIMAUNIT
 70
     0
  9
$LUNITS
 70
     2
  9
$LUPREC
 70
     6
  9
$SKETCHINC
 40
0.1
  9
$FILLETRAD
 40
0.0
  9
$AUNITS
 70
     0
  9
$AUPREC
 70
     4
  9
$MENU
  1
acad
  9
$ELEVATION
 40
0.0
  9
$PELEVATION
 40
0.0
  9
$THICKNESS
 40
0.0
  9
$LIMCHECK
 70
     0
  9
$BLIPMODE
 70
     0
  9
$CHAMFERA
 40
0.0
  9
$CHAMFERB
 40
0.0
  9
$CHAMFERC
 40
0.0
  9
$CHAMFERD
 40
0.0
  9
$SKPOLY
 70
     0
  9
$TDCREATE
 40
2376126.114255868
  9
$TDUPDATE
 40
2451683.851675694
  9
$TDINDWG
 40
0.0005391204
  9
$TDUSRTIMER
 40
0.0005391204
  9
$USRTIMER
 70
     1
  9
$ANGBASE
 50
0.0
  9
$ANGDIR
 70
     0
  9
$PDMODE
 70
     0
  9
$PDSIZE
 40
0.0
  9
$PLINEWID
 40
0.0
  9
$COORDS
 70
     1
  9
$SPLFRAME
 70
     0
  9
$SPLINETYPE
 70
     6
  9
$SPLINESEGS
 70
     8
  9
$ATTDIA
 70
     0
  9
$ATTREQ
 70
     1
  9
$HANDLING
 70
 10241
  9
$HANDSEED
  5
37D
  9
$SURFTAB1
 70
     6
  9
$SURFTAB2
 70
     6
  9
$SURFTYPE
 70
     6
  9
$SURFU
 70
     6
  9
$SURFV
 70
     6
  9
$UCSNAME
  2

  9
$UCSORG
 10
0.0
 20
0.0
 30
0.0
  9
$UCSXDIR
 10
1.0
 20
0.0
 30
0.0
  9
$UCSYDIR
 10
0.0
 20
1.0
 30
0.0
  9
$PUCSNAME
  2

  9
$PUCSORG
 10
0.0
 20
0.0
 30
0.0
  9
$PUCSXDIR
 10
1.0
 20
0.0
 30
0.0
  9
$PUCSYDIR
 10
0.0
 20
1.0
 30
0.0
  9
$USERI1
 70
     0
  9
$USERI2
 70
     0
  9
$USERI3
 70
     0
  9
$USERI4
 70
     0
  9
$USERI5
 70
     0
  9
$USERR1
 40
0.0
  9
$USERR2
 40
0.0
  9
$USERR3
 40
0.0
  9
$USERR4
 40
0.0
  9
$USERR5
 40
0.0
  9
$WORLDVIEW
 70
     1
  9
$SHADEDGE
 70
     3
  9
$SHADEDIF
 70
    70
  9
$TILEMODE
 70
     1
  9
$MAXACTVP
 70
    16
  9
$PINSBASE
 10
0.0
 20
0.0
 30
0.0
  9
$PLIMCHECK
 70
     0
  9
$PEXTMIN
 10
-129.0
 20
-116.208984
 30
1.000000000000000E+20
  9
$PEXTMAX
 10
49.998047
 20
42.0
 30
-1.000000000000000E+20
  9
$PLIMMIN
 10
0.0
 20
0.0
  9
$PLIMMAX
 10
12.0
 20
9.0
  9
$UNITMODE
 70
     0
  9
$VISRETAIN
 70
     0
  9
$PLINEGEN
 70
     0
  9
$PSLTSCALE
 70
     1
  9
$TREEDEPTH
 70
  3020
  9
$PICKSTYLE
 70
     1
  9
$CMLSTYLE
  2
STANDARD
  9
$CMLJUST
 70
     0
  9
$CMLSCALE
 40
1.0
  9
$SAVEIMAGES
 70
     1
  0
ENDSEC
  0
SECTION
  2
CLASSES
  0
CLASS
  1
ACDBDICTIONARYWDFLT
  2
AcDbDictionaryWithDefault
  3
AutoCAD 2000
 90
    32768
280
     0
281
     0
  0
CLASS
  1
ACDBPLACEHOLDER
  2
AcDbPlaceHolder
  3
AutoCAD 2000
 90
    32768
280
     0
281
     0
  0
CLASS
  1
LAYOUT
  2
AcDbLayout
  3
AutoCAD 2000
 90
    32768
280
     0
281
     0
  0
CLASS
  1
LONG_TRANSACTION
  2
AcDbLongTransaction
  3
AutoCAD 2000
 90
    32768
280
     0
281
     0
  0
CLASS
  1
LWPOLYLINE
  2
AcDbPolyline
  3
AutoCAD 2000
 90
    32768
280
     0
281
     1
  0
CLASS
  1
HATCH
  2
AcDbHatch
  3
AutoCAD 2000
 90
    32768
280
     0
281
     1
  0
CLASS
  1
XRECORD
  2
AcDbXrecord
  3
AutoCAD 2000
 90
    32768
280
     0
281
     0
  0
ENDSEC
  0
SECTION
  2
TABLES
  0
TABLE
  2
VPORT
  5
7
330
0
100
AcDbSymbolTable
 70
     2
  0
VPORT
  5
2B8
330
7
100
AcDbSymbolTableRecord
100
AcDbViewportTableRecord
  2
*ACTIVE
 70
     0
 10
0.0
 20
0.0
 11
1.0
 21
1.0
 12
-36.93082915991891
 22
-37.10449200000001
 13
0.0
 23
0.0
 14
6.349999999999999
 24
6.349999999999999
 15
6.349999999999999
 25
6.349999999999999
 16
0.0
 26
0.0
 36
1.0
 17
0.0
 27
0.0
 37
0.0
 40
159.9668616
 41
1.619666048237476
 42
50.0
 43
0.0
 44
0.0
 50
0.0
 51
0.0
 71
     0
 72
   100
 73
     1
 74
     1
 75
     0
 76
     0
 77
     0
 78
     0
  0
ENDTAB
  0
TABLE
  2
LTYPE
  5
4
330
0
100
AcDbSymbolTable
 70
    37
  0
LTYPE
  5
12
330
4
100
AcDbSymbolTableRecord
100
AcDbLinetypeTableRecord
  2
BYBLOCK
 70
     0
  3

 72
    65
 73
     0
 40
0.0
  0
LTYPE
  5
13
330
4
100
AcDbSymbolTableRecord
100
AcDbLinetypeTableRecord
  2
BYLAYER
 70
     0
  3

 72
    65
 73
     0
 40
0.0
  0
LTYPE
  5
14
330
4
100
AcDbSymbolTableRecord
100
AcDbLinetypeTableRecord
  2
CONTINUOUS
 70
     0
  3
DXF Default line type
 72
    65
 73
     0
 40
0.0
  0
LTYPE
  5
20
330
4
100
AcDbSymbolTableRecord
100
AcDbLinetypeTableRecord
  2
DASHED
 70
     0
  3
DXF Dashed
 72
    65
 73
     2
 40
0.75
 49
0.5
 74
     0
 49
-0.25
 74
     0
  0
LTYPE
  5
21
330
4
100
AcDbSymbolTableRecord
100
AcDbLinetypeTableRecord
  2
HIDDEN
 70
     0
  3
DXF Hidden
 72
    65
 73
     2
 40
0.375
 49
0.25
 74
     0
 49
-0.125
 74
     0
  0
LTYPE
  5
22
330
4
100
AcDbSymbolTableRecord
100
AcDbLinetypeTableRecord
  2
CENTER
 70
     0
  3
DXF Center
 72
    65
 73
     4
 40
2.0
 49
1.25
 74
     0
 49
-0.25
 74
     0
 49
0.25
 74
     0
 49
-0.25
 74
     0
  0
LTYPE
  5
23
330
4
100
AcDbSymbolTableRecord
100
AcDbLinetypeTableRecord
  2
PHANTOM
 70
     0
  3
DXF Phantom
 72
    65
 73
     6
 40
2.5
 49
1.25
 74
     0
 49
-0.25
 74
     0
 49
0.25
 74
     0
 49
-0.25
 74
     0
 49
0.25
 74
     0
 49
-0.25
 74
     0
  0
LTYPE
  5
24
330
4
100
AcDbSymbolTableRecord
100
AcDbLinetypeTableRecord
  2
DOT
 70
     0
  3
DXF DOT
 72
    65
 73
     2
 40
0.25
 49
0.0
 74
     0
 49
-0.25
 74
     0
  0
LTYPE
  5
25
330
4
100
AcDbSymbolTableRecord
100
AcDbLinetypeTableRecord
  2
DASHDOT
 70
     0
  3
DXF Dash Dot
 72
    65
 73
     4
 40
1.0
 49
0.5
 74
     0
 49
-0.25
 74
     0
 49
0.0
 74
     0
 49
-0.25
 74
     0
  0
LTYPE
  5
26
330
4
100
AcDbSymbolTableRecord
100
AcDbLinetypeTableRecord
  2
BORDER
 70
     0
  3
DXF Border
 72
    65
 73
     6
 40
1.75
 49
0.5
 74
     0
 49
-0.25
 74
     0
 49
0.5
 74
     0
 49
-0.25
 74
     0
 49
0.0
 74
     0
 49
-0.25
 74
     0
  0
LTYPE
  5
27
330
4
100
AcDbSymbolTableRecord
100
AcDbLinetypeTableRecord
  2
DIVIDE
 70
     0
  3
DXF Divide
 72
    65
 73
     6
 40
1.25
 49
0.5
 74
     0
 49
-0.25
 74
     0
 49
0.0
 74
     0
 49
-0.25
 74
     0
 49
0.0
 74
     0
 49
-0.25
 74
     0
  0
LTYPE
  5
28
330
4
100
AcDbSymbolTableRecord
100
AcDbLinetypeTableRecord
  2
C_SOLID_L
 70
     0
  3
CADAM Solid Light
 72
    65
 73
     0
 40
0.0
  0
LTYPE
  5
29
330
4
100
AcDbSymbolTableRecord
100
AcDbLinetypeTableRecord
  2
C_SOLID_M
 70
     0
  3
CADAM Solid Medium
 72
    65
 73
     0
 40
0.0
  0
LTYPE
  5
2A
330
4
100
AcDbSymbolTableRecord
100
AcDbLinetypeTableRecord
  2
C_SOLID_H
 70
     0
  3
CADAM Solid Heavy
 72
    65
 73
     0
 40
0.0
  0
LTYPE
  5
2B
330
4
100
AcDbSymbolTableRecord
100
AcDbLinetypeTableRecord
  2
C_DASHED_L
 70
     0
  3
CADAM Dashed Light
 72
    65
 73
     2
 40
0.375
 49
0.25
 74
     0
 49
-0.125
 74
     0
  0
LTYPE
  5
2C
330
4
100
AcDbSymbolTableRecord
100
AcDbLinetypeTableRecord
  2
C_DASHED_M
 70
     0
  3
CADAM Dashed Medium
 72
    65
 73
     2
 40
0.5
 49
0.375
 74
     0
 49
-0.125
 74
     0
  0
LTYPE
  5
2D
330
4
100
AcDbSymbolTableRecord
100
AcDbLinetypeTableRecord
  2
C_CENTER_L
 70
     0
  3
CADAM Center Light
 72
    65
 73
     4
 40
2.0
 49
1.25
 74
     0
 49
-0.25
 74
     0
 49
0.25
 74
     0
 49
-0.25
 74
     0
  0
LTYPE
  5
2E
330
4
100
AcDbSymbolTableRecord
100
AcDbLinetypeTableRecord
  2
C_PHANTOM_L
 70
     0
  3
CADAM Phantom Light
 72
    65
 73
     6
 40
2.5
 49
1.25
 74
     0
 49
-0.25
 74
     0
 49
0.25
 74
     0
 49
-0.25
 74
     0
 49
0.25
 74
     0
 49
-0.25
 74
     0
  0
LTYPE
  5
2F
330
4
100
AcDbSymbolTableRecord
100
AcDbLinetypeTableRecord
  2
C_BREAK_M
 70
     0
  3
CADAM Break Medium
 72
    65
 73
     4
 40
1.0
 49
0.5
 74
     0
 49
-0.25
 74
     0
 49
0.0
 74
     0
 49
-0.25
 74
     0
  0
LTYPE
  5
30
330
4
100
AcDbSymbolTableRecord
100
AcDbLinetypeTableRecord
  2
C_NC
 70
     0
  3
CADAM NC
 72
    65
 73
     0
 40
0.0
  0
LTYPE
  5
31
330
4
100
AcDbSymbolTableRecord
100
AcDbLinetypeTableRecord
  2
DSH1
 70
     0
  3
CADAM Style2 Type 1 Dashed Line
 72
    65
 73
     2
 40
0.075
 49
0.04
 74
     0
 49
-0.035
 74
     0
  0
LTYPE
  5
32
330
4
100
AcDbSymbolTableRecord
100
AcDbLinetypeTableRecord
  2
DSH2
 70
     0
  3
CADAM Style2 Type 2 Dashed Line
 72
    65
 73
     2
 40
0.15
 49
0.11
 74
     0
 49
-0.04
 74
     0
  0
LTYPE
  5
33
330
4
100
AcDbSymbolTableRecord
100
AcDbLinetypeTableRecord
  2
DSH3
 70
     0
  3
CADAM Style2 Type 3 Dashed Line
 72
    65
 73
     2
 40
0.2
 49
0.15
 74
     0
 49
-0.05
 74
     0
  0
LTYPE
  5
34
330
4
100
AcDbSymbolTableRecord
100
AcDbLinetypeTableRecord
  2
DSH4
 70
     0
  3
CADAM Style2 Type 4 Dashed Line
 72
    65
 73
     2
 40
0.36
 49
0.28
 74
     0
 49
-0.08
 74
     0
  0
LTYPE
  5
35
330
4
100
AcDbSymbolTableRecord
100
AcDbLinetypeTableRecord
  2
DSH5
 70
     0
  3
CADAM Style2 Type 5 Dashed Line
 72
    65
 73
     2
 40
0.47
 49
0.39
 74
     0
 49
-0.08
 74
     0
  0
LTYPE
  5
36
330
4
100
AcDbSymbolTableRecord
100
AcDbLinetypeTableRecord
  2
DSH6
 70
     0
  3
CADAM Style2 Type 6 Dashed Line
 72
    65
 73
     2
 40
0.9
 49
0.8100000000000001
 74
     0
 49
-0.09
 74
     0
  0
LTYPE
  5
37
330
4
100
AcDbSymbolTableRecord
100
AcDbLinetypeTableRecord
  2
PL1
 70
     0
  3
Style 2 Type 1 Phantom Line
 72
    65
 73
     6
 40
1.0
 49
0.6
 74
     0
 49
-0.08
 74
     0
 49
0.08
 74
     0
 49
-0.08
 74
     0
 49
0.08
 74
     0
 49
-0.08
 74
     0
  0
LTYPE
  5
38
330
4
100
AcDbSymbolTableRecord
100
AcDbLinetypeTableRecord
  2
PL2
 70
     0
  3
Style 2 Type 2 Phantom Line
 72
    65
 73
     6
 40
1.08
 49
0.6
 74
     0
 49
-0.08
 74
     0
 49
0.12
 74
     0
 49
-0.08
 74
     0
 49
0.12
 74
     0
 49
-0.08
 74
     0
  0
LTYPE
  5
39
330
4
100
AcDbSymbolTableRecord
100
AcDbLinetypeTableRecord
  2
PL3
 70
     0
  3
Style 2 Type 3 Phantom Line
 72
    65
 73
     6
 40
2.0
 49
1.439999999999999
 74
     0
 49
-0.08
 74
     0
 49
0.16
 74
     0
 49
-0.08
 74
     0
 49
0.16
 74
     0
 49
-0.08
 74
     0
  0
LTYPE
  5
3A
330
4
100
AcDbSymbolTableRecord
100
AcDbLinetypeTableRecord
  2
CL1
 70
     0
  3
CADAM Style 2 Type 1 Center Line
 72
    65
 73
     4
 40
0.7
 49
0.45
 74
     0
 49
-0.06
 74
     0
 49
0.13
 74
     0
 49
-0.06
 74
     0
  0
LTYPE
  5
3B
330
4
100
AcDbSymbolTableRecord
100
AcDbLinetypeTableRecord
  2
CL2
 70
     0
  3
CADAM Style 2 Type 2 Center Line
 72
    65
 73
     4
 40
1.199999999999999
 49
1.01
 74
     0
 49
-0.06
 74
     0
 49
0.11
 74
     0
 49
-0.06
 74
     0
  0
LTYPE
  5
3C
330
4
100
AcDbSymbolTableRecord
100
AcDbLinetypeTableRecord
  2
CL3
 70
     0
  3
CADAM Style 2 Type 3 Center Line
 72
    65
 73
     4
 40
1.199999999999999
 49
0.98
 74
     0
 49
-0.06
 74
     0
 49
0.1
 74
     0
 49
-0.06
 74
     0
  0
LTYPE
  5
3D
330
4
100
AcDbSymbolTableRecord
100
AcDbLinetypeTableRecord
  2
CL4
 70
     0
  3
CADAM Style 2 Type 4 Center Line
 72
    65
 73
     4
 40
2.2
 49
1.929999999999999
 74
     0
 49
-0.07
 74
     0
 49
0.13
 74
     0
 49
-0.07
 74
     0
  0
LTYPE
  5
3E
330
4
100
AcDbSymbolTableRecord
100
AcDbLinetypeTableRecord
  2
CL5
 70
     0
  3
CADAM Style 2 Type 5 Center Line
 72
    65
 73
     4
 40
2.2
 49
1.879999999999999
 74
     0
 49
-0.07
 74
     0
 49
0.18
 74
     0
 49
-0.07
 74
     0
  0
LTYPE
  5
3F
330
4
100
AcDbSymbolTableRecord
100
AcDbLinetypeTableRecord
  2
SBK1
 70
     0
  3
CADAM Style 2 Type 1 SetBack Line
 72
    65
 73
     8
 40
2.7
 49
0.1
 74
     0
 49
-0.08
 74
     0
 49
0.1
 74
     0
 49
-0.8
 74
     0
 49
0.0
 74
     0
 49
0.0
 74
     0
 49
0.0
 74
     0
 49
0.0
 74
     0
  0
LTYPE
  5
40
330
4
100
AcDbSymbolTableRecord
100
AcDbLinetypeTableRecord
  2
SBK2
 70
     0
  3
CADAM Style 2 Type 2 SetBack Line
 72
    65
 73
     8
 40
3.709999999999999
 49
0.13
 74
     0
 49
-0.08
 74
     0
 49
0.13
 74
     0
 49
-0.8
 74
     0
 49
0.0
 74
     0
 49
0.0
 74
     0
 49
0.0
 74
     0
 49
0.0
 74
     0
  0
LTYPE
  5
41
330
4
100
AcDbSymbolTableRecord
100
AcDbLinetypeTableRecord
  2
STCH
 70
     0
  3
CADAM Style2 Stitch Line
 72
    65
 73
     2
 40
0.25
 49
0.0
 74
     0
 49
-0.25
 74
     0
  0
LTYPE
  5
42
330
4
100
AcDbSymbolTableRecord
100
AcDbLinetypeTableRecord
  2
MTCH
 70
     0
  3
CADAM Style2 Match Line
 72
    65
 73
     6
 40
2.0
 49
1.439999999999999
 74
     0
 49
-0.8
 74
     0
 49
0.16
 74
     0
 49
-0.08
 74
     0
 49
0.16
 74
     0
 49
-0.08
 74
     0
  0
LTYPE
  5
43
330
4
100
AcDbSymbolTableRecord
100
AcDbLinetypeTableRecord
  2
SLD
 70
     0
  3
CADAM Solid_EXT2
 72
    65
 73
     0
 40
0.0
  0
ENDTAB
  0
TABLE
  2
LAYER
  5
2
330
0
100
AcDbSymbolTable
 70
     7
  0
LAYER
  5
15
330
2
100
AcDbSymbolTableRecord
100
AcDbLayerTableRecord
  2
0
 70
     0
 62
     7
  6
CONTINUOUS
  0
LAYER
  5
44
330
2
100
AcDbSymbolTableRecord
100
AcDbLayerTableRecord
  2
MO_001_NOSHOW
 70
     1
 62
     7
  6
CONTINUOUS
  0
LAYER
  5
45
330
2
100
AcDbSymbolTableRecord
100
AcDbLayerTableRecord
  2
MO_001_VIEW_PV
 70
     0
 62
     7
  6
CONTINUOUS
  0
LAYER
  5
46
330
2
100
AcDbSymbolTableRecord
100
AcDbLayerTableRecord
  2
OVERLAY_MAP
 70
     1
 62
     7
  6
CONTINUOUS
  0
LAYER
  5
47
330
2
100
AcDbSymbolTableRecord
100
AcDbLayerTableRecord
  2
DITTOS
 70
     0
 62
     7
  6
CONTINUOUS
  0
LAYER
  5
48
330
2
100
AcDbSymbolTableRecord
100
AcDbLayerTableRecord
  2
SYMBOLS
 70
     0
 62
     7
  6
CONTINUOUS
  0
LAYER
  5
49
330
2
100
AcDbSymbolTableRecord
100
AcDbLayerTableRecord
  2
SETS
 70
     0
 62
     7
  6
CONTINUOUS
  0
ENDTAB
  0
TABLE
  2
STYLE
  5
3
330
0
100
AcDbSymbolTable
 70
     1
  0
STYLE
  5
18
330
3
100
AcDbSymbolTableRecord
100
AcDbTextStyleTableRecord
  2
STANDARD
 70
     0
 40
4.1672
 41
1.0
 50
0.0
 71
     0
 42
4.1672
  3
monotxt
  4
BIGFONT
  0
ENDTAB
  0
TABLE
  2
VIEW
  5
5
330
0
100
AcDbSymbolTable
 70
     0
  0
ENDTAB
  0
TABLE
  2
UCS
  5
6
330
0
100
AcDbSymbolTable
 70
     1
  0
UCS
  5
4A
330
6
100
AcDbSymbolTableRecord
100
AcDbUCSTableRecord
  2
MO_001_VIEW_PV_P
 70
     0
 10
0.0
 20
0.0
 30
0.0
 11
1.0
 21
0.0
 31
0.0
 12
-0.0000000002051034
 22
1.0
 32
0.0
  0
ENDTAB
  0
TABLE
  2
APPID
  5
8
330
0
100
AcDbSymbolTable
 70
     1
  0
APPID
  5
17
330
8
100
AcDbSymbolTableRecord
100
AcDbRegAppTableRecord
  2
ACAD
 70
     0
  0
ENDTAB
  0
TABLE
  2
DIMSTYLE
  5
9
330
0
100
AcDbSymbolTable
 70
     1
  0
DIMSTYLE
105
19
102
{ACAD_REACTORS
330
1DA
330
1DC
330
1DE
330
1E0
330
1E2
330
1E4
330
1E6
330
1E8
330
1EA
330
1EC
330
1EE
330
1F0
330
1F2
330
1F4
330
1F6
330
1F8
330
1FA
102
}
330
9
100
AcDbSymbolTableRecord
100
AcDbDimStyleTableRecord
  2
STANDARD
 70
     0
  3

  4

  5

  6

  7

 40
1.0
 41
0.18
 42
0.0625
 43
0.38
 44
0.18
 45
0.0
 46
0.0
 47
0.0
 48
0.0
140
0.18
141
0.09
142
0.0
143
25.4
144
1.0
145
0.0
146
1.0
147
0.09
 71
     0
 72
     0
 73
     1
 74
     1
 75
     0
 76
     0
 77
     0
 78
     0
170
     0
171
     2
172
     0
173
     0
174
     0
175
     0
176
     0
177
     0
178
     0
270
     2
271
     4
272
     4
273
     2
274
     2
340
18
275
     0
280
     0
281
     0
282
     0
283
     1
284
     0
285
     0
286
     0
287
     3
288
     0
  0
ENDTAB
  0
TABLE
  2
BLOCK_RECORD
  5
C
330
0
100
AcDbSymbolTable
 70
    17
  0
BLOCK_RECORD
  5
1E
102
{ACAD_XDICTIONARY
360
2B9
102
}
330
C
100
AcDbSymbolTableRecord
100
AcDbBlockTableRecord
  2
*MODEL_SPACE
  0
BLOCK_RECORD
  5
1F
102
{ACAD_XDICTIONARY
360
2BB
102
}
330
C
100
AcDbSymbolTableRecord
100
AcDbBlockTableRecord
  2
*PAPER_SPACE
  0
BLOCK_RECORD
  5
1D9
330
C
100
AcDbSymbolTableRecord
100
AcDbBlockTableRecord
  2
*D0
  0
BLOCK_RECORD
  5
1DB
330
C
100
AcDbSymbolTableRecord
100
AcDbBlockTableRecord
  2
*D1
  0
BLOCK_RECORD
  5
1DD
330
C
100
AcDbSymbolTableRecord
100
AcDbBlockTableRecord
  2
*D2
  0
BLOCK_RECORD
  5
1DF
330
C
100
AcDbSymbolTableRecord
100
AcDbBlockTableRecord
  2
*D3
  0
BLOCK_RECORD
  5
1E1
330
C
100
AcDbSymbolTableRecord
100
AcDbBlockTableRecord
  2
*D4
  0
BLOCK_RECORD
  5
1E3
330
C
100
AcDbSymbolTableRecord
100
AcDbBlockTableRecord
  2
*D5
  0
BLOCK_RECORD
  5
1E5
330
C
100
AcDbSymbolTableRecord
100
AcDbBlockTableRecord
  2
*D6
  0
BLOCK_RECORD
  5
1E7
330
C
100
AcDbSymbolTableRecord
100
AcDbBlockTableRecord
  2
*D7
  0
BLOCK_RECORD
  5
1E9
330
C
100
AcDbSymbolTableRecord
100
AcDbBlockTableRecord
  2
*D8
  0
BLOCK_RECORD
  5
1EB
330
C
100
AcDbSymbolTableRecord
100
AcDbBlockTableRecord
  2
*D9
  0
BLOCK_RECORD
  5
1ED
330
C
100
AcDbSymbolTableRecord
100
AcDbBlockTableRecord
  2
*D10
  0
BLOCK_RECORD
  5
1EF
330
C
100
AcDbSymbolTableRecord
100
AcDbBlockTableRecord
  2
*D11
  0
BLOCK_RECORD
  5
1F1
330
C
100
AcDbSymbolTableRecord
100
AcDbBlockTableRecord
  2
*D12
  0
BLOCK_RECORD
  5
1F3
330
C
100
AcDbSymbolTableRecord
100
AcDbBlockTableRecord
  2
*D13
  0
BLOCK_RECORD
  5
1F5
330
C
100
AcDbSymbolTableRecord
100
AcDbBlockTableRecord
  2
*D14
  0
BLOCK_RECORD
  5
1F7
330
C
100
AcDbSymbolTableRecord
100
AcDbBlockTableRecord
  2
*D15
  0
BLOCK_RECORD
  5
1F9
330
C
100
AcDbSymbolTableRecord
100
AcDbBlockTableRecord
  2
*D16
  0
ENDTAB
  0
ENDSEC
  0
SECTION
  2
BLOCKS
  0
BLOCK
  5
E
330
1E
100
AcDbEntity
  8
0
100
AcDbBlockBegin
  2
*MODEL_SPACE
 70
     0
 10
0.0
 20
0.0
 30
0.0
  3
*MODEL_SPACE
  1

  0
ENDBLK
  5
F
330
1E
100
AcDbEntity
  8
0
100
AcDbBlockEnd
  0
BLOCK
  5
10
330
1F
100
AcDbEntity
 67
     1
  8
0
100
AcDbBlockBegin
  2
*PAPER_SPACE
 70
     0
 10
0.0
 20
0.0
 30
0.0
  3
*PAPER_SPACE
  1

  0
ENDBLK
  5
11
330
1F
100
AcDbEntity
 67
     1
  8
0
100
AcDbBlockEnd
  0
BLOCK
  5
201
330
1D9
100
AcDbEntity
  8
0
100
AcDbBlockBegin
  2
*D0
 70
     1
 10
0.0
 20
0.0
 30
0.0
  3
*D0
  1

  0
TEXT
  5
202
330
1D9
100
AcDbEntity
  8
MO_001_VIEW_PV
  6
BYBLOCK
100
AcDbText
 10
-24.785712
 20
32.625
 30
0.0
 40
1.5
  1
%%P0.3
100
AcDbText
  0
TEXT
  5
203
330
1D9
100
AcDbEntity
  8
MO_001_VIEW_PV
  6
BYBLOCK
100
AcDbText
 10
-30.571427
 20
30.75
 30
0.0
 40
3.0
  1
50
100
AcDbText
  0
LINE
  5
204
330
1D9
100
AcDbEntity
  8
MO_001_VIEW_PV
  6
BYBLOCK
100
AcDbLine
 10
-49.999996
 20
30.0
 30
0.0
 11
0.0
 21
30.0
 31
0.0
  0
SOLID
  5
205
330
1D9
100
AcDbEntity
  8
MO_001_VIEW_PV
  6
BYBLOCK
100
AcDbTrace
 10
-46.681736
 20
30.583512
 30
0.0
 11
-49.491996
 21
30.0
 31
0.0
 12
-46.681736
 22
29.416488
 32
0.0
 13
-46.681736
 23
29.416488
 33
0.0
  0
SOLID
  5
206
330
1D9
100
AcDbEntity
  8
MO_001_VIEW_PV
  6
BYBLOCK
100
AcDbTrace
 10
-3.318259999999999
 20
29.416488
 30
0.0
 11
-0.508
 21
30.0
 31
0.0
 12
-3.318259999999999
 22
30.583512
 32
0.0
 13
-3.318259999999999
 23
30.583512
 33
0.0
  0
LINE
  5
207
330
1D9
100
AcDbEntity
  8
MO_001_VIEW_PV
  6
BYBLOCK
100
AcDbLine
 10
-49.999996
 20
18.0
 30
0.0
 11
-49.999996
 21
32.28599899999999
 31
0.0
  0
LINE
  5
208
330
1D9
100
AcDbEntity
  8
MO_001_VIEW_PV
  6
BYBLOCK
100
AcDbLine
 10
0.0
 20
18.0
 30
0.0
 11
0.0
 21
32.28599899999999
 31
0.0
  0
ENDBLK
  5
209
330
1D9
100
AcDbEntity
  8
0
100
AcDbBlockEnd
  0
BLOCK
  5
20A
330
1DB
100
AcDbEntity
  8
0
100
AcDbBlockBegin
  2
*D1
 70
     1
 10
0.0
 20
0.0
 30
0.0
  3
*D1
  1

  0
TEXT
  5
20B
330
1DB
100
AcDbEntity
  8
MO_001_VIEW_PV
  6
BYBLOCK
100
AcDbText
 10
-32.071432
 20
36.75
 30
0.0
 40
3.0
  1
59
100
AcDbText
  0
LINE
  5
20C
330
1DB
100
AcDbEntity
  8
MO_001_VIEW_PV
  6
BYBLOCK
100
AcDbLine
 10
0.0
 20
36.0
 30
0.0
 11
-59.00000799999999
 21
36.0
 31
0.0
  0
SOLID
  5
20D
330
1DB
100
AcDbEntity
  8
MO_001_VIEW_PV
  6
BYBLOCK
100
AcDbTrace
 10
-3.318259999999999
 20
35.416488
 30
0.0
 11
-0.508
 21
36.0
 31
0.0
 12
-3.318259999999999
 22
36.583512
 32
0.0
 13
-3.318259999999999
 23
36.583512
 33
0.0
  0
SOLID
  5
20E
330
1DB
100
AcDbEntity
  8
MO_001_VIEW_PV
  6
BYBLOCK
100
AcDbTrace
 10
-55.681748
 20
36.583512
 30
0.0
 11
-58.492008
 21
36.0
 31
0.0
 12
-55.681748
 22
35.416488
 32
0.0
 13
-55.681748
 23
35.416488
 33
0.0
  0
LINE
  5
20F
330
1DB
100
AcDbEntity
  8
MO_001_VIEW_PV
  6
BYBLOCK
100
AcDbLine
 10
0.0
 20
18.0
 30
0.0
 11
0.0
 21
38.285999
 31
0.0
  0
LINE
  5
210
330
1DB
100
AcDbEntity
  8
MO_001_VIEW_PV
  6
BYBLOCK
100
AcDbLine
 10
-59.00000799999999
 20
5.214165
 30
0.0
 11
-59.00000799999999
 21
38.285999
 31
0.0
  0
ENDBLK
  5
211
330
1DB
100
AcDbEntity
  8
0
100
AcDbBlockEnd
  0
BLOCK
  5
212
330
1DD
100
AcDbEntity
  8
0
100
AcDbBlockBegin
  2
*D2
 70
     1
 10
0.0
 20
0.0
 30
0.0
  3
*D2
  1

  0
TEXT
  5
213
330
1DD
100
AcDbEntity
  8
MO_001_VIEW_PV
  6
BYBLOCK
100
AcDbText
 10
-22.78571
 20
-30.375
 30
0.0
 40
1.5
  1
%%P0.2
100
AcDbText
  0
TEXT
  5
214
330
1DD
100
AcDbEntity
  8
MO_001_VIEW_PV
  6
BYBLOCK
100
AcDbText
 10
-28.571425
 20
-32.25
 30
0.0
 40
3.0
  1
30
100
AcDbText
  0
LINE
  5
215
330
1DD
100
AcDbEntity
  8
MO_001_VIEW_PV
  6
BYBLOCK
100
AcDbLine
 10
-37.999996
 20
-33.0
 30
0.0
 11
-7.999997
 21
-33.0
 31
0.0
  0
SOLID
  5
216
330
1DD
100
AcDbEntity
  8
MO_001_VIEW_PV
  6
BYBLOCK
100
AcDbTrace
 10
-34.681736
 20
-32.416488
 30
0.0
 11
-37.491996
 21
-33.0
 31
0.0
 12
-34.681736
 22
-33.58351199999999
 32
0.0
 13
-34.681736
 23
-33.58351199999999
 33
0.0
  0
SOLID
  5
217
330
1DD
100
AcDbEntity
  8
MO_001_VIEW_PV
  6
BYBLOCK
100
AcDbTrace
 10
-11.318257
 20
-33.58351199999999
 30
0.0
 11
-8.507996999999999
 21
-33.0
 31
0.0
 12
-11.318257
 22
-32.416488
 32
0.0
 13
-11.318257
 23
-32.416488
 33
0.0
  0
LINE
  5
218
330
1DD
100
AcDbEntity
  8
MO_001_VIEW_PV
  6
BYBLOCK
100
AcDbLine
 10
-37.999996
 20
-14.0
 30
0.0
 11
-37.999996
 21
-35.28599899999999
 31
0.0
  0
LINE
  5
219
330
1DD
100
AcDbEntity
  8
MO_001_VIEW_PV
  6
BYBLOCK
100
AcDbLine
 10
-7.999997
 20
-14.0
 30
0.0
 11
-7.999997
 21
-35.28599899999999
 31
0.0
  0
ENDBLK
  5
21A
330
1DD
100
AcDbEntity
  8
0
100
AcDbBlockEnd
  0
BLOCK
  5
21B
330
1DF
100
AcDbEntity
  8
0
100
AcDbBlockBegin
  2
*D3
 70
     1
 10
0.0
 20
0.0
 30
0.0
  3
*D3
  1

  0
TEXT
  5
21C
330
1DF
100
AcDbEntity
  8
MO_001_VIEW_PV
  6
BYBLOCK
100
AcDbText
 10
-45.727986
 20
-30.375
 30
0.0
 40
1.5
  1
%%P0.5
100
AcDbText
  0
TEXT
  5
21D
330
1DF
100
AcDbEntity
  8
MO_001_VIEW_PV
  6
BYBLOCK
100
AcDbText
 10
-51.513701
 20
-32.25
 30
0.0
 40
3.0
  1
17
100
AcDbText
  0
LINE
  5
21E
330
1DF
100
AcDbEntity
  8
MO_001_VIEW_PV
  6
BYBLOCK
100
AcDbLine
 10
-55.0
 20
-33.0
 30
0.0
 11
-37.999996
 21
-33.0
 31
0.0
  0
SOLID
  5
21F
330
1DF
100
AcDbEntity
  8
MO_001_VIEW_PV
  6
BYBLOCK
100
AcDbTrace
 10
-51.68174
 20
-32.416488
 30
0.0
 11
-54.492
 21
-33.0
 31
0.0
 12
-51.68174
 22
-33.58351199999999
 32
0.0
 13
-51.68174
 23
-33.58351199999999
 33
0.0
  0
SOLID
  5
220
330
1DF
100
AcDbEntity
  8
MO_001_VIEW_PV
  6
BYBLOCK
100
AcDbTrace
 10
-41.31825599999999
 20
-33.58351199999999
 30
0.0
 11
-38.507996
 21
-33.0
 31
0.0
 12
-41.31825599999999
 22
-32.416488
 32
0.0
 13
-41.31825599999999
 23
-32.416488
 33
0.0
  0
LINE
  5
221
330
1DF
100
AcDbEntity
  8
MO_001_VIEW_PV
  6
BYBLOCK
100
AcDbLine
 10
-55.0
 20
-4.013641
 30
0.0
 11
-55.0
 21
-35.28599899999999
 31
0.0
  0
LINE
  5
222
330
1DF
100
AcDbEntity
  8
MO_001_VIEW_PV
  6
BYBLOCK
100
AcDbLine
 10
-37.999996
 20
-14.0
 30
0.0
 11
-37.999996
 21
-35.28599899999999
 31
0.0
  0
ENDBLK
  5
223
330
1DF
100
AcDbEntity
  8
0
100
AcDbBlockEnd
  0
BLOCK
  5
224
330
1E1
100
AcDbEntity
  8
0
100
AcDbBlockBegin
  2
*D4
 70
     1
 10
0.0
 20
0.0
 30
0.0
  3
*D4
  1

  0
TEXT
  5
225
330
1E1
100
AcDbEntity
  8
MO_001_VIEW_PV
  6
BYBLOCK
100
AcDbText
 10
-67.519418
 20
-30.375
 30
0.0
 40
1.5
  1
%%P0.2
100
AcDbText
  0
TEXT
  5
226
330
1E1
100
AcDbEntity
  8
MO_001_VIEW_PV
  6
BYBLOCK
100
AcDbText
 10
-70.305132
 20
-32.25
 30
0.0
 40
3.0
  1
4
100
AcDbText
  0
LINE
  5
227
330
1E1
100
AcDbEntity
  8
MO_001_VIEW_PV
  6
BYBLOCK
100
AcDbLine
 10
-55.0
 20
-33.0
 30
0.0
 11
-59.00000799999999
 21
-33.0
 31
0.0
  0
LINE
  5
228
330
1E1
100
AcDbEntity
  8
MO_001_VIEW_PV
  6
BYBLOCK
100
AcDbLine
 10
-55.0
 20
-33.0
 30
0.0
 11
-48.65
 21
-33.0
 31
0.0
  0
LINE
  5
229
330
1E1
100
AcDbEntity
  8
MO_001_VIEW_PV
  6
BYBLOCK
100
AcDbLine
 10
-59.00000799999999
 20
-33.0
 30
0.0
 11
-65.350008
 21
-33.0
 31
0.0
  0
SOLID
  5
22A
330
1E1
100
AcDbEntity
  8
MO_001_VIEW_PV
  6
BYBLOCK
100
AcDbTrace
 10
-51.68174
 20
-32.416488
 30
0.0
 11
-54.492
 21
-33.0
 31
0.0
 12
-51.68174
 22
-33.58351199999999
 32
0.0
 13
-51.68174
 23
-33.58351199999999
 33
0.0
  0
SOLID
  5
22B
330
1E1
100
AcDbEntity
  8
MO_001_VIEW_PV
  6
BYBLOCK
100
AcDbTrace
 10
-62.318268
 20
-33.58351199999999
 30
0.0
 11
-59.50800799999999
 21
-33.0
 31
0.0
 12
-62.318268
 22
-32.416488
 32
0.0
 13
-62.318268
 23
-32.416488
 33
0.0
  0
LINE
  5
22C
330
1E1
100
AcDbEntity
  8
MO_001_VIEW_PV
  6
BYBLOCK
100
AcDbLine
 10
-55.0
 20
-4.013641
 30
0.0
 11
-55.0
 21
-35.28599899999999
 31
0.0
  0
LINE
  5
22D
330
1E1
100
AcDbEntity
  8
MO_001_VIEW_PV
  6
BYBLOCK
100
AcDbLine
 10
-59.00000799999999
 20
-5.214169
 30
0.0
 11
-59.00000799999999
 21
-35.28599899999999
 31
0.0
  0
LINE
  5
22E
330
1E1
100
AcDbEntity
  8
MO_001_VIEW_PV
  6
BYBLOCK
100
AcDbLine
 10
-59.00000799999999
 20
-33.0
 30
0.0
 11
-71.269417
 21
-33.0
 31
0.0
  0
ENDBLK
  5
22F
330
1E1
100
AcDbEntity
  8
0
100
AcDbBlockEnd
  0
BLOCK
  5
230
330
1E3
100
AcDbEntity
  8
0
100
AcDbBlockBegin
  2
*D5
 70
     1
 10
0.0
 20
0.0
 30
0.0
  3
*D5
  1

  0
TEXT
  5
231
330
1E3
100
AcDbEntity
  8
MO_001_VIEW_PV
  6
BYBLOCK
100
AcDbText
 10
-95.78571399999999
 20
-30.375
 30
0.0
 40
1.5
  1
%%P0.3
100
AcDbText
  0
TEXT
  5
232
330
1E3
100
AcDbEntity
  8
MO_001_VIEW_PV
  6
BYBLOCK
100
AcDbText
 10
-101.571429
 20
-32.25
 30
0.0
 40
3.0
  1
40
100
AcDbText
  0
LINE
  5
233
330
1E3
100
AcDbEntity
  8
MO_001_VIEW_PV
  6
BYBLOCK
100
AcDbLine
 10
-116.0
 20
-33.0
 30
0.0
 11
-76.0
 21
-33.0
 31
0.0
  0
SOLID
  5
234
330
1E3
100
AcDbEntity
  8
MO_001_VIEW_PV
  6
BYBLOCK
100
AcDbTrace
 10
-112.6817399999999
 20
-32.416488
 30
0.0
 11
-115.492
 21
-33.0
 31
0.0
 12
-112.6817399999999
 22
-33.58351199999999
 32
0.0
 13
-112.6817399999999
 23
-33.58351199999999
 33
0.0
  0
SOLID
  5
235
330
1E3
100
AcDbEntity
  8
MO_001_VIEW_PV
  6
BYBLOCK
100
AcDbTrace
 10
-79.31826
 20
-33.58351199999999
 30
0.0
 11
-76.508
 21
-33.0
 31
0.0
 12
-79.31826
 22
-32.416488
 32
0.0
 13
-79.31826
 23
-32.416488
 33
0.0
  0
LINE
  5
236
330
1E3
100
AcDbEntity
  8
MO_001_VIEW_PV
  6
BYBLOCK
100
AcDbLine
 10
-116.0
 20
-18.0
 30
0.0
 11
-116.0
 21
-35.28599899999999
 31
0.0
  0
LINE
  5
237
330
1E3
100
AcDbEntity
  8
MO_001_VIEW_PV
  6
BYBLOCK
100
AcDbLine
 10
-76.0
 20
-18.0
 30
0.0
 11
-76.0
 21
-35.28599899999999
 31
0.0
  0
ENDBLK
  5
238
330
1E3
100
AcDbEntity
  8
0
100
AcDbBlockEnd
  0
BLOCK
  5
239
330
1E5
100
AcDbEntity
  8
0
100
AcDbBlockBegin
  2
*D6
 70
     1
 10
0.0
 20
0.0
 30
0.0
  3
*D6
  1

  0
LINE
  5
23A
330
1E5
100
AcDbEntity
  8
MO_001_VIEW_PV
  6
BYBLOCK
100
AcDbLine
 10
-123.0
 20
-18.0
 30
0.0
 11
-123.0
 21
18.0
 31
0.0
  0
SOLID
  5
23B
330
1E5
100
AcDbEntity
  8
MO_001_VIEW_PV
  6
BYBLOCK
100
AcDbTrace
 10
-123.583512
 20
-14.68174
 30
0.0
 11
-123.0
 21
-17.492
 31
0.0
 12
-122.4164879999999
 22
-14.68174
 32
0.0
 13
-122.4164879999999
 23
-14.68174
 33
0.0
  0
SOLID
  5
23C
330
1E5
100
AcDbEntity
  8
MO_001_VIEW_PV
  6
BYBLOCK
100
AcDbTrace
 10
-122.4164879999999
 20
14.68174
 30
0.0
 11
-123.0
 21
17.492
 31
0.0
 12
-123.583512
 22
14.68174
 32
0.0
 13
-123.583512
 23
14.68174
 33
0.0
  0
LINE
  5
23D
330
1E5
100
AcDbEntity
  8
MO_001_VIEW_PV
  6
BYBLOCK
100
AcDbLine
 10
-116.0
 20
-18.0
 30
0.0
 11
-125.2859949999999
 21
-18.0
 31
0.0
  0
LINE
  5
23E
330
1E5
100
AcDbEntity
  8
MO_001_VIEW_PV
  6
BYBLOCK
100
AcDbLine
 10
-116.0
 20
18.0
 30
0.0
 11
-125.2859949999999
 21
18.0
 31
0.0
  0
TEXT
  5
23F
330
1E5
100
AcDbEntity
  8
MO_001_VIEW_PV
  6
BYBLOCK
100
AcDbText
 10
-125.625
 20
0.214286
 30
0.0
 40
1.5
  1
%%P0.3
 50
90.0
100
AcDbText
  0
TEXT
  5
240
330
1E5
100
AcDbEntity
  8
MO_001_VIEW_PV
  6
BYBLOCK
100
AcDbText
 10
-123.75
 20
-5.571429
 30
0.0
 40
3.0
  1
36
 50
90.0
100
AcDbText
  0
ENDBLK
  5
241
330
1E5
100
AcDbEntity
  8
0
100
AcDbBlockEnd
  0
BLOCK
  5
242
330
1E7
100
AcDbEntity
  8
0
100
AcDbBlockBegin
  2
*D7
 70
     1
 10
0.0
 20
0.0
 30
0.0
  3
*D7
  1

  0
TEXT
  5
243
330
1E7
100
AcDbEntity
  8
MO_001_VIEW_PV
  6
BYBLOCK
100
AcDbText
 10
-68.625
 20
19.676722
 30
0.0
 40
1.5
  1
%%P0.05
 50
90.0
100
AcDbText
  0
TEXT
  5
244
330
1E7
100
AcDbEntity
  8
MO_001_VIEW_PV
  6
BYBLOCK
100
AcDbText
 10
-66.75
 20
10.89100799999999
 30
0.0
 40
3.0
  1
%%C12
 50
90.0
100
AcDbText
  0
LINE
  5
245
330
1E7
100
AcDbEntity
  8
MO_001_VIEW_PV
  6
BYBLOCK
100
AcDbLine
 10
-66.0
 20
-6.0
 30
0.0
 11
-66.0
 21
6.0
 31
0.0
  0
LINE
  5
246
330
1E7
100
AcDbEntity
  8
MO_001_VIEW_PV
  6
BYBLOCK
100
AcDbLine
 10
-66.0
 20
-6.0
 30
0.0
 11
-66.0
 21
-12.35
 31
0.0
  0
LINE
  5
247
330
1E7
100
AcDbEntity
  8
MO_001_VIEW_PV
  6
BYBLOCK
100
AcDbLine
 10
-66.0
 20
6.0
 30
0.0
 11
-66.0
 21
12.35
 31
0.0
  0
SOLID
  5
248
330
1E7
100
AcDbEntity
  8
MO_001_VIEW_PV
  6
BYBLOCK
100
AcDbTrace
 10
-65.416488
 20
-9.31826
 30
0.0
 11
-66.0
 21
-6.507999999999999
 31
0.0
 12
-66.583512
 22
-9.31826
 32
0.0
 13
-66.583512
 23
-9.31826
 33
0.0
  0
SOLID
  5
249
330
1E7
100
AcDbEntity
  8
MO_001_VIEW_PV
  6
BYBLOCK
100
AcDbTrace
 10
-66.583512
 20
9.31826
 30
0.0
 11
-66.0
 21
6.507999999999999
 31
0.0
 12
-65.416488
 22
9.31826
 32
0.0
 13
-65.416488
 23
9.31826
 33
0.0
  0
LINE
  5
24A
330
1E7
100
AcDbEntity
  8
MO_001_VIEW_PV
  6
BYBLOCK
100
AcDbLine
 10
-51.000008
 20
-6.0
 30
0.0
 11
-68.28600300000001
 21
-6.0
 31
0.0
  0
LINE
  5
24B
330
1E7
100
AcDbEntity
  8
MO_001_VIEW_PV
  6
BYBLOCK
100
AcDbLine
 10
-51.000008
 20
6.0
 30
0.0
 11
-68.28600300000001
 21
6.0
 31
0.0
  0
LINE
  5
24C
330
1E7
100
AcDbEntity
  8
MO_001_VIEW_PV
  6
BYBLOCK
100
AcDbLine
 10
-66.0
 20
6.0
 30
0.0
 11
-66.0
 21
27.49814999999999
 31
0.0
  0
ENDBLK
  5
24D
330
1E7
100
AcDbEntity
  8
0
100
AcDbBlockEnd
  0
BLOCK
  5
24E
330
1E9
100
AcDbEntity
  8
0
100
AcDbBlockBegin
  2
*D8
 70
     1
 10
0.0
 20
0.0
 30
0.0
  3
*D8
  1

  0
TEXT
  5
24F
330
1E9
100
AcDbEntity
  8
MO_001_VIEW_PV
  6
BYBLOCK
100
AcDbText
 10
-65.06233399999999
 20
-17.316795
 30
0.0
 40
1.5
  1
+0.1
 50
67.40000000000001
100
AcDbText
  0
TEXT
  5
250
330
1E9
100
AcDbEntity
  8
MO_001_VIEW_PV
  6
BYBLOCK
100
AcDbText
 10
-62.98511099999999
 20
-18.18146
 30
0.0
 40
1.5
  1
 0
 50
67.40000000000001
100
AcDbText
  0
TEXT
  5
251
330
1E9
100
AcDbEntity
  8
MO_001_VIEW_PV
  6
BYBLOCK
100
AcDbText
 10
-65.554738
 20
-23.378779
 30
0.0
 40
3.0
  1
%%C3
 50
67.40000000000001
100
AcDbText
  0
LINE
  5
252
330
1E9
100
AcDbEntity
  8
MO_001_VIEW_PV
  6
BYBLOCK
100
AcDbLine
 10
-54.42287499999999
 20
1.384529999999999
 30
0.0
 11
-55.577125
 21
-1.384531999999999
 31
0.0
  0
LINE
  5
253
330
1E9
100
AcDbEntity
  8
MO_001_VIEW_PV
  6
BYBLOCK
100
AcDbLine
 10
-54.42287499999999
 20
1.384529999999999
 30
0.0
 11
-51.979712
 21
7.245711999999999
 31
0.0
  0
LINE
  5
254
330
1E9
100
AcDbEntity
  8
MO_001_VIEW_PV
  6
BYBLOCK
100
AcDbLine
 10
-55.577125
 20
-1.384531999999999
 30
0.0
 11
-58.020288
 21
-7.245713999999999
 31
0.0
  0
SOLID
  5
255
330
1E9
100
AcDbEntity
  8
MO_001_VIEW_PV
  6
BYBLOCK
100
AcDbTrace
 10
-53.684767
 20
4.671859999999999
 30
0.0
 11
-54.227422
 21
1.853425
 31
0.0
 12
-52.607581
 22
4.222846999999999
 32
0.0
 13
-52.607581
 23
4.222846999999999
 33
0.0
  0
SOLID
  5
256
330
1E9
100
AcDbEntity
  8
MO_001_VIEW_PV
  6
BYBLOCK
100
AcDbTrace
 10
-56.315232
 20
-4.671860999999999
 30
0.0
 11
-55.772578
 21
-1.853425999999999
 31
0.0
 12
-57.39241899999999
 22
-4.222849
 32
0.0
 13
-57.39241899999999
 23
-4.222849
 33
0.0
  0
LINE
  5
257
330
1E9
100
AcDbEntity
  8
MO_001_VIEW_PV
  6
BYBLOCK
100
AcDbLine
 10
-55.577125
 20
-1.384531999999999
 30
0.0
 11
-65.235585
 21
-24.555313
 31
0.0
  0
ENDBLK
  5
258
330
1E9
100
AcDbEntity
  8
0
100
AcDbBlockEnd
  0
BLOCK
  5
259
330
1EB
100
AcDbEntity
  8
0
100
AcDbBlockBegin
  2
*D9
 70
     1
 10
0.0
 20
0.0
 30
0.0
  3
*D9
  1

  0
LINE
  5
25A
330
1EB
100
AcDbEntity
  8
MO_001_VIEW_PV
  6
BYBLOCK
100
AcDbLine
 10
16.0
 20
-10.0
 30
0.0
 11
16.0
 21
10.0
 31
0.0
  0
SOLID
  5
25B
330
1EB
100
AcDbEntity
  8
MO_001_VIEW_PV
  6
BYBLOCK
100
AcDbTrace
 10
15.416488
 20
-6.681739999999999
 30
0.0
 11
16.0
 21
-9.492
 31
0.0
 12
16.583512
 22
-6.681739999999999
 32
0.0
 13
16.583512
 23
-6.681739999999999
 33
0.0
  0
SOLID
  5
25C
330
1EB
100
AcDbEntity
  8
MO_001_VIEW_PV
  6
BYBLOCK
100
AcDbTrace
 10
16.583512
 20
6.681739999999999
 30
0.0
 11
16.0
 21
9.492
 31
0.0
 12
15.416488
 22
6.681739999999999
 32
0.0
 13
15.416488
 23
6.681739999999999
 33
0.0
  0
LINE
  5
25D
330
1EB
100
AcDbEntity
  8
MO_001_VIEW_PV
  6
BYBLOCK
100
AcDbLine
 10
-3.999997
 20
-10.0
 30
0.0
 11
18.285999
 21
-10.0
 31
0.0
  0
LINE
  5
25E
330
1EB
100
AcDbEntity
  8
MO_001_VIEW_PV
  6
BYBLOCK
100
AcDbLine
 10
-3.999997
 20
10.0
 30
0.0
 11
18.285999
 21
10.0
 31
0.0
  0
TEXT
  5
25F
330
1EB
100
AcDbEntity
  8
MO_001_VIEW_PV
  6
BYBLOCK
100
AcDbText
 10
13.375
 20
0.214286
 30
0.0
 40
1.5
  1
%%P0.2
 50
90.0
100
AcDbText
  0
TEXT
  5
260
330
1EB
100
AcDbEntity
  8
MO_001_VIEW_PV
  6
BYBLOCK
100
AcDbText
 10
15.25
 20
-5.571429
 30
0.0
 40
3.0
  1
20
 50
90.0
100
AcDbText
  0
ENDBLK
  5
261
330
1EB
100
AcDbEntity
  8
0
100
AcDbBlockEnd
  0
BLOCK
  5
262
330
1ED
100
AcDbEntity
  8
0
100
AcDbBlockBegin
  2
*D10
 70
     1
 10
0.0
 20
0.0
 30
0.0
  3
*D10
  1

  0
TEXT
  5
263
330
1ED
100
AcDbEntity
  8
MO_001_VIEW_PV
  6
BYBLOCK
100
AcDbText
 10
4.928570999999999
 20
-26.25
 30
0.0
 40
3.0
  1
(0.5)
100
AcDbText
  0
LINE
  5
264
330
1ED
100
AcDbEntity
  8
MO_001_VIEW_PV
  6
BYBLOCK
100
AcDbLine
 10
0.5
 20
-27.0
 30
0.0
 11
0.0
 21
-27.0
 31
0.0
  0
LINE
  5
265
330
1ED
100
AcDbEntity
  8
MO_001_VIEW_PV
  6
BYBLOCK
100
AcDbLine
 10
0.5
 20
-27.0
 30
0.0
 11
6.849999999999999
 21
-27.0
 31
0.0
  0
LINE
  5
266
330
1ED
100
AcDbEntity
  8
MO_001_VIEW_PV
  6
BYBLOCK
100
AcDbLine
 10
0.0
 20
-27.0
 30
0.0
 11
-6.349999999999999
 21
-27.0
 31
0.0
  0
SOLID
  5
267
330
1ED
100
AcDbEntity
  8
MO_001_VIEW_PV
  6
BYBLOCK
100
AcDbTrace
 10
3.81826
 20
-26.416488
 30
0.0
 11
1.008
 21
-27.0
 31
0.0
 12
3.81826
 22
-27.58351199999999
 32
0.0
 13
3.81826
 23
-27.58351199999999
 33
0.0
  0
SOLID
  5
268
330
1ED
100
AcDbEntity
  8
MO_001_VIEW_PV
  6
BYBLOCK
100
AcDbTrace
 10
-3.318259999999999
 20
-27.58351199999999
 30
0.0
 11
-0.508
 21
-27.0
 31
0.0
 12
-3.318259999999999
 22
-26.416488
 32
0.0
 13
-3.318259999999999
 23
-26.416488
 33
0.0
  0
LINE
  5
269
330
1ED
100
AcDbEntity
  8
MO_001_VIEW_PV
  6
BYBLOCK
100
AcDbLine
 10
0.5
 20
-2.0
 30
0.0
 11
0.5
 21
-29.285999
 31
0.0
  0
LINE
  5
26A
330
1ED
100
AcDbEntity
  8
MO_001_VIEW_PV
  6
BYBLOCK
100
AcDbLine
 10
0.0
 20
-18.0
 30
0.0
 11
0.0
 21
-29.285999
 31
0.0
  0
LINE
  5
26B
330
1ED
100
AcDbEntity
  8
MO_001_VIEW_PV
  6
BYBLOCK
100
AcDbLine
 10
20.035715
 20
-27.0
 30
0.0
 11
0.5
 21
-27.0
 31
0.0
  0
ENDBLK
  5
26C
330
1ED
100
AcDbEntity
  8
0
100
AcDbBlockEnd
  0
BLOCK
  5
26D
330
1EF
100
AcDbEntity
  8
0
100
AcDbBlockBegin
  2
*D11
 70
     1
 10
0.0
 20
0.0
 30
0.0
  3
*D11
  1

  0
LINE
  5
26E
330
1EF
100
AcDbEntity
  8
MO_001_VIEW_PV
  6
BYBLOCK
100
AcDbLine
 10
0.0
 20
-33.0
 30
0.0
 11
47.0
 21
-33.0
 31
0.0
  0
SOLID
  5
26F
330
1EF
100
AcDbEntity
  8
MO_001_VIEW_PV
  6
BYBLOCK
100
AcDbTrace
 10
3.318259999999999
 20
-32.416488
 30
0.0
 11
0.508
 21
-33.0
 31
0.0
 12
3.318259999999999
 22
-33.58351199999999
 32
0.0
 13
3.318259999999999
 23
-33.58351199999999
 33
0.0
  0
SOLID
  5
270
330
1EF
100
AcDbEntity
  8
MO_001_VIEW_PV
  6
BYBLOCK
100
AcDbTrace
 10
43.68174
 20
-33.58351199999999
 30
0.0
 11
46.49199999999999
 21
-33.0
 31
0.0
 12
43.68174
 22
-32.416488
 32
0.0
 13
43.68174
 23
-32.416488
 33
0.0
  0
LINE
  5
271
330
1EF
100
AcDbEntity
  8
MO_001_VIEW_PV
  6
BYBLOCK
100
AcDbLine
 10
0.0
 20
-18.0
 30
0.0
 11
0.0
 21
-35.28599899999999
 31
0.0
  0
LINE
  5
272
330
1EF
100
AcDbEntity
  8
MO_001_VIEW_PV
  6
BYBLOCK
100
AcDbLine
 10
47.0
 20
-19.900002
 30
0.0
 11
47.0
 21
-35.28599899999999
 31
0.0
  0
TEXT
  5
273
330
1EF
100
AcDbEntity
  8
MO_001_VIEW_PV
  6
BYBLOCK
100
AcDbText
 10
13.428571
 20
-32.25
 30
0.0
 40
3.0
  1
長さ240以上
100
AcDbText
  0
ENDBLK
  5
274
330
1EF
100
AcDbEntity
  8
0
100
AcDbBlockEnd
  0
BLOCK
  5
275
330
1F1
100
AcDbEntity
  8
0
100
AcDbBlockBegin
  2
*D12
 70
     1
 10
0.0
 20
0.0
 30
0.0
  3
*D12
  1

  0
TEXT
  5
276
330
1F1
100
AcDbEntity
  8
MO_001_VIEW_PV
  6
BYBLOCK
100
AcDbText
 10
3.872594999999999
 20
24.75
 30
0.0
 40
3.0
  1
(8)
100
AcDbText
  0
LINE
  5
277
330
1F1
100
AcDbEntity
  8
MO_001_VIEW_PV
  6
BYBLOCK
100
AcDbLine
 10
-7.999997
 20
24.0
 30
0.0
 11
0.0
 21
24.0
 31
0.0
  0
LINE
  5
278
330
1F1
100
AcDbEntity
  8
MO_001_VIEW_PV
  6
BYBLOCK
100
AcDbLine
 10
-7.999997
 20
24.0
 30
0.0
 11
-14.349997
 21
24.0
 31
0.0
  0
LINE
  5
279
330
1F1
100
AcDbEntity
  8
MO_001_VIEW_PV
  6
BYBLOCK
100
AcDbLine
 10
0.0
 20
24.0
 30
0.0
 11
6.349999999999999
 21
24.0
 31
0.0
  0
SOLID
  5
27A
330
1F1
100
AcDbEntity
  8
MO_001_VIEW_PV
  6
BYBLOCK
100
AcDbTrace
 10
-11.318257
 20
23.416488
 30
0.0
 11
-8.507996999999999
 21
24.0
 31
0.0
 12
-11.318257
 22
24.583512
 32
0.0
 13
-11.318257
 23
24.583512
 33
0.0
  0
SOLID
  5
27B
330
1F1
100
AcDbEntity
  8
MO_001_VIEW_PV
  6
BYBLOCK
100
AcDbTrace
 10
3.318259999999999
 20
24.583512
 30
0.0
 11
0.508
 21
24.0
 31
0.0
 12
3.318259999999999
 22
23.416488
 32
0.0
 13
3.318259999999999
 23
23.416488
 33
0.0
  0
LINE
  5
27C
330
1F1
100
AcDbEntity
  8
MO_001_VIEW_PV
  6
BYBLOCK
100
AcDbLine
 10
-7.999997
 20
14.0
 30
0.0
 11
-7.999997
 21
26.285999
 31
0.0
  0
LINE
  5
27D
330
1F1
100
AcDbEntity
  8
MO_001_VIEW_PV
  6
BYBLOCK
100
AcDbLine
 10
0.0
 20
18.0
 30
0.0
 11
0.0
 21
26.285999
 31
0.0
  0
LINE
  5
27E
330
1F1
100
AcDbEntity
  8
MO_001_VIEW_PV
  6
BYBLOCK
100
AcDbLine
 10
0.0
 20
24.0
 30
0.0
 11
12.979737
 21
24.0
 31
0.0
  0
ENDBLK
  5
27F
330
1F1
100
AcDbEntity
  8
0
100
AcDbBlockEnd
  0
BLOCK
  5
280
330
1F3
100
AcDbEntity
  8
0
100
AcDbBlockBegin
  2
*D13
 70
     1
 10
0.0
 20
0.0
 30
0.0
  3
*D13
  1

  0
LINE
  5
281
330
1F3
100
AcDbEntity
  8
MO_001_VIEW_PV
  6
BYBLOCK
100
AcDbLine
 10
-49.0
 20
-42.0
 30
0.0
 11
0.0
 21
-42.0
 31
0.0
  0
SOLID
  5
282
330
1F3
100
AcDbEntity
  8
MO_001_VIEW_PV
  6
BYBLOCK
100
AcDbTrace
 10
-45.68174
 20
-41.416488
 30
0.0
 11
-48.49199999999999
 21
-42.0
 31
0.0
 12
-45.68174
 22
-42.58351199999999
 32
0.0
 13
-45.68174
 23
-42.58351199999999
 33
0.0
  0
SOLID
  5
283
330
1F3
100
AcDbEntity
  8
MO_001_VIEW_PV
  6
BYBLOCK
100
AcDbTrace
 10
-3.318259999999999
 20
-42.58351199999999
 30
0.0
 11
-0.508
 21
-42.0
 31
0.0
 12
-3.318259999999999
 22
-41.416488
 32
0.0
 13
-3.318259999999999
 23
-41.416488
 33
0.0
  0
LINE
  5
284
330
1F3
100
AcDbEntity
  8
MO_001_VIEW_PV
  6
BYBLOCK
100
AcDbLine
 10
-49.0
 20
-54.300003
 30
0.0
 11
-49.0
 21
-39.714001
 31
0.0
  0
LINE
  5
285
330
1F3
100
AcDbEntity
  8
MO_001_VIEW_PV
  6
BYBLOCK
100
AcDbLine
 10
0.0
 20
-54.300003
 30
0.0
 11
0.0
 21
-39.714001
 31
0.0
  0
TEXT
  5
286
330
1F3
100
AcDbEntity
  8
MO_001_VIEW_PV
  6
BYBLOCK
100
AcDbText
 10
-24.285714
 20
-39.375
 30
0.0
 40
1.5
  1
%%P0.5
100
AcDbText
  0
TEXT
  5
287
330
1F3
100
AcDbEntity
  8
MO_001_VIEW_PV
  6
BYBLOCK
100
AcDbText
 10
-30.07142899999999
 20
-41.25
 30
0.0
 40
3.0
  1
49
100
AcDbText
  0
ENDBLK
  5
288
330
1F3
100
AcDbEntity
  8
0
100
AcDbBlockEnd
  0
BLOCK
  5
289
330
1F5
100
AcDbEntity
  8
0
100
AcDbBlockBegin
  2
*D14
 70
     1
 10
0.0
 20
0.0
 30
0.0
  3
*D14
  1

  0
LINE
  5
28A
330
1F5
100
AcDbEntity
  8
MO_001_VIEW_PV
  6
BYBLOCK
100
AcDbLine
 10
-49.0
 20
-42.0
 30
0.0
 11
-59.00000799999999
 21
-42.0
 31
0.0
  0
LINE
  5
28B
330
1F5
100
AcDbEntity
  8
MO_001_VIEW_PV
  6
BYBLOCK
100
AcDbLine
 10
-49.0
 20
-42.0
 30
0.0
 11
-42.64999999999999
 21
-42.0
 31
0.0
  0
LINE
  5
28C
330
1F5
100
AcDbEntity
  8
MO_001_VIEW_PV
  6
BYBLOCK
100
AcDbLine
 10
-59.00000799999999
 20
-42.0
 30
0.0
 11
-65.350008
 21
-42.0
 31
0.0
  0
SOLID
  5
28D
330
1F5
100
AcDbEntity
  8
MO_001_VIEW_PV
  6
BYBLOCK
100
AcDbTrace
 10
-45.68174
 20
-41.416488
 30
0.0
 11
-48.49199999999999
 21
-42.0
 31
0.0
 12
-45.68174
 22
-42.58351199999999
 32
0.0
 13
-45.68174
 23
-42.58351199999999
 33
0.0
  0
SOLID
  5
28E
330
1F5
100
AcDbEntity
  8
MO_001_VIEW_PV
  6
BYBLOCK
100
AcDbTrace
 10
-62.318268
 20
-42.58351199999999
 30
0.0
 11
-59.50800799999999
 21
-42.0
 31
0.0
 12
-62.318268
 22
-41.416488
 32
0.0
 13
-62.318268
 23
-41.416488
 33
0.0
  0
LINE
  5
28F
330
1F5
100
AcDbEntity
  8
MO_001_VIEW_PV
  6
BYBLOCK
100
AcDbLine
 10
-49.0
 20
-54.300003
 30
0.0
 11
-49.0
 21
-39.714001
 31
0.0
  0
LINE
  5
290
330
1F5
100
AcDbEntity
  8
MO_001_VIEW_PV
  6
BYBLOCK
100
AcDbLine
 10
-59.00000799999999
 20
-66.5
 30
0.0
 11
-59.00000799999999
 21
-39.714001
 31
0.0
  0
TEXT
  5
291
330
1F5
100
AcDbEntity
  8
MO_001_VIEW_PV
  6
BYBLOCK
100
AcDbText
 10
-73.95917
 20
-41.25
 30
0.0
 40
3.0
  1
(10)
100
AcDbText
  0
LINE
  5
292
330
1F5
100
AcDbEntity
  8
MO_001_VIEW_PV
  6
BYBLOCK
100
AcDbLine
 10
-59.00000799999999
 20
-42.0
 30
0.0
 11
-74.92345400000001
 21
-42.0
 31
0.0
  0
ENDBLK
  5
293
330
1F5
100
AcDbEntity
  8
0
100
AcDbBlockEnd
  0
BLOCK
  5
294
330
1F7
100
AcDbEntity
  8
0
100
AcDbBlockBegin
  2
*D15
 70
     1
 10
0.0
 20
0.0
 30
0.0
  3
*D15
  1

  0
LINE
  5
295
330
1F7
100
AcDbEntity
  8
MO_001_VIEW_PV
  6
BYBLOCK
100
AcDbLine
 10
-51.000008
 20
-48.0
 30
0.0
 11
-59.00000799999999
 21
-48.0
 31
0.0
  0
LINE
  5
296
330
1F7
100
AcDbEntity
  8
MO_001_VIEW_PV
  6
BYBLOCK
100
AcDbLine
 10
-51.000008
 20
-48.0
 30
0.0
 11
-44.650008
 21
-48.0
 31
0.0
  0
LINE
  5
297
330
1F7
100
AcDbEntity
  8
MO_001_VIEW_PV
  6
BYBLOCK
100
AcDbLine
 10
-59.00000799999999
 20
-48.0
 30
0.0
 11
-65.350008
 21
-48.0
 31
0.0
  0
SOLID
  5
298
330
1F7
100
AcDbEntity
  8
MO_001_VIEW_PV
  6
BYBLOCK
100
AcDbTrace
 10
-47.68174799999999
 20
-47.416488
 30
0.0
 11
-50.492008
 21
-48.0
 31
0.0
 12
-47.68174799999999
 22
-48.583512
 32
0.0
 13
-47.68174799999999
 23
-48.583512
 33
0.0
  0
SOLID
  5
299
330
1F7
100
AcDbEntity
  8
MO_001_VIEW_PV
  6
BYBLOCK
100
AcDbTrace
 10
-62.318268
 20
-48.583512
 30
0.0
 11
-59.50800799999999
 21
-48.0
 31
0.0
 12
-62.318268
 22
-47.416488
 32
0.0
 13
-62.318268
 23
-47.416488
 33
0.0
  0
LINE
  5
29A
330
1F7
100
AcDbEntity
  8
MO_001_VIEW_PV
  6
BYBLOCK
100
AcDbLine
 10
-51.000008
 20
-70.25
 30
0.0
 11
-51.000008
 21
-45.71399699999999
 31
0.0
  0
LINE
  5
29B
330
1F7
100
AcDbEntity
  8
MO_001_VIEW_PV
  6
BYBLOCK
100
AcDbLine
 10
-59.00000799999999
 20
-66.5
 30
0.0
 11
-59.00000799999999
 21
-45.71399699999999
 31
0.0
  0
TEXT
  5
29C
330
1F7
100
AcDbEntity
  8
MO_001_VIEW_PV
  6
BYBLOCK
100
AcDbText
 10
-68.383973
 20
-45.375
 30
0.0
 40
1.5
  1
%%P0.3
100
AcDbText
  0
TEXT
  5
29D
330
1F7
100
AcDbEntity
  8
MO_001_VIEW_PV
  6
BYBLOCK
100
AcDbText
 10
-71.16968799999999
 20
-47.25
 30
0.0
 40
3.0
  1
8
100
AcDbText
  0
LINE
  5
29E
330
1F7
100
AcDbEntity
  8
MO_001_VIEW_PV
  6
BYBLOCK
100
AcDbLine
 10
-59.00000799999999
 20
-48.0
 30
0.0
 11
-72.133972
 21
-48.0
 31
0.0
  0
ENDBLK
  5
29F
330
1F7
100
AcDbEntity
  8
0
100
AcDbBlockEnd
  0
BLOCK
  5
2A0
330
1F9
100
AcDbEntity
  8
0
100
AcDbBlockBegin
  2
*D16
 70
     1
 10
0.0
 20
0.0
 30
0.0
  3
*D16
  1

  0
LINE
  5
2A1
330
1F9
100
AcDbEntity
  8
MO_001_VIEW_PV
  6
BYBLOCK
100
AcDbLine
 10
-69.0
 20
-70.25
 30
0.0
 11
-69.0
 21
-73.75
 31
0.0
  0
LINE
  5
2A2
330
1F9
100
AcDbEntity
  8
MO_001_VIEW_PV
  6
BYBLOCK
100
AcDbLine
 10
-69.0
 20
-70.25
 30
0.0
 11
-69.0
 21
-63.9
 31
0.0
  0
LINE
  5
2A3
330
1F9
100
AcDbEntity
  8
MO_001_VIEW_PV
  6
BYBLOCK
100
AcDbLine
 10
-69.0
 20
-73.75
 30
0.0
 11
-69.0
 21
-80.09999999999999
 31
0.0
  0
SOLID
  5
2A4
330
1F9
100
AcDbEntity
  8
MO_001_VIEW_PV
  6
BYBLOCK
100
AcDbTrace
 10
-69.583512
 20
-66.93174
 30
0.0
 11
-69.0
 21
-69.742
 31
0.0
 12
-68.416488
 22
-66.93174
 32
0.0
 13
-68.416488
 23
-66.93174
 33
0.0
  0
SOLID
  5
2A5
330
1F9
100
AcDbEntity
  8
MO_001_VIEW_PV
  6
BYBLOCK
100
AcDbTrace
 10
-68.416488
 20
-77.06825999999999
 30
0.0
 11
-69.0
 21
-74.25799999999999
 31
0.0
 12
-69.583512
 22
-77.06825999999999
 32
0.0
 13
-69.583512
 23
-77.06825999999999
 33
0.0
  0
LINE
  5
2A6
330
1F9
100
AcDbEntity
  8
MO_001_VIEW_PV
  6
BYBLOCK
100
AcDbLine
 10
-59.00000799999999
 20
-70.25
 30
0.0
 11
-71.28600300000001
 21
-70.25
 31
0.0
  0
LINE
  5
2A7
330
1F9
100
AcDbEntity
  8
MO_001_VIEW_PV
  6
BYBLOCK
100
AcDbLine
 10
-59.00000799999999
 20
-73.75
 30
0.0
 11
-71.28600300000001
 21
-73.75
 31
0.0
  0
TEXT
  5
2A8
330
1F9
100
AcDbEntity
  8
MO_001_VIEW_PV
  6
BYBLOCK
100
AcDbText
 10
-71.625
 20
-57.094911
 30
0.0
 40
1.5
  1
%%P0.3
 50
90.0
100
AcDbText
  0
TEXT
  5
2A9
330
1F9
100
AcDbEntity
  8
MO_001_VIEW_PV
  6
BYBLOCK
100
AcDbText
 10
-69.75
 20
-65.88062499999999
 30
0.0
 40
3.0
  1
3.5
 50
90.0
100
AcDbText
  0
LINE
  5
2AA
330
1F9
100
AcDbEntity
  8
MO_001_VIEW_PV
  6
BYBLOCK
100
AcDbLine
 10
-69.0
 20
-50.773483
 30
0.0
 11
-69.0
 21
-70.25
 31
0.0
  0
ENDBLK
  5
2AB
330
1F9
100
AcDbEntity
  8
0
100
AcDbBlockEnd
  0
ENDSEC
  0
SECTION
  2
ENTITIES
  0
TEXT
  5
4B
330
1E
100
AcDbEntity
  8
OVERLAY_MAP
  6
C_SOLID_L
100
AcDbText
 10
0.0
 20
6.349999999999999
 30
0.0
 40
4.1672
  1
Model Overlay Name
100
AcDbText
  0
TEXT
  5
4C
330
1E
100
AcDbEntity
  8
OVERLAY_MAP
  6
C_SOLID_L
100
AcDbText
 10
126.999998
 20
0.0
 30
0.0
 40
4.1672
  1
Number
100
AcDbText
  0
TEXT
  5
4D
330
1E
100
AcDbEntity
  8
OVERLAY_MAP
  6
C_SOLID_L
100
AcDbText
 10
177.7999969999999
 20
0.0
 30
0.0
 40
4.1672
  1
File Text
100
AcDbText
  0
TEXT
  5
4E
330
1E
100
AcDbEntity
  8
OVERLAY_MAP
  6
C_SOLID_L
100
AcDbText
 10
0.0
 20
-6.349999999999999
 30
0.0
 40
4.1672
  1
op sk1250w 
100
AcDbText
  0
TEXT
  5
4F
330
1E
100
AcDbEntity
  8
OVERLAY_MAP
  6
C_SOLID_L
100
AcDbText
 10
126.999998
 20
-6.349999999999999
 30
0.0
 40
4.1672
  1
001
100
AcDbText
  0
TEXT
  5
50
330
1E
100
AcDbEntity
  8
OVERLAY_MAP
  6
C_SOLID_L
100
AcDbText
 10
177.7999969999999
 20
-6.349999999999999
 30
0.0
 40
4.1672
  1
                                                         90024 104000139
100
AcDbText
  0
LINE
  5
51
330
1E
100
AcDbEntity
  8
MO_001_VIEW_PV
  6
C_SOLID_M
100
AcDbLine
 10
-49.999996
 20
-54.300003
 30
0.0
 11
-2.299999999999999
 21
-54.300003
 31
0.0
  0
LINE
  5
52
330
1E
100
AcDbEntity
  8
MO_001_VIEW_PV
  6
C_SOLID_M
100
AcDbLine
 10
-49.999996
 20
-89.699997
 30
0.0
 11
-2.299999999999999
 21
-89.699997
 31
0.0
  0
LINE
  5
53
330
1E
100
AcDbEntity
  8
MO_001_VIEW_PV
  6
C_SOLID_M
100
AcDbLine
 10
-49.999996
 20
-52.0
 30
0.0
 11
-2.299999999999999
 21
-52.0
 31
0.0
  0
LINE
  5
54
330
1E
100
AcDbEntity
  8
MO_001_VIEW_PV
  6
C_SOLID_M
100
AcDbLine
 10
-49.999996
 20
-92.0
 30
0.0
 11
-2.299999999999999
 21
-92.0
 31
0.0
  0
LINE
  5
55
330
1E
100
AcDbEntity
  8
MO_001_VIEW_PV
  6
C_SOLID_M
100
AcDbLine
 10
0.0
 20
-74.32000699999999
 30
0.0
 11
0.0
 21
-89.699997
 31
0.0
  0
LINE
  5
56
330
1E
100
AcDbEntity
  8
MO_001_VIEW_PV
  6
C_SOLID_M
100
AcDbLine
 10
-49.999996
 20
-52.0
 30
0.0
 11
-49.999996
 21
-54.300003
 31
0.0
  0
LINE
  5
57
330
1E
100
AcDbEntity
  8
MO_001_VIEW_PV
  6
C_SOLID_M
100
AcDbLine
 10
-49.999996
 20
-89.699997
 30
0.0
 11
-49.999996
 21
-92.0
 31
0.0
  0
LINE
  5
58
330
1E
100
AcDbEntity
  8
MO_001_VIEW_PV
  6
C_SOLID_M
100
AcDbLine
 10
-116.0
 20
-18.0
 30
0.0
 11
-116.0
 21
18.0
 31
0.0
  0
LINE
  5
59
330
1E
100
AcDbEntity
  8
MO_001_VIEW_PV
  6
C_SOLID_M
100
AcDbLine
 10
-76.0
 20
-18.0
 30
0.0
 11
-76.0
 21
18.0
 31
0.0
  0
LINE
  5
5A
330
1E
100
AcDbEntity
  8
MO_001_VIEW_PV
  6
C_SOLID_M
100
AcDbLine
 10
-116.0
 20
-18.0
 30
0.0
 11
-76.0
 21
-18.0
 31
0.0
  0
LINE
  5
5B
330
1E
100
AcDbEntity
  8
MO_001_VIEW_PV
  6
C_SOLID_M
100
AcDbLine
 10
-116.0
 20
18.0
 30
0.0
 11
-76.0
 21
18.0
 31
0.0
  0
CIRCLE
  5
5C
330
1E
100
AcDbEntity
  8
MO_001_VIEW_PV
  6
C_SOLID_M
100
AcDbCircle
 10
-96.0
 20
0.0
 30
0.0
 40
6.45
  0
LINE
  5
5D
330
1E
100
AcDbEntity
  8
MO_001_VIEW_PV
  6
C_SOLID_M
100
AcDbLine
 10
0.0
 20
18.0
 30
0.0
 11
0.0
 21
-18.0
 31
0.0
  0
LINE
  5
5E
330
1E
100
AcDbEntity
  8
MO_001_VIEW_PV
  6
C_SOLID_M
100
AcDbLine
 10
-49.999996
 20
8.922651
 30
0.0
 11
-49.999996
 21
7.422644
 31
0.0
  0
LINE
  5
5F
330
1E
100
AcDbEntity
  8
MO_001_VIEW_PV
  6
C_SOLID_M
100
AcDbLine
 10
-49.999996
 20
-18.0
 30
0.0
 11
0.0
 21
-18.0
 31
0.0
  0
LINE
  5
60
330
1E
100
AcDbEntity
  8
MO_001_VIEW_PV
  6
C_SOLID_M
100
AcDbLine
 10
-49.999996
 20
18.0
 30
0.0
 11
0.0
 21
18.0
 31
0.0
  0
LINE
  5
61
330
1E
100
AcDbEntity
  8
MO_001_VIEW_PV
  6
C_CENTER_L
100
AcDbLine
 10
-62.251381
 20
0.0
 30
0.0
 11
4.432192999999999
 21
0.0
 31
0.0
  0
LINE
  5
62
330
1E
100
AcDbEntity
  8
MO_001_VIEW_PV
  6
C_SOLID_M
100
AcDbLine
 10
-48.91338
 20
-8.050003
 30
0.0
 11
-45.79999899999999
 21
-8.050003
 31
0.0
  0
LINE
  5
63
330
1E
100
AcDbEntity
  8
MO_001_VIEW_PV
  6
C_SOLID_M
100
AcDbLine
 10
-48.91338
 20
8.050003
 30
0.0
 11
-45.79999899999999
 21
8.050003
 31
0.0
  0
LINE
  5
64
330
1E
100
AcDbEntity
  8
MO_001_VIEW_PV
  6
C_SOLID_M
100
AcDbLine
 10
-45.79999899999999
 20
8.050003
 30
0.0
 11
-45.79999899999999
 21
-8.050003
 31
0.0
  0
LINE
  5
65
330
1E
100
AcDbEntity
  8
MO_001_VIEW_PV
  6
C_SOLID_M
100
AcDbLine
 10
-49.999996
 20
-9.676327
 30
0.0
 11
-49.999996
 21
-18.0
 31
0.0
  0
CIRCLE
  5
66
330
1E
100
AcDbEntity
  8
MO_001_VIEW_PV
  6
C_SOLID_L
100
AcDbCircle
 10
-7.999997
 20
10.0
 30
0.0
 40
2.0
  0
CIRCLE
  5
67
330
1E
100
AcDbEntity
  8
MO_001_VIEW_PV
  6
C_SOLID_L
100
AcDbCircle
 10
-7.999997
 20
-10.0
 30
0.0
 40
2.0
  0
CIRCLE
  5
68
330
1E
100
AcDbEntity
  8
MO_001_VIEW_PV
  6
C_SOLID_L
100
AcDbCircle
 10
-37.999996
 20
-10.0
 30
0.0
 40
2.0
  0
CIRCLE
  5
69
330
1E
100
AcDbEntity
  8
MO_001_VIEW_PV
  6
C_SOLID_L
100
AcDbCircle
 10
-37.999996
 20
10.0
 30
0.0
 40
2.0
  0
CIRCLE
  5
6A
330
1E
100
AcDbEntity
  8
MO_001_VIEW_PV
  6
C_SOLID_M
100
AcDbCircle
 10
-37.999996
 20
10.0
 30
0.0
 40
1.5
  0
CIRCLE
  5
6B
330
1E
100
AcDbEntity
  8
MO_001_VIEW_PV
  6
C_SOLID_M
100
AcDbCircle
 10
-7.999997
 20
10.0
 30
0.0
 40
1.5
  0
CIRCLE
  5
6C
330
1E
100
AcDbEntity
  8
MO_001_VIEW_PV
  6
C_SOLID_M
100
AcDbCircle
 10
-7.999997
 20
-10.0
 30
0.0
 40
1.5
  0
CIRCLE
  5
6D
330
1E
100
AcDbEntity
  8
MO_001_VIEW_PV
  6
C_SOLID_M
100
AcDbCircle
 10
-37.999996
 20
-10.0
 30
0.0
 40
1.5
  0
ARC
  5
6E
330
1E
100
AcDbEntity
  8
MO_001_VIEW_PV
  6
C_SOLID_M
100
AcDbCircle
 10
-45.79999899999999
 20
-7.050003
 30
0.0
 40
1.0
100
AcDbArc
 50
270.0000179999999
 51
89.99998199999998
  0
ARC
  5
6F
330
1E
100
AcDbEntity
  8
MO_001_VIEW_PV
  6
C_SOLID_M
100
AcDbCircle
 10
-45.79999899999999
 20
7.050003
 30
0.0
 40
1.0
100
AcDbArc
 50
270.0000179999999
 51
89.99998199999998
  0
ARC
  5
70
330
1E
100
AcDbEntity
  8
MO_001_VIEW_PV
  6
C_SOLID_M
100
AcDbCircle
 10
-2.299999999999999
 20
-54.300003
 30
0.0
 40
2.299999999999999
100
AcDbArc
 50
0.0
 51
89.99998900000001
  0
ARC
  5
71
330
1E
100
AcDbEntity
  8
MO_001_VIEW_PV
  6
C_SOLID_M
100
AcDbCircle
 10
-2.299999999999999
 20
-89.699997
 30
0.0
 40
2.299999999999999
100
AcDbArc
 50
269.999998
 51
0.00001
  0
LINE
  5
72
330
1E
100
AcDbEntity
  8
MO_001_VIEW_PV
  6
C_SOLID_M
100
AcDbLine
 10
-45.79999899999999
 20
-54.300003
 30
0.0
 11
-45.79999899999999
 21
-89.699997
 31
0.0
  0
LINE
  5
73
330
1E
100
AcDbEntity
  8
MO_001_VIEW_PV
  6
C_SOLID_M
100
AcDbLine
 10
-49.0
 20
7.999991999999999
 30
0.0
 11
-49.0
 21
-8.050003
 31
0.0
  0
LINE
  5
74
330
1E
100
AcDbEntity
  8
MO_001_VIEW_PV
  6
C_SOLID_M
100
AcDbLine
 10
-49.0
 20
7.999991999999999
 30
0.0
 11
-45.79999899999999
 21
7.999991999999999
 31
0.0
  0
LINE
  5
75
330
1E
100
AcDbEntity
  8
MO_001_VIEW_PV
  6
C_SOLID_M
100
AcDbLine
 10
-49.0
 20
-7.999991999999999
 30
0.0
 11
-45.79999899999999
 21
-7.999991999999999
 31
0.0
  0
LINE
  5
76
330
1E
100
AcDbEntity
  8
MO_001_VIEW_PV
  6
C_SOLID_M
100
AcDbLine
 10
-49.0
 20
-54.300003
 30
0.0
 11
-49.0
 21
-89.699997
 31
0.0
  0
LINE
  5
77
330
1E
100
AcDbEntity
  8
MO_001_VIEW_PV
  6
C_SOLID_M
100
AcDbLine
 10
0.5
 20
-71.0
 30
0.0
 11
0.5
 21
-73.0
 31
0.0
  0
LINE
  5
78
330
1E
100
AcDbEntity
  8
MO_001_VIEW_PV
  6
C_SOLID_M
100
AcDbLine
 10
-59.00000799999999
 20
-66.5
 30
0.0
 11
-59.00000799999999
 21
-70.25
 31
0.0
  0
LINE
  5
79
330
1E
100
AcDbEntity
  8
MO_001_VIEW_PV
  6
C_SOLID_M
100
AcDbLine
 10
-56.800003
 20
-66.0
 30
0.0
 11
-58.500008
 21
-66.0
 31
0.0
  0
LINE
  5
7A
330
1E
100
AcDbEntity
  8
MO_001_VIEW_PV
  6
C_SOLID_M
100
AcDbLine
 10
-51.000008
 20
-70.25
 30
0.0
 11
-51.000008
 21
-73.75
 31
0.0
  0
LINE
  5
7B
330
1E
100
AcDbEntity
  8
MO_001_VIEW_PV
  6
C_SOLID_M
100
AcDbLine
 10
-51.000008
 20
-70.25
 30
0.0
 11
-59.00000799999999
 21
-70.25
 31
0.0
  0
LINE
  5
7C
330
1E
100
AcDbEntity
  8
MO_001_VIEW_PV
  6
C_SOLID_M
100
AcDbLine
 10
-49.0
 20
-71.5
 30
0.0
 11
-51.000008
 21
-71.5
 31
0.0
  0
LINE
  5
7D
330
1E
100
AcDbEntity
  8
MO_001_VIEW_PV
  6
C_SOLID_M
100
AcDbLine
 10
-56.800003
 20
-78.0
 30
0.0
 11
-58.500008
 21
-78.0
 31
0.0
  0
LINE
  5
7E
330
1E
100
AcDbEntity
  8
MO_001_VIEW_PV
  6
C_SOLID_M
100
AcDbLine
 10
-51.000008
 20
-73.75
 30
0.0
 11
-59.00000799999999
 21
-73.75
 31
0.0
  0
LINE
  5
7F
330
1E
100
AcDbEntity
  8
MO_001_VIEW_PV
  6
C_SOLID_M
100
AcDbLine
 10
-49.0
 20
-72.5
 30
0.0
 11
-51.000008
 21
-72.5
 31
0.0
  0
LINE
  5
80
330
1E
100
AcDbEntity
  8
MO_001_VIEW_PV
  6
C_SOLID_M
100
AcDbLine
 10
-58.99999000000001
 20
-66.499976
 30
0.0
 11
-58.50000099999999
 21
-65.99998599999999
 31
0.0
  0
LINE
  5
81
330
1E
100
AcDbEntity
  8
MO_001_VIEW_PV
  6
C_SOLID_M
100
AcDbLine
 10
-58.99999300000001
 20
-77.49998399999999
 30
0.0
 11
-58.499992
 21
-77.999985
 31
0.0
  0
LINE
  5
82
330
1E
100
AcDbEntity
  8
MO_001_VIEW_PV
  6
C_SOLID_M
100
AcDbLine
 10
-58.500008
 20
-66.0
 30
0.0
 11
-58.500008
 21
-70.25
 31
0.0
  0
LINE
  5
83
330
1E
100
AcDbEntity
  8
MO_001_VIEW_PV
  6
C_SOLID_M
100
AcDbLine
 10
-58.500008
 20
-73.75
 30
0.0
 11
-58.500008
 21
-78.0
 31
0.0
  0
LINE
  5
84
330
1E
100
AcDbEntity
  8
MO_001_VIEW_PV
  6
C_SOLID_M
100
AcDbLine
 10
-59.00000799999999
 20
-73.75
 30
0.0
 11
-59.00000799999999
 21
-77.5
 31
0.0
  0
LINE
  5
85
330
1E
100
AcDbEntity
  8
MO_001_VIEW_PV
  6
C_CENTER_L
100
AcDbLine
 10
-55.0
 20
-63.851898
 30
0.0
 11
-55.0
 21
-80.01470899999999
 31
0.0
  0
LINE
  5
86
330
1E
100
AcDbEntity
  8
MO_001_VIEW_PV
  6
C_DASHED_L
100
AcDbLine
 10
-56.5
 20
-66.299988
 30
0.0
 11
-56.5
 21
-70.25
 31
0.0
  0
LINE
  5
87
330
1E
100
AcDbEntity
  8
MO_001_VIEW_PV
  6
C_DASHED_L
100
AcDbLine
 10
-53.5
 20
-66.300003
 30
0.0
 11
-53.5
 21
-70.25
 31
0.0
  0
LINE
  5
88
330
1E
100
AcDbEntity
  8
MO_001_VIEW_PV
  6
C_DASHED_L
100
AcDbLine
 10
-53.49999799999999
 20
-66.299991
 30
0.0
 11
-53.199989
 21
-65.99999
 31
0.0
  0
LINE
  5
89
330
1E
100
AcDbEntity
  8
MO_001_VIEW_PV
  6
C_DASHED_L
100
AcDbLine
 10
-56.50000699999999
 20
-66.300004
 30
0.0
 11
-56.800015
 21
-66.000002
 31
0.0
  0
LINE
  5
8A
330
1E
100
AcDbEntity
  8
MO_001_VIEW_PV
  6
C_DASHED_L
100
AcDbLine
 10
-56.5
 20
-77.700012
 30
0.0
 11
-56.5
 21
-73.75
 31
0.0
  0
LINE
  5
8B
330
1E
100
AcDbEntity
  8
MO_001_VIEW_PV
  6
C_DASHED_L
100
AcDbLine
 10
-53.5
 20
-77.69999699999999
 30
0.0
 11
-53.5
 21
-73.75
 31
0.0
  0
LINE
  5
8C
330
1E
100
AcDbEntity
  8
MO_001_VIEW_PV
  6
C_DASHED_L
100
AcDbLine
 10
-53.499972
 20
-77.699958
 30
0.0
 11
-53.199964
 21
-77.99995899999998
 31
0.0
  0
LINE
  5
8D
330
1E
100
AcDbEntity
  8
MO_001_VIEW_PV
  6
C_DASHED_L
100
AcDbLine
 10
-56.499966
 20
-77.69997299999999
 30
0.0
 11
-56.799974
 21
-77.999975
 31
0.0
  0
POLYLINE
  5
8E
330
1E
100
AcDbEntity
  8
MO_001_VIEW_PV
  6
C_SOLID_M
100
AcDb2dPolyline
 66
     1
 10
0.0
 20
0.0
 30
0.0
 70
     1
  0
VERTEX
  5
2BD
330
8E
100
AcDbEntity
  8
MO_001_VIEW_PV
  6
C_SOLID_M
100
AcDbVertex
100
AcDb2dVertex
 10
-56.800003
 20
-66.0
 30
0.0
  0
VERTEX
  5
2BE
330
8E
100
AcDbEntity
  8
MO_001_VIEW_PV
  6
C_SOLID_M
100
AcDbVertex
100
AcDb2dVertex
 10
-56.79071
 20
-66.00310400000001
 30
0.0
  0
VERTEX
  5
2BF
330
8E
100
AcDbEntity
  8
MO_001_VIEW_PV
  6
C_SOLID_M
100
AcDbVertex
100
AcDb2dVertex
 10
-56.76779499999999
 20
-66.01049599999999
 30
0.0
  0
VERTEX
  5
2C0
330
8E
100
AcDbEntity
  8
MO_001_VIEW_PV
  6
C_SOLID_M
100
AcDbVertex
100
AcDb2dVertex
 10
-56.736927
 20
-66.02009800000001
 30
0.0
  0
VERTEX
  5
2C1
330
8E
100
AcDbEntity
  8
MO_001_VIEW_PV
  6
C_SOLID_M
100
AcDbVertex
100
AcDb2dVertex
 10
-56.659881
 20
-66.042803
 30
0.0
  0
VERTEX
  5
2C2
330
8E
100
AcDbEntity
  8
MO_001_VIEW_PV
  6
C_SOLID_M
100
AcDbVertex
100
AcDb2dVertex
 10
-56.58396800000001
 20
-66.063773
 30
0.0
  0
VERTEX
  5
2C3
330
8E
100
AcDbEntity
  8
MO_001_VIEW_PV
  6
C_SOLID_M
100
AcDbVertex
100
AcDb2dVertex
 10
-56.443165
 20
-66.099592
 30
0.0
  0
VERTEX
  5
2C4
330
8E
100
AcDbEntity
  8
MO_001_VIEW_PV
  6
C_SOLID_M
100
AcDbVertex
100
AcDb2dVertex
 10
-56.27279399999999
 20
-66.13818399999999
 30
0.0
  0
VERTEX
  5
2C5
330
8E
100
AcDbEntity
  8
MO_001_VIEW_PV
  6
C_SOLID_M
100
AcDbVertex
100
AcDb2dVertex
 10
-56.14496800000001
 20
-66.16395799999999
 30
0.0
  0
VERTEX
  5
2C6
330
8E
100
AcDbEntity
  8
MO_001_VIEW_PV
  6
C_SOLID_M
100
AcDbVertex
100
AcDb2dVertex
 10
-55.895963
 20
-66.20662800000001
 30
0.0
  0
VERTEX
  5
2C7
330
8E
100
AcDbEntity
  8
MO_001_VIEW_PV
  6
C_SOLID_M
100
AcDbVertex
100
AcDb2dVertex
 10
-55.69053100000001
 20
-66.23439300000001
 30
0.0
  0
VERTEX
  5
2C8
330
8E
100
AcDbEntity
  8
MO_001_VIEW_PV
  6
C_SOLID_M
100
AcDbVertex
100
AcDb2dVertex
 10
-55.35726700000001
 20
-66.26484399999999
 30
0.0
  0
VERTEX
  5
2C9
330
8E
100
AcDbEntity
  8
MO_001_VIEW_PV
  6
C_SOLID_M
100
AcDbVertex
100
AcDb2dVertex
 10
-55.0
 20
-66.276367
 30
0.0
  0
VERTEX
  5
2CA
330
8E
100
AcDbEntity
  8
MO_001_VIEW_PV
  6
C_SOLID_M
100
AcDbVertex
100
AcDb2dVertex
 10
-54.637237
 20
-66.264492
 30
0.0
  0
VERTEX
  5
2CB
330
8E
100
AcDbEntity
  8
MO_001_VIEW_PV
  6
C_SOLID_M
100
AcDbVertex
100
AcDb2dVertex
 10
-54.3811
 20
-66.242479
 30
0.0
  0
VERTEX
  5
2CC
330
8E
100
AcDbEntity
  8
MO_001_VIEW_PV
  6
C_SOLID_M
100
AcDbVertex
100
AcDb2dVertex
 10
-54.20001899999999
 20
-66.22043999999999
 30
0.0
  0
VERTEX
  5
2CD
330
8E
100
AcDbEntity
  8
MO_001_VIEW_PV
  6
C_SOLID_M
100
AcDbVertex
100
AcDb2dVertex
 10
-53.94919999999999
 20
-66.18125699999999
 30
0.0
  0
VERTEX
  5
2CE
330
8E
100
AcDbEntity
  8
MO_001_VIEW_PV
  6
C_SOLID_M
100
AcDbVertex
100
AcDb2dVertex
 10
-53.72720799999999
 20
-66.13818399999999
 30
0.0
  0
VERTEX
  5
2CF
330
8E
100
AcDbEntity
  8
MO_001_VIEW_PV
  6
C_SOLID_M
100
AcDbVertex
100
AcDb2dVertex
 10
-53.61103299999999
 20
-66.112409
 30
0.0
  0
VERTEX
  5
2D0
330
8E
100
AcDbEntity
  8
MO_001_VIEW_PV
  6
C_SOLID_M
100
AcDbVertex
100
AcDb2dVertex
 10
-53.51964699999999
 20
-66.09049300000001
 30
0.0
  0
VERTEX
  5
2D1
330
8E
100
AcDbEntity
  8
MO_001_VIEW_PV
  6
C_SOLID_M
100
AcDbVertex
100
AcDb2dVertex
 10
-53.384675
 20
-66.055263
 30
0.0
  0
VERTEX
  5
2D2
330
8E
100
AcDbEntity
  8
MO_001_VIEW_PV
  6
C_SOLID_M
100
AcDbVertex
100
AcDb2dVertex
 10
-53.305936
 20
-66.03292500000001
 30
0.0
  0
VERTEX
  5
2D3
330
8E
100
AcDbEntity
  8
MO_001_VIEW_PV
  6
C_SOLID_M
100
AcDbVertex
100
AcDb2dVertex
 10
-53.260456
 20
-66.019296
 30
0.0
  0
VERTEX
  5
2D4
330
8E
100
AcDbEntity
  8
MO_001_VIEW_PV
  6
C_SOLID_M
100
AcDbVertex
100
AcDb2dVertex
 10
-53.21544
 20
-66.005115
 30
0.0
  0
VERTEX
  5
2D5
330
8E
100
AcDbEntity
  8
MO_001_VIEW_PV
  6
C_SOLID_M
100
AcDbVertex
100
AcDb2dVertex
 10
-53.200001
 20
-66.0
 30
0.0
  0
VERTEX
  5
2D6
330
8E
100
AcDbEntity
  8
MO_001_VIEW_PV
  6
C_SOLID_M
100
AcDbVertex
100
AcDb2dVertex
 10
-53.20929399999999
 20
-66.00310400000001
 30
0.0
  0
VERTEX
  5
2D7
330
8E
100
AcDbEntity
  8
MO_001_VIEW_PV
  6
C_SOLID_M
100
AcDbVertex
100
AcDb2dVertex
 10
-53.23220799999999
 20
-66.01049599999999
 30
0.0
  0
VERTEX
  5
2D8
330
8E
100
AcDbEntity
  8
MO_001_VIEW_PV
  6
C_SOLID_M
100
AcDbVertex
100
AcDb2dVertex
 10
-53.26307599999999
 20
-66.02009800000001
 30
0.0
  0
VERTEX
  5
2D9
330
8E
100
AcDbEntity
  8
MO_001_VIEW_PV
  6
C_SOLID_M
100
AcDbVertex
100
AcDb2dVertex
 10
-53.340122
 20
-66.042803
 30
0.0
  0
VERTEX
  5
2DA
330
8E
100
AcDbEntity
  8
MO_001_VIEW_PV
  6
C_SOLID_M
100
AcDbVertex
100
AcDb2dVertex
 10
-53.416035
 20
-66.063773
 30
0.0
  0
VERTEX
  5
2DB
330
8E
100
AcDbEntity
  8
MO_001_VIEW_PV
  6
C_SOLID_M
100
AcDbVertex
100
AcDb2dVertex
 10
-53.556838
 20
-66.099592
 30
0.0
  0
VERTEX
  5
2DC
330
8E
100
AcDbEntity
  8
MO_001_VIEW_PV
  6
C_SOLID_M
100
AcDbVertex
100
AcDb2dVertex
 10
-53.72720799999999
 20
-66.13818399999999
 30
0.0
  0
VERTEX
  5
2DD
330
8E
100
AcDbEntity
  8
MO_001_VIEW_PV
  6
C_SOLID_M
100
AcDbVertex
100
AcDb2dVertex
 10
-53.85503299999999
 20
-66.16395799999999
 30
0.0
  0
VERTEX
  5
2DE
330
8E
100
AcDbEntity
  8
MO_001_VIEW_PV
  6
C_SOLID_M
100
AcDbVertex
100
AcDb2dVertex
 10
-54.104038
 20
-66.20662800000001
 30
0.0
  0
VERTEX
  5
2DF
330
8E
100
AcDbEntity
  8
MO_001_VIEW_PV
  6
C_SOLID_M
100
AcDbVertex
100
AcDb2dVertex
 10
-54.30946899999999
 20
-66.23439300000001
 30
0.0
  0
VERTEX
  5
2E0
330
8E
100
AcDbEntity
  8
MO_001_VIEW_PV
  6
C_SOLID_M
100
AcDbVertex
100
AcDb2dVertex
 10
-54.64273299999999
 20
-66.26484399999999
 30
0.0
  0
VERTEX
  5
2E1
330
8E
100
AcDbEntity
  8
MO_001_VIEW_PV
  6
C_SOLID_M
100
AcDbVertex
100
AcDb2dVertex
 10
-55.0
 20
-66.276367
 30
0.0
  0
VERTEX
  5
2E2
330
8E
100
AcDbEntity
  8
MO_001_VIEW_PV
  6
C_SOLID_M
100
AcDbVertex
100
AcDb2dVertex
 10
-55.362763
 20
-66.264492
 30
0.0
  0
VERTEX
  5
2E3
330
8E
100
AcDbEntity
  8
MO_001_VIEW_PV
  6
C_SOLID_M
100
AcDbVertex
100
AcDb2dVertex
 10
-55.618901
 20
-66.242479
 30
0.0
  0
VERTEX
  5
2E4
330
8E
100
AcDbEntity
  8
MO_001_VIEW_PV
  6
C_SOLID_M
100
AcDbVertex
100
AcDb2dVertex
 10
-55.799981
 20
-66.22043999999999
 30
0.0
  0
VERTEX
  5
2E5
330
8E
100
AcDbEntity
  8
MO_001_VIEW_PV
  6
C_SOLID_M
100
AcDbVertex
100
AcDb2dVertex
 10
-56.050801
 20
-66.18125699999999
 30
0.0
  0
VERTEX
  5
2E6
330
8E
100
AcDbEntity
  8
MO_001_VIEW_PV
  6
C_SOLID_M
100
AcDbVertex
100
AcDb2dVertex
 10
-56.27279399999999
 20
-66.13818399999999
 30
0.0
  0
VERTEX
  5
2E7
330
8E
100
AcDbEntity
  8
MO_001_VIEW_PV
  6
C_SOLID_M
100
AcDbVertex
100
AcDb2dVertex
 10
-56.38896899999999
 20
-66.112409
 30
0.0
  0
VERTEX
  5
2E8
330
8E
100
AcDbEntity
  8
MO_001_VIEW_PV
  6
C_SOLID_M
100
AcDbVertex
100
AcDb2dVertex
 10
-56.480355
 20
-66.09049300000001
 30
0.0
  0
VERTEX
  5
2E9
330
8E
100
AcDbEntity
  8
MO_001_VIEW_PV
  6
C_SOLID_M
100
AcDbVertex
100
AcDb2dVertex
 10
-56.615328
 20
-66.055263
 30
0.0
  0
VERTEX
  5
2EA
330
8E
100
AcDbEntity
  8
MO_001_VIEW_PV
  6
C_SOLID_M
100
AcDbVertex
100
AcDb2dVertex
 10
-56.694068
 20
-66.03292500000001
 30
0.0
  0
VERTEX
  5
2EB
330
8E
100
AcDbEntity
  8
MO_001_VIEW_PV
  6
C_SOLID_M
100
AcDbVertex
100
AcDb2dVertex
 10
-56.73954699999999
 20
-66.019296
 30
0.0
  0
VERTEX
  5
2EC
330
8E
100
AcDbEntity
  8
MO_001_VIEW_PV
  6
C_SOLID_M
100
AcDbVertex
100
AcDb2dVertex
 10
-56.784564
 20
-66.005115
 30
0.0
  0
VERTEX
  5
2ED
330
8E
100
AcDbEntity
  8
MO_001_VIEW_PV
  6
C_SOLID_M
100
AcDbVertex
100
AcDb2dVertex
 10
-56.800003
 20
-66.0
 30
0.0
  0
SEQEND
  5
2EE
330
8E
100
AcDbEntity
  8
MO_001_VIEW_PV
  6
C_SOLID_M
  0
POLYLINE
  5
C1
330
1E
100
AcDbEntity
  8
MO_001_VIEW_PV
  6
C_SOLID_M
100
AcDb2dPolyline
 66
     1
 10
0.0
 20
0.0
 30
0.0
 70
     1
  0
VERTEX
  5
2EF
330
C1
100
AcDbEntity
  8
MO_001_VIEW_PV
  6
C_SOLID_M
100
AcDbVertex
100
AcDb2dVertex
 10
-56.800003
 20
-78.0
 30
0.0
  0
VERTEX
  5
2F0
330
C1
100
AcDbEntity
  8
MO_001_VIEW_PV
  6
C_SOLID_M
100
AcDbVertex
100
AcDb2dVertex
 10
-56.79071
 20
-77.99689599999999
 30
0.0
  0
VERTEX
  5
2F1
330
C1
100
AcDbEntity
  8
MO_001_VIEW_PV
  6
C_SOLID_M
100
AcDbVertex
100
AcDb2dVertex
 10
-56.76779499999999
 20
-77.98950400000001
 30
0.0
  0
VERTEX
  5
2F2
330
C1
100
AcDbEntity
  8
MO_001_VIEW_PV
  6
C_SOLID_M
100
AcDbVertex
100
AcDb2dVertex
 10
-56.736927
 20
-77.979902
 30
0.0
  0
VERTEX
  5
2F3
330
C1
100
AcDbEntity
  8
MO_001_VIEW_PV
  6
C_SOLID_M
100
AcDbVertex
100
AcDb2dVertex
 10
-56.659881
 20
-77.95719699999999
 30
0.0
  0
VERTEX
  5
2F4
330
C1
100
AcDbEntity
  8
MO_001_VIEW_PV
  6
C_SOLID_M
100
AcDbVertex
100
AcDb2dVertex
 10
-56.58396800000001
 20
-77.936227
 30
0.0
  0
VERTEX
  5
2F5
330
C1
100
AcDbEntity
  8
MO_001_VIEW_PV
  6
C_SOLID_M
100
AcDbVertex
100
AcDb2dVertex
 10
-56.443165
 20
-77.90040799999999
 30
0.0
  0
VERTEX
  5
2F6
330
C1
100
AcDbEntity
  8
MO_001_VIEW_PV
  6
C_SOLID_M
100
AcDbVertex
100
AcDb2dVertex
 10
-56.27279399999999
 20
-77.861816
 30
0.0
  0
VERTEX
  5
2F7
330
C1
100
AcDbEntity
  8
MO_001_VIEW_PV
  6
C_SOLID_M
100
AcDbVertex
100
AcDb2dVertex
 10
-56.14496800000001
 20
-77.836042
 30
0.0
  0
VERTEX
  5
2F8
330
C1
100
AcDbEntity
  8
MO_001_VIEW_PV
  6
C_SOLID_M
100
AcDbVertex
100
AcDb2dVertex
 10
-55.895963
 20
-77.79337199999999
 30
0.0
  0
VERTEX
  5
2F9
330
C1
100
AcDbEntity
  8
MO_001_VIEW_PV
  6
C_SOLID_M
100
AcDbVertex
100
AcDb2dVertex
 10
-55.69053100000001
 20
-77.76560699999999
 30
0.0
  0
VERTEX
  5
2FA
330
C1
100
AcDbEntity
  8
MO_001_VIEW_PV
  6
C_SOLID_M
100
AcDbVertex
100
AcDb2dVertex
 10
-55.35726700000001
 20
-77.735156
 30
0.0
  0
VERTEX
  5
2FB
330
C1
100
AcDbEntity
  8
MO_001_VIEW_PV
  6
C_SOLID_M
100
AcDbVertex
100
AcDb2dVertex
 10
-55.0
 20
-77.72363299999999
 30
0.0
  0
VERTEX
  5
2FC
330
C1
100
AcDbEntity
  8
MO_001_VIEW_PV
  6
C_SOLID_M
100
AcDbVertex
100
AcDb2dVertex
 10
-54.637237
 20
-77.73550799999999
 30
0.0
  0
VERTEX
  5
2FD
330
C1
100
AcDbEntity
  8
MO_001_VIEW_PV
  6
C_SOLID_M
100
AcDbVertex
100
AcDb2dVertex
 10
-54.3811
 20
-77.757521
 30
0.0
  0
VERTEX
  5
2FE
330
C1
100
AcDbEntity
  8
MO_001_VIEW_PV
  6
C_SOLID_M
100
AcDbVertex
100
AcDb2dVertex
 10
-54.20001899999999
 20
-77.77956
 30
0.0
  0
VERTEX
  5
2FF
330
C1
100
AcDbEntity
  8
MO_001_VIEW_PV
  6
C_SOLID_M
100
AcDbVertex
100
AcDb2dVertex
 10
-53.94919999999999
 20
-77.81874300000001
 30
0.0
  0
VERTEX
  5
300
330
C1
100
AcDbEntity
  8
MO_001_VIEW_PV
  6
C_SOLID_M
100
AcDbVertex
100
AcDb2dVertex
 10
-53.72720799999999
 20
-77.861816
 30
0.0
  0
VERTEX
  5
301
330
C1
100
AcDbEntity
  8
MO_001_VIEW_PV
  6
C_SOLID_M
100
AcDbVertex
100
AcDb2dVertex
 10
-53.61103299999999
 20
-77.887591
 30
0.0
  0
VERTEX
  5
302
330
C1
100
AcDbEntity
  8
MO_001_VIEW_PV
  6
C_SOLID_M
100
AcDbVertex
100
AcDb2dVertex
 10
-53.51964699999999
 20
-77.90950699999999
 30
0.0
  0
VERTEX
  5
303
330
C1
100
AcDbEntity
  8
MO_001_VIEW_PV
  6
C_SOLID_M
100
AcDbVertex
100
AcDb2dVertex
 10
-53.384675
 20
-77.94473700000001
 30
0.0
  0
VERTEX
  5
304
330
C1
100
AcDbEntity
  8
MO_001_VIEW_PV
  6
C_SOLID_M
100
AcDbVertex
100
AcDb2dVertex
 10
-53.30593499999999
 20
-77.967075
 30
0.0
  0
VERTEX
  5
305
330
C1
100
AcDbEntity
  8
MO_001_VIEW_PV
  6
C_SOLID_M
100
AcDbVertex
100
AcDb2dVertex
 10
-53.260456
 20
-77.980704
 30
0.0
  0
VERTEX
  5
306
330
C1
100
AcDbEntity
  8
MO_001_VIEW_PV
  6
C_SOLID_M
100
AcDbVertex
100
AcDb2dVertex
 10
-53.21544
 20
-77.99488499999999
 30
0.0
  0
VERTEX
  5
307
330
C1
100
AcDbEntity
  8
MO_001_VIEW_PV
  6
C_SOLID_M
100
AcDbVertex
100
AcDb2dVertex
 10
-53.200001
 20
-78.0
 30
0.0
  0
VERTEX
  5
308
330
C1
100
AcDbEntity
  8
MO_001_VIEW_PV
  6
C_SOLID_M
100
AcDbVertex
100
AcDb2dVertex
 10
-53.20929399999999
 20
-77.99689599999999
 30
0.0
  0
VERTEX
  5
309
330
C1
100
AcDbEntity
  8
MO_001_VIEW_PV
  6
C_SOLID_M
100
AcDbVertex
100
AcDb2dVertex
 10
-53.23220799999999
 20
-77.98950400000001
 30
0.0
  0
VERTEX
  5
30A
330
C1
100
AcDbEntity
  8
MO_001_VIEW_PV
  6
C_SOLID_M
100
AcDbVertex
100
AcDb2dVertex
 10
-53.26307599999999
 20
-77.979902
 30
0.0
  0
VERTEX
  5
30B
330
C1
100
AcDbEntity
  8
MO_001_VIEW_PV
  6
C_SOLID_M
100
AcDbVertex
100
AcDb2dVertex
 10
-53.340122
 20
-77.95719699999999
 30
0.0
  0
VERTEX
  5
30C
330
C1
100
AcDbEntity
  8
MO_001_VIEW_PV
  6
C_SOLID_M
100
AcDbVertex
100
AcDb2dVertex
 10
-53.416035
 20
-77.936227
 30
0.0
  0
VERTEX
  5
30D
330
C1
100
AcDbEntity
  8
MO_001_VIEW_PV
  6
C_SOLID_M
100
AcDbVertex
100
AcDb2dVertex
 10
-53.556838
 20
-77.90040799999999
 30
0.0
  0
VERTEX
  5
30E
330
C1
100
AcDbEntity
  8
MO_001_VIEW_PV
  6
C_SOLID_M
100
AcDbVertex
100
AcDb2dVertex
 10
-53.72720799999999
 20
-77.861816
 30
0.0
  0
VERTEX
  5
30F
330
C1
100
AcDbEntity
  8
MO_001_VIEW_PV
  6
C_SOLID_M
100
AcDbVertex
100
AcDb2dVertex
 10
-53.85503299999999
 20
-77.836042
 30
0.0
  0
VERTEX
  5
310
330
C1
100
AcDbEntity
  8
MO_001_VIEW_PV
  6
C_SOLID_M
100
AcDbVertex
100
AcDb2dVertex
 10
-54.104038
 20
-77.79337199999999
 30
0.0
  0
VERTEX
  5
311
330
C1
100
AcDbEntity
  8
MO_001_VIEW_PV
  6
C_SOLID_M
100
AcDbVertex
100
AcDb2dVertex
 10
-54.30946899999999
 20
-77.76560699999999
 30
0.0
  0
VERTEX
  5
312
330
C1
100
AcDbEntity
  8
MO_001_VIEW_PV
  6
C_SOLID_M
100
AcDbVertex
100
AcDb2dVertex
 10
-54.64273299999999
 20
-77.735156
 30
0.0
  0
VERTEX
  5
313
330
C1
100
AcDbEntity
  8
MO_001_VIEW_PV
  6
C_SOLID_M
100
AcDbVertex
100
AcDb2dVertex
 10
-55.0
 20
-77.72363299999999
 30
0.0
  0
VERTEX
  5
314
330
C1
100
AcDbEntity
  8
MO_001_VIEW_PV
  6
C_SOLID_M
100
AcDbVertex
100
AcDb2dVertex
 10
-55.362763
 20
-77.73550799999999
 30
0.0
  0
VERTEX
  5
315
330
C1
100
AcDbEntity
  8
MO_001_VIEW_PV
  6
C_SOLID_M
100
AcDbVertex
100
AcDb2dVertex
 10
-55.618901
 20
-77.757521
 30
0.0
  0
VERTEX
  5
316
330
C1
100
AcDbEntity
  8
MO_001_VIEW_PV
  6
C_SOLID_M
100
AcDbVertex
100
AcDb2dVertex
 10
-55.799981
 20
-77.77956
 30
0.0
  0
VERTEX
  5
317
330
C1
100
AcDbEntity
  8
MO_001_VIEW_PV
  6
C_SOLID_M
100
AcDbVertex
100
AcDb2dVertex
 10
-56.050801
 20
-77.81874300000001
 30
0.0
  0
VERTEX
  5
318
330
C1
100
AcDbEntity
  8
MO_001_VIEW_PV
  6
C_SOLID_M
100
AcDbVertex
100
AcDb2dVertex
 10
-56.27279399999999
 20
-77.861816
 30
0.0
  0
VERTEX
  5
319
330
C1
100
AcDbEntity
  8
MO_001_VIEW_PV
  6
C_SOLID_M
100
AcDbVertex
100
AcDb2dVertex
 10
-56.38896899999999
 20
-77.887591
 30
0.0
  0
VERTEX
  5
31A
330
C1
100
AcDbEntity
  8
MO_001_VIEW_PV
  6
C_SOLID_M
100
AcDbVertex
100
AcDb2dVertex
 10
-56.480355
 20
-77.90950699999999
 30
0.0
  0
VERTEX
  5
31B
330
C1
100
AcDbEntity
  8
MO_001_VIEW_PV
  6
C_SOLID_M
100
AcDbVertex
100
AcDb2dVertex
 10
-56.615328
 20
-77.94473700000001
 30
0.0
  0
VERTEX
  5
31C
330
C1
100
AcDbEntity
  8
MO_001_VIEW_PV
  6
C_SOLID_M
100
AcDbVertex
100
AcDb2dVertex
 10
-56.694068
 20
-77.967075
 30
0.0
  0
VERTEX
  5
31D
330
C1
100
AcDbEntity
  8
MO_001_VIEW_PV
  6
C_SOLID_M
100
AcDbVertex
100
AcDb2dVertex
 10
-56.73954699999999
 20
-77.980704
 30
0.0
  0
VERTEX
  5
31E
330
C1
100
AcDbEntity
  8
MO_001_VIEW_PV
  6
C_SOLID_M
100
AcDbVertex
100
AcDb2dVertex
 10
-56.784564
 20
-77.99488499999999
 30
0.0
  0
VERTEX
  5
31F
330
C1
100
AcDbEntity
  8
MO_001_VIEW_PV
  6
C_SOLID_M
100
AcDbVertex
100
AcDb2dVertex
 10
-56.800003
 20
-78.0
 30
0.0
  0
SEQEND
  5
320
330
C1
100
AcDbEntity
  8
MO_001_VIEW_PV
  6
C_SOLID_M
  0
POLYLINE
  5
F4
330
1E
100
AcDbEntity
  8
MO_001_VIEW_PV
  6
C_DASHED_M
100
AcDb2dPolyline
 66
     1
 10
0.0
 20
0.0
 30
0.0
 70
     1
  0
VERTEX
  5
321
330
F4
100
AcDbEntity
  8
MO_001_VIEW_PV
  6
C_DASHED_M
100
AcDbVertex
100
AcDb2dVertex
 10
-56.5
 20
-66.300003
 30
0.0
  0
VERTEX
  5
322
330
F4
100
AcDbEntity
  8
MO_001_VIEW_PV
  6
C_DASHED_M
100
AcDbVertex
100
AcDb2dVertex
 10
-56.49225600000001
 20
-66.30225899999999
 30
0.0
  0
VERTEX
  5
323
330
F4
100
AcDbEntity
  8
MO_001_VIEW_PV
  6
C_DASHED_M
100
AcDbVertex
100
AcDb2dVertex
 10
-56.473161
 20
-66.30763399999999
 30
0.0
  0
VERTEX
  5
324
330
F4
100
AcDbEntity
  8
MO_001_VIEW_PV
  6
C_DASHED_M
100
AcDbVertex
100
AcDb2dVertex
 10
-56.41365699999999
 20
-66.32344300000001
 30
0.0
  0
VERTEX
  5
325
330
F4
100
AcDbEntity
  8
MO_001_VIEW_PV
  6
C_DASHED_M
100
AcDbVertex
100
AcDb2dVertex
 10
-56.348613
 20
-66.339577
 30
0.0
  0
VERTEX
  5
326
330
F4
100
AcDbEntity
  8
MO_001_VIEW_PV
  6
C_DASHED_M
100
AcDbVertex
100
AcDb2dVertex
 10
-56.220973
 20
-66.36851400000001
 30
0.0
  0
VERTEX
  5
327
330
F4
100
AcDbEntity
  8
MO_001_VIEW_PV
  6
C_DASHED_M
100
AcDbVertex
100
AcDb2dVertex
 10
-56.060669
 20
-66.400459
 30
0.0
  0
VERTEX
  5
328
330
F4
100
AcDbEntity
  8
MO_001_VIEW_PV
  6
C_DASHED_M
100
AcDbVertex
100
AcDb2dVertex
 10
-55.83867399999999
 20
-66.43734599999999
 30
0.0
  0
VERTEX
  5
329
330
F4
100
AcDbEntity
  8
MO_001_VIEW_PV
  6
C_DASHED_M
100
AcDbVertex
100
AcDb2dVertex
 10
-55.650322
 20
-66.46217800000001
 30
0.0
  0
VERTEX
  5
32A
330
F4
100
AcDbEntity
  8
MO_001_VIEW_PV
  6
C_DASHED_M
100
AcDbVertex
100
AcDb2dVertex
 10
-55.338763
 20
-66.490114
 30
0.0
  0
VERTEX
  5
32B
330
F4
100
AcDbEntity
  8
MO_001_VIEW_PV
  6
C_DASHED_M
100
AcDbVertex
100
AcDb2dVertex
 10
-55.0
 20
-66.500916
 30
0.0
  0
VERTEX
  5
32C
330
F4
100
AcDbEntity
  8
MO_001_VIEW_PV
  6
C_DASHED_M
100
AcDbVertex
100
AcDb2dVertex
 10
-54.697691
 20
-66.492283
 30
0.0
  0
VERTEX
  5
32D
330
F4
100
AcDbEntity
  8
MO_001_VIEW_PV
  6
C_DASHED_M
100
AcDbVertex
100
AcDb2dVertex
 10
-54.48424
 20
-66.47628
 30
0.0
  0
VERTEX
  5
32E
330
F4
100
AcDbEntity
  8
MO_001_VIEW_PV
  6
C_DASHED_M
100
AcDbVertex
100
AcDb2dVertex
 10
-54.191505
 20
-66.44172199999999
 30
0.0
  0
VERTEX
  5
32F
330
F4
100
AcDbEntity
  8
MO_001_VIEW_PV
  6
C_DASHED_M
100
AcDbVertex
100
AcDb2dVertex
 10
-54.05981099999999
 20
-66.42151
 30
0.0
  0
VERTEX
  5
330
330
F4
100
AcDbEntity
  8
MO_001_VIEW_PV
  6
C_DASHED_M
100
AcDbVertex
100
AcDb2dVertex
 10
-53.939331
 20
-66.400459
 30
0.0
  0
VERTEX
  5
331
330
F4
100
AcDbEntity
  8
MO_001_VIEW_PV
  6
C_DASHED_M
100
AcDbVertex
100
AcDb2dVertex
 10
-53.84252
 20
-66.38172199999999
 30
0.0
  0
VERTEX
  5
332
330
F4
100
AcDbEntity
  8
MO_001_VIEW_PV
  6
C_DASHED_M
100
AcDbVertex
100
AcDb2dVertex
 10
-53.698728
 20
-66.350702
 30
0.0
  0
VERTEX
  5
333
330
F4
100
AcDbEntity
  8
MO_001_VIEW_PV
  6
C_DASHED_M
100
AcDbVertex
100
AcDb2dVertex
 10
-53.614341
 20
-66.330517
 30
0.0
  0
VERTEX
  5
334
330
F4
100
AcDbEntity
  8
MO_001_VIEW_PV
  6
C_DASHED_M
100
AcDbVertex
100
AcDb2dVertex
 10
-53.565396
 20
-66.318009
 30
0.0
  0
VERTEX
  5
335
330
F4
100
AcDbEntity
  8
MO_001_VIEW_PV
  6
C_DASHED_M
100
AcDbVertex
100
AcDb2dVertex
 10
-53.516753
 20
-66.30481999999999
 30
0.0
  0
VERTEX
  5
336
330
F4
100
AcDbEntity
  8
MO_001_VIEW_PV
  6
C_DASHED_M
100
AcDbVertex
100
AcDb2dVertex
 10
-53.5
 20
-66.300003
 30
0.0
  0
VERTEX
  5
337
330
F4
100
AcDbEntity
  8
MO_001_VIEW_PV
  6
C_DASHED_M
100
AcDbVertex
100
AcDb2dVertex
 10
-53.50774399999999
 20
-66.30225899999999
 30
0.0
  0
VERTEX
  5
338
330
F4
100
AcDbEntity
  8
MO_001_VIEW_PV
  6
C_DASHED_M
100
AcDbVertex
100
AcDb2dVertex
 10
-53.526839
 20
-66.30763399999999
 30
0.0
  0
VERTEX
  5
339
330
F4
100
AcDbEntity
  8
MO_001_VIEW_PV
  6
C_DASHED_M
100
AcDbVertex
100
AcDb2dVertex
 10
-53.58634300000001
 20
-66.32344300000001
 30
0.0
  0
VERTEX
  5
33A
330
F4
100
AcDbEntity
  8
MO_001_VIEW_PV
  6
C_DASHED_M
100
AcDbVertex
100
AcDb2dVertex
 10
-53.651387
 20
-66.339577
 30
0.0
  0
VERTEX
  5
33B
330
F4
100
AcDbEntity
  8
MO_001_VIEW_PV
  6
C_DASHED_M
100
AcDbVertex
100
AcDb2dVertex
 10
-53.77902699999999
 20
-66.36851400000001
 30
0.0
  0
VERTEX
  5
33C
330
F4
100
AcDbEntity
  8
MO_001_VIEW_PV
  6
C_DASHED_M
100
AcDbVertex
100
AcDb2dVertex
 10
-53.939331
 20
-66.400459
 30
0.0
  0
VERTEX
  5
33D
330
F4
100
AcDbEntity
  8
MO_001_VIEW_PV
  6
C_DASHED_M
100
AcDbVertex
100
AcDb2dVertex
 10
-54.161326
 20
-66.43734599999999
 30
0.0
  0
VERTEX
  5
33E
330
F4
100
AcDbEntity
  8
MO_001_VIEW_PV
  6
C_DASHED_M
100
AcDbVertex
100
AcDb2dVertex
 10
-54.349678
 20
-66.46217800000001
 30
0.0
  0
VERTEX
  5
33F
330
F4
100
AcDbEntity
  8
MO_001_VIEW_PV
  6
C_DASHED_M
100
AcDbVertex
100
AcDb2dVertex
 10
-54.661237
 20
-66.490114
 30
0.0
  0
VERTEX
  5
340
330
F4
100
AcDbEntity
  8
MO_001_VIEW_PV
  6
C_DASHED_M
100
AcDbVertex
100
AcDb2dVertex
 10
-55.0
 20
-66.500916
 30
0.0
  0
VERTEX
  5
341
330
F4
100
AcDbEntity
  8
MO_001_VIEW_PV
  6
C_DASHED_M
100
AcDbVertex
100
AcDb2dVertex
 10
-55.30230899999999
 20
-66.492283
 30
0.0
  0
VERTEX
  5
342
330
F4
100
AcDbEntity
  8
MO_001_VIEW_PV
  6
C_DASHED_M
100
AcDbVertex
100
AcDb2dVertex
 10
-55.51576
 20
-66.47628
 30
0.0
  0
VERTEX
  5
343
330
F4
100
AcDbEntity
  8
MO_001_VIEW_PV
  6
C_DASHED_M
100
AcDbVertex
100
AcDb2dVertex
 10
-55.80849499999999
 20
-66.44172199999999
 30
0.0
  0
VERTEX
  5
344
330
F4
100
AcDbEntity
  8
MO_001_VIEW_PV
  6
C_DASHED_M
100
AcDbVertex
100
AcDb2dVertex
 10
-55.940189
 20
-66.42151
 30
0.0
  0
VERTEX
  5
345
330
F4
100
AcDbEntity
  8
MO_001_VIEW_PV
  6
C_DASHED_M
100
AcDbVertex
100
AcDb2dVertex
 10
-56.060669
 20
-66.400459
 30
0.0
  0
VERTEX
  5
346
330
F4
100
AcDbEntity
  8
MO_001_VIEW_PV
  6
C_DASHED_M
100
AcDbVertex
100
AcDb2dVertex
 10
-56.15748
 20
-66.38172199999999
 30
0.0
  0
VERTEX
  5
347
330
F4
100
AcDbEntity
  8
MO_001_VIEW_PV
  6
C_DASHED_M
100
AcDbVertex
100
AcDb2dVertex
 10
-56.301272
 20
-66.350702
 30
0.0
  0
VERTEX
  5
348
330
F4
100
AcDbEntity
  8
MO_001_VIEW_PV
  6
C_DASHED_M
100
AcDbVertex
100
AcDb2dVertex
 10
-56.38565899999999
 20
-66.330517
 30
0.0
  0
VERTEX
  5
349
330
F4
100
AcDbEntity
  8
MO_001_VIEW_PV
  6
C_DASHED_M
100
AcDbVertex
100
AcDb2dVertex
 10
-56.434604
 20
-66.31801
 30
0.0
  0
VERTEX
  5
34A
330
F4
100
AcDbEntity
  8
MO_001_VIEW_PV
  6
C_DASHED_M
100
AcDbVertex
100
AcDb2dVertex
 10
-56.48324699999999
 20
-66.30481999999999
 30
0.0
  0
VERTEX
  5
34B
330
F4
100
AcDbEntity
  8
MO_001_VIEW_PV
  6
C_DASHED_M
100
AcDbVertex
100
AcDb2dVertex
 10
-56.5
 20
-66.300003
 30
0.0
  0
SEQEND
  5
34C
330
F4
100
AcDbEntity
  8
MO_001_VIEW_PV
  6
C_DASHED_M
  0
POLYLINE
  5
121
330
1E
100
AcDbEntity
  8
MO_001_VIEW_PV
  6
C_DASHED_M
100
AcDb2dPolyline
 66
     1
 10
0.0
 20
0.0
 30
0.0
 70
     1
  0
VERTEX
  5
34D
330
121
100
AcDbEntity
  8
MO_001_VIEW_PV
  6
C_DASHED_M
100
AcDbVertex
100
AcDb2dVertex
 10
-56.5
 20
-77.69999699999999
 30
0.0
  0
VERTEX
  5
34E
330
121
100
AcDbEntity
  8
MO_001_VIEW_PV
  6
C_DASHED_M
100
AcDbVertex
100
AcDb2dVertex
 10
-56.49225600000001
 20
-77.69774100000001
 30
0.0
  0
VERTEX
  5
34F
330
121
100
AcDbEntity
  8
MO_001_VIEW_PV
  6
C_DASHED_M
100
AcDbVertex
100
AcDb2dVertex
 10
-56.473161
 20
-77.69236600000001
 30
0.0
  0
VERTEX
  5
350
330
121
100
AcDbEntity
  8
MO_001_VIEW_PV
  6
C_DASHED_M
100
AcDbVertex
100
AcDb2dVertex
 10
-56.41365699999999
 20
-77.67655699999998
 30
0.0
  0
VERTEX
  5
351
330
121
100
AcDbEntity
  8
MO_001_VIEW_PV
  6
C_DASHED_M
100
AcDbVertex
100
AcDb2dVertex
 10
-56.348613
 20
-77.66042299999999
 30
0.0
  0
VERTEX
  5
352
330
121
100
AcDbEntity
  8
MO_001_VIEW_PV
  6
C_DASHED_M
100
AcDbVertex
100
AcDb2dVertex
 10
-56.220973
 20
-77.631486
 30
0.0
  0
VERTEX
  5
353
330
121
100
AcDbEntity
  8
MO_001_VIEW_PV
  6
C_DASHED_M
100
AcDbVertex
100
AcDb2dVertex
 10
-56.060669
 20
-77.599541
 30
0.0
  0
VERTEX
  5
354
330
121
100
AcDbEntity
  8
MO_001_VIEW_PV
  6
C_DASHED_M
100
AcDbVertex
100
AcDb2dVertex
 10
-55.83867399999999
 20
-77.56265400000001
 30
0.0
  0
VERTEX
  5
355
330
121
100
AcDbEntity
  8
MO_001_VIEW_PV
  6
C_DASHED_M
100
AcDbVertex
100
AcDb2dVertex
 10
-55.650322
 20
-77.53782199999999
 30
0.0
  0
VERTEX
  5
356
330
121
100
AcDbEntity
  8
MO_001_VIEW_PV
  6
C_DASHED_M
100
AcDbVertex
100
AcDb2dVertex
 10
-55.338763
 20
-77.50988599999999
 30
0.0
  0
VERTEX
  5
357
330
121
100
AcDbEntity
  8
MO_001_VIEW_PV
  6
C_DASHED_M
100
AcDbVertex
100
AcDb2dVertex
 10
-55.0
 20
-77.49908399999999
 30
0.0
  0
VERTEX
  5
358
330
121
100
AcDbEntity
  8
MO_001_VIEW_PV
  6
C_DASHED_M
100
AcDbVertex
100
AcDb2dVertex
 10
-54.697691
 20
-77.507717
 30
0.0
  0
VERTEX
  5
359
330
121
100
AcDbEntity
  8
MO_001_VIEW_PV
  6
C_DASHED_M
100
AcDbVertex
100
AcDb2dVertex
 10
-54.48424
 20
-77.52372
 30
0.0
  0
VERTEX
  5
35A
330
121
100
AcDbEntity
  8
MO_001_VIEW_PV
  6
C_DASHED_M
100
AcDbVertex
100
AcDb2dVertex
 10
-54.191505
 20
-77.558278
 30
0.0
  0
VERTEX
  5
35B
330
121
100
AcDbEntity
  8
MO_001_VIEW_PV
  6
C_DASHED_M
100
AcDbVertex
100
AcDb2dVertex
 10
-54.05981099999999
 20
-77.57849
 30
0.0
  0
VERTEX
  5
35C
330
121
100
AcDbEntity
  8
MO_001_VIEW_PV
  6
C_DASHED_M
100
AcDbVertex
100
AcDb2dVertex
 10
-53.939331
 20
-77.599541
 30
0.0
  0
VERTEX
  5
35D
330
121
100
AcDbEntity
  8
MO_001_VIEW_PV
  6
C_DASHED_M
100
AcDbVertex
100
AcDb2dVertex
 10
-53.84252
 20
-77.618278
 30
0.0
  0
VERTEX
  5
35E
330
121
100
AcDbEntity
  8
MO_001_VIEW_PV
  6
C_DASHED_M
100
AcDbVertex
100
AcDb2dVertex
 10
-53.698728
 20
-77.649298
 30
0.0
  0
VERTEX
  5
35F
330
121
100
AcDbEntity
  8
MO_001_VIEW_PV
  6
C_DASHED_M
100
AcDbVertex
100
AcDb2dVertex
 10
-53.614341
 20
-77.669483
 30
0.0
  0
VERTEX
  5
360
330
121
100
AcDbEntity
  8
MO_001_VIEW_PV
  6
C_DASHED_M
100
AcDbVertex
100
AcDb2dVertex
 10
-53.565395
 20
-77.681991
 30
0.0
  0
VERTEX
  5
361
330
121
100
AcDbEntity
  8
MO_001_VIEW_PV
  6
C_DASHED_M
100
AcDbVertex
100
AcDb2dVertex
 10
-53.516753
 20
-77.69518000000001
 30
0.0
  0
VERTEX
  5
362
330
121
100
AcDbEntity
  8
MO_001_VIEW_PV
  6
C_DASHED_M
100
AcDbVertex
100
AcDb2dVertex
 10
-53.5
 20
-77.69999699999999
 30
0.0
  0
VERTEX
  5
363
330
121
100
AcDbEntity
  8
MO_001_VIEW_PV
  6
C_DASHED_M
100
AcDbVertex
100
AcDb2dVertex
 10
-53.50774399999999
 20
-77.69774100000001
 30
0.0
  0
VERTEX
  5
364
330
121
100
AcDbEntity
  8
MO_001_VIEW_PV
  6
C_DASHED_M
100
AcDbVertex
100
AcDb2dVertex
 10
-53.526839
 20
-77.69236600000001
 30
0.0
  0
VERTEX
  5
365
330
121
100
AcDbEntity
  8
MO_001_VIEW_PV
  6
C_DASHED_M
100
AcDbVertex
100
AcDb2dVertex
 10
-53.58634300000001
 20
-77.67655600000001
 30
0.0
  0
VERTEX
  5
366
330
121
100
AcDbEntity
  8
MO_001_VIEW_PV
  6
C_DASHED_M
100
AcDbVertex
100
AcDb2dVertex
 10
-53.651387
 20
-77.66042299999999
 30
0.0
  0
VERTEX
  5
367
330
121
100
AcDbEntity
  8
MO_001_VIEW_PV
  6
C_DASHED_M
100
AcDbVertex
100
AcDb2dVertex
 10
-53.77902699999999
 20
-77.631486
 30
0.0
  0
VERTEX
  5
368
330
121
100
AcDbEntity
  8
MO_001_VIEW_PV
  6
C_DASHED_M
100
AcDbVertex
100
AcDb2dVertex
 10
-53.939331
 20
-77.599541
 30
0.0
  0
VERTEX
  5
369
330
121
100
AcDbEntity
  8
MO_001_VIEW_PV
  6
C_DASHED_M
100
AcDbVertex
100
AcDb2dVertex
 10
-54.161326
 20
-77.56265400000001
 30
0.0
  0
VERTEX
  5
36A
330
121
100
AcDbEntity
  8
MO_001_VIEW_PV
  6
C_DASHED_M
100
AcDbVertex
100
AcDb2dVertex
 10
-54.349678
 20
-77.53782199999999
 30
0.0
  0
VERTEX
  5
36B
330
121
100
AcDbEntity
  8
MO_001_VIEW_PV
  6
C_DASHED_M
100
AcDbVertex
100
AcDb2dVertex
 10
-54.661237
 20
-77.50988599999999
 30
0.0
  0
VERTEX
  5
36C
330
121
100
AcDbEntity
  8
MO_001_VIEW_PV
  6
C_DASHED_M
100
AcDbVertex
100
AcDb2dVertex
 10
-55.0
 20
-77.49908399999999
 30
0.0
  0
VERTEX
  5
36D
330
121
100
AcDbEntity
  8
MO_001_VIEW_PV
  6
C_DASHED_M
100
AcDbVertex
100
AcDb2dVertex
 10
-55.30230899999999
 20
-77.507717
 30
0.0
  0
VERTEX
  5
36E
330
121
100
AcDbEntity
  8
MO_001_VIEW_PV
  6
C_DASHED_M
100
AcDbVertex
100
AcDb2dVertex
 10
-55.51576
 20
-77.52372
 30
0.0
  0
VERTEX
  5
36F
330
121
100
AcDbEntity
  8
MO_001_VIEW_PV
  6
C_DASHED_M
100
AcDbVertex
100
AcDb2dVertex
 10
-55.80849499999999
 20
-77.558278
 30
0.0
  0
VERTEX
  5
370
330
121
100
AcDbEntity
  8
MO_001_VIEW_PV
  6
C_DASHED_M
100
AcDbVertex
100
AcDb2dVertex
 10
-55.940189
 20
-77.57849
 30
0.0
  0
VERTEX
  5
371
330
121
100
AcDbEntity
  8
MO_001_VIEW_PV
  6
C_DASHED_M
100
AcDbVertex
100
AcDb2dVertex
 10
-56.060669
 20
-77.599541
 30
0.0
  0
VERTEX
  5
372
330
121
100
AcDbEntity
  8
MO_001_VIEW_PV
  6
C_DASHED_M
100
AcDbVertex
100
AcDb2dVertex
 10
-56.15748
 20
-77.618278
 30
0.0
  0
VERTEX
  5
373
330
121
100
AcDbEntity
  8
MO_001_VIEW_PV
  6
C_DASHED_M
100
AcDbVertex
100
AcDb2dVertex
 10
-56.301272
 20
-77.649298
 30
0.0
  0
VERTEX
  5
374
330
121
100
AcDbEntity
  8
MO_001_VIEW_PV
  6
C_DASHED_M
100
AcDbVertex
100
AcDb2dVertex
 10
-56.38565899999999
 20
-77.669483
 30
0.0
  0
VERTEX
  5
375
330
121
100
AcDbEntity
  8
MO_001_VIEW_PV
  6
C_DASHED_M
100
AcDbVertex
100
AcDb2dVertex
 10
-56.434605
 20
-77.68199
 30
0.0
  0
VERTEX
  5
376
330
121
100
AcDbEntity
  8
MO_001_VIEW_PV
  6
C_DASHED_M
100
AcDbVertex
100
AcDb2dVertex
 10
-56.48324699999999
 20
-77.69517900000001
 30
0.0
  0
VERTEX
  5
377
330
121
100
AcDbEntity
  8
MO_001_VIEW_PV
  6
C_DASHED_M
100
AcDbVertex
100
AcDb2dVertex
 10
-56.5
 20
-77.69999699999999
 30
0.0
  0
SEQEND
  5
378
330
121
100
AcDbEntity
  8
MO_001_VIEW_PV
  6
C_DASHED_M
  0
LINE
  5
14E
330
1E
100
AcDbEntity
  8
MO_001_VIEW_PV
  6
C_SOLID_M
100
AcDbLine
 10
-49.0
 20
-78.0
 30
0.0
 11
-53.200001
 21
-78.0
 31
0.0
  0
LINE
  5
14F
330
1E
100
AcDbEntity
  8
MO_001_VIEW_PV
  6
C_SOLID_M
100
AcDbLine
 10
-49.0
 20
-66.0
 30
0.0
 11
-53.200001
 21
-66.0
 31
0.0
  0
LINE
  5
150
330
1E
100
AcDbEntity
  8
MO_001_VIEW_PV
  6
C_CENTER_L
100
AcDbLine
 10
-96.0
 20
24.0
 30
0.0
 11
-96.0
 21
-24.0
 31
0.0
  0
LINE
  5
151
330
1E
100
AcDbEntity
  8
MO_001_VIEW_PV
  6
C_CENTER_L
100
AcDbLine
 10
-72.0
 20
0.0
 30
0.0
 11
-120.0
 21
0.0
 31
0.0
  0
LINE
  5
152
330
1E
100
AcDbEntity
  8
MO_001_VIEW_PV
  6
C_SOLID_M
100
AcDbLine
 10
-59.00000799999999
 20
5.214165
 30
0.0
 11
-59.00000799999999
 21
-5.214169
 31
0.0
  0
ARC
  5
153
330
1E
100
AcDbEntity
  8
MO_001_VIEW_PV
  6
C_SOLID_M
100
AcDbCircle
 10
-96.0
 20
0.0
 30
0.0
 40
6.0
100
AcDbArc
 50
274.7801939999999
 51
265.21977
  0
LINE
  5
154
330
1E
100
AcDbEntity
  8
MO_001_VIEW_PV
  6
C_SOLID_M
100
AcDbLine
 10
-95.999967
 20
-5.479133
 30
0.0
 11
-95.499969
 21
-5.979130999999999
 31
0.0
  0
LINE
  5
155
330
1E
100
AcDbEntity
  8
MO_001_VIEW_PV
  6
C_SOLID_M
100
AcDbLine
 10
-95.999967
 20
-5.479133
 30
0.0
 11
-96.49996800000002
 21
-5.979133999999999
 31
0.0
  0
LINE
  5
156
330
1E
100
AcDbEntity
  8
MO_001_VIEW_PV
  6
C_SOLID_M
100
AcDbLine
 10
-58.500008
 20
5.739119999999999
 30
0.0
 11
-58.500008
 21
-5.739119999999999
 31
0.0
  0
LINE
  5
157
330
1E
100
AcDbEntity
  8
MO_001_VIEW_PV
  6
C_CENTER_L
100
AcDbLine
 10
-55.0
 20
3.898848999999999
 30
0.0
 11
-55.0
 21
-4.013641
 31
0.0
  0
LINE
  5
158
330
1E
100
AcDbEntity
  8
MO_001_VIEW_PV
  6
C_SOLID_M
100
AcDbLine
 10
-49.0
 20
-6.0
 30
0.0
 11
-51.000008
 21
-6.0
 31
0.0
  0
LINE
  5
159
330
1E
100
AcDbEntity
  8
MO_001_VIEW_PV
  6
C_SOLID_M
100
AcDbLine
 10
-49.0
 20
6.0
 30
0.0
 11
-51.000008
 21
6.0
 31
0.0
  0
ARC
  5
15A
330
1E
100
AcDbEntity
  8
MO_001_VIEW_PV
  6
C_SOLID_M
100
AcDbCircle
 10
-96.0
 20
0.0
 30
0.0
 40
5.5
100
AcDbArc
 50
288.5530039999999
 51
71.446996
  0
LINE
  5
15B
330
1E
100
AcDbEntity
  8
MO_001_VIEW_PV
  6
C_SOLID_M
100
AcDbLine
 10
-94.25
 20
5.739119999999999
 30
0.0
 11
-94.25
 21
-5.739119999999999
 31
0.0
  0
LINE
  5
15C
330
1E
100
AcDbEntity
  8
MO_001_VIEW_PV
  6
C_SOLID_M
100
AcDbLine
 10
-97.75
 20
5.739119999999999
 30
0.0
 11
-97.75
 21
-5.739119999999999
 31
0.0
  0
ARC
  5
15D
330
1E
100
AcDbEntity
  8
MO_001_VIEW_PV
  6
C_SOLID_M
100
AcDbCircle
 10
-96.0
 20
0.0
 30
0.0
 40
5.5
100
AcDbArc
 50
108.5530019999999
 51
251.446994
  0
LINE
  5
15E
330
1E
100
AcDbEntity
  8
MO_001_VIEW_PV
  6
C_SOLID_M
100
AcDbLine
 10
-58.500008
 20
5.739119999999999
 30
0.0
 11
-51.000008
 21
5.739119999999999
 31
0.0
  0
LINE
  5
15F
330
1E
100
AcDbEntity
  8
MO_001_VIEW_PV
  6
C_SOLID_M
100
AcDbLine
 10
-51.000008
 20
6.0
 30
0.0
 11
-51.000008
 21
5.739119999999999
 31
0.0
  0
LINE
  5
160
330
1E
100
AcDbEntity
  8
MO_001_VIEW_PV
  6
C_SOLID_M
100
AcDbLine
 10
-59.00000699999999
 20
5.214165
 30
0.0
 11
-58.50000699999999
 21
5.739120999999999
 31
0.0
  0
CIRCLE
  5
161
330
1E
100
AcDbEntity
  8
MO_001_VIEW_PV
  6
C_SOLID_M
100
AcDbCircle
 10
-55.0
 20
0.0
 30
0.0
 40
1.5
  0
CIRCLE
  5
162
330
1E
100
AcDbEntity
  8
MO_001_VIEW_PV
  6
C_SOLID_M
100
AcDbCircle
 10
-55.0
 20
0.0
 30
0.0
 40
1.799999
  0
LINE
  5
163
330
1E
100
AcDbEntity
  8
MO_001_VIEW_PV
  6
C_SOLID_M
100
AcDbLine
 10
-59.00000099999999
 20
-5.214169999999999
 30
0.0
 11
-58.50000099999999
 21
-5.739126
 31
0.0
  0
LINE
  5
164
330
1E
100
AcDbEntity
  8
MO_001_VIEW_PV
  6
C_SOLID_M
100
AcDbLine
 10
-58.500008
 20
-5.739119999999999
 30
0.0
 11
-51.000008
 21
-5.739119999999999
 31
0.0
  0
LINE
  5
165
330
1E
100
AcDbEntity
  8
MO_001_VIEW_PV
  6
C_SOLID_M
100
AcDbLine
 10
-51.000008
 20
-6.0
 30
0.0
 11
-51.000008
 21
-5.739119999999999
 31
0.0
  0
LINE
  5
166
330
1E
100
AcDbEntity
  8
MO_001_VIEW_PV
  6
C_SOLID_M
100
AcDbLine
 10
-49.0
 20
-72.0
 30
0.0
 11
-51.000008
 21
-72.0
 31
0.0
  0
LINE
  5
167
330
1E
100
AcDbEntity
  8
MO_001_VIEW_PV
  6
C_CENTER_L
100
AcDbLine
 10
-41.999996
 20
10.0
 30
0.0
 11
-33.999996
 21
10.0
 31
0.0
  0
LINE
  5
168
330
1E
100
AcDbEntity
  8
MO_001_VIEW_PV
  6
C_CENTER_L
100
AcDbLine
 10
-41.999996
 20
-10.0
 30
0.0
 11
-33.999996
 21
-10.0
 31
0.0
  0
LINE
  5
169
330
1E
100
AcDbEntity
  8
MO_001_VIEW_PV
  6
C_CENTER_L
100
AcDbLine
 10
-11.999997
 20
-10.0
 30
0.0
 11
-3.999997
 21
-10.0
 31
0.0
  0
LINE
  5
16A
330
1E
100
AcDbEntity
  8
MO_001_VIEW_PV
  6
C_CENTER_L
100
AcDbLine
 10
-11.999997
 20
10.0
 30
0.0
 11
-3.999997
 21
10.0
 31
0.0
  0
LINE
  5
16B
330
1E
100
AcDbEntity
  8
MO_001_VIEW_PV
  6
C_CENTER_L
100
AcDbLine
 10
-37.999996
 20
14.0
 30
0.0
 11
-37.999996
 21
6.0
 31
0.0
  0
LINE
  5
16C
330
1E
100
AcDbEntity
  8
MO_001_VIEW_PV
  6
C_CENTER_L
100
AcDbLine
 10
-37.999996
 20
-6.0
 30
0.0
 11
-37.999996
 21
-14.0
 31
0.0
  0
LINE
  5
16D
330
1E
100
AcDbEntity
  8
MO_001_VIEW_PV
  6
C_CENTER_L
100
AcDbLine
 10
-7.999997
 20
-6.0
 30
0.0
 11
-7.999997
 21
-14.0
 31
0.0
  0
LINE
  5
16E
330
1E
100
AcDbEntity
  8
MO_001_VIEW_PV
  6
C_CENTER_L
100
AcDbLine
 10
-7.999997
 20
14.0
 30
0.0
 11
-7.999997
 21
6.0
 31
0.0
  0
LINE
  5
16F
330
1E
100
AcDbEntity
  8
MO_001_VIEW_PV
  6
C_SOLID_M
100
AcDbLine
 10
0.0
 20
-2.0
 30
0.0
 11
0.5
 21
-2.0
 31
0.0
  0
LINE
  5
170
330
1E
100
AcDbEntity
  8
MO_001_VIEW_PV
  6
C_SOLID_M
100
AcDbLine
 10
0.5
 20
2.0
 30
0.0
 11
0.5
 21
-2.0
 31
0.0
  0
LINE
  5
171
330
1E
100
AcDbEntity
  8
MO_001_VIEW_PV
  6
C_SOLID_M
100
AcDbLine
 10
0.0
 20
2.0
 30
0.0
 11
0.5
 21
2.0
 31
0.0
  0
LINE
  5
172
330
1E
100
AcDbEntity
  8
MO_001_VIEW_PV
  6
C_SOLID_M
100
AcDbLine
 10
-45.79999899999999
 20
-54.35000600000001
 30
0.0
 11
-45.79999899999999
 21
-89.64999399999999
 31
0.0
  0
LINE
  5
173
330
1E
100
AcDbEntity
  8
MO_001_VIEW_PV
  6
C_SOLID_M
100
AcDbLine
 10
-2.299999
 20
-74.32000699999999
 30
0.0
 11
-2.299999
 21
-89.699997
 31
0.0
  0
LINE
  5
174
330
1E
100
AcDbEntity
  8
MO_001_VIEW_PV
  6
C_SOLID_M
100
AcDbLine
 10
-45.79999899999999
 20
-54.35000600000001
 30
0.0
 11
-44.499996
 21
-54.35000600000001
 31
0.0
  0
LINE
  5
175
330
1E
100
AcDbEntity
  8
MO_001_VIEW_PV
  6
C_SOLID_M
100
AcDbLine
 10
-45.79999899999999
 20
-89.64999399999999
 30
0.0
 11
-44.499996
 21
-89.64999399999999
 31
0.0
  0
LINE
  5
176
330
1E
100
AcDbEntity
  8
MO_001_VIEW_PV
  6
C_SOLID_M
100
AcDbLine
 10
-3.600001999999999
 20
-54.35000600000001
 30
0.0
 11
-2.299999
 21
-54.35000600000001
 31
0.0
  0
LINE
  5
177
330
1E
100
AcDbEntity
  8
MO_001_VIEW_PV
  6
C_SOLID_M
100
AcDbLine
 10
-3.600001999999999
 20
-89.64999399999999
 30
0.0
 11
-2.299999
 21
-89.64999399999999
 31
0.0
  0
LINE
  5
178
330
1E
100
AcDbEntity
  8
MO_001_VIEW_PV
  6
C_SOLID_M
100
AcDbLine
 10
-44.499996
 20
-54.35000600000001
 30
0.0
 11
-44.499996
 21
-89.64999399999999
 31
0.0
  0
LINE
  5
179
330
1E
100
AcDbEntity
  8
MO_001_VIEW_PV
  6
C_SOLID_M
100
AcDbLine
 10
-3.600001999999999
 20
-74.32000699999999
 30
0.0
 11
-3.600001999999999
 21
-89.64999399999999
 31
0.0
  0
LINE
  5
17A
330
1E
100
AcDbEntity
  8
MO_001_VIEW_PV
  6
C_SOLID_M
100
AcDbLine
 10
-44.499996
 20
-88.649994
 30
0.0
 11
-3.600001999999999
 21
-88.649994
 31
0.0
  0
LINE
  5
17B
330
1E
100
AcDbEntity
  8
MO_001_VIEW_PV
  6
C_SOLID_M
100
AcDbLine
 10
-44.499996
 20
-55.350006
 30
0.0
 11
-3.600001999999999
 21
-55.350006
 31
0.0
  0
LINE
  5
17C
330
1E
100
AcDbEntity
  8
MO_001_VIEW_PV
  6
C_SOLID_M
100
AcDbLine
 10
47.0
 20
-19.41999799999999
 30
0.0
 11
47.0
 21
-19.900002
 31
0.0
  0
LINE
  5
17D
330
1E
100
AcDbEntity
  8
MO_001_VIEW_PV
  6
C_SOLID_M
100
AcDbLine
 10
42.0
 20
-19.0
 30
0.0
 11
42.0
 21
-20.32
 31
0.0
  0
LINE
  5
17E
330
1E
100
AcDbEntity
  8
MO_001_VIEW_PV
  6
C_SOLID_M
100
AcDbLine
 10
-3.600001999999999
 20
-19.0
 30
0.0
 11
42.0
 21
-19.0
 31
0.0
  0
LINE
  5
17F
330
1E
100
AcDbEntity
  8
MO_001_VIEW_PV
  6
C_SOLID_M
100
AcDbLine
 10
-3.600001999999999
 20
-20.32
 30
0.0
 11
42.0
 21
-20.32
 31
0.0
  0
LINE
  5
180
330
1E
100
AcDbEntity
  8
MO_001_VIEW_PV
  6
C_SOLID_M
100
AcDbLine
 10
42.0
 20
-19.41999799999999
 30
0.0
 11
47.0
 21
-19.41999799999999
 31
0.0
  0
LINE
  5
181
330
1E
100
AcDbEntity
  8
MO_001_VIEW_PV
  6
C_SOLID_M
100
AcDbLine
 10
42.0
 20
-19.900002
 30
0.0
 11
47.0
 21
-19.900002
 31
0.0
  0
LINE
  5
182
330
1E
100
AcDbEntity
  8
MO_001_VIEW_PV
  6
C_SOLID_M
100
AcDbLine
 10
47.0
 20
-73.41999799999999
 30
0.0
 11
47.0
 21
-73.89999399999999
 31
0.0
  0
LINE
  5
183
330
1E
100
AcDbEntity
  8
MO_001_VIEW_PV
  6
C_SOLID_M
100
AcDbLine
 10
42.0
 20
-73.0
 30
0.0
 11
42.0
 21
-74.32000699999999
 31
0.0
  0
LINE
  5
184
330
1E
100
AcDbEntity
  8
MO_001_VIEW_PV
  6
C_SOLID_M
100
AcDbLine
 10
-4.260002
 20
-73.0
 30
0.0
 11
42.0
 21
-73.0
 31
0.0
  0
LINE
  5
185
330
1E
100
AcDbEntity
  8
MO_001_VIEW_PV
  6
C_SOLID_M
100
AcDbLine
 10
-4.260002
 20
-74.32000699999999
 30
0.0
 11
42.0
 21
-74.32000699999999
 31
0.0
  0
LINE
  5
186
330
1E
100
AcDbEntity
  8
MO_001_VIEW_PV
  6
C_SOLID_M
100
AcDbLine
 10
42.0
 20
-73.41999799999999
 30
0.0
 11
47.0
 21
-73.41999799999999
 31
0.0
  0
LINE
  5
187
330
1E
100
AcDbEntity
  8
MO_001_VIEW_PV
  6
C_SOLID_M
100
AcDbLine
 10
42.0
 20
-73.89999399999999
 30
0.0
 11
47.0
 21
-73.89999399999999
 31
0.0
  0
LINE
  5
188
330
1E
100
AcDbEntity
  8
MO_001_VIEW_PV
  6
C_SOLID_M
100
AcDbLine
 10
47.0
 20
-70.58000200000001
 30
0.0
 11
47.0
 21
-70.10000600000001
 31
0.0
  0
LINE
  5
189
330
1E
100
AcDbEntity
  8
MO_001_VIEW_PV
  6
C_SOLID_M
100
AcDbLine
 10
42.0
 20
-71.0
 30
0.0
 11
42.0
 21
-69.67999300000001
 31
0.0
  0
LINE
  5
18A
330
1E
100
AcDbEntity
  8
MO_001_VIEW_PV
  6
C_SOLID_M
100
AcDbLine
 10
-4.260002
 20
-71.0
 30
0.0
 11
42.0
 21
-71.0
 31
0.0
  0
LINE
  5
18B
330
1E
100
AcDbEntity
  8
MO_001_VIEW_PV
  6
C_SOLID_M
100
AcDbLine
 10
-4.260002
 20
-69.67999300000001
 30
0.0
 11
42.0
 21
-69.67999300000001
 31
0.0
  0
LINE
  5
18C
330
1E
100
AcDbEntity
  8
MO_001_VIEW_PV
  6
C_SOLID_M
100
AcDbLine
 10
42.0
 20
-70.58000200000001
 30
0.0
 11
47.0
 21
-70.58000200000001
 31
0.0
  0
LINE
  5
18D
330
1E
100
AcDbEntity
  8
MO_001_VIEW_PV
  6
C_SOLID_M
100
AcDbLine
 10
42.0
 20
-70.10000600000001
 30
0.0
 11
47.0
 21
-70.10000600000001
 31
0.0
  0
ARC
  5
18E
330
1E
100
AcDbEntity
  8
MO_001_VIEW_PV
  6
C_SOLID_M
100
AcDbCircle
 10
-4.260002
 20
-70.339996
 30
0.0
 40
0.6600000000000001
100
AcDbArc
 50
90.000002
 51
270.000001
  0
ARC
  5
18F
330
1E
100
AcDbEntity
  8
MO_001_VIEW_PV
  6
C_SOLID_M
100
AcDbCircle
 10
-4.260002
 20
-73.660004
 30
0.0
 40
0.6600000000000001
100
AcDbArc
 50
90.000002
 51
270.000001
  0
LINE
  5
190
330
1E
100
AcDbEntity
  8
MO_001_VIEW_PV
  6
C_SOLID_M
100
AcDbLine
 10
-3.600001999999999
 20
-54.35000600000001
 30
0.0
 11
-3.600001999999999
 21
-69.67999300000001
 31
0.0
  0
LINE
  5
191
330
1E
100
AcDbEntity
  8
MO_001_VIEW_PV
  6
C_SOLID_M
100
AcDbLine
 10
-2.299999
 20
-54.300003
 30
0.0
 11
-2.299999
 21
-69.67999300000001
 31
0.0
  0
LINE
  5
192
330
1E
100
AcDbEntity
  8
MO_001_VIEW_PV
  6
C_SOLID_M
100
AcDbLine
 10
0.0
 20
-54.300003
 30
0.0
 11
0.0
 21
-69.67999300000001
 31
0.0
  0
LINE
  5
193
330
1E
100
AcDbEntity
  8
MO_001_VIEW_PV
  6
C_SOLID_M
100
AcDbLine
 10
-3.600001999999999
 20
-71.0
 30
0.0
 11
-3.600001999999999
 21
-73.0
 31
0.0
  0
LINE
  5
194
330
1E
100
AcDbEntity
  8
MO_001_VIEW_PV
  6
C_SOLID_M
100
AcDbLine
 10
-2.299999
 20
-71.0
 30
0.0
 11
-2.299999
 21
-73.0
 31
0.0
  0
LINE
  5
195
330
1E
100
AcDbEntity
  8
MO_001_VIEW_PV
  6
C_SOLID_M
100
AcDbLine
 10
0.0
 20
-71.0
 30
0.0
 11
0.0
 21
-73.0
 31
0.0
  0
ARC
  5
196
330
1E
100
AcDbEntity
  8
MO_001_VIEW_PV
  6
C_SOLID_M
100
AcDbCircle
 10
-3.600001999999999
 20
-17.0
 30
0.0
 40
2.0
100
AcDbArc
 50
210.0000029999999
 51
269.999998
  0
ARC
  5
197
330
1E
100
AcDbEntity
  8
MO_001_VIEW_PV
  6
C_SOLID_M
100
AcDbCircle
 10
-3.600001999999999
 20
-17.0
 30
0.0
 40
3.319999999999999
100
AcDbArc
 50
202.0824059999999
 51
269.999998
  0
ARC
  5
198
330
1E
100
AcDbEntity
  8
MO_001_VIEW_PV
  6
C_SOLID_M
100
AcDbCircle
 10
-8.529747999999999
 20
-19.0
 30
0.0
 40
2.0
100
AcDbArc
 50
22.082449
 51
30.000001
  0
LINE
  5
199
330
1E
100
AcDbEntity
  8
MO_001_VIEW_PV
  6
C_SOLID_M
100
AcDbLine
 10
-49.999994
 20
7.422644
 30
0.0
 11
-48.91337899999999
 21
8.050002
 31
0.0
  0
LINE
  5
19A
330
1E
100
AcDbEntity
  8
MO_001_VIEW_PV
  6
C_SOLID_M
100
AcDbLine
 10
-49.0
 20
9.5
 30
0.0
 11
-49.999997
 21
8.922652000000001
 31
0.0
  0
LINE
  5
19B
330
1E
100
AcDbEntity
  8
MO_001_VIEW_PV
  6
C_SOLID_M
100
AcDbLine
 10
-49.000002
 20
9.500000999999999
 30
0.0
 11
-49.999998
 21
9.676327
 31
0.0
  0
LINE
  5
19C
330
1E
100
AcDbEntity
  8
MO_001_VIEW_PV
  6
C_SOLID_M
100
AcDbLine
 10
-49.999996
 20
18.0
 30
0.0
 11
-49.999996
 21
9.676327
 31
0.0
  0
LINE
  5
19D
330
1E
100
AcDbEntity
  8
MO_001_VIEW_PV
  6
C_SOLID_M
100
AcDbLine
 10
-49.999994
 20
-7.422644
 30
0.0
 11
-48.91337899999999
 21
-8.050002
 31
0.0
  0
LINE
  5
19E
330
1E
100
AcDbEntity
  8
MO_001_VIEW_PV
  6
C_SOLID_M
100
AcDbLine
 10
-49.999996
 20
-8.922651
 30
0.0
 11
-49.999996
 21
-7.422644
 31
0.0
  0
LINE
  5
19F
330
1E
100
AcDbEntity
  8
MO_001_VIEW_PV
  6
C_SOLID_M
100
AcDbLine
 10
-49.0
 20
-9.5
 30
0.0
 11
-49.999997
 21
-8.922652000000001
 31
0.0
  0
LINE
  5
1A0
330
1E
100
AcDbEntity
  8
MO_001_VIEW_PV
  6
C_SOLID_M
100
AcDbLine
 10
-49.000002
 20
-9.500000999999999
 30
0.0
 11
-49.999998
 21
-9.676327
 31
0.0
  0
LINE
  5
1A1
330
1E
100
AcDbEntity
  8
MO_001_VIEW_PV
  6
C_SOLID_M
100
AcDbLine
 10
-78.300003
 20
7.422644
 30
0.0
 11
-76.0
 21
7.422644
 31
0.0
  0
LINE
  5
1A2
330
1E
100
AcDbEntity
  8
MO_001_VIEW_PV
  6
C_SOLID_M
100
AcDbLine
 10
-78.300003
 20
8.922651
 30
0.0
 11
-76.0
 21
8.922651
 31
0.0
  0
LINE
  5
1A3
330
1E
100
AcDbEntity
  8
MO_001_VIEW_PV
  6
C_SOLID_M
100
AcDbLine
 10
-78.300003
 20
9.5
 30
0.0
 11
-76.0
 21
9.5
 31
0.0
  0
LINE
  5
1A4
330
1E
100
AcDbEntity
  8
MO_001_VIEW_PV
  6
C_SOLID_M
100
AcDbLine
 10
-78.300003
 20
9.676327
 30
0.0
 11
-76.0
 21
9.676327
 31
0.0
  0
LINE
  5
1A5
330
1E
100
AcDbEntity
  8
MO_001_VIEW_PV
  6
C_SOLID_M
100
AcDbLine
 10
-78.300003
 20
7.422644
 30
0.0
 11
-78.300003
 21
18.0
 31
0.0
  0
LINE
  5
1A6
330
1E
100
AcDbEntity
  8
MO_001_VIEW_PV
  6
C_SOLID_M
100
AcDbLine
 10
-78.300003
 20
-7.422644
 30
0.0
 11
-76.0
 21
-7.422644
 31
0.0
  0
LINE
  5
1A7
330
1E
100
AcDbEntity
  8
MO_001_VIEW_PV
  6
C_SOLID_M
100
AcDbLine
 10
-78.300003
 20
-8.922651
 30
0.0
 11
-76.0
 21
-8.922651
 31
0.0
  0
LINE
  5
1A8
330
1E
100
AcDbEntity
  8
MO_001_VIEW_PV
  6
C_SOLID_M
100
AcDbLine
 10
-78.300003
 20
-9.5
 30
0.0
 11
-76.0
 21
-9.5
 31
0.0
  0
LINE
  5
1A9
330
1E
100
AcDbEntity
  8
MO_001_VIEW_PV
  6
C_SOLID_M
100
AcDbLine
 10
-78.300003
 20
-9.676327
 30
0.0
 11
-76.0
 21
-9.676327
 31
0.0
  0
LINE
  5
1AA
330
1E
100
AcDbEntity
  8
MO_001_VIEW_PV
  6
C_SOLID_M
100
AcDbLine
 10
-78.300003
 20
-7.422644
 30
0.0
 11
-78.300003
 21
-18.0
 31
0.0
  0
LINE
  5
1AB
330
1E
100
AcDbEntity
  8
MO_001_VIEW_PV
  6
C_SOLID_M
100
AcDbLine
 10
-113.6999969999999
 20
7.422644
 30
0.0
 11
-116.0
 21
7.422644
 31
0.0
  0
LINE
  5
1AC
330
1E
100
AcDbEntity
  8
MO_001_VIEW_PV
  6
C_SOLID_M
100
AcDbLine
 10
-113.6999969999999
 20
8.922651
 30
0.0
 11
-116.0
 21
8.922651
 31
0.0
  0
LINE
  5
1AD
330
1E
100
AcDbEntity
  8
MO_001_VIEW_PV
  6
C_SOLID_M
100
AcDbLine
 10
-113.6999969999999
 20
9.5
 30
0.0
 11
-116.0
 21
9.5
 31
0.0
  0
LINE
  5
1AE
330
1E
100
AcDbEntity
  8
MO_001_VIEW_PV
  6
C_SOLID_M
100
AcDbLine
 10
-113.6999969999999
 20
9.676327
 30
0.0
 11
-116.0
 21
9.676327
 31
0.0
  0
LINE
  5
1AF
330
1E
100
AcDbEntity
  8
MO_001_VIEW_PV
  6
C_SOLID_M
100
AcDbLine
 10
-113.6999969999999
 20
7.422644
 30
0.0
 11
-113.6999969999999
 21
18.0
 31
0.0
  0
LINE
  5
1B0
330
1E
100
AcDbEntity
  8
MO_001_VIEW_PV
  6
C_SOLID_M
100
AcDbLine
 10
-113.6999969999999
 20
-7.422644
 30
0.0
 11
-116.0
 21
-7.422644
 31
0.0
  0
LINE
  5
1B1
330
1E
100
AcDbEntity
  8
MO_001_VIEW_PV
  6
C_SOLID_M
100
AcDbLine
 10
-113.6999969999999
 20
-8.922651
 30
0.0
 11
-116.0
 21
-8.922651
 31
0.0
  0
LINE
  5
1B2
330
1E
100
AcDbEntity
  8
MO_001_VIEW_PV
  6
C_SOLID_M
100
AcDbLine
 10
-113.6999969999999
 20
-9.5
 30
0.0
 11
-116.0
 21
-9.5
 31
0.0
  0
LINE
  5
1B3
330
1E
100
AcDbEntity
  8
MO_001_VIEW_PV
  6
C_SOLID_M
100
AcDbLine
 10
-113.6999969999999
 20
-9.676327
 30
0.0
 11
-116.0
 21
-9.676327
 31
0.0
  0
LINE
  5
1B4
330
1E
100
AcDbEntity
  8
MO_001_VIEW_PV
  6
C_SOLID_M
100
AcDbLine
 10
-113.6999969999999
 20
-7.422644
 30
0.0
 11
-113.6999969999999
 21
-18.0
 31
0.0
  0
LINE
  5
1B5
330
1E
100
AcDbEntity
  8
MO_001_VIEW_PV
  6
C_CENTER_L
100
AcDbLine
 10
-67.447693
 20
-72.0
 30
0.0
 11
6.167671
 21
-72.0
 31
0.0
  0
LINE
  5
1B6
330
1E
100
AcDbEntity
  8
MO_001_VIEW_PV
  6
C_SOLID_L
100
AcDbLine
 10
6.0
 20
36.0
 30
0.0
 11
32.264973
 21
36.0
 31
0.0
  0
TEXT
  5
1B7
330
1E
100
AcDbEntity
  8
MO_001_VIEW_PV
  6
C_SOLID_L
100
AcDbText
 10
-112.488281
 20
-107.083594
 30
0.0
 40
4.167187
  1
SK1250W
100
AcDbText
  0
TEXT
  5
1B8
330
1E
100
AcDbEntity
  8
MO_001_VIEW_PV
  6
C_SOLID_L
100
AcDbText
 10
4.428570999999999
 20
-36.75
 30
0.0
 40
3.0
  1
UL1007 AWG.26
100
AcDbText
  0
TEXT
  5
1B9
330
1E
100
AcDbEntity
  8
MO_001_VIEW_PV
  6
C_SOLID_L
100
AcDbText
 10
16.511719
 20
-107.083594
 30
0.0
 40
4.167187
  1
単位：mm
100
AcDbText
  0
TEXT
  5
1BA
330
1E
100
AcDbEntity
  8
MO_001_VIEW_PV
  6
C_SOLID_L
100
AcDbText
 10
16.511719
 20
-113.0835939999999
 30
0.0
 40
4.167187
  1
図は励磁時を示す
100
AcDbText
  0
TEXT
  5
1BB
330
1E
100
AcDbEntity
  8
MO_001_VIEW_PV
  6
C_SOLID_L
100
AcDbText
 10
-70.07142900000001
 20
-100.5
 30
0.0
 40
3.0
  1
板厚2.3mm、ネジ突き出しは1.0mm以下
100
AcDbText
  0
TEXT
  5
1BC
330
1E
100
AcDbEntity
  8
MO_001_VIEW_PV
  6
C_SOLID_L
100
AcDbText
 10
6.428570999999999
 20
36.75
 30
0.0
 40
3.0
  1
4-M4x0.7
100
AcDbText
  0
POLYLINE
  5
1BD
330
1E
100
AcDbEntity
  8
MO_001_NOSHOW
  6
C_SOLID_M
100
AcDb2dPolyline
 66
     1
 10
0.0
 20
0.0
 30
0.0
 70
     5
 75
     6
  0
VERTEX
  5
1BE
330
1BD
100
AcDbEntity
  8
MO_001_NOSHOW
  6
C_SOLID_M
100
AcDbVertex
100
AcDb2dVertex
 10
-56.800003
 20
-66.0
 30
0.0
 50
165.963757
  0
VERTEX
  5
1BF
330
1BD
100
AcDbEntity
  8
MO_001_NOSHOW
  6
C_SOLID_M
100
AcDbVertex
100
AcDb2dVertex
 10
-55.0
 20
-66.276367
 30
0.0
 50
359.817493
  0
VERTEX
  5
1C0
330
1BD
100
AcDbEntity
  8
MO_001_NOSHOW
  6
C_SOLID_M
100
AcDbVertex
100
AcDb2dVertex
 10
-53.200001
 20
-66.0
 30
0.0
 50
333.2524439999999
  0
VERTEX
  5
1C1
330
1BD
100
AcDbEntity
  8
MO_001_NOSHOW
  6
C_SOLID_M
100
AcDbVertex
100
AcDb2dVertex
 10
-55.0
 20
-66.276367
 30
0.0
 50
179.817496
  0
VERTEX
  5
1C2
330
1BD
100
AcDbEntity
  8
MO_001_NOSHOW
  6
C_SOLID_M
100
AcDbVertex
100
AcDb2dVertex
 10
-56.800003
 20
-66.0
 30
0.0
 50
90.0
  0
SEQEND
  5
1C3
330
1BD
100
AcDbEntity
  8
0
  0
POLYLINE
  5
1C4
330
1E
100
AcDbEntity
  8
MO_001_NOSHOW
  6
C_SOLID_M
100
AcDb2dPolyline
 66
     1
 10
0.0
 20
0.0
 30
0.0
 70
     5
 75
     6
  0
VERTEX
  5
1C5
330
1C4
100
AcDbEntity
  8
MO_001_NOSHOW
  6
C_SOLID_M
100
AcDbVertex
100
AcDb2dVertex
 10
-56.800003
 20
-78.0
 30
0.0
 50
269.817496
  0
VERTEX
  5
1C6
330
1C4
100
AcDbEntity
  8
MO_001_NOSHOW
  6
C_SOLID_M
100
AcDbVertex
100
AcDb2dVertex
 10
-55.0
 20
-77.72363299999999
 30
0.0
 50
359.817495
  0
VERTEX
  5
1C7
330
1C4
100
AcDbEntity
  8
MO_001_NOSHOW
  6
C_SOLID_M
100
AcDbVertex
100
AcDb2dVertex
 10
-53.200001
 20
-78.0
 30
0.0
 50
123.690068
  0
VERTEX
  5
1C8
330
1C4
100
AcDbEntity
  8
MO_001_NOSHOW
  6
C_SOLID_M
100
AcDbVertex
100
AcDb2dVertex
 10
-55.0
 20
-77.72363299999999
 30
0.0
 50
179.817498
  0
VERTEX
  5
1C9
330
1C4
100
AcDbEntity
  8
MO_001_NOSHOW
  6
C_SOLID_M
100
AcDbVertex
100
AcDb2dVertex
 10
-56.800003
 20
-78.0
 30
0.0
 50
322.9476009999999
  0
SEQEND
  5
1CA
330
1C4
100
AcDbEntity
  8
0
  0
POLYLINE
  5
1CB
330
1E
100
AcDbEntity
  8
MO_001_NOSHOW
  6
C_SOLID_M
100
AcDb2dPolyline
 66
     1
 10
0.0
 20
0.0
 30
0.0
 70
     5
 75
     6
  0
VERTEX
  5
1CC
330
1CB
100
AcDbEntity
  8
MO_001_NOSHOW
  6
C_SOLID_M
100
AcDbVertex
100
AcDb2dVertex
 10
-56.5
 20
-66.300003
 30
0.0
 50
165.963756
  0
VERTEX
  5
1CD
330
1CB
100
AcDbEntity
  8
MO_001_NOSHOW
  6
C_SOLID_M
100
AcDbVertex
100
AcDb2dVertex
 10
-55.0
 20
-66.500916
 30
0.0
 50
359.817493
  0
VERTEX
  5
1CE
330
1CB
100
AcDbEntity
  8
MO_001_NOSHOW
  6
C_SOLID_M
100
AcDbVertex
100
AcDb2dVertex
 10
-53.5
 20
-66.300003
 30
0.0
 50
333.2524439999999
  0
VERTEX
  5
1CF
330
1CB
100
AcDbEntity
  8
MO_001_NOSHOW
  6
C_SOLID_M
100
AcDbVertex
100
AcDb2dVertex
 10
-55.0
 20
-66.500916
 30
0.0
 50
179.817496
  0
VERTEX
  5
1D0
330
1CB
100
AcDbEntity
  8
MO_001_NOSHOW
  6
C_SOLID_M
100
AcDbVertex
100
AcDb2dVertex
 10
-56.5
 20
-66.300003
 30
0.0
 50
90.00001000000001
  0
SEQEND
  5
1D1
330
1CB
100
AcDbEntity
  8
0
  0
POLYLINE
  5
1D2
330
1E
100
AcDbEntity
  8
MO_001_NOSHOW
  6
C_SOLID_M
100
AcDb2dPolyline
 66
     1
 10
0.0
 20
0.0
 30
0.0
 70
     5
 75
     6
  0
VERTEX
  5
1D3
330
1D2
100
AcDbEntity
  8
MO_001_NOSHOW
  6
C_SOLID_M
100
AcDbVertex
100
AcDb2dVertex
 10
-56.5
 20
-77.69999699999999
 30
0.0
 50
269.817496
  0
VERTEX
  5
1D4
330
1D2
100
AcDbEntity
  8
MO_001_NOSHOW
  6
C_SOLID_M
100
AcDbVertex
100
AcDb2dVertex
 10
-55.0
 20
-77.49908399999999
 30
0.0
 50
359.817495
  0
VERTEX
  5
1D5
330
1D2
100
AcDbEntity
  8
MO_001_NOSHOW
  6
C_SOLID_M
100
AcDbVertex
100
AcDb2dVertex
 10
-53.5
 20
-77.69999699999999
 30
0.0
 50
123.690068
  0
VERTEX
  5
1D6
330
1D2
100
AcDbEntity
  8
MO_001_NOSHOW
  6
C_SOLID_M
100
AcDbVertex
100
AcDb2dVertex
 10
-55.0
 20
-77.49908399999999
 30
0.0
 50
179.8174969999999
  0
VERTEX
  5
1D7
330
1D2
100
AcDbEntity
  8
MO_001_NOSHOW
  6
C_SOLID_M
100
AcDbVertex
100
AcDb2dVertex
 10
-56.5
 20
-77.69999699999999
 30
0.0
 50
322.9475979999999
  0
SEQEND
  5
1D8
330
1D2
100
AcDbEntity
  8
0
  0
DIMENSION
  5
1DA
330
1E
100
AcDbEntity
  8
MO_001_VIEW_PV
  6
C_SOLID_M
100
AcDbDimension
  2
*D0
 10
-24.999998
 20
30.0
 30
0.0
 11
-24.999998
 21
30.0
 31
0.0
  3
STANDARD
100
AcDbAlignedDimension
 13
-49.999996
 23
18.0
 33
0.0
 14
0.0
 24
18.0
 34
0.0
100
AcDbRotatedDimension
  0
DIMENSION
  5
1DC
330
1E
100
AcDbEntity
  8
MO_001_VIEW_PV
  6
C_SOLID_M
100
AcDbDimension
  2
*D1
 10
-29.500004
 20
36.0
 30
0.0
 11
-29.500004
 21
36.0
 31
0.0
  1
59
  3
STANDARD
100
AcDbAlignedDimension
 13
0.0
 23
18.0
 33
0.0
 14
-59.00000799999999
 24
5.214165
 34
0.0
 50
179.97571
100
AcDbRotatedDimension
  0
DIMENSION
  5
1DE
330
1E
100
AcDbEntity
  8
MO_001_VIEW_PV
  6
C_SOLID_M
100
AcDbDimension
  2
*D2
 10
-22.999996
 20
-33.0
 30
0.0
 11
-22.999996
 21
-33.0
 31
0.0
  3
STANDARD
100
AcDbAlignedDimension
 13
-37.999996
 23
-14.0
 33
0.0
 14
-7.999997
 24
-14.0
 34
0.0
100
AcDbRotatedDimension
  0
DIMENSION
  5
1E0
330
1E
100
AcDbEntity
  8
MO_001_VIEW_PV
  6
C_SOLID_M
100
AcDbDimension
  2
*D3
 10
-45.94227199999999
 20
-33.0
 30
0.0
 11
-45.94227199999999
 21
-33.0
 31
0.0
  3
STANDARD
100
AcDbAlignedDimension
 13
-55.0
 23
-4.013641
 33
0.0
 14
-37.999996
 24
-14.0
 34
0.0
100
AcDbRotatedDimension
  0
DIMENSION
  5
1E2
330
1E
100
AcDbEntity
  8
MO_001_VIEW_PV
  6
C_SOLID_M
100
AcDbDimension
  2
*D4
 10
-66.233704
 20
-33.0
 30
0.0
 11
-66.233704
 21
-33.0
 31
0.0
  3
STANDARD
100
AcDbAlignedDimension
 13
-55.0
 23
-4.013641
 33
0.0
 14
-59.00000799999999
 24
-5.214169
 34
0.0
 50
179.97571
100
AcDbRotatedDimension
  0
DIMENSION
  5
1E4
330
1E
100
AcDbEntity
  8
MO_001_VIEW_PV
  6
C_SOLID_M
100
AcDbDimension
  2
*D5
 10
-96.0
 20
-33.0
 30
0.0
 11
-96.0
 21
-33.0
 31
0.0
  3
STANDARD
100
AcDbAlignedDimension
 13
-76.0
 23
-18.0
 33
0.0
 14
-116.0
 24
-18.0
 34
0.0
100
AcDbRotatedDimension
  0
DIMENSION
  5
1E6
330
1E
100
AcDbEntity
  8
MO_001_VIEW_PV
  6
C_SOLID_M
100
AcDbDimension
  2
*D6
 10
-123.0
 20
0.0
 30
0.0
 11
-123.0
 21
0.0
 31
0.0
  3
STANDARD
100
AcDbAlignedDimension
 13
-116.0
 23
18.0
 33
0.0
 14
-116.0
 24
-18.0
 34
0.0
 50
89.999523
100
AcDbRotatedDimension
  0
DIMENSION
  5
1E8
330
1E
100
AcDbEntity
  8
MO_001_VIEW_PV
  6
C_SOLID_M
100
AcDbDimension
  2
*D7
 10
-66.0
 20
18.71243699999999
 30
0.0
 11
-66.0
 21
18.71243699999999
 31
0.0
  3
STANDARD
100
AcDbAlignedDimension
 13
-51.000008
 23
-6.0
 33
0.0
 14
-51.000008
 24
6.0
 34
0.0
 50
89.98785500000002
100
AcDbRotatedDimension
  0
DIMENSION
  5
1EA
330
1E
100
AcDbEntity
  8
MO_001_VIEW_PV
  6
C_SOLID_M
100
AcDbDimension
  2
*D8
 10
-56.48498899999999
 20
0.21168
 30
0.0
 11
-62.721256
 21
-18.523401
 31
0.0
 70
     3
  3
STANDARD
100
AcDbDiametricDimension
 15
-53.515011
 25
-0.21168
 35
0.0
 40
0.0
  0
DIMENSION
  5
1EC
330
1E
100
AcDbEntity
  8
MO_001_VIEW_PV
  6
C_SOLID_M
100
AcDbDimension
  2
*D9
 10
16.0
 20
0.0
 30
0.0
 11
16.0
 21
0.0
 31
0.0
  3
STANDARD
100
AcDbAlignedDimension
 13
-3.999997
 23
-10.0
 33
0.0
 14
-3.999997
 24
10.0
 34
0.0
 50
89.98785500000002
100
AcDbRotatedDimension
  0
DIMENSION
  5
1EE
330
1E
100
AcDbEntity
  8
MO_001_VIEW_PV
  6
C_SOLID_M
100
AcDbDimension
  2
*D10
 10
12.0
 20
-27.0
 30
0.0
 11
12.0
 21
-27.0
 31
0.0
  1
(0.5)
  3
STANDARD
100
AcDbAlignedDimension
 13
0.5
 23
-2.0
 33
0.0
 14
0.0
 24
-18.0
 34
0.0
 50
179.97571
100
AcDbRotatedDimension
  0
DIMENSION
  5
1F0
330
1E
100
AcDbEntity
  8
MO_001_VIEW_PV
  6
C_SOLID_M
100
AcDbDimension
  2
*D11
 10
23.5
 20
-33.0
 30
0.0
 11
23.5
 21
-33.0
 31
0.0
  1
長さ240以上
  3
STANDARD
100
AcDbAlignedDimension
 13
47.0
 23
-19.900002
 33
0.0
 14
0.0
 24
-18.0
 34
0.0
100
AcDbRotatedDimension
  0
DIMENSION
  5
1F2
330
1E
100
AcDbEntity
  8
MO_001_VIEW_PV
  6
C_SOLID_M
100
AcDbDimension
  2
*D12
 10
7.944022999999999
 20
24.0
 30
0.0
 11
7.944022999999999
 21
24.0
 31
0.0
  1
(8)
  3
STANDARD
100
AcDbAlignedDimension
 13
-7.999997
 23
14.0
 33
0.0
 14
0.0
 24
18.0
 34
0.0
100
AcDbRotatedDimension
  0
DIMENSION
  5
1F4
330
1E
100
AcDbEntity
  8
MO_001_VIEW_PV
  6
C_SOLID_M
100
AcDbDimension
  2
*D13
 10
-24.5
 20
-42.0
 30
0.0
 11
-24.5
 21
-42.0
 31
0.0
  3
STANDARD
100
AcDbAlignedDimension
 13
0.0
 23
-54.300003
 33
0.0
 14
-49.0
 24
-54.300003
 34
0.0
100
AcDbRotatedDimension
  0
DIMENSION
  5
1F6
330
1E
100
AcDbEntity
  8
MO_001_VIEW_PV
  6
C_SOLID_M
100
AcDbDimension
  2
*D14
 10
-68.38774100000001
 20
-42.0
 30
0.0
 11
-68.38774100000001
 21
-42.0
 31
0.0
  1
(10)
  3
STANDARD
100
AcDbAlignedDimension
 13
-59.00000799999999
 23
-66.5
 33
0.0
 14
-49.0
 24
-54.300003
 34
0.0
100
AcDbRotatedDimension
  0
DIMENSION
  5
1F8
330
1E
100
AcDbEntity
  8
MO_001_VIEW_PV
  6
C_SOLID_M
100
AcDbDimension
  2
*D15
 10
-67.098259
 20
-48.0
 30
0.0
 11
-67.098259
 21
-48.0
 31
0.0
  3
STANDARD
100
AcDbAlignedDimension
 13
-59.00000799999999
 23
-66.5
 33
0.0
 14
-51.000008
 24
-70.25
 34
0.0
100
AcDbRotatedDimension
  0
DIMENSION
  5
1FA
330
1E
100
AcDbEntity
  8
MO_001_VIEW_PV
  6
C_SOLID_M
100
AcDbDimension
  2
*D16
 10
-69.0
 20
-58.80919599999999
 30
0.0
 11
-69.0
 21
-58.80919599999999
 31
0.0
  3
STANDARD
100
AcDbAlignedDimension
 13
-59.00000799999999
 23
-73.75
 33
0.0
 14
-59.00000799999999
 24
-70.25
 34
0.0
 50
89.999523
100
AcDbRotatedDimension
  0
LINE
  5
1FB
330
1E
100
AcDbEntity
  8
MO_001_VIEW_PV
  6
C_SOLID_L
100
AcDbLine
 10
-7.051797999999999
 20
11.76094299999999
 30
0.0
 11
6.0
 21
36.000003
 31
0.0
  0
POLYLINE
  5
1FC
330
1E
100
AcDbEntity
  8
MO_001_VIEW_PV
  6
C_SOLID_L
100
AcDb2dPolyline
 66
     1
 10
0.0
 20
0.0
 30
0.0
 70
     1
  0
VERTEX
  5
379
330
1FC
100
AcDbEntity
  8
MO_001_VIEW_PV
  6
C_SOLID_L
100
AcDbVertex
100
AcDb2dVertex
 10
-5.992376999999999
 20
14.959218
 30
0.0
  0
VERTEX
  5
37A
330
1FC
100
AcDbEntity
  8
MO_001_VIEW_PV
  6
C_SOLID_L
100
AcDbVertex
100
AcDb2dVertex
 10
-6.810954999999999
 20
12.20822199999999
 30
0.0
  0
VERTEX
  5
37B
330
1FC
100
AcDbEntity
  8
MO_001_VIEW_PV
  6
C_SOLID_L
100
AcDbVertex
100
AcDb2dVertex
 10
-4.964846999999999
 20
14.40593299999999
 30
0.0
  0
SEQEND
  5
37C
330
1FC
100
AcDbEntity
  8
MO_001_VIEW_PV
  6
C_SOLID_L
  0
ENDSEC
  0
SECTION
  2
OBJECTS
  0
DICTIONARY
  5
1A
330
0
100
AcDbDictionary
  3
ACAD_GROUP
350
1B
  3
ACAD_MLINESTYLE
350
1C
  3
ACAD_LAYOUT
350
2B3
  3
ACAD_PLOTSETTINGS
350
2B4
1001
ACAD
1000
TREAT_AS_HARD
1070
     0
  0
DICTIONARY
  5
2B9
330
1E
100
AcDbDictionary
  3
ACAD_LAYOUTSELFREF
350
2BA
  0
DICTIONARY
  5
2BB
330
1F
100
AcDbDictionary
  3
ACAD_LAYOUTSELFREF
350
2BC
  0
DICTIONARY
  5
1B
102
{ACAD_REACTORS
330
1A
102
}
330
1A
100
AcDbDictionary
1001
ACAD
1000
TREAT_AS_HARD
1070
     0
  0
DICTIONARY
  5
1C
102
{ACAD_REACTORS
330
1A
102
}
330
1A
100
AcDbDictionary
  3
STANDARD
350
1D
1001
ACAD
1000
TREAT_AS_HARD
1070
     0
  0
DICTIONARY
  5
2B3
102
{ACAD_REACTORS
330
1A
102
}
330
1A
100
AcDbDictionary
1001
ACAD
1000
TREAT_AS_HARD
1070
     0
  0
DICTIONARY
  5
2B4
102
{ACAD_REACTORS
330
1A
102
}
330
1A
100
AcDbDictionary
1001
ACAD
1000
TREAT_AS_HARD
1070
     0
  0
XRECORD
  5
2BA
102
{ACAD_REACTORS
330
2B9
102
}
330
2B9
100
AcDbXrecord
340
1E
  0
XRECORD
  5
2BC
102
{ACAD_REACTORS
330
2BB
102
}
330
2BB
100
AcDbXrecord
340
1F
  0
MLINESTYLE
  5
1D
102
{ACAD_REACTORS
330
1C
102
}
330
1C
100
AcDbMlineStyle
  2
STANDARD
 70
     0
  3

 62
     0
 51
90.0
 52
90.0
 71
     2
 49
0.5
 62
   256
  6
BYLAYER
 49
-0.5
 62
   256
  6
BYLAYER
  0
ENDSEC
  0
EOF
