  0
SECTION
  2
HEADER
  9
$ACADVER
  1
AC1012
  9
$DWGCODEPAGE
  3
dos932
  9
$INSBASE
 10
0.0
 20
0.0
 30
0.0
  9
$EXTMIN
 10
-129.0563290685534
 20
-65.08578666441954
 30
-0.0015258207003583
  9
$EXTMAX
 10
79.13683517873039
 20
43.12919139800396
 30
0.0000000349246037
  9
$LIMMIN
 10
-129.0499879999999
 20
-68.208984
  9
$LIMMAX
 10
78.75
 20
45.0
  9
$ORTHOMODE
 70
     0
  9
$REGENMODE
 70
     1
  9
$FILLMODE
 70
     1
  9
$QTEXTMODE
 70
     0
  9
$MIRRTEXT
 70
     1
  9
$DRAGMODE
 70
     2
  9
$LTSCALE
 40
1.0
  9
$OSMODE
 70
    37
  9
$ATTMODE
 70
     1
  9
$TEXTSIZE
 40
4.1672
  9
$TRACEWID
 40
0.05
  9
$TEXTSTYLE
  7
STANDARD
  9
$CLAYER
  8
0
  9
$CELTYPE
  6
CONTINUOUS
  9
$CECOLOR
 62
   256
  9
$CELTSCALE
 40
1.0
  9
$DELOBJ
 70
     1
  9
$DISPSILH
 70
     0
  9
$DIMSCALE
 40
1.0
  9
$DIMASZ
 40
0.18
  9
$DIMEXO
 40
0.0625
  9
$DIMDLI
 40
0.38
  9
$DIMRND
 40
0.0
  9
$DIMDLE
 40
0.0
  9
$DIMEXE
 40
0.18
  9
$DIMTP
 40
0.0
  9
$DIMTM
 40
0.0
  9
$DIMTXT
 40
0.18
  9
$DIMCEN
 40
0.09
  9
$DIMTSZ
 40
0.0
  9
$DIMTOL
 70
     0
  9
$DIMLIM
 70
     0
  9
$DIMTIH
 70
     1
  9
$DIMTOH
 70
     1
  9
$DIMSE1
 70
     0
  9
$DIMSE2
 70
     0
  9
$DIMTAD
 70
     0
  9
$DIMZIN
 70
     0
  9
$DIMBLK
  1

  9
$DIMASO
 70
     1
  9
$DIMSHO
 70
     1
  9
$DIMPOST
  1

  9
$DIMAPOST
  1

  9
$DIMALT
 70
     0
  9
$DIMALTD
 70
     2
  9
$DIMALTF
 40
25.4
  9
$DIMLFAC
 40
1.0
  9
$DIMTOFL
 70
     0
  9
$DIMTVP
 40
0.0
  9
$DIMTIX
 70
     0
  9
$DIMSOXD
 70
     0
  9
$DIMSAH
 70
     0
  9
$DIMBLK1
  1

  9
$DIMBLK2
  1

  9
$DIMSTYLE
  2
STANDARD
  9
$DIMCLRD
 70
     0
  9
$DIMCLRE
 70
     0
  9
$DIMCLRT
 70
     0
  9
$DIMTFAC
 40
1.0
  9
$DIMGAP
 40
0.09
  9
$DIMJUST
 70
     0
  9
$DIMSD1
 70
     0
  9
$DIMSD2
 70
     0
  9
$DIMTOLJ
 70
     1
  9
$DIMTZIN
 70
     0
  9
$DIMALTZ
 70
     0
  9
$DIMALTTZ
 70
     0
  9
$DIMFIT
 70
     3
  9
$DIMUPT
 70
     0
  9
$DIMUNIT
 70
     2
  9
$DIMDEC
 70
     4
  9
$DIMTDEC
 70
     4
  9
$DIMALTU
 70
     2
  9
$DIMALTTD
 70
     2
  9
$DIMTXSTY
  7
STANDARD
  9
$DIMAUNIT
 70
     0
  9
$LUNITS
 70
     2
  9
$LUPREC
 70
     6
  9
$SKETCHINC
 40
0.1
  9
$FILLETRAD
 40
0.0
  9
$AUNITS
 70
     0
  9
$AUPREC
 70
     4
  9
$MENU
  1
acad
  9
$ELEVATION
 40
0.0
  9
$PELEVATION
 40
0.0
  9
$THICKNESS
 40
0.0
  9
$LIMCHECK
 70
     0
  9
$BLIPMODE
 70
     0
  9
$CHAMFERA
 40
0.0
  9
$CHAMFERB
 40
0.0
  9
$CHAMFERC
 40
0.0
  9
$CHAMFERD
 40
0.0
  9
$SKPOLY
 70
     0
  9
$TDCREATE
 40
2376122.594768958
  9
$TDUPDATE
 40
2451663.699890625
  9
$TDINDWG
 40
0.0009173611
  9
$TDUSRTIMER
 40
0.0009173611
  9
$USRTIMER
 70
     1
  9
$ANGBASE
 50
0.0
  9
$ANGDIR
 70
     0
  9
$PDMODE
 70
     0
  9
$PDSIZE
 40
0.0
  9
$PLINEWID
 40
0.0
  9
$COORDS
 70
     1
  9
$SPLFRAME
 70
     0
  9
$SPLINETYPE
 70
     6
  9
$SPLINESEGS
 70
     8
  9
$ATTDIA
 70
     0
  9
$ATTREQ
 70
     1
  9
$HANDLING
 70
 10241
  9
$HANDSEED
  5
198
  9
$SURFTAB1
 70
     6
  9
$SURFTAB2
 70
     6
  9
$SURFTYPE
 70
     6
  9
$SURFU
 70
     6
  9
$SURFV
 70
     6
  9
$UCSNAME
  2
MO_001_VIEW_PV_P
  9
$UCSORG
 10
-30.0
 20
0.0
 30
0.0
  9
$UCSXDIR
 10
1.0
 20
0.0
 30
0.0
  9
$UCSYDIR
 10
-0.0000000002051034
 20
1.0
 30
0.0
  9
$PUCSNAME
  2

  9
$PUCSORG
 10
0.0
 20
0.0
 30
0.0
  9
$PUCSXDIR
 10
1.0
 20
0.0
 30
0.0
  9
$PUCSYDIR
 10
0.0
 20
1.0
 30
0.0
  9
$USERI1
 70
     0
  9
$USERI2
 70
     0
  9
$USERI3
 70
     0
  9
$USERI4
 70
     0
  9
$USERI5
 70
     0
  9
$USERR1
 40
0.0
  9
$USERR2
 40
0.0
  9
$USERR3
 40
0.0
  9
$USERR4
 40
0.0
  9
$USERR5
 40
0.0
  9
$WORLDVIEW
 70
     1
  9
$SHADEDGE
 70
     3
  9
$SHADEDIF
 70
    70
  9
$TILEMODE
 70
     1
  9
$MAXACTVP
 70
    16
  9
$PINSBASE
 10
0.0
 20
0.0
 30
0.0
  9
$PLIMCHECK
 70
     0
  9
$PEXTMIN
 10
-129.0499879999999
 20
-68.208984
 30
1.000000000000000E+20
  9
$PEXTMAX
 10
78.75
 20
45.0
 30
-1.000000000000000E+20
  9
$PLIMMIN
 10
0.0
 20
0.0
  9
$PLIMMAX
 10
12.0
 20
9.0
  9
$UNITMODE
 70
     0
  9
$VISRETAIN
 70
     0
  9
$PLINEGEN
 70
     0
  9
$PSLTSCALE
 70
     1
  9
$TREEDEPTH
 70
  3020
  9
$PICKSTYLE
 70
     1
  9
$CMLSTYLE
  2
STANDARD
  9
$CMLJUST
 70
     0
  9
$CMLSCALE
 40
1.0
  9
$SAVEIMAGES
 70
     1
  0
ENDSEC
  0
SECTION
  2
CLASSES
  0
CLASS
  1
ACDBDICTIONARYWDFLT
  2
AcDbDictionaryWithDefault
  3
AutoCAD 2000
 90
    32768
280
     0
281
     0
  0
CLASS
  1
ACDBPLACEHOLDER
  2
AcDbPlaceHolder
  3
AutoCAD 2000
 90
    32768
280
     0
281
     0
  0
CLASS
  1
LAYOUT
  2
AcDbLayout
  3
AutoCAD 2000
 90
    32768
280
     0
281
     0
  0
CLASS
  1
LONG_TRANSACTION
  2
AcDbLongTransaction
  3
AutoCAD 2000
 90
    32768
280
     0
281
     0
  0
CLASS
  1
LWPOLYLINE
  2
AcDbPolyline
  3
AutoCAD 2000
 90
    32768
280
     0
281
     1
  0
CLASS
  1
HATCH
  2
AcDbHatch
  3
AutoCAD 2000
 90
    32768
280
     0
281
     1
  0
CLASS
  1
XRECORD
  2
AcDbXrecord
  3
AutoCAD 2000
 90
    32768
280
     0
281
     0
  0
ENDSEC
  0
SECTION
  2
TABLES
  0
TABLE
  2
VPORT
  5
7
330
0
100
AcDbSymbolTable
 70
     2
  0
VPORT
  5
18F
330
7
100
AcDbSymbolTableRecord
100
AcDbViewportTableRecord
  2
*ACTIVE
 70
     0
 10
0.0
 20
0.0
 11
1.0
 21
1.0
 12
-5.935516778293845
 22
-3.446687968002649
 13
0.0
 23
0.0
 14
6.349999999999999
 24
6.349999999999999
 15
6.349999999999999
 25
6.349999999999999
 16
0.0
 26
0.0
 36
1.0
 17
0.0
 27
0.0
 37
0.0
 40
171.472655085228
 41
1.651785714285714
 42
50.0
 43
0.0
 44
0.0
 50
0.0
 51
0.0
 71
     0
 72
   100
 73
     1
 74
     1
 75
     0
 76
     0
 77
     0
 78
     0
  0
ENDTAB
  0
TABLE
  2
LTYPE
  5
4
330
0
100
AcDbSymbolTable
 70
    37
  0
LTYPE
  5
12
330
4
100
AcDbSymbolTableRecord
100
AcDbLinetypeTableRecord
  2
BYBLOCK
 70
     0
  3

 72
    65
 73
     0
 40
0.0
  0
LTYPE
  5
13
330
4
100
AcDbSymbolTableRecord
100
AcDbLinetypeTableRecord
  2
BYLAYER
 70
     0
  3

 72
    65
 73
     0
 40
0.0
  0
LTYPE
  5
14
330
4
100
AcDbSymbolTableRecord
100
AcDbLinetypeTableRecord
  2
CONTINUOUS
 70
     0
  3
DXF Default line type
 72
    65
 73
     0
 40
0.0
  0
LTYPE
  5
20
330
4
100
AcDbSymbolTableRecord
100
AcDbLinetypeTableRecord
  2
DASHED
 70
     0
  3
DXF Dashed
 72
    65
 73
     2
 40
0.75
 49
0.5
 74
     0
 49
-0.25
 74
     0
  0
LTYPE
  5
21
330
4
100
AcDbSymbolTableRecord
100
AcDbLinetypeTableRecord
  2
HIDDEN
 70
     0
  3
DXF Hidden
 72
    65
 73
     2
 40
0.375
 49
0.25
 74
     0
 49
-0.125
 74
     0
  0
LTYPE
  5
22
330
4
100
AcDbSymbolTableRecord
100
AcDbLinetypeTableRecord
  2
CENTER
 70
     0
  3
DXF Center
 72
    65
 73
     4
 40
2.0
 49
1.25
 74
     0
 49
-0.25
 74
     0
 49
0.25
 74
     0
 49
-0.25
 74
     0
  0
LTYPE
  5
23
330
4
100
AcDbSymbolTableRecord
100
AcDbLinetypeTableRecord
  2
PHANTOM
 70
     0
  3
DXF Phantom
 72
    65
 73
     6
 40
2.5
 49
1.25
 74
     0
 49
-0.25
 74
     0
 49
0.25
 74
     0
 49
-0.25
 74
     0
 49
0.25
 74
     0
 49
-0.25
 74
     0
  0
LTYPE
  5
24
330
4
100
AcDbSymbolTableRecord
100
AcDbLinetypeTableRecord
  2
DOT
 70
     0
  3
DXF DOT
 72
    65
 73
     2
 40
0.25
 49
0.0
 74
     0
 49
-0.25
 74
     0
  0
LTYPE
  5
25
330
4
100
AcDbSymbolTableRecord
100
AcDbLinetypeTableRecord
  2
DASHDOT
 70
     0
  3
DXF Dash Dot
 72
    65
 73
     4
 40
1.0
 49
0.5
 74
     0
 49
-0.25
 74
     0
 49
0.0
 74
     0
 49
-0.25
 74
     0
  0
LTYPE
  5
26
330
4
100
AcDbSymbolTableRecord
100
AcDbLinetypeTableRecord
  2
BORDER
 70
     0
  3
DXF Border
 72
    65
 73
     6
 40
1.75
 49
0.5
 74
     0
 49
-0.25
 74
     0
 49
0.5
 74
     0
 49
-0.25
 74
     0
 49
0.0
 74
     0
 49
-0.25
 74
     0
  0
LTYPE
  5
27
330
4
100
AcDbSymbolTableRecord
100
AcDbLinetypeTableRecord
  2
DIVIDE
 70
     0
  3
DXF Divide
 72
    65
 73
     6
 40
1.25
 49
0.5
 74
     0
 49
-0.25
 74
     0
 49
0.0
 74
     0
 49
-0.25
 74
     0
 49
0.0
 74
     0
 49
-0.25
 74
     0
  0
LTYPE
  5
28
330
4
100
AcDbSymbolTableRecord
100
AcDbLinetypeTableRecord
  2
C_SOLID_L
 70
     0
  3
CADAM Solid Light
 72
    65
 73
     0
 40
0.0
  0
LTYPE
  5
29
330
4
100
AcDbSymbolTableRecord
100
AcDbLinetypeTableRecord
  2
C_SOLID_M
 70
     0
  3
CADAM Solid Medium
 72
    65
 73
     0
 40
0.0
  0
LTYPE
  5
2A
330
4
100
AcDbSymbolTableRecord
100
AcDbLinetypeTableRecord
  2
C_SOLID_H
 70
     0
  3
CADAM Solid Heavy
 72
    65
 73
     0
 40
0.0
  0
LTYPE
  5
2B
330
4
100
AcDbSymbolTableRecord
100
AcDbLinetypeTableRecord
  2
C_DASHED_L
 70
     0
  3
CADAM Dashed Light
 72
    65
 73
     2
 40
0.375
 49
0.25
 74
     0
 49
-0.125
 74
     0
  0
LTYPE
  5
2C
330
4
100
AcDbSymbolTableRecord
100
AcDbLinetypeTableRecord
  2
C_DASHED_M
 70
     0
  3
CADAM Dashed Medium
 72
    65
 73
     2
 40
0.5
 49
0.375
 74
     0
 49
-0.125
 74
     0
  0
LTYPE
  5
2D
330
4
100
AcDbSymbolTableRecord
100
AcDbLinetypeTableRecord
  2
C_CENTER_L
 70
     0
  3
CADAM Center Light
 72
    65
 73
     4
 40
2.0
 49
1.25
 74
     0
 49
-0.25
 74
     0
 49
0.25
 74
     0
 49
-0.25
 74
     0
  0
LTYPE
  5
2E
330
4
100
AcDbSymbolTableRecord
100
AcDbLinetypeTableRecord
  2
C_PHANTOM_L
 70
     0
  3
CADAM Phantom Light
 72
    65
 73
     6
 40
2.5
 49
1.25
 74
     0
 49
-0.25
 74
     0
 49
0.25
 74
     0
 49
-0.25
 74
     0
 49
0.25
 74
     0
 49
-0.25
 74
     0
  0
LTYPE
  5
2F
330
4
100
AcDbSymbolTableRecord
100
AcDbLinetypeTableRecord
  2
C_BREAK_M
 70
     0
  3
CADAM Break Medium
 72
    65
 73
     4
 40
1.0
 49
0.5
 74
     0
 49
-0.25
 74
     0
 49
0.0
 74
     0
 49
-0.25
 74
     0
  0
LTYPE
  5
30
330
4
100
AcDbSymbolTableRecord
100
AcDbLinetypeTableRecord
  2
C_NC
 70
     0
  3
CADAM NC
 72
    65
 73
     0
 40
0.0
  0
LTYPE
  5
31
330
4
100
AcDbSymbolTableRecord
100
AcDbLinetypeTableRecord
  2
DSH1
 70
     0
  3
CADAM Style2 Type 1 Dashed Line
 72
    65
 73
     2
 40
0.075
 49
0.04
 74
     0
 49
-0.035
 74
     0
  0
LTYPE
  5
32
330
4
100
AcDbSymbolTableRecord
100
AcDbLinetypeTableRecord
  2
DSH2
 70
     0
  3
CADAM Style2 Type 2 Dashed Line
 72
    65
 73
     2
 40
0.15
 49
0.11
 74
     0
 49
-0.04
 74
     0
  0
LTYPE
  5
33
330
4
100
AcDbSymbolTableRecord
100
AcDbLinetypeTableRecord
  2
DSH3
 70
     0
  3
CADAM Style2 Type 3 Dashed Line
 72
    65
 73
     2
 40
0.2
 49
0.15
 74
     0
 49
-0.05
 74
     0
  0
LTYPE
  5
34
330
4
100
AcDbSymbolTableRecord
100
AcDbLinetypeTableRecord
  2
DSH4
 70
     0
  3
CADAM Style2 Type 4 Dashed Line
 72
    65
 73
     2
 40
0.36
 49
0.28
 74
     0
 49
-0.08
 74
     0
  0
LTYPE
  5
35
330
4
100
AcDbSymbolTableRecord
100
AcDbLinetypeTableRecord
  2
DSH5
 70
     0
  3
CADAM Style2 Type 5 Dashed Line
 72
    65
 73
     2
 40
0.47
 49
0.39
 74
     0
 49
-0.08
 74
     0
  0
LTYPE
  5
36
330
4
100
AcDbSymbolTableRecord
100
AcDbLinetypeTableRecord
  2
DSH6
 70
     0
  3
CADAM Style2 Type 6 Dashed Line
 72
    65
 73
     2
 40
0.9
 49
0.8100000000000001
 74
     0
 49
-0.09
 74
     0
  0
LTYPE
  5
37
330
4
100
AcDbSymbolTableRecord
100
AcDbLinetypeTableRecord
  2
PL1
 70
     0
  3
Style 2 Type 1 Phantom Line
 72
    65
 73
     6
 40
1.0
 49
0.6
 74
     0
 49
-0.08
 74
     0
 49
0.08
 74
     0
 49
-0.08
 74
     0
 49
0.08
 74
     0
 49
-0.08
 74
     0
  0
LTYPE
  5
38
330
4
100
AcDbSymbolTableRecord
100
AcDbLinetypeTableRecord
  2
PL2
 70
     0
  3
Style 2 Type 2 Phantom Line
 72
    65
 73
     6
 40
1.08
 49
0.6
 74
     0
 49
-0.08
 74
     0
 49
0.12
 74
     0
 49
-0.08
 74
     0
 49
0.12
 74
     0
 49
-0.08
 74
     0
  0
LTYPE
  5
39
330
4
100
AcDbSymbolTableRecord
100
AcDbLinetypeTableRecord
  2
PL3
 70
     0
  3
Style 2 Type 3 Phantom Line
 72
    65
 73
     6
 40
2.0
 49
1.439999999999999
 74
     0
 49
-0.08
 74
     0
 49
0.16
 74
     0
 49
-0.08
 74
     0
 49
0.16
 74
     0
 49
-0.08
 74
     0
  0
LTYPE
  5
3A
330
4
100
AcDbSymbolTableRecord
100
AcDbLinetypeTableRecord
  2
CL1
 70
     0
  3
CADAM Style 2 Type 1 Center Line
 72
    65
 73
     4
 40
0.7
 49
0.45
 74
     0
 49
-0.06
 74
     0
 49
0.13
 74
     0
 49
-0.06
 74
     0
  0
LTYPE
  5
3B
330
4
100
AcDbSymbolTableRecord
100
AcDbLinetypeTableRecord
  2
CL2
 70
     0
  3
CADAM Style 2 Type 2 Center Line
 72
    65
 73
     4
 40
1.199999999999999
 49
1.01
 74
     0
 49
-0.06
 74
     0
 49
0.11
 74
     0
 49
-0.06
 74
     0
  0
LTYPE
  5
3C
330
4
100
AcDbSymbolTableRecord
100
AcDbLinetypeTableRecord
  2
CL3
 70
     0
  3
CADAM Style 2 Type 3 Center Line
 72
    65
 73
     4
 40
1.199999999999999
 49
0.98
 74
     0
 49
-0.06
 74
     0
 49
0.1
 74
     0
 49
-0.06
 74
     0
  0
LTYPE
  5
3D
330
4
100
AcDbSymbolTableRecord
100
AcDbLinetypeTableRecord
  2
CL4
 70
     0
  3
CADAM Style 2 Type 4 Center Line
 72
    65
 73
     4
 40
2.2
 49
1.929999999999999
 74
     0
 49
-0.07
 74
     0
 49
0.13
 74
     0
 49
-0.07
 74
     0
  0
LTYPE
  5
3E
330
4
100
AcDbSymbolTableRecord
100
AcDbLinetypeTableRecord
  2
CL5
 70
     0
  3
CADAM Style 2 Type 5 Center Line
 72
    65
 73
     4
 40
2.2
 49
1.879999999999999
 74
     0
 49
-0.07
 74
     0
 49
0.18
 74
     0
 49
-0.07
 74
     0
  0
LTYPE
  5
3F
330
4
100
AcDbSymbolTableRecord
100
AcDbLinetypeTableRecord
  2
SBK1
 70
     0
  3
CADAM Style 2 Type 1 SetBack Line
 72
    65
 73
     8
 40
2.7
 49
0.1
 74
     0
 49
-0.08
 74
     0
 49
0.1
 74
     0
 49
-0.8
 74
     0
 49
0.0
 74
     0
 49
0.0
 74
     0
 49
0.0
 74
     0
 49
0.0
 74
     0
  0
LTYPE
  5
40
330
4
100
AcDbSymbolTableRecord
100
AcDbLinetypeTableRecord
  2
SBK2
 70
     0
  3
CADAM Style 2 Type 2 SetBack Line
 72
    65
 73
     8
 40
3.709999999999999
 49
0.13
 74
     0
 49
-0.08
 74
     0
 49
0.13
 74
     0
 49
-0.8
 74
     0
 49
0.0
 74
     0
 49
0.0
 74
     0
 49
0.0
 74
     0
 49
0.0
 74
     0
  0
LTYPE
  5
41
330
4
100
AcDbSymbolTableRecord
100
AcDbLinetypeTableRecord
  2
STCH
 70
     0
  3
CADAM Style2 Stitch Line
 72
    65
 73
     2
 40
0.25
 49
0.0
 74
     0
 49
-0.25
 74
     0
  0
LTYPE
  5
42
330
4
100
AcDbSymbolTableRecord
100
AcDbLinetypeTableRecord
  2
MTCH
 70
     0
  3
CADAM Style2 Match Line
 72
    65
 73
     6
 40
2.0
 49
1.439999999999999
 74
     0
 49
-0.8
 74
     0
 49
0.16
 74
     0
 49
-0.08
 74
     0
 49
0.16
 74
     0
 49
-0.08
 74
     0
  0
LTYPE
  5
43
330
4
100
AcDbSymbolTableRecord
100
AcDbLinetypeTableRecord
  2
SLD
 70
     0
  3
CADAM Solid_EXT2
 72
    65
 73
     0
 40
0.0
  0
ENDTAB
  0
TABLE
  2
LAYER
  5
2
330
0
100
AcDbSymbolTable
 70
     7
  0
LAYER
  5
15
330
2
100
AcDbSymbolTableRecord
100
AcDbLayerTableRecord
  2
0
 70
     0
 62
     7
  6
CONTINUOUS
  0
LAYER
  5
44
330
2
100
AcDbSymbolTableRecord
100
AcDbLayerTableRecord
  2
MO_001_NOSHOW
 70
     1
 62
     7
  6
CONTINUOUS
  0
LAYER
  5
45
330
2
100
AcDbSymbolTableRecord
100
AcDbLayerTableRecord
  2
MO_001_VIEW_PV
 70
     0
 62
     7
  6
CONTINUOUS
  0
LAYER
  5
46
330
2
100
AcDbSymbolTableRecord
100
AcDbLayerTableRecord
  2
OVERLAY_MAP
 70
     1
 62
     7
  6
CONTINUOUS
  0
LAYER
  5
47
330
2
100
AcDbSymbolTableRecord
100
AcDbLayerTableRecord
  2
DITTOS
 70
     0
 62
     7
  6
CONTINUOUS
  0
LAYER
  5
48
330
2
100
AcDbSymbolTableRecord
100
AcDbLayerTableRecord
  2
SYMBOLS
 70
     0
 62
     7
  6
CONTINUOUS
  0
LAYER
  5
49
330
2
100
AcDbSymbolTableRecord
100
AcDbLayerTableRecord
  2
SETS
 70
     0
 62
     7
  6
CONTINUOUS
  0
ENDTAB
  0
TABLE
  2
STYLE
  5
3
330
0
100
AcDbSymbolTable
 70
     1
  0
STYLE
  5
18
330
3
100
AcDbSymbolTableRecord
100
AcDbTextStyleTableRecord
  2
STANDARD
 70
     0
 40
4.1672
 41
1.0
 50
0.0
 71
     0
 42
4.1672
  3
monotxt
  4
BIGFONT
  0
ENDTAB
  0
TABLE
  2
VIEW
  5
5
330
0
100
AcDbSymbolTable
 70
     0
  0
ENDTAB
  0
TABLE
  2
UCS
  5
6
330
0
100
AcDbSymbolTable
 70
     1
  0
UCS
  5
4A
330
6
100
AcDbSymbolTableRecord
100
AcDbUCSTableRecord
  2
MO_001_VIEW_PV_P
 70
     0
 10
-30.0
 20
0.0
 30
0.0
 11
1.0
 21
0.0
 31
0.0
 12
-0.0000000002051034
 22
1.0
 32
0.0
  0
ENDTAB
  0
TABLE
  2
APPID
  5
8
330
0
100
AcDbSymbolTable
 70
     1
  0
APPID
  5
17
330
8
100
AcDbSymbolTableRecord
100
AcDbRegAppTableRecord
  2
ACAD
 70
     0
  0
ENDTAB
  0
TABLE
  2
DIMSTYLE
  5
9
330
0
100
AcDbSymbolTable
 70
     1
  0
DIMSTYLE
105
19
102
{ACAD_REACTORS
330
116
330
118
330
11A
330
11C
330
11E
330
120
330
122
330
124
330
126
102
}
330
9
100
AcDbSymbolTableRecord
100
AcDbDimStyleTableRecord
  2
STANDARD
 70
     0
  3

  4

  5

  6

  7

 40
1.0
 41
0.18
 42
0.0625
 43
0.38
 44
0.18
 45
0.0
 46
0.0
 47
0.0
 48
0.0
140
0.18
141
0.09
142
0.0
143
25.4
144
1.0
145
0.0
146
1.0
147
0.09
 71
     0
 72
     0
 73
     1
 74
     1
 75
     0
 76
     0
 77
     0
 78
     0
170
     0
171
     2
172
     0
173
     0
174
     0
175
     0
176
     0
177
     0
178
     0
270
     2
271
     4
272
     4
273
     2
274
     2
340
18
275
     0
280
     0
281
     0
282
     0
283
     1
284
     0
285
     0
286
     0
287
     3
288
     0
  0
ENDTAB
  0
TABLE
  2
BLOCK_RECORD
  5
C
330
0
100
AcDbSymbolTable
 70
     9
  0
BLOCK_RECORD
  5
1E
102
{ACAD_XDICTIONARY
360
190
102
}
330
C
100
AcDbSymbolTableRecord
100
AcDbBlockTableRecord
  2
*MODEL_SPACE
  0
BLOCK_RECORD
  5
1F
102
{ACAD_XDICTIONARY
360
192
102
}
330
C
100
AcDbSymbolTableRecord
100
AcDbBlockTableRecord
  2
*PAPER_SPACE
  0
BLOCK_RECORD
  5
115
330
C
100
AcDbSymbolTableRecord
100
AcDbBlockTableRecord
  2
*D0
  0
BLOCK_RECORD
  5
117
330
C
100
AcDbSymbolTableRecord
100
AcDbBlockTableRecord
  2
*D1
  0
BLOCK_RECORD
  5
119
330
C
100
AcDbSymbolTableRecord
100
AcDbBlockTableRecord
  2
*D2
  0
BLOCK_RECORD
  5
11B
330
C
100
AcDbSymbolTableRecord
100
AcDbBlockTableRecord
  2
*D3
  0
BLOCK_RECORD
  5
11D
330
C
100
AcDbSymbolTableRecord
100
AcDbBlockTableRecord
  2
*D4
  0
BLOCK_RECORD
  5
11F
330
C
100
AcDbSymbolTableRecord
100
AcDbBlockTableRecord
  2
*D5
  0
BLOCK_RECORD
  5
121
330
C
100
AcDbSymbolTableRecord
100
AcDbBlockTableRecord
  2
*D6
  0
BLOCK_RECORD
  5
123
330
C
100
AcDbSymbolTableRecord
100
AcDbBlockTableRecord
  2
*D7
  0
BLOCK_RECORD
  5
125
330
C
100
AcDbSymbolTableRecord
100
AcDbBlockTableRecord
  2
*D8
  0
ENDTAB
  0
ENDSEC
  0
SECTION
  2
BLOCKS
  0
BLOCK
  5
E
330
1E
100
AcDbEntity
  8
0
100
AcDbBlockBegin
  2
*MODEL_SPACE
 70
     0
 10
0.0
 20
0.0
 30
0.0
  3
*MODEL_SPACE
  1

  0
ENDBLK
  5
F
330
1E
100
AcDbEntity
  8
0
100
AcDbBlockEnd
  0
BLOCK
  5
10
330
1F
100
AcDbEntity
 67
     1
  8
0
100
AcDbBlockBegin
  2
*PAPER_SPACE
 70
     0
 10
0.0
 20
0.0
 30
0.0
  3
*PAPER_SPACE
  1

  0
ENDBLK
  5
11
330
1F
100
AcDbEntity
 67
     1
  8
0
100
AcDbBlockEnd
  0
BLOCK
  5
12D
330
115
100
AcDbEntity
  8
0
100
AcDbBlockBegin
  2
*D0
 70
     1
 10
0.0
 20
0.0
 30
0.0
  3
*D0
  1

  0
TEXT
  5
12E
330
115
100
AcDbEntity
  8
MO_001_VIEW_PV
  6
BYBLOCK
100
AcDbText
 10
-44.03571099999999
 20
41.625
 30
0.0
 40
1.5
  1
%%P1.0
100
AcDbText
  0
TEXT
  5
12F
330
115
100
AcDbEntity
  8
MO_001_VIEW_PV
  6
BYBLOCK
100
AcDbText
 10
-55.82142499999999
 20
39.75
 30
0.0
 40
3.0
  1
34.5
100
AcDbText
  0
LINE
  5
130
330
115
100
AcDbEntity
  8
MO_001_VIEW_PV
  6
BYBLOCK
100
AcDbLine
 10
-64.499992
 20
39.0
 30
0.0
 11
-30.0
 21
39.0
 31
0.0
  0
SOLID
  5
131
330
115
100
AcDbEntity
  8
MO_001_VIEW_PV
  6
BYBLOCK
100
AcDbTrace
 10
-61.181732
 20
39.583512
 30
0.0
 11
-63.991992
 21
39.0
 31
0.0
 12
-61.181732
 22
38.416488
 32
0.0
 13
-61.181732
 23
38.416488
 33
0.0
  0
SOLID
  5
132
330
115
100
AcDbEntity
  8
MO_001_VIEW_PV
  6
BYBLOCK
100
AcDbTrace
 10
-33.31825999999999
 20
38.416488
 30
0.0
 11
-30.508
 21
39.0
 31
0.0
 12
-33.31825999999999
 22
39.583512
 32
0.0
 13
-33.31825999999999
 23
39.583512
 33
0.0
  0
LINE
  5
133
330
115
100
AcDbEntity
  8
MO_001_VIEW_PV
  6
BYBLOCK
100
AcDbLine
 10
-64.499992
 20
3.029411999999999
 30
0.0
 11
-64.499992
 21
41.285999
 31
0.0
  0
LINE
  5
134
330
115
100
AcDbEntity
  8
MO_001_VIEW_PV
  6
BYBLOCK
100
AcDbLine
 10
-30.0
 20
20.700012
 30
0.0
 11
-30.0
 21
41.285999
 31
0.0
  0
ENDBLK
  5
135
330
115
100
AcDbEntity
  8
0
100
AcDbBlockEnd
  0
BLOCK
  5
136
330
117
100
AcDbEntity
  8
0
100
AcDbBlockBegin
  2
*D1
 70
     1
 10
0.0
 20
0.0
 30
0.0
  3
*D1
  1

  0
TEXT
  5
137
330
117
100
AcDbEntity
  8
MO_001_VIEW_PV
  6
BYBLOCK
100
AcDbText
 10
-17.235711
 20
41.625
 30
0.0
 40
1.5
  1
%%P0.5
100
AcDbText
  0
TEXT
  5
138
330
117
100
AcDbEntity
  8
MO_001_VIEW_PV
  6
BYBLOCK
100
AcDbText
 10
-29.021426
 20
39.75
 30
0.0
 40
3.0
  1
19.1
100
AcDbText
  0
LINE
  5
139
330
117
100
AcDbEntity
  8
MO_001_VIEW_PV
  6
BYBLOCK
100
AcDbLine
 10
-30.0
 20
39.0
 30
0.0
 11
-10.899996
 21
39.0
 31
0.0
  0
SOLID
  5
13A
330
117
100
AcDbEntity
  8
MO_001_VIEW_PV
  6
BYBLOCK
100
AcDbTrace
 10
-26.68174
 20
39.583512
 30
0.0
 11
-29.49199999999999
 21
39.0
 31
0.0
 12
-26.68174
 22
38.416488
 32
0.0
 13
-26.68174
 23
38.416488
 33
0.0
  0
SOLID
  5
13B
330
117
100
AcDbEntity
  8
MO_001_VIEW_PV
  6
BYBLOCK
100
AcDbTrace
 10
-14.218256
 20
38.416488
 30
0.0
 11
-11.407996
 21
39.0
 31
0.0
 12
-14.218256
 22
39.583512
 32
0.0
 13
-14.218256
 23
39.583512
 33
0.0
  0
LINE
  5
13C
330
117
100
AcDbEntity
  8
MO_001_VIEW_PV
  6
BYBLOCK
100
AcDbLine
 10
-30.0
 20
20.700012
 30
0.0
 11
-30.0
 21
41.285999
 31
0.0
  0
LINE
  5
13D
330
117
100
AcDbEntity
  8
MO_001_VIEW_PV
  6
BYBLOCK
100
AcDbLine
 10
-10.899996
 20
2.875004
 30
0.0
 11
-10.899996
 21
41.285999
 31
0.0
  0
ENDBLK
  5
13E
330
117
100
AcDbEntity
  8
0
100
AcDbBlockEnd
  0
BLOCK
  5
13F
330
119
100
AcDbEntity
  8
0
100
AcDbBlockBegin
  2
*D2
 70
     1
 10
0.0
 20
0.0
 30
0.0
  3
*D2
  1

  0
TEXT
  5
140
330
119
100
AcDbEntity
  8
MO_001_VIEW_PV
  6
BYBLOCK
100
AcDbText
 10
-46.77142599999999
 20
33.75
 30
0.0
 40
3.0
  1
23以下
100
AcDbText
  0
LINE
  5
141
330
119
100
AcDbEntity
  8
MO_001_VIEW_PV
  6
BYBLOCK
100
AcDbLine
 10
-52.399994
 20
33.0
 30
0.0
 11
-30.0
 21
33.0
 31
0.0
  0
SOLID
  5
142
330
119
100
AcDbEntity
  8
MO_001_VIEW_PV
  6
BYBLOCK
100
AcDbTrace
 10
-49.081734
 20
33.58351199999999
 30
0.0
 11
-51.89199399999999
 21
33.0
 31
0.0
 12
-49.081734
 22
32.416488
 32
0.0
 13
-49.081734
 23
32.416488
 33
0.0
  0
SOLID
  5
143
330
119
100
AcDbEntity
  8
MO_001_VIEW_PV
  6
BYBLOCK
100
AcDbTrace
 10
-33.31825999999999
 20
32.416488
 30
0.0
 11
-30.508
 21
33.0
 31
0.0
 12
-33.31825999999999
 22
33.58351199999999
 32
0.0
 13
-33.31825999999999
 23
33.58351199999999
 33
0.0
  0
LINE
  5
144
330
119
100
AcDbEntity
  8
MO_001_VIEW_PV
  6
BYBLOCK
100
AcDbLine
 10
-52.399994
 20
20.650002
 30
0.0
 11
-52.399994
 21
35.28599899999999
 31
0.0
  0
LINE
  5
145
330
119
100
AcDbEntity
  8
MO_001_VIEW_PV
  6
BYBLOCK
100
AcDbLine
 10
-30.0
 20
20.700012
 30
0.0
 11
-30.0
 21
35.28599899999999
 31
0.0
  0
ENDBLK
  5
146
330
119
100
AcDbEntity
  8
0
100
AcDbBlockEnd
  0
BLOCK
  5
147
330
11B
100
AcDbEntity
  8
0
100
AcDbBlockBegin
  2
*D3
 70
     1
 10
0.0
 20
0.0
 30
0.0
  3
*D3
  1

  0
TEXT
  5
148
330
11B
100
AcDbEntity
  8
MO_001_VIEW_PV
  6
BYBLOCK
100
AcDbText
 10
-17.685714
 20
35.625
 30
0.0
 40
1.5
  1
%%P0.5
100
AcDbText
  0
TEXT
  5
149
330
11B
100
AcDbEntity
  8
MO_001_VIEW_PV
  6
BYBLOCK
100
AcDbText
 10
-29.471428
 20
33.75
 30
0.0
 40
3.0
  1
18.2
100
AcDbText
  0
LINE
  5
14A
330
11B
100
AcDbEntity
  8
MO_001_VIEW_PV
  6
BYBLOCK
100
AcDbLine
 10
-30.0
 20
33.0
 30
0.0
 11
-11.8
 21
33.0
 31
0.0
  0
SOLID
  5
14B
330
11B
100
AcDbEntity
  8
MO_001_VIEW_PV
  6
BYBLOCK
100
AcDbTrace
 10
-26.68174
 20
33.58351199999999
 30
0.0
 11
-29.49199999999999
 21
33.0
 31
0.0
 12
-26.68174
 22
32.416488
 32
0.0
 13
-26.68174
 23
32.416488
 33
0.0
  0
SOLID
  5
14C
330
11B
100
AcDbEntity
  8
MO_001_VIEW_PV
  6
BYBLOCK
100
AcDbTrace
 10
-15.11826
 20
32.416488
 30
0.0
 11
-12.308
 21
33.0
 31
0.0
 12
-15.11826
 22
33.58351199999999
 32
0.0
 13
-15.11826
 23
33.58351199999999
 33
0.0
  0
LINE
  5
14D
330
11B
100
AcDbEntity
  8
MO_001_VIEW_PV
  6
BYBLOCK
100
AcDbLine
 10
-30.0
 20
20.700012
 30
0.0
 11
-30.0
 21
35.28599899999999
 31
0.0
  0
LINE
  5
14E
330
11B
100
AcDbEntity
  8
MO_001_VIEW_PV
  6
BYBLOCK
100
AcDbLine
 10
-11.8
 20
17.19999899999999
 30
0.0
 11
-11.8
 21
35.28599899999999
 31
0.0
  0
LINE
  5
14F
330
11B
100
AcDbEntity
  8
MO_001_VIEW_PV
  6
BYBLOCK
100
AcDbLine
 10
-30.435715
 20
33.0
 30
0.0
 11
-30.0
 21
33.0
 31
0.0
  0
LINE
  5
150
330
11B
100
AcDbEntity
  8
MO_001_VIEW_PV
  6
BYBLOCK
100
AcDbLine
 10
-11.8
 20
33.0
 30
0.0
 11
-11.364285
 21
33.0
 31
0.0
  0
ENDBLK
  5
151
330
11B
100
AcDbEntity
  8
0
100
AcDbBlockEnd
  0
BLOCK
  5
152
330
11D
100
AcDbEntity
  8
0
100
AcDbBlockBegin
  2
*D4
 70
     1
 10
0.0
 20
0.0
 30
0.0
  3
*D4
  1

  0
LINE
  5
153
330
11D
100
AcDbEntity
  8
MO_001_VIEW_PV
  6
BYBLOCK
100
AcDbLine
 10
-53.299988
 20
-42.806274
 30
0.0
 11
-52.399994
 21
-42.806274
 31
0.0
  0
LINE
  5
154
330
11D
100
AcDbEntity
  8
MO_001_VIEW_PV
  6
BYBLOCK
100
AcDbLine
 10
-53.299988
 20
-42.806274
 30
0.0
 11
-59.649988
 21
-42.806274
 31
0.0
  0
LINE
  5
155
330
11D
100
AcDbEntity
  8
MO_001_VIEW_PV
  6
BYBLOCK
100
AcDbLine
 10
-52.399994
 20
-42.806274
 30
0.0
 11
-46.04999399999999
 21
-42.806274
 31
0.0
  0
SOLID
  5
156
330
11D
100
AcDbEntity
  8
MO_001_VIEW_PV
  6
BYBLOCK
100
AcDbTrace
 10
-56.618248
 20
-43.38978599999999
 30
0.0
 11
-53.807988
 21
-42.806274
 31
0.0
 12
-56.618248
 22
-42.22276299999999
 32
0.0
 13
-56.618248
 23
-42.22276299999999
 33
0.0
  0
SOLID
  5
157
330
11D
100
AcDbEntity
  8
MO_001_VIEW_PV
  6
BYBLOCK
100
AcDbTrace
 10
-49.081734
 20
-42.22276299999999
 30
0.0
 11
-51.89199399999999
 21
-42.806274
 31
0.0
 12
-49.081734
 22
-43.38978599999999
 32
0.0
 13
-49.081734
 23
-43.38978599999999
 33
0.0
  0
LINE
  5
158
330
11D
100
AcDbEntity
  8
MO_001_VIEW_PV
  6
BYBLOCK
100
AcDbLine
 10
-53.299988
 20
-9.075001999999999
 30
0.0
 11
-53.299988
 21
-45.09227399999999
 31
0.0
  0
LINE
  5
159
330
11D
100
AcDbEntity
  8
MO_001_VIEW_PV
  6
BYBLOCK
100
AcDbLine
 10
-52.399994
 20
-20.650002
 30
0.0
 11
-52.399994
 21
-45.09227399999999
 31
0.0
  0
TEXT
  5
15A
330
11D
100
AcDbEntity
  8
MO_001_VIEW_PV
  6
BYBLOCK
100
AcDbText
 10
-47.565989
 20
-42.056274
 30
0.0
 40
3.0
  1
0.9
100
AcDbText
  0
LINE
  5
15B
330
11D
100
AcDbEntity
  8
MO_001_VIEW_PV
  6
BYBLOCK
100
AcDbLine
 10
-52.399994
 20
-42.806274
 30
0.0
 11
-38.458847
 21
-42.806274
 31
0.0
  0
ENDBLK
  5
15C
330
11D
100
AcDbEntity
  8
0
100
AcDbBlockEnd
  0
BLOCK
  5
15D
330
11F
100
AcDbEntity
  8
0
100
AcDbBlockBegin
  2
*D5
 70
     1
 10
0.0
 20
0.0
 30
0.0
  3
*D5
  1

  0
TEXT
  5
15E
330
11F
100
AcDbEntity
  8
MO_001_VIEW_PV
  6
BYBLOCK
100
AcDbText
 10
-5.625
 20
21.96428599999999
 30
0.0
 40
1.5
  1
%%P0.03
 50
90.0
100
AcDbText
  0
TEXT
  5
15F
330
11F
100
AcDbEntity
  8
MO_001_VIEW_PV
  6
BYBLOCK
100
AcDbText
 10
-3.75
 20
7.178571
 30
0.0
 40
3.0
  1
%%C6.35
 50
90.0
100
AcDbText
  0
LINE
  5
160
330
11F
100
AcDbEntity
  8
MO_001_VIEW_PV
  6
BYBLOCK
100
AcDbLine
 10
-3.0
 20
-3.175000999999999
 30
0.0
 11
-3.0
 21
3.174999
 31
0.0
  0
LINE
  5
161
330
11F
100
AcDbEntity
  8
MO_001_VIEW_PV
  6
BYBLOCK
100
AcDbLine
 10
-3.0
 20
-3.175000999999999
 30
0.0
 11
-3.0
 21
-9.525000999999999
 31
0.0
  0
LINE
  5
162
330
11F
100
AcDbEntity
  8
MO_001_VIEW_PV
  6
BYBLOCK
100
AcDbLine
 10
-3.0
 20
3.174999
 30
0.0
 11
-3.0
 21
9.524999000000001
 31
0.0
  0
SOLID
  5
163
330
11F
100
AcDbEntity
  8
MO_001_VIEW_PV
  6
BYBLOCK
100
AcDbTrace
 10
-2.416488
 20
-6.493261
 30
0.0
 11
-3.0
 21
-3.683001
 31
0.0
 12
-3.583512
 22
-6.493261
 32
0.0
 13
-3.583512
 23
-6.493261
 33
0.0
  0
SOLID
  5
164
330
11F
100
AcDbEntity
  8
MO_001_VIEW_PV
  6
BYBLOCK
100
AcDbTrace
 10
-3.583512
 20
6.493258999999999
 30
0.0
 11
-3.0
 21
3.682998999999999
 31
0.0
 12
-2.416488
 22
6.493258999999999
 32
0.0
 13
-2.416488
 23
6.493258999999999
 33
0.0
  0
LINE
  5
165
330
11F
100
AcDbEntity
  8
MO_001_VIEW_PV
  6
BYBLOCK
100
AcDbLine
 10
-11.199999
 20
-3.175000999999999
 30
0.0
 11
-0.7140000000000001
 21
-3.175000999999999
 31
0.0
  0
LINE
  5
166
330
11F
100
AcDbEntity
  8
MO_001_VIEW_PV
  6
BYBLOCK
100
AcDbLine
 10
-11.199999
 20
3.174999
 30
0.0
 11
-0.7140000000000001
 21
3.174999
 31
0.0
  0
LINE
  5
167
330
11F
100
AcDbEntity
  8
MO_001_VIEW_PV
  6
BYBLOCK
100
AcDbLine
 10
-3.0
 20
3.174999
 30
0.0
 11
-3.0
 21
29.785715
 31
0.0
  0
ENDBLK
  5
168
330
11F
100
AcDbEntity
  8
0
100
AcDbBlockEnd
  0
BLOCK
  5
169
330
121
100
AcDbEntity
  8
0
100
AcDbBlockBegin
  2
*D6
 70
     1
 10
0.0
 20
0.0
 30
0.0
  3
*D6
  1

  0
TEXT
  5
16A
330
121
100
AcDbEntity
  8
MO_001_VIEW_PV
  6
BYBLOCK
100
AcDbText
 10
6.375
 20
3.214285999999999
 30
0.0
 40
1.5
  1
%%P0.3
 50
90.0
100
AcDbText
  0
TEXT
  5
16B
330
121
100
AcDbEntity
  8
MO_001_VIEW_PV
  6
BYBLOCK
100
AcDbText
 10
8.25
 20
-8.571429
 30
0.0
 40
3.0
  1
31.8
 50
90.0
100
AcDbText
  0
LINE
  5
16C
330
121
100
AcDbEntity
  8
MO_001_VIEW_PV
  6
BYBLOCK
100
AcDbLine
 10
9.0
 20
15.9
 30
0.0
 11
9.0
 21
-15.9
 31
0.0
  0
SOLID
  5
16D
330
121
100
AcDbEntity
  8
MO_001_VIEW_PV
  6
BYBLOCK
100
AcDbTrace
 10
9.583511999999998
 20
12.581739
 30
0.0
 11
9.0
 21
15.392
 31
0.0
 12
8.416488000000001
 22
12.581739
 32
0.0
 13
8.416488000000001
 23
12.581739
 33
0.0
  0
SOLID
  5
16E
330
121
100
AcDbEntity
  8
MO_001_VIEW_PV
  6
BYBLOCK
100
AcDbTrace
 10
8.416488000000001
 20
-12.581739
 30
0.0
 11
9.0
 21
-15.392
 31
0.0
 12
9.583511999999998
 22
-12.581739
 32
0.0
 13
9.583511999999998
 23
-12.581739
 33
0.0
  0
LINE
  5
16F
330
121
100
AcDbEntity
  8
MO_001_VIEW_PV
  6
BYBLOCK
100
AcDbLine
 10
33.85034199999999
 20
15.9
 30
0.0
 11
6.713999999999999
 21
15.9
 31
0.0
  0
LINE
  5
170
330
121
100
AcDbEntity
  8
MO_001_VIEW_PV
  6
BYBLOCK
100
AcDbLine
 10
33.85034199999999
 20
-15.9
 30
0.0
 11
6.713999999999999
 21
-15.9
 31
0.0
  0
ENDBLK
  5
171
330
121
100
AcDbEntity
  8
0
100
AcDbBlockEnd
  0
BLOCK
  5
172
330
123
100
AcDbEntity
  8
0
100
AcDbBlockBegin
  2
*D7
 70
     1
 10
0.0
 20
0.0
 30
0.0
  3
*D7
  1

  0
TEXT
  5
173
330
123
100
AcDbEntity
  8
MO_001_VIEW_PV
  6
BYBLOCK
100
AcDbText
 10
31.928571
 20
39.75
 30
0.0
 40
3.0
  1
%%C49以下
100
AcDbText
  0
LINE
  5
174
330
123
100
AcDbEntity
  8
MO_001_VIEW_PV
  6
BYBLOCK
100
AcDbLine
 10
14.949997
 20
39.0
 30
0.0
 11
63.050003
 21
39.0
 31
0.0
  0
SOLID
  5
175
330
123
100
AcDbEntity
  8
MO_001_VIEW_PV
  6
BYBLOCK
100
AcDbTrace
 10
18.268257
 20
39.583512
 30
0.0
 11
15.457997
 21
39.0
 31
0.0
 12
18.268257
 22
38.416488
 32
0.0
 13
18.268257
 23
38.416488
 33
0.0
  0
SOLID
  5
176
330
123
100
AcDbEntity
  8
MO_001_VIEW_PV
  6
BYBLOCK
100
AcDbTrace
 10
59.731743
 20
38.416488
 30
0.0
 11
62.542003
 21
39.0
 31
0.0
 12
59.731743
 22
39.583512
 32
0.0
 13
59.731743
 23
39.583512
 33
0.0
  0
LINE
  5
177
330
123
100
AcDbEntity
  8
MO_001_VIEW_PV
  6
BYBLOCK
100
AcDbLine
 10
14.949997
 20
0.0
 30
0.0
 11
14.949997
 21
41.285999
 31
0.0
  0
LINE
  5
178
330
123
100
AcDbEntity
  8
MO_001_VIEW_PV
  6
BYBLOCK
100
AcDbLine
 10
63.050003
 20
0.0
 30
0.0
 11
63.050003
 21
41.285999
 31
0.0
  0
ENDBLK
  5
179
330
123
100
AcDbEntity
  8
0
100
AcDbBlockEnd
  0
BLOCK
  5
17A
330
125
100
AcDbEntity
  8
0
100
AcDbBlockBegin
  2
*D8
 70
     1
 10
0.0
 20
0.0
 30
0.0
  3
*D8
  1

  0
TEXT
  5
17B
330
125
100
AcDbEntity
  8
MO_001_VIEW_PV
  6
BYBLOCK
100
AcDbText
 10
71.25
 20
-1.071429
 30
0.0
 40
3.0
  1
長さ250以上
 50
90.0
100
AcDbText
  0
LINE
  5
17C
330
125
100
AcDbEntity
  8
MO_001_VIEW_PV
  6
BYBLOCK
100
AcDbLine
 10
72.0
 20
-46.66188
 30
0.0
 11
72.0
 21
-22.322639
 31
0.0
  0
SOLID
  5
17D
330
125
100
AcDbEntity
  8
MO_001_VIEW_PV
  6
BYBLOCK
100
AcDbTrace
 10
71.416488
 20
-43.34362
 30
0.0
 11
72.0
 21
-46.15388099999999
 31
0.0
 12
72.58351199999999
 22
-43.34362
 32
0.0
 13
72.58351199999999
 23
-43.34362
 33
0.0
  0
SOLID
  5
17E
330
125
100
AcDbEntity
  8
MO_001_VIEW_PV
  6
BYBLOCK
100
AcDbTrace
 10
72.58351199999999
 20
-25.6409
 30
0.0
 11
72.0
 21
-22.830639
 31
0.0
 12
71.416488
 22
-25.6409
 32
0.0
 13
71.416488
 23
-25.6409
 33
0.0
  0
LINE
  5
17F
330
125
100
AcDbEntity
  8
MO_001_VIEW_PV
  6
BYBLOCK
100
AcDbLine
 10
47.22396899999999
 20
-46.66188
 30
0.0
 11
74.28600300000001
 21
-46.66188
 31
0.0
  0
LINE
  5
180
330
125
100
AcDbEntity
  8
MO_001_VIEW_PV
  6
BYBLOCK
100
AcDbLine
 10
47.94999699999999
 20
-22.322639
 30
0.0
 11
74.28600300000001
 21
-22.322639
 31
0.0
  0
LINE
  5
181
330
125
100
AcDbEntity
  8
MO_001_VIEW_PV
  6
BYBLOCK
100
AcDbLine
 10
72.0
 20
-22.322639
 30
0.0
 11
72.0
 21
20.035713
 31
0.0
  0
ENDBLK
  5
182
330
125
100
AcDbEntity
  8
0
100
AcDbBlockEnd
  0
ENDSEC
  0
SECTION
  2
ENTITIES
  0
TEXT
  5
4B
330
1E
100
AcDbEntity
  8
OVERLAY_MAP
  6
C_SOLID_L
100
AcDbText
 10
0.0
 20
6.349999999999999
 30
0.0
 40
4.1672
  1
Model Overlay Name
100
AcDbText
  0
TEXT
  5
4C
330
1E
100
AcDbEntity
  8
OVERLAY_MAP
  6
C_SOLID_L
100
AcDbText
 10
126.999998
 20
0.0
 30
0.0
 40
4.1672
  1
Number
100
AcDbText
  0
TEXT
  5
4D
330
1E
100
AcDbEntity
  8
OVERLAY_MAP
  6
C_SOLID_L
100
AcDbText
 10
177.7999969999999
 20
0.0
 30
0.0
 40
4.1672
  1
File Text
100
AcDbText
  0
TEXT
  5
4E
330
1E
100
AcDbEntity
  8
OVERLAY_MAP
  6
C_SOLID_L
100
AcDbText
 10
0.0
 20
-6.349999999999999
 30
0.0
 40
4.1672
  1
pp 5sf 
100
AcDbText
  0
TEXT
  5
4F
330
1E
100
AcDbEntity
  8
OVERLAY_MAP
  6
C_SOLID_L
100
AcDbText
 10
126.999998
 20
-6.349999999999999
 30
0.0
 40
4.1672
  1
001
100
AcDbText
  0
TEXT
  5
50
330
1E
100
AcDbEntity
  8
OVERLAY_MAP
  6
C_SOLID_L
100
AcDbText
 10
177.7999969999999
 20
-6.349999999999999
 30
0.0
 40
4.1672
  1
5S CASE                                              /         140000116
100
AcDbText
  0
ARC
  5
51
330
1E
100
AcDbEntity
  8
MO_001_VIEW_PV
  6
C_SOLID_M
100
AcDbCircle
 10
-102.0
 20
0.0
 30
0.0
 40
24.050003
100
AcDbArc
 50
291.8477299999999
 51
248.1522749999999
  0
LINE
  5
52
330
1E
100
AcDbEntity
  8
MO_001_VIEW_PV
  6
C_CENTER_L
100
AcDbLine
 10
-129.0499879999999
 20
0.0
 30
0.0
 11
-74.949997
 21
0.0
 31
0.0
  0
LINE
  5
53
330
1E
100
AcDbEntity
  8
MO_001_VIEW_PV
  6
C_CENTER_L
100
AcDbLine
 10
-102.0
 20
27.050003
 30
0.0
 11
-102.0
 21
-27.050003
 31
0.0
  0
ARC
  5
54
330
1E
100
AcDbEntity
  8
MO_001_VIEW_PV
  6
C_SOLID_M
100
AcDbCircle
 10
-109.9499969999999
 20
-22.698021
 30
0.0
 40
1.9
100
AcDbArc
 50
342.960988
 51
158.433314
  0
ARC
  5
55
330
1E
100
AcDbEntity
  8
MO_001_VIEW_PV
  6
C_SOLID_M
100
AcDbCircle
 10
-94.05000300000001
 20
-22.698021
 30
0.0
 40
1.9
100
AcDbArc
 50
21.566681
 51
197.039005
  0
LINE
  5
56
330
1E
100
AcDbEntity
  8
MO_001_VIEW_PV
  6
C_SOLID_M
100
AcDbLine
 10
-30.35
 20
-24.050003
 30
0.0
 11
-30.35
 21
24.050003
 31
0.0
  0
LINE
  5
57
330
1E
100
AcDbEntity
  8
MO_001_VIEW_PV
  6
C_SOLID_M
100
AcDbLine
 10
-46.049995
 20
24.050003
 30
0.0
 11
-30.35
 21
24.050003
 31
0.0
  0
LINE
  5
58
330
1E
100
AcDbEntity
  8
MO_001_VIEW_PV
  6
C_CENTER_L
100
AcDbLine
 10
-65.935478
 20
0.0
 30
0.0
 11
-9.709888000000001
 21
0.0
 31
0.0
  0
LINE
  5
59
330
1E
100
AcDbEntity
  8
MO_001_VIEW_PV
  6
C_SOLID_M
100
AcDbLine
 10
-50.24999199999999
 20
-19.850006
 30
0.0
 11
-50.24999199999999
 21
19.850006
 31
0.0
  0
ARC
  5
5A
330
1E
100
AcDbEntity
  8
MO_001_VIEW_PV
  6
C_SOLID_M
100
AcDbCircle
 10
-46.049995
 20
19.850006
 30
0.0
 40
4.2
100
AcDbArc
 50
89.99998199999998
 51
179.9999639999999
  0
LINE
  5
5B
330
1E
100
AcDbEntity
  8
MO_001_VIEW_PV
  6
C_SOLID_M
100
AcDbLine
 10
-30.35
 20
-24.050003
 30
0.0
 11
-46.049995
 21
-24.050003
 31
0.0
  0
ARC
  5
5C
330
1E
100
AcDbEntity
  8
MO_001_VIEW_PV
  6
C_SOLID_M
100
AcDbCircle
 10
-46.049995
 20
-19.850006
 30
0.0
 40
4.2
100
AcDbArc
 50
180.000036
 51
211.225721
  0
LINE
  5
5D
330
1E
100
AcDbEntity
  8
MO_001_VIEW_PV
  6
C_SOLID_M
100
AcDbLine
 10
-30.0
 20
-20.70002699999999
 30
0.0
 11
-30.0
 21
20.700012
 31
0.0
  0
LINE
  5
5E
330
1E
100
AcDbEntity
  8
MO_001_VIEW_PV
  6
C_SOLID_M
100
AcDbLine
 10
-30.350002
 20
21.050032
 30
0.0
 11
-30.000001
 21
20.700037
 31
0.0
  0
LINE
  5
5F
330
1E
100
AcDbEntity
  8
MO_001_VIEW_PV
  6
C_SOLID_M
100
AcDbLine
 10
-29.99999
 20
-20.700048
 30
0.0
 11
-30.350002
 21
-21.050054
 31
0.0
  0
LINE
  5
60
330
1E
100
AcDbEntity
  8
MO_001_VIEW_PV
  6
C_SOLID_M
100
AcDbLine
 10
-11.8
 20
14.59999899999999
 30
0.0
 11
-11.8
 21
17.19999899999999
 31
0.0
  0
LINE
  5
61
330
1E
100
AcDbEntity
  8
MO_001_VIEW_PV
  6
C_CENTER_L
100
AcDbLine
 10
-32.370346
 20
15.9
 30
0.0
 11
-10.71036
 21
15.9
 31
0.0
  0
LINE
  5
62
330
1E
100
AcDbEntity
  8
MO_001_VIEW_PV
  6
C_SOLID_M
100
AcDbLine
 10
-30.0
 20
17.9
 30
0.0
 11
-12.5
 21
17.9
 31
0.0
  0
LINE
  5
63
330
1E
100
AcDbEntity
  8
MO_001_VIEW_PV
  6
C_SOLID_M
100
AcDbLine
 10
-30.0
 20
13.9
 30
0.0
 11
-12.5
 21
13.9
 31
0.0
  0
LINE
  5
64
330
1E
100
AcDbEntity
  8
MO_001_VIEW_PV
  6
C_SOLID_L
100
AcDbLine
 10
-30.0
 20
17.19999899999999
 30
0.0
 11
-11.8
 21
17.19999899999999
 31
0.0
  0
LINE
  5
65
330
1E
100
AcDbEntity
  8
MO_001_VIEW_PV
  6
C_SOLID_L
100
AcDbLine
 10
-30.0
 20
14.59999899999999
 30
0.0
 11
-11.8
 21
14.59999899999999
 31
0.0
  0
LINE
  5
66
330
1E
100
AcDbEntity
  8
MO_001_VIEW_PV
  6
C_SOLID_M
100
AcDbLine
 10
-12.5
 20
13.9
 30
0.0
 11
-12.5
 21
17.9
 31
0.0
  0
LINE
  5
67
330
1E
100
AcDbEntity
  8
MO_001_VIEW_PV
  6
C_SOLID_M
100
AcDbLine
 10
-12.5
 20
17.89999899999999
 30
0.0
 11
-11.8
 21
17.199998
 31
0.0
  0
LINE
  5
68
330
1E
100
AcDbEntity
  8
MO_001_VIEW_PV
  6
C_SOLID_M
100
AcDbLine
 10
-11.799999
 20
14.59999899999999
 30
0.0
 11
-12.499999
 21
13.899999
 31
0.0
  0
LINE
  5
69
330
1E
100
AcDbEntity
  8
MO_001_VIEW_PV
  6
C_SOLID_M
100
AcDbLine
 10
-11.8
 20
-14.59999899999999
 30
0.0
 11
-11.8
 21
-17.19999899999999
 31
0.0
  0
LINE
  5
6A
330
1E
100
AcDbEntity
  8
MO_001_VIEW_PV
  6
C_CENTER_L
100
AcDbLine
 10
-31.419153
 20
-15.9
 30
0.0
 11
-10.510271
 21
-15.9
 31
0.0
  0
LINE
  5
6B
330
1E
100
AcDbEntity
  8
MO_001_VIEW_PV
  6
C_SOLID_M
100
AcDbLine
 10
-30.0
 20
-17.9
 30
0.0
 11
-12.5
 21
-17.9
 31
0.0
  0
LINE
  5
6C
330
1E
100
AcDbEntity
  8
MO_001_VIEW_PV
  6
C_SOLID_M
100
AcDbLine
 10
-30.0
 20
-13.9
 30
0.0
 11
-12.5
 21
-13.9
 31
0.0
  0
LINE
  5
6D
330
1E
100
AcDbEntity
  8
MO_001_VIEW_PV
  6
C_SOLID_L
100
AcDbLine
 10
-30.0
 20
-17.19999899999999
 30
0.0
 11
-11.8
 21
-17.19999899999999
 31
0.0
  0
LINE
  5
6E
330
1E
100
AcDbEntity
  8
MO_001_VIEW_PV
  6
C_SOLID_L
100
AcDbLine
 10
-30.0
 20
-14.59999899999999
 30
0.0
 11
-11.8
 21
-14.59999899999999
 31
0.0
  0
LINE
  5
6F
330
1E
100
AcDbEntity
  8
MO_001_VIEW_PV
  6
C_SOLID_M
100
AcDbLine
 10
-12.5
 20
-13.9
 30
0.0
 11
-12.5
 21
-17.9
 31
0.0
  0
LINE
  5
70
330
1E
100
AcDbEntity
  8
MO_001_VIEW_PV
  6
C_SOLID_M
100
AcDbLine
 10
-12.5
 20
-17.89999899999999
 30
0.0
 11
-11.8
 21
-17.199998
 31
0.0
  0
LINE
  5
71
330
1E
100
AcDbEntity
  8
MO_001_VIEW_PV
  6
C_SOLID_M
100
AcDbLine
 10
-11.799999
 20
-14.59999899999999
 30
0.0
 11
-12.5
 21
-13.899998
 31
0.0
  0
LINE
  5
72
330
1E
100
AcDbEntity
  8
MO_001_VIEW_PV
  6
C_SOLID_M
100
AcDbLine
 10
-50.399994
 20
-20.650001
 30
0.0
 11
-50.399994
 21
20.650002
 31
0.0
  0
LINE
  5
73
330
1E
100
AcDbEntity
  8
MO_001_VIEW_PV
  6
C_SOLID_M
100
AcDbLine
 10
-52.399994
 20
-20.650001
 30
0.0
 11
-52.399994
 21
20.650002
 31
0.0
  0
LINE
  5
74
330
1E
100
AcDbEntity
  8
MO_001_VIEW_PV
  6
C_SOLID_M
100
AcDbLine
 10
-52.39999799999999
 20
20.650002
 30
0.0
 11
-50.399994
 21
20.650002
 31
0.0
  0
LINE
  5
75
330
1E
100
AcDbEntity
  8
MO_001_VIEW_PV
  6
C_SOLID_M
100
AcDbLine
 10
-52.399994
 20
-20.650001
 30
0.0
 11
-50.399994
 21
-20.650001
 31
0.0
  0
LINE
  5
76
330
1E
100
AcDbEntity
  8
MO_001_VIEW_PV
  6
C_SOLID_M
100
AcDbLine
 10
-53.299988
 20
-9.075001
 30
0.0
 11
-53.299988
 21
9.074997999999999
 31
0.0
  0
LINE
  5
77
330
1E
100
AcDbEntity
  8
MO_001_VIEW_PV
  6
C_SOLID_M
100
AcDbLine
 10
-53.299988
 20
9.074997999999999
 30
0.0
 11
-52.399994
 21
9.074997999999999
 31
0.0
  0
LINE
  5
78
330
1E
100
AcDbEntity
  8
MO_001_VIEW_PV
  6
C_SOLID_M
100
AcDbLine
 10
-53.299988
 20
-9.075001999999999
 30
0.0
 11
-52.399994
 21
-9.075001999999999
 31
0.0
  0
LINE
  5
79
330
1E
100
AcDbEntity
  8
MO_001_VIEW_PV
  6
C_SOLID_M
100
AcDbLine
 10
-50.399994
 20
10.99999799999999
 30
0.0
 11
-50.24999199999999
 21
10.99999799999999
 31
0.0
  0
LINE
  5
7A
330
1E
100
AcDbEntity
  8
MO_001_VIEW_PV
  6
C_SOLID_M
100
AcDbLine
 10
-50.399994
 20
-11.00000199999999
 30
0.0
 11
-50.24999600000001
 21
-11.00000199999999
 31
0.0
  0
LINE
  5
7B
330
1E
100
AcDbEntity
  8
MO_001_VIEW_PV
  6
C_SOLID_M
100
AcDbLine
 10
-64.099991
 20
3.174999999999999
 30
0.0
 11
-53.29999100000001
 21
3.174999
 31
0.0
  0
LINE
  5
7C
330
1E
100
AcDbEntity
  8
MO_001_VIEW_PV
  6
C_SOLID_M
100
AcDbLine
 10
-64.499992
 20
3.029411999999999
 30
0.0
 11
-64.499992
 21
-3.029412999999999
 31
0.0
  0
LINE
  5
7D
330
1E
100
AcDbEntity
  8
MO_001_VIEW_PV
  6
C_SOLID_M
100
AcDbLine
 10
-10.899996
 20
2.875004
 30
0.0
 11
-10.899996
 21
-2.875011
 31
0.0
  0
LINE
  5
7E
330
1E
100
AcDbEntity
  8
MO_001_VIEW_PV
  6
C_SOLID_M
100
AcDbLine
 10
-11.19999799999999
 20
3.175002999999999
 30
0.0
 11
-10.899997
 21
2.875005999999999
 31
0.0
  0
LINE
  5
7F
330
1E
100
AcDbEntity
  8
MO_001_VIEW_PV
  6
C_SOLID_M
100
AcDbLine
 10
-64.09998900000001
 20
3.174999
 30
0.0
 11
-64.499989
 21
3.029411999999999
 31
0.0
  0
LINE
  5
80
330
1E
100
AcDbEntity
  8
MO_001_VIEW_PV
  6
C_SOLID_M
100
AcDbLine
 10
-30.0
 20
3.174999
 30
0.0
 11
-11.199999
 21
3.174999
 31
0.0
  0
LINE
  5
81
330
1E
100
AcDbEntity
  8
MO_001_VIEW_PV
  6
C_SOLID_M
100
AcDbLine
 10
-53.299992
 20
-3.175000999999999
 30
0.0
 11
-64.099991
 21
-3.175000999999999
 31
0.0
  0
LINE
  5
82
330
1E
100
AcDbEntity
  8
MO_001_VIEW_PV
  6
C_SOLID_M
100
AcDbLine
 10
-10.899997
 20
-2.875005999999999
 30
0.0
 11
-11.19999799999999
 21
-3.175002999999999
 31
0.0
  0
LINE
  5
83
330
1E
100
AcDbEntity
  8
MO_001_VIEW_PV
  6
C_SOLID_M
100
AcDbLine
 10
-64.499989
 20
-3.029411999999999
 30
0.0
 11
-64.09998900000001
 21
-3.174999
 31
0.0
  0
LINE
  5
84
330
1E
100
AcDbEntity
  8
MO_001_VIEW_PV
  6
C_SOLID_M
100
AcDbLine
 10
-11.199999
 20
-3.175000999999999
 30
0.0
 11
-30.0
 21
-3.175000999999999
 31
0.0
  0
LINE
  5
85
330
1E
100
AcDbEntity
  8
MO_001_VIEW_PV
  6
C_SOLID_M
100
AcDbLine
 10
-64.099991
 20
3.174999999999999
 30
0.0
 11
-64.099991
 21
-3.174999999999999
 31
0.0
  0
LINE
  5
86
330
1E
100
AcDbEntity
  8
MO_001_VIEW_PV
  6
C_SOLID_M
100
AcDbLine
 10
-11.199999
 20
3.174999
 30
0.0
 11
-11.199999
 21
-3.175000999999999
 31
0.0
  0
CIRCLE
  5
87
330
1E
100
AcDbEntity
  8
MO_001_VIEW_PV
  6
C_SOLID_M
100
AcDbCircle
 10
-102.0
 20
0.0
 30
0.0
 40
20.650002
  0
ARC
  5
88
330
1E
100
AcDbEntity
  8
MO_001_VIEW_PV
  6
C_SOLID_M
100
AcDbCircle
 10
-102.0
 20
0.0
 30
0.0
 40
9.074997999999999
100
AcDbArc
 50
10.177418
 51
49.822583
  0
CIRCLE
  5
89
330
1E
100
AcDbEntity
  8
MO_001_VIEW_PV
  6
C_SOLID_M
100
AcDbCircle
 10
-102.0
 20
0.0
 30
0.0
 40
3.175002
  0
CIRCLE
  5
8A
330
1E
100
AcDbEntity
  8
MO_001_VIEW_PV
  6
C_SOLID_M
100
AcDbCircle
 10
-102.0
 20
0.0
 30
0.0
 40
3.029411999999999
  0
ARC
  5
8B
330
1E
100
AcDbEntity
  8
MO_001_VIEW_PV
  6
C_SOLID_M
100
AcDbCircle
 10
-94.50000000000001
 20
0.0
 30
0.0
 40
2.149999999999999
100
AcDbArc
 50
311.770023
 51
48.229991
  0
ARC
  5
8C
330
1E
100
AcDbEntity
  8
MO_001_VIEW_PV
  6
C_SOLID_M
100
AcDbCircle
 10
-91.5
 20
0.0
 30
0.0
 40
2.799999999999999
100
AcDbArc
 50
127.4254159999999
 51
232.5745799999999
  0
ARC
  5
8D
330
1E
100
AcDbEntity
  8
MO_001_VIEW_PV
  6
C_SOLID_M
100
AcDbCircle
 10
-96.75
 20
9.093265999999999
 30
0.0
 40
2.799999999999999
100
AcDbArc
 50
187.425422
 51
292.5745649999999
  0
ARC
  5
8E
330
1E
100
AcDbEntity
  8
MO_001_VIEW_PV
  6
C_SOLID_M
100
AcDbCircle
 10
-98.25000000000001
 20
6.495191
 30
0.0
 40
2.149999999999999
100
AcDbArc
 50
11.770023
 51
108.2299889999999
  0
ARC
  5
8F
330
1E
100
AcDbEntity
  8
MO_001_VIEW_PV
  6
C_SOLID_M
100
AcDbCircle
 10
-107.25
 20
9.093265999999999
 30
0.0
 40
2.799999999999999
100
AcDbArc
 50
247.425423
 51
352.574565
  0
ARC
  5
90
330
1E
100
AcDbEntity
  8
MO_001_VIEW_PV
  6
C_SOLID_M
100
AcDbCircle
 10
-105.75
 20
6.495191
 30
0.0
 40
2.149999999999999
100
AcDbArc
 50
71.77002299999999
 51
168.2299909999999
  0
ARC
  5
91
330
1E
100
AcDbEntity
  8
MO_001_VIEW_PV
  6
C_SOLID_M
100
AcDbCircle
 10
-112.5
 20
0.0
 30
0.0
 40
2.799999999999999
100
AcDbArc
 50
307.425425
 51
52.57456499999999
  0
ARC
  5
92
330
1E
100
AcDbEntity
  8
MO_001_VIEW_PV
  6
C_SOLID_M
100
AcDbCircle
 10
-109.4999999999999
 20
0.0
 30
0.0
 40
2.149999999999999
100
AcDbArc
 50
131.7700179999999
 51
228.2299919999999
  0
ARC
  5
93
330
1E
100
AcDbEntity
  8
MO_001_VIEW_PV
  6
C_SOLID_M
100
AcDbCircle
 10
-107.25
 20
-9.093265999999999
 30
0.0
 40
2.799999999999999
100
AcDbArc
 50
7.425425
 51
112.5745629999999
  0
ARC
  5
94
330
1E
100
AcDbEntity
  8
MO_001_VIEW_PV
  6
C_SOLID_M
100
AcDbCircle
 10
-105.75
 20
-6.495191
 30
0.0
 40
2.149999999999999
100
AcDbArc
 50
191.770023
 51
288.229991
  0
ARC
  5
95
330
1E
100
AcDbEntity
  8
MO_001_VIEW_PV
  6
C_SOLID_M
100
AcDbCircle
 10
-96.75
 20
-9.093265999999999
 30
0.0
 40
2.799999999999999
100
AcDbArc
 50
67.42542799999999
 51
172.5745649999999
  0
ARC
  5
96
330
1E
100
AcDbEntity
  8
MO_001_VIEW_PV
  6
C_SOLID_M
100
AcDbCircle
 10
-98.25000000000001
 20
-6.495191
 30
0.0
 40
2.149999999999999
100
AcDbArc
 50
251.7700249999999
 51
348.229991
  0
ARC
  5
97
330
1E
100
AcDbEntity
  8
MO_001_VIEW_PV
  6
C_SOLID_M
100
AcDbCircle
 10
-102.0
 20
0.0
 30
0.0
 40
9.074997999999999
100
AcDbArc
 50
190.177414
 51
229.822591
  0
ARC
  5
98
330
1E
100
AcDbEntity
  8
MO_001_VIEW_PV
  6
C_SOLID_M
100
AcDbCircle
 10
-102.0
 20
0.0
 30
0.0
 40
9.074997999999999
100
AcDbArc
 50
130.177422
 51
169.8225859999999
  0
ARC
  5
99
330
1E
100
AcDbEntity
  8
MO_001_VIEW_PV
  6
C_SOLID_M
100
AcDbCircle
 10
-102.0
 20
0.0
 30
0.0
 40
9.074997999999999
100
AcDbArc
 50
70.17742099999999
 51
109.822584
  0
ARC
  5
9A
330
1E
100
AcDbEntity
  8
MO_001_VIEW_PV
  6
C_SOLID_M
100
AcDbCircle
 10
-102.0
 20
0.0
 30
0.0
 40
9.074997999999999
100
AcDbArc
 50
250.177416
 51
289.822579
  0
ARC
  5
9B
330
1E
100
AcDbEntity
  8
MO_001_VIEW_PV
  6
C_SOLID_M
100
AcDbCircle
 10
-102.0
 20
0.0
 30
0.0
 40
9.074997999999999
100
AcDbArc
 50
310.177417
 51
349.822582
  0
LINE
  5
9C
330
1E
100
AcDbEntity
  8
MO_001_VIEW_PV
  6
C_SOLID_M
100
AcDbLine
 10
-52.899986
 20
-1.603523
 30
0.0
 11
-52.399994
 21
-1.603523
 31
0.0
  0
LINE
  5
9D
330
1E
100
AcDbEntity
  8
MO_001_VIEW_PV
  6
C_SOLID_M
100
AcDbLine
 10
-53.299988
 20
-2.223606
 30
0.0
 11
-52.899986
 21
-2.223606
 31
0.0
  0
LINE
  5
9E
330
1E
100
AcDbEntity
  8
MO_001_VIEW_PV
  6
C_SOLID_M
100
AcDbLine
 10
-52.899986
 20
1.603523
 30
0.0
 11
-52.399994
 21
1.603523
 31
0.0
  0
LINE
  5
9F
330
1E
100
AcDbEntity
  8
MO_001_VIEW_PV
  6
C_SOLID_M
100
AcDbLine
 10
-53.299988
 20
2.223606
 30
0.0
 11
-52.899986
 21
2.223606
 31
0.0
  0
LINE
  5
A0
330
1E
100
AcDbEntity
  8
MO_001_VIEW_PV
  6
C_SOLID_M
100
AcDbLine
 10
-53.299988
 20
6.507801
 30
0.0
 11
-52.899986
 21
6.507801
 31
0.0
  0
LINE
  5
A1
330
1E
100
AcDbEntity
  8
MO_001_VIEW_PV
  6
C_SOLID_M
100
AcDbLine
 10
-52.899986
 20
6.933755999999999
 30
0.0
 11
-52.399994
 21
6.933755999999999
 31
0.0
  0
LINE
  5
A2
330
1E
100
AcDbEntity
  8
MO_001_VIEW_PV
  6
C_SOLID_M
100
AcDbLine
 10
-52.899986
 20
8.645191
 30
0.0
 11
-52.399994
 21
8.645191
 31
0.0
  0
LINE
  5
A3
330
1E
100
AcDbEntity
  8
MO_001_VIEW_PV
  6
C_SOLID_M
100
AcDbLine
 10
-53.299988
 20
8.731407
 30
0.0
 11
-52.899986
 21
8.731407
 31
0.0
  0
LINE
  5
A4
330
1E
100
AcDbEntity
  8
MO_001_VIEW_PV
  6
C_SOLID_M
100
AcDbLine
 10
-52.89999
 20
-2.223606
 30
0.0
 11
-52.89999
 21
2.223606
 31
0.0
  0
LINE
  5
A5
330
1E
100
AcDbEntity
  8
MO_001_VIEW_PV
  6
C_SOLID_M
100
AcDbLine
 10
-52.899986
 20
8.731407
 30
0.0
 11
-52.899986
 21
6.507801
 31
0.0
  0
LINE
  5
A6
330
1E
100
AcDbEntity
  8
MO_001_VIEW_PV
  6
C_SOLID_M
100
AcDbLine
 10
-53.299988
 20
-6.507801
 30
0.0
 11
-52.899986
 21
-6.507801
 31
0.0
  0
LINE
  5
A7
330
1E
100
AcDbEntity
  8
MO_001_VIEW_PV
  6
C_SOLID_M
100
AcDbLine
 10
-52.899986
 20
-6.933755999999999
 30
0.0
 11
-52.399994
 21
-6.933755999999999
 31
0.0
  0
LINE
  5
A8
330
1E
100
AcDbEntity
  8
MO_001_VIEW_PV
  6
C_SOLID_M
100
AcDbLine
 10
-52.899986
 20
-8.645191
 30
0.0
 11
-52.399994
 21
-8.645191
 31
0.0
  0
LINE
  5
A9
330
1E
100
AcDbEntity
  8
MO_001_VIEW_PV
  6
C_SOLID_M
100
AcDbLine
 10
-53.299988
 20
-8.731407
 30
0.0
 11
-52.899986
 21
-8.731407
 31
0.0
  0
LINE
  5
AA
330
1E
100
AcDbEntity
  8
MO_001_VIEW_PV
  6
C_SOLID_M
100
AcDbLine
 10
-52.899986
 20
-8.731407
 30
0.0
 11
-52.899986
 21
-6.507801
 31
0.0
  0
ARC
  5
AB
330
1E
100
AcDbEntity
  8
MO_001_VIEW_PV
  6
C_SOLID_M
100
AcDbCircle
 10
-51.347172
 20
-25.14715799999999
 30
0.0
 40
4.2
100
AcDbArc
 50
18.103307
 51
71.89644300000002
  0
LINE
  5
AC
330
1E
100
AcDbEntity
  8
MO_001_VIEW_PV
  6
C_SOLID_M
100
AcDbLine
 10
-50.399994
 20
11.0
 30
0.0
 11
-50.24999199999999
 21
11.0
 31
0.0
  0
LINE
  5
AD
330
1E
100
AcDbEntity
  8
MO_001_VIEW_PV
  6
C_SOLID_M
100
AcDbLine
 10
-50.399994
 20
-11.0
 30
0.0
 11
-50.24999199999999
 21
-11.0
 31
0.0
  0
CIRCLE
  5
AE
330
1E
100
AcDbEntity
  8
MO_001_VIEW_PV
  6
C_SOLID_M
100
AcDbCircle
 10
39.0
 20
0.0
 30
0.0
 40
24.050003
  0
LINE
  5
AF
330
1E
100
AcDbEntity
  8
MO_001_VIEW_PV
  6
C_CENTER_L
100
AcDbLine
 10
11.949997
 20
0.0
 30
0.0
 11
66.050003
 21
0.0
 31
0.0
  0
LINE
  5
B0
330
1E
100
AcDbEntity
  8
MO_001_VIEW_PV
  6
C_CENTER_L
100
AcDbLine
 10
39.0
 20
27.050003
 30
0.0
 11
39.0
 21
-27.050003
 31
0.0
  0
CIRCLE
  5
B1
330
1E
100
AcDbEntity
  8
MO_001_VIEW_PV
  6
C_SOLID_M
100
AcDbCircle
 10
39.0
 20
0.0
 30
0.0
 40
21.100006
  0
CIRCLE
  5
B2
330
1E
100
AcDbEntity
  8
MO_001_VIEW_PV
  6
C_SOLID_M
100
AcDbCircle
 10
39.0
 20
0.0
 30
0.0
 40
20.700012
  0
CIRCLE
  5
B3
330
1E
100
AcDbEntity
  8
MO_001_VIEW_PV
  6
C_SOLID_M
100
AcDbCircle
 10
39.0
 20
0.0
 30
0.0
 40
3.95
  0
CIRCLE
  5
B4
330
1E
100
AcDbEntity
  8
MO_001_VIEW_PV
  6
C_SOLID_M
100
AcDbCircle
 10
39.0
 20
15.9
 30
0.0
 40
3.7
  0
CIRCLE
  5
B5
330
1E
100
AcDbEntity
  8
MO_001_VIEW_PV
  6
C_SOLID_M
100
AcDbCircle
 10
39.0
 20
15.9
 30
0.0
 40
2.0
  0
CIRCLE
  5
B6
330
1E
100
AcDbEntity
  8
MO_001_VIEW_PV
  6
C_SOLID_M
100
AcDbCircle
 10
39.0
 20
15.9
 30
0.0
 40
1.400003
  0
LINE
  5
B7
330
1E
100
AcDbEntity
  8
MO_001_VIEW_PV
  6
C_CENTER_L
100
AcDbLine
 10
33.85034199999999
 20
15.9
 30
0.0
 11
44.243896
 21
15.9
 31
0.0
  0
CIRCLE
  5
B8
330
1E
100
AcDbEntity
  8
MO_001_VIEW_PV
  6
C_SOLID_M
100
AcDbCircle
 10
39.0
 20
-15.9
 30
0.0
 40
3.7
  0
CIRCLE
  5
B9
330
1E
100
AcDbEntity
  8
MO_001_VIEW_PV
  6
C_SOLID_M
100
AcDbCircle
 10
39.0
 20
-15.9
 30
0.0
 40
2.0
  0
CIRCLE
  5
BA
330
1E
100
AcDbEntity
  8
MO_001_VIEW_PV
  6
C_SOLID_M
100
AcDbCircle
 10
39.0
 20
-15.9
 30
0.0
 40
1.400003
  0
LINE
  5
BB
330
1E
100
AcDbEntity
  8
MO_001_VIEW_PV
  6
C_CENTER_L
100
AcDbLine
 10
44.243896
 20
-15.9
 30
0.0
 11
33.85034199999999
 21
-15.9
 31
0.0
  0
CIRCLE
  5
BC
330
1E
100
AcDbEntity
  8
MO_001_VIEW_PV
  6
C_SOLID_M
100
AcDbCircle
 10
39.0
 20
0.0
 30
0.0
 40
3.174999
  0
CIRCLE
  5
BD
330
1E
100
AcDbEntity
  8
MO_001_VIEW_PV
  6
C_SOLID_M
100
AcDbCircle
 10
39.0
 20
0.0
 30
0.0
 40
2.875004
  0
LINE
  5
BE
330
1E
100
AcDbEntity
  8
MO_001_VIEW_PV
  6
C_SOLID_M
100
AcDbLine
 10
-56.053387
 20
-28.43917199999999
 30
0.0
 11
-49.169829
 21
-21.555614
 31
0.0
  0
LINE
  5
BF
330
1E
100
AcDbEntity
  8
MO_001_VIEW_PV
  6
C_SOLID_M
100
AcDbLine
 10
-54.639173
 20
-29.853385
 30
0.0
 11
-47.755618
 21
-22.96982999999999
 31
0.0
  0
LINE
  5
C0
330
1E
100
AcDbEntity
  8
MO_001_VIEW_PV
  6
C_SOLID_M
100
AcDbLine
 10
-54.639173
 20
-29.853385
 30
0.0
 11
-56.053387
 21
-28.43917199999999
 31
0.0
  0
LINE
  5
C1
330
1E
100
AcDbEntity
  8
MO_001_VIEW_PV
  6
C_SOLID_M
100
AcDbLine
 10
-95.050003
 20
-32.16187999999999
 30
0.0
 11
-95.050003
 21
-21.082472
 31
0.0
  0
LINE
  5
C2
330
1E
100
AcDbEntity
  8
MO_001_VIEW_PV
  6
C_SOLID_M
100
AcDbLine
 10
-93.05000300000001
 20
-32.16187999999999
 30
0.0
 11
-93.05000300000001
 21
-21.082472
 31
0.0
  0
LINE
  5
C3
330
1E
100
AcDbEntity
  8
MO_001_VIEW_PV
  6
C_SOLID_M
100
AcDbLine
 10
-93.05000300000001
 20
-32.16187999999999
 30
0.0
 11
-95.050003
 21
-32.16187999999999
 31
0.0
  0
LINE
  5
C4
330
1E
100
AcDbEntity
  8
MO_001_VIEW_PV
  6
C_SOLID_M
100
AcDbLine
 10
-110.7499999999999
 20
-37.16187999999999
 30
0.0
 11
-110.7499999999999
 21
-32.16187999999999
 31
0.0
  0
LINE
  5
C5
330
1E
100
AcDbEntity
  8
MO_001_VIEW_PV
  6
C_SOLID_M
100
AcDbLine
 10
-109.150009
 20
-37.16187999999999
 30
0.0
 11
-109.150009
 21
-32.16187999999999
 31
0.0
  0
LINE
  5
C6
330
1E
100
AcDbEntity
  8
MO_001_VIEW_PV
  6
C_SOLID_M
100
AcDbLine
 10
-108.949997
 20
-32.16187999999999
 30
0.0
 11
-108.949997
 21
-21.082472
 31
0.0
  0
LINE
  5
C7
330
1E
100
AcDbEntity
  8
MO_001_VIEW_PV
  6
C_SOLID_M
100
AcDbLine
 10
-110.9499969999999
 20
-32.16187999999999
 30
0.0
 11
-110.9499969999999
 21
-21.082472
 31
0.0
  0
LINE
  5
C8
330
1E
100
AcDbEntity
  8
MO_001_VIEW_PV
  6
C_SOLID_M
100
AcDbLine
 10
-110.9499969999999
 20
-32.16187999999999
 30
0.0
 11
-108.949997
 21
-32.16187999999999
 31
0.0
  0
LINE
  5
C9
330
1E
100
AcDbEntity
  8
MO_001_VIEW_PV
  6
C_SOLID_M
100
AcDbLine
 10
-109.150009
 20
-41.66188
 30
0.0
 11
-109.150009
 21
-38.16188
 31
0.0
  0
LINE
  5
CA
330
1E
100
AcDbEntity
  8
MO_001_VIEW_PV
  6
C_SOLID_M
100
AcDbLine
 10
-110.7499999999999
 20
-41.66188
 30
0.0
 11
-110.7499999999999
 21
-38.16188
 31
0.0
  0
LINE
  5
CB
330
1E
100
AcDbEntity
  8
MO_001_VIEW_PV
  6
C_SOLID_M
100
AcDbLine
 10
-110.7499999999999
 20
-41.66188
 30
0.0
 11
-109.150009
 21
-41.66188
 31
0.0
  0
LINE
  5
CC
330
1E
100
AcDbEntity
  8
MO_001_VIEW_PV
  6
C_SOLID_M
100
AcDbLine
 10
-109.6760249999999
 20
-41.66188
 30
0.0
 11
-109.6760249999999
 21
-46.66188
 31
0.0
  0
LINE
  5
CD
330
1E
100
AcDbEntity
  8
MO_001_VIEW_PV
  6
C_SOLID_M
100
AcDbLine
 10
-110.2239839999999
 20
-41.66188
 30
0.0
 11
-110.2239839999999
 21
-46.66188
 31
0.0
  0
LINE
  5
CE
330
1E
100
AcDbEntity
  8
MO_001_VIEW_PV
  6
C_SOLID_M
100
AcDbLine
 10
-110.2239839999999
 20
-46.66188
 30
0.0
 11
-109.6760249999999
 21
-46.66188
 31
0.0
  0
ARC
  5
CF
330
1E
100
AcDbEntity
  8
MO_001_VIEW_PV
  6
C_SOLID_M
100
AcDbCircle
 10
-110.350006
 20
-37.461876
 30
0.0
 40
0.499994
100
AcDbArc
 50
36.869634
 51
143.1303709999999
  0
ARC
  5
D0
330
1E
100
AcDbEntity
  8
MO_001_VIEW_PV
  6
C_SOLID_M
100
AcDbCircle
 10
-110.350006
 20
-36.861885
 30
0.0
 40
0.499994
100
AcDbArc
 50
216.869629
 51
323.1303759999999
  0
ARC
  5
D1
330
1E
100
AcDbEntity
  8
MO_001_VIEW_PV
  6
C_SOLID_M
100
AcDbCircle
 10
-109.5500029999999
 20
-36.861885
 30
0.0
 40
0.499994
100
AcDbArc
 50
216.869629
 51
323.1303689999999
  0
ARC
  5
D2
330
1E
100
AcDbEntity
  8
MO_001_VIEW_PV
  6
C_SOLID_M
100
AcDbCircle
 10
-109.5500029999999
 20
-37.861885
 30
0.0
 40
0.499994
100
AcDbArc
 50
216.869643
 51
323.1303759999999
  0
ARC
  5
D3
330
1E
100
AcDbEntity
  8
MO_001_VIEW_PV
  6
C_SOLID_M
100
AcDbCircle
 10
-109.5500029999999
 20
-38.461876
 30
0.0
 40
0.499994
100
AcDbArc
 50
36.86963099999999
 51
143.1303709999999
  0
ARC
  5
D4
330
1E
100
AcDbEntity
  8
MO_001_VIEW_PV
  6
C_SOLID_M
100
AcDbCircle
 10
-110.350006
 20
-38.461876
 30
0.0
 40
0.499994
100
AcDbArc
 50
36.86963099999999
 51
143.1303709999999
  0
LINE
  5
D5
330
1E
100
AcDbEntity
  8
MO_001_VIEW_PV
  6
C_SOLID_M
100
AcDbLine
 10
-94.85000600000001
 20
-37.16187999999999
 30
0.0
 11
-94.85000600000001
 21
-32.16187999999999
 31
0.0
  0
LINE
  5
D6
330
1E
100
AcDbEntity
  8
MO_001_VIEW_PV
  6
C_SOLID_M
100
AcDbLine
 10
-93.250015
 20
-37.16187999999999
 30
0.0
 11
-93.250015
 21
-32.16187999999999
 31
0.0
  0
LINE
  5
D7
330
1E
100
AcDbEntity
  8
MO_001_VIEW_PV
  6
C_SOLID_M
100
AcDbLine
 10
-93.250015
 20
-41.66188
 30
0.0
 11
-93.250015
 21
-38.16188
 31
0.0
  0
LINE
  5
D8
330
1E
100
AcDbEntity
  8
MO_001_VIEW_PV
  6
C_SOLID_M
100
AcDbLine
 10
-94.85000600000001
 20
-41.66188
 30
0.0
 11
-94.85000600000001
 21
-38.16188
 31
0.0
  0
LINE
  5
D9
330
1E
100
AcDbEntity
  8
MO_001_VIEW_PV
  6
C_SOLID_M
100
AcDbLine
 10
-94.85000600000001
 20
-41.66188
 30
0.0
 11
-93.250015
 21
-41.66188
 31
0.0
  0
LINE
  5
DA
330
1E
100
AcDbEntity
  8
MO_001_VIEW_PV
  6
C_SOLID_M
100
AcDbLine
 10
-93.77603099999999
 20
-41.66188
 30
0.0
 11
-93.77603099999999
 21
-46.66188
 31
0.0
  0
LINE
  5
DB
330
1E
100
AcDbEntity
  8
MO_001_VIEW_PV
  6
C_SOLID_M
100
AcDbLine
 10
-94.32399000000001
 20
-41.66188
 30
0.0
 11
-94.32399000000001
 21
-46.66188
 31
0.0
  0
LINE
  5
DC
330
1E
100
AcDbEntity
  8
MO_001_VIEW_PV
  6
C_SOLID_M
100
AcDbLine
 10
-94.32399000000001
 20
-46.66188
 30
0.0
 11
-93.77603099999999
 21
-46.66188
 31
0.0
  0
ARC
  5
DD
330
1E
100
AcDbEntity
  8
MO_001_VIEW_PV
  6
C_SOLID_M
100
AcDbCircle
 10
-94.450012
 20
-37.461876
 30
0.0
 40
0.499994
100
AcDbArc
 50
36.869634
 51
143.1303709999999
  0
ARC
  5
DE
330
1E
100
AcDbEntity
  8
MO_001_VIEW_PV
  6
C_SOLID_M
100
AcDbCircle
 10
-94.450012
 20
-36.861885
 30
0.0
 40
0.499994
100
AcDbArc
 50
216.869629
 51
323.1303759999999
  0
ARC
  5
DF
330
1E
100
AcDbEntity
  8
MO_001_VIEW_PV
  6
C_SOLID_M
100
AcDbCircle
 10
-93.650009
 20
-36.861885
 30
0.0
 40
0.499994
100
AcDbArc
 50
216.869629
 51
323.1303689999999
  0
ARC
  5
E0
330
1E
100
AcDbEntity
  8
MO_001_VIEW_PV
  6
C_SOLID_M
100
AcDbCircle
 10
-93.650009
 20
-37.861885
 30
0.0
 40
0.499994
100
AcDbArc
 50
216.869643
 51
323.1303759999999
  0
ARC
  5
E1
330
1E
100
AcDbEntity
  8
MO_001_VIEW_PV
  6
C_SOLID_M
100
AcDbCircle
 10
-93.650009
 20
-38.461876
 30
0.0
 40
0.499994
100
AcDbArc
 50
36.86963099999999
 51
143.1303709999999
  0
ARC
  5
E2
330
1E
100
AcDbEntity
  8
MO_001_VIEW_PV
  6
C_SOLID_M
100
AcDbCircle
 10
-94.450012
 20
-38.461876
 30
0.0
 40
0.499994
100
AcDbArc
 50
36.86963099999999
 51
143.1303709999999
  0
LINE
  5
E3
330
1E
100
AcDbEntity
  8
MO_001_VIEW_PV
  6
C_SOLID_M
100
AcDbLine
 10
-59.447502
 20
-32.11612499999999
 30
0.0
 11
-55.911968
 21
-28.580591
 31
0.0
  0
LINE
  5
E4
330
1E
100
AcDbEntity
  8
MO_001_VIEW_PV
  6
C_SOLID_M
100
AcDbLine
 10
-58.31613199999999
 20
-33.247494
 30
0.0
 11
-54.780598
 21
-29.711961
 31
0.0
  0
ARC
  5
E5
330
1E
100
AcDbEntity
  8
MO_001_VIEW_PV
  6
C_SOLID_M
100
AcDbCircle
 10
-59.376785
 20
-32.61109899999999
 30
0.0
 40
0.499994
100
AcDbArc
 50
351.869635
 51
98.13037299999999
  0
ARC
  5
E6
330
1E
100
AcDbEntity
  8
MO_001_VIEW_PV
  6
C_SOLID_M
100
AcDbCircle
 10
-58.95253
 20
-32.186844
 30
0.0
 40
0.499994
100
AcDbArc
 50
171.869621
 51
278.130385
  0
ARC
  5
E7
330
1E
100
AcDbEntity
  8
MO_001_VIEW_PV
  6
C_SOLID_M
100
AcDbCircle
 10
-58.386848
 20
-32.752518
 30
0.0
 40
0.499994
100
AcDbArc
 50
171.869621
 51
278.1303569999999
  0
ARC
  5
E8
330
1E
100
AcDbEntity
  8
MO_001_VIEW_PV
  6
C_SOLID_M
100
AcDbCircle
 10
-46.049995
 20
-19.850006
 30
0.0
 40
4.2
100
AcDbArc
 50
238.774019
 51
270.0000249999999
  0
ARC
  5
E9
330
1E
100
AcDbEntity
  8
MO_001_VIEW_PV
  6
C_SOLID_M
100
AcDbCircle
 10
-102.0
 20
0.0
 30
0.0
 40
24.050003
100
AcDbArc
 50
253.203032
 51
286.7969689999999
  0
LINE
  5
EA
330
1E
100
AcDbEntity
  8
MO_001_VIEW_PV
  6
C_SOLID_M
100
AcDbLine
 10
45.94999699999999
 20
-32.16187999999999
 30
0.0
 11
45.94999699999999
 21
-23.023905
 31
0.0
  0
LINE
  5
EB
330
1E
100
AcDbEntity
  8
MO_001_VIEW_PV
  6
C_SOLID_M
100
AcDbLine
 10
47.94999699999999
 20
-32.16187999999999
 30
0.0
 11
47.94999699999999
 21
-22.322639
 31
0.0
  0
LINE
  5
EC
330
1E
100
AcDbEntity
  8
MO_001_VIEW_PV
  6
C_SOLID_M
100
AcDbLine
 10
47.94999699999999
 20
-32.16187999999999
 30
0.0
 11
45.94999699999999
 21
-32.16187999999999
 31
0.0
  0
LINE
  5
ED
330
1E
100
AcDbEntity
  8
MO_001_VIEW_PV
  6
C_SOLID_M
100
AcDbLine
 10
30.25
 20
-37.16187999999999
 30
0.0
 11
30.25
 21
-32.16187999999999
 31
0.0
  0
LINE
  5
EE
330
1E
100
AcDbEntity
  8
MO_001_VIEW_PV
  6
C_SOLID_M
100
AcDbLine
 10
31.84999099999999
 20
-37.16187999999999
 30
0.0
 11
31.84999099999999
 21
-32.16187999999999
 31
0.0
  0
LINE
  5
EF
330
1E
100
AcDbEntity
  8
MO_001_VIEW_PV
  6
C_SOLID_M
100
AcDbLine
 10
32.050003
 20
-32.16187999999999
 30
0.0
 11
32.050003
 21
-23.023905
 31
0.0
  0
LINE
  5
F0
330
1E
100
AcDbEntity
  8
MO_001_VIEW_PV
  6
C_SOLID_M
100
AcDbLine
 10
30.050003
 20
-32.16187999999999
 30
0.0
 11
30.050003
 21
-22.322639
 31
0.0
  0
LINE
  5
F1
330
1E
100
AcDbEntity
  8
MO_001_VIEW_PV
  6
C_SOLID_M
100
AcDbLine
 10
30.050003
 20
-32.16187999999999
 30
0.0
 11
32.050003
 21
-32.16187999999999
 31
0.0
  0
LINE
  5
F2
330
1E
100
AcDbEntity
  8
MO_001_VIEW_PV
  6
C_SOLID_M
100
AcDbLine
 10
31.84999099999999
 20
-41.66188
 30
0.0
 11
31.84999099999999
 21
-38.16188
 31
0.0
  0
LINE
  5
F3
330
1E
100
AcDbEntity
  8
MO_001_VIEW_PV
  6
C_SOLID_M
100
AcDbLine
 10
30.25
 20
-41.66188
 30
0.0
 11
30.25
 21
-38.16188
 31
0.0
  0
LINE
  5
F4
330
1E
100
AcDbEntity
  8
MO_001_VIEW_PV
  6
C_SOLID_M
100
AcDbLine
 10
30.25
 20
-41.66188
 30
0.0
 11
31.84999099999999
 21
-41.66188
 31
0.0
  0
LINE
  5
F5
330
1E
100
AcDbEntity
  8
MO_001_VIEW_PV
  6
C_SOLID_M
100
AcDbLine
 10
31.323975
 20
-41.66188
 30
0.0
 11
31.323975
 21
-46.66188
 31
0.0
  0
LINE
  5
F6
330
1E
100
AcDbEntity
  8
MO_001_VIEW_PV
  6
C_SOLID_M
100
AcDbLine
 10
30.77601599999999
 20
-41.66188
 30
0.0
 11
30.77601599999999
 21
-46.66188
 31
0.0
  0
LINE
  5
F7
330
1E
100
AcDbEntity
  8
MO_001_VIEW_PV
  6
C_SOLID_M
100
AcDbLine
 10
30.77601599999999
 20
-46.66188
 30
0.0
 11
31.323975
 21
-46.66188
 31
0.0
  0
ARC
  5
F8
330
1E
100
AcDbEntity
  8
MO_001_VIEW_PV
  6
C_SOLID_M
100
AcDbCircle
 10
30.649994
 20
-37.461876
 30
0.0
 40
0.499994
100
AcDbArc
 50
36.869634
 51
143.1303709999999
  0
ARC
  5
F9
330
1E
100
AcDbEntity
  8
MO_001_VIEW_PV
  6
C_SOLID_M
100
AcDbCircle
 10
30.649994
 20
-36.861885
 30
0.0
 40
0.499994
100
AcDbArc
 50
216.869629
 51
323.1303759999999
  0
ARC
  5
FA
330
1E
100
AcDbEntity
  8
MO_001_VIEW_PV
  6
C_SOLID_M
100
AcDbCircle
 10
31.44999699999999
 20
-36.861885
 30
0.0
 40
0.499994
100
AcDbArc
 50
216.869629
 51
323.1303689999999
  0
ARC
  5
FB
330
1E
100
AcDbEntity
  8
MO_001_VIEW_PV
  6
C_SOLID_M
100
AcDbCircle
 10
31.44999699999999
 20
-37.861885
 30
0.0
 40
0.499994
100
AcDbArc
 50
216.869643
 51
323.1303759999999
  0
ARC
  5
FC
330
1E
100
AcDbEntity
  8
MO_001_VIEW_PV
  6
C_SOLID_M
100
AcDbCircle
 10
31.44999699999999
 20
-38.461876
 30
0.0
 40
0.499994
100
AcDbArc
 50
36.86963099999999
 51
143.1303709999999
  0
ARC
  5
FD
330
1E
100
AcDbEntity
  8
MO_001_VIEW_PV
  6
C_SOLID_M
100
AcDbCircle
 10
30.649994
 20
-38.461876
 30
0.0
 40
0.499994
100
AcDbArc
 50
36.86963099999999
 51
143.1303709999999
  0
LINE
  5
FE
330
1E
100
AcDbEntity
  8
MO_001_VIEW_PV
  6
C_SOLID_M
100
AcDbLine
 10
46.149994
 20
-37.16187999999999
 30
0.0
 11
46.149994
 21
-32.16187999999999
 31
0.0
  0
LINE
  5
FF
330
1E
100
AcDbEntity
  8
MO_001_VIEW_PV
  6
C_SOLID_M
100
AcDbLine
 10
47.74998499999999
 20
-37.16187999999999
 30
0.0
 11
47.74998499999999
 21
-32.16187999999999
 31
0.0
  0
LINE
  5
100
330
1E
100
AcDbEntity
  8
MO_001_VIEW_PV
  6
C_SOLID_M
100
AcDbLine
 10
47.74998499999999
 20
-41.66188
 30
0.0
 11
47.74998499999999
 21
-38.16188
 31
0.0
  0
LINE
  5
101
330
1E
100
AcDbEntity
  8
MO_001_VIEW_PV
  6
C_SOLID_M
100
AcDbLine
 10
46.149994
 20
-41.66188
 30
0.0
 11
46.149994
 21
-38.16188
 31
0.0
  0
LINE
  5
102
330
1E
100
AcDbEntity
  8
MO_001_VIEW_PV
  6
C_SOLID_M
100
AcDbLine
 10
46.149994
 20
-41.66188
 30
0.0
 11
47.74998499999999
 21
-41.66188
 31
0.0
  0
LINE
  5
103
330
1E
100
AcDbEntity
  8
MO_001_VIEW_PV
  6
C_SOLID_M
100
AcDbLine
 10
47.22396899999999
 20
-41.66188
 30
0.0
 11
47.22396899999999
 21
-46.66188
 31
0.0
  0
LINE
  5
104
330
1E
100
AcDbEntity
  8
MO_001_VIEW_PV
  6
C_SOLID_M
100
AcDbLine
 10
46.67601
 20
-41.66188
 30
0.0
 11
46.67601
 21
-46.66188
 31
0.0
  0
LINE
  5
105
330
1E
100
AcDbEntity
  8
MO_001_VIEW_PV
  6
C_SOLID_M
100
AcDbLine
 10
46.67601
 20
-46.66188
 30
0.0
 11
47.22396899999999
 21
-46.66188
 31
0.0
  0
ARC
  5
106
330
1E
100
AcDbEntity
  8
MO_001_VIEW_PV
  6
C_SOLID_M
100
AcDbCircle
 10
46.549988
 20
-37.461876
 30
0.0
 40
0.499994
100
AcDbArc
 50
36.869634
 51
143.1303709999999
  0
ARC
  5
107
330
1E
100
AcDbEntity
  8
MO_001_VIEW_PV
  6
C_SOLID_M
100
AcDbCircle
 10
46.549988
 20
-36.861885
 30
0.0
 40
0.499994
100
AcDbArc
 50
216.869629
 51
323.1303759999999
  0
ARC
  5
108
330
1E
100
AcDbEntity
  8
MO_001_VIEW_PV
  6
C_SOLID_M
100
AcDbCircle
 10
47.34999099999999
 20
-36.861885
 30
0.0
 40
0.499994
100
AcDbArc
 50
216.869629
 51
323.1303689999999
  0
ARC
  5
109
330
1E
100
AcDbEntity
  8
MO_001_VIEW_PV
  6
C_SOLID_M
100
AcDbCircle
 10
47.34999099999999
 20
-37.861885
 30
0.0
 40
0.499994
100
AcDbArc
 50
216.869643
 51
323.1303759999999
  0
ARC
  5
10A
330
1E
100
AcDbEntity
  8
MO_001_VIEW_PV
  6
C_SOLID_M
100
AcDbCircle
 10
47.34999099999999
 20
-38.461876
 30
0.0
 40
0.499994
100
AcDbArc
 50
36.86963099999999
 51
143.1303709999999
  0
ARC
  5
10B
330
1E
100
AcDbEntity
  8
MO_001_VIEW_PV
  6
C_SOLID_M
100
AcDbCircle
 10
46.549988
 20
-38.461876
 30
0.0
 40
0.499994
100
AcDbArc
 50
36.86963099999999
 51
143.1303709999999
  0
LINE
  5
10C
330
1E
100
AcDbEntity
  8
MO_001_VIEW_PV
  6
C_SOLID_L
100
AcDbLine
 10
-16.136545
 20
-36.983677
 30
0.0
 11
12.217403
 21
-36.983677
 31
0.0
  0
CIRCLE
  5
10D
330
1E
100
AcDbEntity
  8
MO_001_VIEW_PV
  6
C_SOLID_M
100
AcDbCircle
 10
-102.0
 20
14.3
 30
0.0
 40
1.399999999999999
  0
CIRCLE
  5
10E
330
1E
100
AcDbEntity
  8
MO_001_VIEW_PV
  6
C_SOLID_M
100
AcDbCircle
 10
-114.3841629999999
 20
-7.15
 30
0.0
 40
1.399999999999999
  0
CIRCLE
  5
10F
330
1E
100
AcDbEntity
  8
MO_001_VIEW_PV
  6
C_SOLID_M
100
AcDbCircle
 10
-89.615837
 20
-7.15
 30
0.0
 40
1.399999999999999
  0
TEXT
  5
110
330
1E
100
AcDbEntity
  8
MO_001_VIEW_PV
  6
C_SOLID_L
100
AcDbText
 10
-14.564547
 20
-36.139694
 30
0.0
 40
3.0
  1
2-M4 P0.7
100
AcDbText
  0
TEXT
  5
111
330
1E
100
AcDbEntity
  8
MO_001_VIEW_PV
  6
C_SOLID_L
100
AcDbText
 10
40.51171899999999
 20
-59.083594
 30
0.0
 40
4.167187
  1
単位：mm
100
AcDbText
  0
TEXT
  5
112
330
1E
100
AcDbEntity
  8
MO_001_VIEW_PV
  6
C_SOLID_L
100
AcDbText
 10
40.51171899999999
 20
-65.08359399999999
 30
0.0
 40
4.167187
  1
図は励磁時を示す
100
AcDbText
  0
TEXT
  5
113
330
1E
100
AcDbEntity
  8
MO_001_VIEW_PV
  6
C_SOLID_L
100
AcDbText
 10
-85.48828099999999
 20
-59.083594
 30
0.0
 40
4.167187
  1
5SF PushPull
100
AcDbText
  0
TEXT
  5
114
330
1E
100
AcDbEntity
  8
MO_001_VIEW_PV
  6
C_SOLID_L
100
AcDbText
 10
76.5
 20
-22.071429
 30
0.0
 40
3.0
  1
(UL1430 AWG22)
 50
90.0
100
AcDbText
  0
DIMENSION
  5
116
330
1E
100
AcDbEntity
  8
MO_001_VIEW_PV
  6
C_SOLID_M
100
AcDbDimension
  2
*D0
 10
-47.249996
 20
39.0
 30
0.0
 11
-47.249996
 21
39.0
 31
0.0
  3
STANDARD
100
AcDbAlignedDimension
 13
-30.0
 23
20.700012
 33
0.0
 14
-64.499992
 24
3.029411999999999
 34
0.0
100
AcDbRotatedDimension
  0
DIMENSION
  5
118
330
1E
100
AcDbEntity
  8
MO_001_VIEW_PV
  6
C_SOLID_M
100
AcDbDimension
  2
*D1
 10
-20.44999699999999
 20
39.0
 30
0.0
 11
-20.44999699999999
 21
39.0
 31
0.0
  3
STANDARD
100
AcDbAlignedDimension
 13
-10.899996
 23
2.875004
 33
0.0
 14
-30.0
 24
20.700012
 34
0.0
100
AcDbRotatedDimension
  0
DIMENSION
  5
11A
330
1E
100
AcDbEntity
  8
MO_001_VIEW_PV
  6
C_SOLID_M
100
AcDbDimension
  2
*D2
 10
-41.199997
 20
33.0
 30
0.0
 11
-41.199997
 21
33.0
 31
0.0
  1
23以下
  3
STANDARD
100
AcDbAlignedDimension
 13
-30.0
 23
20.700012
 33
0.0
 14
-52.399994
 24
20.650002
 34
0.0
100
AcDbRotatedDimension
  0
DIMENSION
  5
11C
330
1E
100
AcDbEntity
  8
MO_001_VIEW_PV
  6
C_SOLID_M
100
AcDbDimension
  2
*D3
 10
-20.89999999999999
 20
33.0
 30
0.0
 11
-20.89999999999999
 21
33.0
 31
0.0
  3
STANDARD
100
AcDbAlignedDimension
 13
-11.8
 23
17.19999899999999
 33
0.0
 14
-30.0
 24
20.700012
 34
0.0
100
AcDbRotatedDimension
  0
DIMENSION
  5
11E
330
1E
100
AcDbEntity
  8
MO_001_VIEW_PV
  6
C_SOLID_M
100
AcDbDimension
  2
*D4
 10
-43.49455999999999
 20
-42.806274
 30
0.0
 11
-43.49455999999999
 21
-42.806274
 31
0.0
  1
0.9
  3
STANDARD
100
AcDbAlignedDimension
 13
-52.399994
 23
-20.650002
 33
0.0
 14
-53.299988
 24
-9.075001999999999
 34
0.0
100
AcDbRotatedDimension
  0
DIMENSION
  5
120
330
1E
100
AcDbEntity
  8
MO_001_VIEW_PV
  6
C_SOLID_M
100
AcDbDimension
  2
*D5
 10
-3.0
 20
18.0
 30
0.0
 11
-3.0
 21
18.0
 31
0.0
  3
STANDARD
100
AcDbAlignedDimension
 13
-11.199999
 23
3.174999
 33
0.0
 14
-11.199999
 24
-3.175000999999999
 34
0.0
 50
89.999523
100
AcDbRotatedDimension
  0
DIMENSION
  5
122
330
1E
100
AcDbEntity
  8
MO_001_VIEW_PV
  6
C_SOLID_M
100
AcDbDimension
  2
*D6
 10
9.0
 20
0.0
 30
0.0
 11
9.0
 21
0.0
 31
0.0
  3
STANDARD
100
AcDbAlignedDimension
 13
33.85034199999999
 23
-15.9
 33
0.0
 14
33.85034199999999
 24
15.9
 34
0.0
 50
89.999523
100
AcDbRotatedDimension
  0
DIMENSION
  5
124
330
1E
100
AcDbEntity
  8
MO_001_VIEW_PV
  6
C_SOLID_M
100
AcDbDimension
  2
*D7
 10
39.0
 20
39.0
 30
0.0
 11
39.0
 21
39.0
 31
0.0
  1
%%C49以下
  3
STANDARD
100
AcDbAlignedDimension
 13
63.050003
 23
0.0
 33
0.0
 14
14.949997
 24
0.0
 34
0.0
100
AcDbRotatedDimension
  0
DIMENSION
  5
126
330
1E
100
AcDbEntity
  8
MO_001_VIEW_PV
  6
C_SOLID_M
100
AcDbDimension
  2
*D8
 10
72.0
 20
9.0
 30
0.0
 11
72.0
 21
9.0
 31
0.0
  1
長さ250以上
  3
STANDARD
100
AcDbAlignedDimension
 13
47.94999699999999
 23
-22.322639
 33
0.0
 14
47.22396899999999
 24
-46.66188
 34
0.0
 50
89.999523
100
AcDbRotatedDimension
  0
LINE
  5
127
330
1E
100
AcDbEntity
  8
MO_001_VIEW_PV
  6
C_SOLID_L
100
AcDbLine
 10
-21.25
 20
-17.89999899999999
 30
0.0
 11
-16.136546
 21
-36.983676
 31
0.0
  0
POLYLINE
  5
128
330
1E
100
AcDbEntity
  8
MO_001_VIEW_PV
  6
C_SOLID_L
100
AcDb2dPolyline
 66
     1
 10
0.0
 20
0.0
 30
0.0
 70
     1
  0
VERTEX
  5
194
330
128
100
AcDbEntity
  8
MO_001_VIEW_PV
  6
C_SOLID_L
100
AcDbVertex
100
AcDb2dVertex
 10
-19.82754299999999
 20
-20.954169
 30
0.0
  0
VERTEX
  5
195
330
128
100
AcDbEntity
  8
MO_001_VIEW_PV
  6
C_SOLID_L
100
AcDbVertex
100
AcDb2dVertex
 10
-21.11852
 20
-18.39069
 30
0.0
  0
VERTEX
  5
196
330
128
100
AcDbEntity
  8
MO_001_VIEW_PV
  6
C_SOLID_L
100
AcDbVertex
100
AcDb2dVertex
 10
-20.95479999999999
 20
-21.256217
 30
0.0
  0
SEQEND
  5
197
330
128
100
AcDbEntity
  8
MO_001_VIEW_PV
  6
C_SOLID_L
  0
ENDSEC
  0
SECTION
  2
OBJECTS
  0
DICTIONARY
  5
1A
330
0
100
AcDbDictionary
  3
ACAD_GROUP
350
1B
  3
ACAD_MLINESTYLE
350
1C
  3
ACAD_LAYOUT
350
18A
  3
ACAD_PLOTSETTINGS
350
18B
1001
ACAD
1000
TREAT_AS_HARD
1070
     0
  0
DICTIONARY
  5
190
330
1E
100
AcDbDictionary
  3
ACAD_LAYOUTSELFREF
350
191
  0
DICTIONARY
  5
192
330
1F
100
AcDbDictionary
  3
ACAD_LAYOUTSELFREF
350
193
  0
DICTIONARY
  5
1B
102
{ACAD_REACTORS
330
1A
102
}
330
1A
100
AcDbDictionary
1001
ACAD
1000
TREAT_AS_HARD
1070
     0
  0
DICTIONARY
  5
1C
102
{ACAD_REACTORS
330
1A
102
}
330
1A
100
AcDbDictionary
  3
STANDARD
350
1D
1001
ACAD
1000
TREAT_AS_HARD
1070
     0
  0
DICTIONARY
  5
18A
102
{ACAD_REACTORS
330
1A
102
}
330
1A
100
AcDbDictionary
1001
ACAD
1000
TREAT_AS_HARD
1070
     0
  0
DICTIONARY
  5
18B
102
{ACAD_REACTORS
330
1A
102
}
330
1A
100
AcDbDictionary
1001
ACAD
1000
TREAT_AS_HARD
1070
     0
  0
XRECORD
  5
191
102
{ACAD_REACTORS
330
190
102
}
330
190
100
AcDbXrecord
340
1E
  0
XRECORD
  5
193
102
{ACAD_REACTORS
330
192
102
}
330
192
100
AcDbXrecord
340
1F
  0
MLINESTYLE
  5
1D
102
{ACAD_REACTORS
330
1C
102
}
330
1C
100
AcDbMlineStyle
  2
STANDARD
 70
     0
  3

 62
     0
 51
90.0
 52
90.0
 71
     2
 49
0.5
 62
   256
  6
BYLAYER
 49
-0.5
 62
   256
  6
BYLAYER
  0
ENDSEC
  0
EOF
