  0
SECTION
  2
HEADER
  9
$ACADVER
  1
AC1012
  9
$DWGCODEPAGE
  3
dos932
  9
$INSBASE
 10
0.0
 20
0.0
 30
0.0
  9
$EXTMIN
 10
-135.0184051809472
 20
-98.089888898857
 30
-0.0000000349181948
  9
$EXTMAX
 10
169.1490966409759
 20
58.13543113074167
 30
0.0000000814935747
  9
$LIMMIN
 10
-135.0
 20
-101.208984
  9
$LIMMAX
 10
163.9980469999999
 20
60.0
  9
$ORTHOMODE
 70
     0
  9
$REGENMODE
 70
     1
  9
$FILLMODE
 70
     1
  9
$QTEXTMODE
 70
     0
  9
$MIRRTEXT
 70
     1
  9
$DRAGMODE
 70
     2
  9
$LTSCALE
 40
1.0
  9
$OSMODE
 70
    37
  9
$ATTMODE
 70
     1
  9
$TEXTSIZE
 40
4.1672
  9
$TRACEWID
 40
0.05
  9
$TEXTSTYLE
  7
STANDARD
  9
$CLAYER
  8
0
  9
$CELTYPE
  6
CONTINUOUS
  9
$CECOLOR
 62
   256
  9
$CELTSCALE
 40
1.0
  9
$DELOBJ
 70
     1
  9
$DISPSILH
 70
     0
  9
$DIMSCALE
 40
1.0
  9
$DIMASZ
 40
0.18
  9
$DIMEXO
 40
0.0625
  9
$DIMDLI
 40
0.38
  9
$DIMRND
 40
0.0
  9
$DIMDLE
 40
0.0
  9
$DIMEXE
 40
0.18
  9
$DIMTP
 40
0.0
  9
$DIMTM
 40
0.0
  9
$DIMTXT
 40
0.18
  9
$DIMCEN
 40
0.09
  9
$DIMTSZ
 40
0.0
  9
$DIMTOL
 70
     0
  9
$DIMLIM
 70
     0
  9
$DIMTIH
 70
     1
  9
$DIMTOH
 70
     1
  9
$DIMSE1
 70
     0
  9
$DIMSE2
 70
     0
  9
$DIMTAD
 70
     0
  9
$DIMZIN
 70
     0
  9
$DIMBLK
  1

  9
$DIMASO
 70
     1
  9
$DIMSHO
 70
     1
  9
$DIMPOST
  1

  9
$DIMAPOST
  1

  9
$DIMALT
 70
     0
  9
$DIMALTD
 70
     2
  9
$DIMALTF
 40
25.4
  9
$DIMLFAC
 40
1.0
  9
$DIMTOFL
 70
     0
  9
$DIMTVP
 40
0.0
  9
$DIMTIX
 70
     0
  9
$DIMSOXD
 70
     0
  9
$DIMSAH
 70
     0
  9
$DIMBLK1
  1

  9
$DIMBLK2
  1

  9
$DIMSTYLE
  2
STANDARD
  9
$DIMCLRD
 70
     0
  9
$DIMCLRE
 70
     0
  9
$DIMCLRT
 70
     0
  9
$DIMTFAC
 40
1.0
  9
$DIMGAP
 40
0.09
  9
$DIMJUST
 70
     0
  9
$DIMSD1
 70
     0
  9
$DIMSD2
 70
     0
  9
$DIMTOLJ
 70
     1
  9
$DIMTZIN
 70
     0
  9
$DIMALTZ
 70
     0
  9
$DIMALTTZ
 70
     0
  9
$DIMFIT
 70
     3
  9
$DIMUPT
 70
     0
  9
$DIMUNIT
 70
     2
  9
$DIMDEC
 70
     4
  9
$DIMTDEC
 70
     4
  9
$DIMALTU
 70
     2
  9
$DIMALTTD
 70
     2
  9
$DIMTXSTY
  7
STANDARD
  9
$DIMAUNIT
 70
     0
  9
$LUNITS
 70
     2
  9
$LUPREC
 70
     6
  9
$SKETCHINC
 40
0.1
  9
$FILLETRAD
 40
0.0
  9
$AUNITS
 70
     0
  9
$AUPREC
 70
     4
  9
$MENU
  1
acad
  9
$ELEVATION
 40
0.0
  9
$PELEVATION
 40
0.0
  9
$THICKNESS
 40
0.0
  9
$LIMCHECK
 70
     0
  9
$BLIPMODE
 70
     0
  9
$CHAMFERA
 40
0.0
  9
$CHAMFERB
 40
0.0
  9
$CHAMFERC
 40
0.0
  9
$CHAMFERD
 40
0.0
  9
$SKPOLY
 70
     0
  9
$TDCREATE
 40
2376122.594796435
  9
$TDUPDATE
 40
2451687.730311921
  9
$TDINDWG
 40
0.0026674769
  9
$TDUSRTIMER
 40
0.0026667824
  9
$USRTIMER
 70
     1
  9
$ANGBASE
 50
0.0
  9
$ANGDIR
 70
     0
  9
$PDMODE
 70
     0
  9
$PDSIZE
 40
0.0
  9
$PLINEWID
 40
0.0
  9
$COORDS
 70
     1
  9
$SPLFRAME
 70
     0
  9
$SPLINETYPE
 70
     6
  9
$SPLINESEGS
 70
     8
  9
$ATTDIA
 70
     0
  9
$ATTREQ
 70
     1
  9
$HANDLING
 70
 10241
  9
$HANDSEED
  5
20C
  9
$SURFTAB1
 70
     6
  9
$SURFTAB2
 70
     6
  9
$SURFTYPE
 70
     6
  9
$SURFU
 70
     6
  9
$SURFV
 70
     6
  9
$UCSNAME
  2

  9
$UCSORG
 10
30.0
 20
0.0
 30
0.0
  9
$UCSXDIR
 10
1.0
 20
0.0
 30
0.0
  9
$UCSYDIR
 10
0.0
 20
1.0
 30
0.0
  9
$PUCSNAME
  2

  9
$PUCSORG
 10
0.0
 20
0.0
 30
0.0
  9
$PUCSXDIR
 10
1.0
 20
0.0
 30
0.0
  9
$PUCSYDIR
 10
0.0
 20
1.0
 30
0.0
  9
$USERI1
 70
     0
  9
$USERI2
 70
     0
  9
$USERI3
 70
     0
  9
$USERI4
 70
     0
  9
$USERI5
 70
     0
  9
$USERR1
 40
0.0
  9
$USERR2
 40
0.0
  9
$USERR3
 40
0.0
  9
$USERR4
 40
0.0
  9
$USERR5
 40
0.0
  9
$WORLDVIEW
 70
     1
  9
$SHADEDGE
 70
     3
  9
$SHADEDIF
 70
    70
  9
$TILEMODE
 70
     1
  9
$MAXACTVP
 70
    16
  9
$PINSBASE
 10
0.0
 20
0.0
 30
0.0
  9
$PLIMCHECK
 70
     0
  9
$PEXTMIN
 10
-135.0
 20
-101.208984
 30
1.000000000000000E+20
  9
$PEXTMAX
 10
163.9980469999999
 20
60.0
 30
-1.000000000000000E+20
  9
$PLIMMIN
 10
0.0
 20
0.0
  9
$PLIMMAX
 10
12.0
 20
9.0
  9
$UNITMODE
 70
     0
  9
$VISRETAIN
 70
     0
  9
$PLINEGEN
 70
     0
  9
$PSLTSCALE
 70
     1
  9
$TREEDEPTH
 70
  3020
  9
$PICKSTYLE
 70
     1
  9
$CMLSTYLE
  2
STANDARD
  9
$CMLJUST
 70
     0
  9
$CMLSCALE
 40
1.0
  9
$SAVEIMAGES
 70
     1
  0
ENDSEC
  0
SECTION
  2
CLASSES
  0
CLASS
  1
ACDBDICTIONARYWDFLT
  2
AcDbDictionaryWithDefault
  3
AutoCAD 2000
 90
    32768
280
     0
281
     0
  0
CLASS
  1
ACDBPLACEHOLDER
  2
AcDbPlaceHolder
  3
AutoCAD 2000
 90
    32768
280
     0
281
     0
  0
CLASS
  1
LAYOUT
  2
AcDbLayout
  3
AutoCAD 2000
 90
    32768
280
     0
281
     0
  0
CLASS
  1
LONG_TRANSACTION
  2
AcDbLongTransaction
  3
AutoCAD 2000
 90
    32768
280
     0
281
     0
  0
CLASS
  1
LWPOLYLINE
  2
AcDbPolyline
  3
AutoCAD 2000
 90
    32768
280
     0
281
     1
  0
CLASS
  1
HATCH
  2
AcDbHatch
  3
AutoCAD 2000
 90
    32768
280
     0
281
     1
  0
CLASS
  1
XRECORD
  2
AcDbXrecord
  3
AutoCAD 2000
 90
    32768
280
     0
281
     0
  0
CLASS
  1
LONG_TRANSACTION
  2
AcDbLongTransaction
  3
AutoCAD 2000
 90
    32768
280
     0
281
     0
  0
CLASS
  1
LWPOLYLINE
  2
AcDbPolyline
  3
AutoCAD 2000
 90
    32768
280
     0
281
     1
  0
CLASS
  1
HATCH
  2
AcDbHatch
  3
AutoCAD 2000
 90
    32768
280
     0
281
     1
  0
CLASS
  1
XRECORD
  2
AcDbXrecord
  3
AutoCAD 2000
 90
    32768
280
     0
281
     0
  0
ENDSEC
  0
SECTION
  2
TABLES
  0
TABLE
  2
VPORT
  5
7
330
0
100
AcDbSymbolTable
 70
     2
  0
VPORT
  5
1D2
330
7
100
AcDbSymbolTableRecord
100
AcDbViewportTableRecord
  2
*ACTIVE
 70
     0
 10
0.0
 20
0.0
 11
1.0
 21
1.0
 12
17.06534573001431
 22
-20.604492
 13
0.0
 23
0.0
 14
6.349999999999998
 24
6.349999999999998
 15
6.349999999999998
 25
6.349999999999998
 16
0.0
 26
0.0
 36
1.0
 17
0.0
 27
0.0
 37
0.0
 40
186.1565395133834
 41
1.644214162348877
 42
50.0
 43
0.0
 44
0.0
 50
0.0
 51
0.0
 71
     0
 72
   100
 73
     1
 74
     1
 75
     0
 76
     0
 77
     0
 78
     0
  0
ENDTAB
  0
TABLE
  2
LTYPE
  5
4
330
0
100
AcDbSymbolTable
 70
    37
  0
LTYPE
  5
12
330
4
100
AcDbSymbolTableRecord
100
AcDbLinetypeTableRecord
  2
BYBLOCK
 70
     0
  3

 72
    65
 73
     0
 40
0.0
  0
LTYPE
  5
13
330
4
100
AcDbSymbolTableRecord
100
AcDbLinetypeTableRecord
  2
BYLAYER
 70
     0
  3

 72
    65
 73
     0
 40
0.0
  0
LTYPE
  5
14
330
4
100
AcDbSymbolTableRecord
100
AcDbLinetypeTableRecord
  2
CONTINUOUS
 70
     0
  3
DXF Default line type
 72
    65
 73
     0
 40
0.0
  0
LTYPE
  5
20
330
4
100
AcDbSymbolTableRecord
100
AcDbLinetypeTableRecord
  2
DASHED
 70
     0
  3
DXF Dashed
 72
    65
 73
     2
 40
0.75
 49
0.5
 74
     0
 49
-0.25
 74
     0
  0
LTYPE
  5
21
330
4
100
AcDbSymbolTableRecord
100
AcDbLinetypeTableRecord
  2
HIDDEN
 70
     0
  3
DXF Hidden
 72
    65
 73
     2
 40
0.375
 49
0.25
 74
     0
 49
-0.125
 74
     0
  0
LTYPE
  5
22
330
4
100
AcDbSymbolTableRecord
100
AcDbLinetypeTableRecord
  2
CENTER
 70
     0
  3
DXF Center
 72
    65
 73
     4
 40
2.0
 49
1.25
 74
     0
 49
-0.25
 74
     0
 49
0.25
 74
     0
 49
-0.25
 74
     0
  0
LTYPE
  5
23
330
4
100
AcDbSymbolTableRecord
100
AcDbLinetypeTableRecord
  2
PHANTOM
 70
     0
  3
DXF Phantom
 72
    65
 73
     6
 40
2.5
 49
1.25
 74
     0
 49
-0.25
 74
     0
 49
0.25
 74
     0
 49
-0.25
 74
     0
 49
0.25
 74
     0
 49
-0.25
 74
     0
  0
LTYPE
  5
24
330
4
100
AcDbSymbolTableRecord
100
AcDbLinetypeTableRecord
  2
DOT
 70
     0
  3
DXF DOT
 72
    65
 73
     2
 40
0.25
 49
0.0
 74
     0
 49
-0.25
 74
     0
  0
LTYPE
  5
25
330
4
100
AcDbSymbolTableRecord
100
AcDbLinetypeTableRecord
  2
DASHDOT
 70
     0
  3
DXF Dash Dot
 72
    65
 73
     4
 40
1.0
 49
0.5
 74
     0
 49
-0.25
 74
     0
 49
0.0
 74
     0
 49
-0.25
 74
     0
  0
LTYPE
  5
26
330
4
100
AcDbSymbolTableRecord
100
AcDbLinetypeTableRecord
  2
BORDER
 70
     0
  3
DXF Border
 72
    65
 73
     6
 40
1.75
 49
0.5
 74
     0
 49
-0.25
 74
     0
 49
0.5
 74
     0
 49
-0.25
 74
     0
 49
0.0
 74
     0
 49
-0.25
 74
     0
  0
LTYPE
  5
27
330
4
100
AcDbSymbolTableRecord
100
AcDbLinetypeTableRecord
  2
DIVIDE
 70
     0
  3
DXF Divide
 72
    65
 73
     6
 40
1.25
 49
0.5
 74
     0
 49
-0.25
 74
     0
 49
0.0
 74
     0
 49
-0.25
 74
     0
 49
0.0
 74
     0
 49
-0.25
 74
     0
  0
LTYPE
  5
28
330
4
100
AcDbSymbolTableRecord
100
AcDbLinetypeTableRecord
  2
C_SOLID_L
 70
     0
  3
CADAM Solid Light
 72
    65
 73
     0
 40
0.0
  0
LTYPE
  5
29
330
4
100
AcDbSymbolTableRecord
100
AcDbLinetypeTableRecord
  2
C_SOLID_M
 70
     0
  3
CADAM Solid Medium
 72
    65
 73
     0
 40
0.0
  0
LTYPE
  5
2A
330
4
100
AcDbSymbolTableRecord
100
AcDbLinetypeTableRecord
  2
C_SOLID_H
 70
     0
  3
CADAM Solid Heavy
 72
    65
 73
     0
 40
0.0
  0
LTYPE
  5
2B
330
4
100
AcDbSymbolTableRecord
100
AcDbLinetypeTableRecord
  2
C_DASHED_L
 70
     0
  3
CADAM Dashed Light
 72
    65
 73
     2
 40
0.375
 49
0.25
 74
     0
 49
-0.125
 74
     0
  0
LTYPE
  5
2C
330
4
100
AcDbSymbolTableRecord
100
AcDbLinetypeTableRecord
  2
C_DASHED_M
 70
     0
  3
CADAM Dashed Medium
 72
    65
 73
     2
 40
0.5
 49
0.375
 74
     0
 49
-0.125
 74
     0
  0
LTYPE
  5
2D
330
4
100
AcDbSymbolTableRecord
100
AcDbLinetypeTableRecord
  2
C_CENTER_L
 70
     0
  3
CADAM Center Light
 72
    65
 73
     4
 40
2.0
 49
1.25
 74
     0
 49
-0.25
 74
     0
 49
0.25
 74
     0
 49
-0.25
 74
     0
  0
LTYPE
  5
2E
330
4
100
AcDbSymbolTableRecord
100
AcDbLinetypeTableRecord
  2
C_PHANTOM_L
 70
     0
  3
CADAM Phantom Light
 72
    65
 73
     6
 40
2.5
 49
1.25
 74
     0
 49
-0.25
 74
     0
 49
0.25
 74
     0
 49
-0.25
 74
     0
 49
0.25
 74
     0
 49
-0.25
 74
     0
  0
LTYPE
  5
2F
330
4
100
AcDbSymbolTableRecord
100
AcDbLinetypeTableRecord
  2
C_BREAK_M
 70
     0
  3
CADAM Break Medium
 72
    65
 73
     4
 40
1.0
 49
0.5
 74
     0
 49
-0.25
 74
     0
 49
0.0
 74
     0
 49
-0.25
 74
     0
  0
LTYPE
  5
30
330
4
100
AcDbSymbolTableRecord
100
AcDbLinetypeTableRecord
  2
C_NC
 70
     0
  3
CADAM NC
 72
    65
 73
     0
 40
0.0
  0
LTYPE
  5
31
330
4
100
AcDbSymbolTableRecord
100
AcDbLinetypeTableRecord
  2
DSH1
 70
     0
  3
CADAM Style2 Type 1 Dashed Line
 72
    65
 73
     2
 40
0.075
 49
0.04
 74
     0
 49
-0.035
 74
     0
  0
LTYPE
  5
32
330
4
100
AcDbSymbolTableRecord
100
AcDbLinetypeTableRecord
  2
DSH2
 70
     0
  3
CADAM Style2 Type 2 Dashed Line
 72
    65
 73
     2
 40
0.15
 49
0.11
 74
     0
 49
-0.04
 74
     0
  0
LTYPE
  5
33
330
4
100
AcDbSymbolTableRecord
100
AcDbLinetypeTableRecord
  2
DSH3
 70
     0
  3
CADAM Style2 Type 3 Dashed Line
 72
    65
 73
     2
 40
0.2
 49
0.15
 74
     0
 49
-0.05
 74
     0
  0
LTYPE
  5
34
330
4
100
AcDbSymbolTableRecord
100
AcDbLinetypeTableRecord
  2
DSH4
 70
     0
  3
CADAM Style2 Type 4 Dashed Line
 72
    65
 73
     2
 40
0.36
 49
0.28
 74
     0
 49
-0.08
 74
     0
  0
LTYPE
  5
35
330
4
100
AcDbSymbolTableRecord
100
AcDbLinetypeTableRecord
  2
DSH5
 70
     0
  3
CADAM Style2 Type 5 Dashed Line
 72
    65
 73
     2
 40
0.47
 49
0.39
 74
     0
 49
-0.08
 74
     0
  0
LTYPE
  5
36
330
4
100
AcDbSymbolTableRecord
100
AcDbLinetypeTableRecord
  2
DSH6
 70
     0
  3
CADAM Style2 Type 6 Dashed Line
 72
    65
 73
     2
 40
0.9
 49
0.8100000000000001
 74
     0
 49
-0.09
 74
     0
  0
LTYPE
  5
37
330
4
100
AcDbSymbolTableRecord
100
AcDbLinetypeTableRecord
  2
PL1
 70
     0
  3
Style 2 Type 1 Phantom Line
 72
    65
 73
     6
 40
1.0
 49
0.6
 74
     0
 49
-0.08
 74
     0
 49
0.08
 74
     0
 49
-0.08
 74
     0
 49
0.08
 74
     0
 49
-0.08
 74
     0
  0
LTYPE
  5
38
330
4
100
AcDbSymbolTableRecord
100
AcDbLinetypeTableRecord
  2
PL2
 70
     0
  3
Style 2 Type 2 Phantom Line
 72
    65
 73
     6
 40
1.08
 49
0.6
 74
     0
 49
-0.08
 74
     0
 49
0.12
 74
     0
 49
-0.08
 74
     0
 49
0.12
 74
     0
 49
-0.08
 74
     0
  0
LTYPE
  5
39
330
4
100
AcDbSymbolTableRecord
100
AcDbLinetypeTableRecord
  2
PL3
 70
     0
  3
Style 2 Type 3 Phantom Line
 72
    65
 73
     6
 40
2.0
 49
1.439999999999999
 74
     0
 49
-0.08
 74
     0
 49
0.16
 74
     0
 49
-0.08
 74
     0
 49
0.16
 74
     0
 49
-0.08
 74
     0
  0
LTYPE
  5
3A
330
4
100
AcDbSymbolTableRecord
100
AcDbLinetypeTableRecord
  2
CL1
 70
     0
  3
CADAM Style 2 Type 1 Center Line
 72
    65
 73
     4
 40
0.7
 49
0.45
 74
     0
 49
-0.06
 74
     0
 49
0.13
 74
     0
 49
-0.06
 74
     0
  0
LTYPE
  5
3B
330
4
100
AcDbSymbolTableRecord
100
AcDbLinetypeTableRecord
  2
CL2
 70
     0
  3
CADAM Style 2 Type 2 Center Line
 72
    65
 73
     4
 40
1.199999999999999
 49
1.01
 74
     0
 49
-0.06
 74
     0
 49
0.11
 74
     0
 49
-0.06
 74
     0
  0
LTYPE
  5
3C
330
4
100
AcDbSymbolTableRecord
100
AcDbLinetypeTableRecord
  2
CL3
 70
     0
  3
CADAM Style 2 Type 3 Center Line
 72
    65
 73
     4
 40
1.199999999999999
 49
0.98
 74
     0
 49
-0.06
 74
     0
 49
0.1
 74
     0
 49
-0.06
 74
     0
  0
LTYPE
  5
3D
330
4
100
AcDbSymbolTableRecord
100
AcDbLinetypeTableRecord
  2
CL4
 70
     0
  3
CADAM Style 2 Type 4 Center Line
 72
    65
 73
     4
 40
2.2
 49
1.929999999999999
 74
     0
 49
-0.07
 74
     0
 49
0.13
 74
     0
 49
-0.07
 74
     0
  0
LTYPE
  5
3E
330
4
100
AcDbSymbolTableRecord
100
AcDbLinetypeTableRecord
  2
CL5
 70
     0
  3
CADAM Style 2 Type 5 Center Line
 72
    65
 73
     4
 40
2.2
 49
1.879999999999999
 74
     0
 49
-0.07
 74
     0
 49
0.18
 74
     0
 49
-0.07
 74
     0
  0
LTYPE
  5
3F
330
4
100
AcDbSymbolTableRecord
100
AcDbLinetypeTableRecord
  2
SBK1
 70
     0
  3
CADAM Style 2 Type 1 SetBack Line
 72
    65
 73
     8
 40
2.7
 49
0.1
 74
     0
 49
-0.08
 74
     0
 49
0.1
 74
     0
 49
-0.8
 74
     0
 49
0.0
 74
     0
 49
0.0
 74
     0
 49
0.0
 74
     0
 49
0.0
 74
     0
  0
LTYPE
  5
40
330
4
100
AcDbSymbolTableRecord
100
AcDbLinetypeTableRecord
  2
SBK2
 70
     0
  3
CADAM Style 2 Type 2 SetBack Line
 72
    65
 73
     8
 40
3.709999999999998
 49
0.13
 74
     0
 49
-0.08
 74
     0
 49
0.13
 74
     0
 49
-0.8
 74
     0
 49
0.0
 74
     0
 49
0.0
 74
     0
 49
0.0
 74
     0
 49
0.0
 74
     0
  0
LTYPE
  5
41
330
4
100
AcDbSymbolTableRecord
100
AcDbLinetypeTableRecord
  2
STCH
 70
     0
  3
CADAM Style2 Stitch Line
 72
    65
 73
     2
 40
0.25
 49
0.0
 74
     0
 49
-0.25
 74
     0
  0
LTYPE
  5
42
330
4
100
AcDbSymbolTableRecord
100
AcDbLinetypeTableRecord
  2
MTCH
 70
     0
  3
CADAM Style2 Match Line
 72
    65
 73
     6
 40
2.0
 49
1.439999999999999
 74
     0
 49
-0.8
 74
     0
 49
0.16
 74
     0
 49
-0.08
 74
     0
 49
0.16
 74
     0
 49
-0.08
 74
     0
  0
LTYPE
  5
43
330
4
100
AcDbSymbolTableRecord
100
AcDbLinetypeTableRecord
  2
SLD
 70
     0
  3
CADAM Solid_EXT2
 72
    65
 73
     0
 40
0.0
  0
ENDTAB
  0
TABLE
  2
LAYER
  5
2
330
0
100
AcDbSymbolTable
 70
     7
  0
LAYER
  5
15
330
2
100
AcDbSymbolTableRecord
100
AcDbLayerTableRecord
  2
0
 70
     0
 62
     7
  6
CONTINUOUS
  0
LAYER
  5
44
330
2
100
AcDbSymbolTableRecord
100
AcDbLayerTableRecord
  2
MO_001_NOSHOW
 70
     1
 62
     7
  6
CONTINUOUS
  0
LAYER
  5
45
330
2
100
AcDbSymbolTableRecord
100
AcDbLayerTableRecord
  2
MO_001_VIEW_PV
 70
     0
 62
     7
  6
CONTINUOUS
  0
LAYER
  5
46
330
2
100
AcDbSymbolTableRecord
100
AcDbLayerTableRecord
  2
OVERLAY_MAP
 70
     1
 62
     7
  6
CONTINUOUS
  0
LAYER
  5
47
330
2
100
AcDbSymbolTableRecord
100
AcDbLayerTableRecord
  2
DITTOS
 70
     0
 62
     7
  6
CONTINUOUS
  0
LAYER
  5
48
330
2
100
AcDbSymbolTableRecord
100
AcDbLayerTableRecord
  2
SYMBOLS
 70
     0
 62
     7
  6
CONTINUOUS
  0
LAYER
  5
49
330
2
100
AcDbSymbolTableRecord
100
AcDbLayerTableRecord
  2
SETS
 70
     0
 62
     7
  6
CONTINUOUS
  0
ENDTAB
  0
TABLE
  2
STYLE
  5
3
330
0
100
AcDbSymbolTable
 70
     1
  0
STYLE
  5
18
330
3
100
AcDbSymbolTableRecord
100
AcDbTextStyleTableRecord
  2
STANDARD
 70
     0
 40
4.1672
 41
1.0
 50
0.0
 71
     0
 42
4.1672
  3
monotxt
  4
BIGFONT
  0
ENDTAB
  0
TABLE
  2
VIEW
  5
5
330
0
100
AcDbSymbolTable
 70
     0
  0
ENDTAB
  0
TABLE
  2
UCS
  5
6
330
0
100
AcDbSymbolTable
 70
     1
  0
UCS
  5
4A
330
6
100
AcDbSymbolTableRecord
100
AcDbUCSTableRecord
  2
MO_001_VIEW_PV_P
 70
     0
 10
30.0
 20
0.0
 30
0.0
 11
1.0
 21
0.0
 31
0.0
 12
-0.0000000002051034
 22
1.0
 32
0.0
  0
ENDTAB
  0
TABLE
  2
APPID
  5
8
330
0
100
AcDbSymbolTable
 70
     1
  0
APPID
  5
17
330
8
100
AcDbSymbolTableRecord
100
AcDbRegAppTableRecord
  2
ACAD
 70
     0
  0
ENDTAB
  0
TABLE
  2
DIMSTYLE
  5
9
330
0
100
AcDbSymbolTable
 70
     1
  0
DIMSTYLE
105
19
102
{ACAD_REACTORS
330
12F
330
131
330
133
330
135
330
137
330
139
330
13B
102
}
330
9
100
AcDbSymbolTableRecord
100
AcDbDimStyleTableRecord
  2
STANDARD
 70
     0
  3

  4

  5

  6

  7

 40
1.0
 41
0.18
 42
0.0625
 43
0.38
 44
0.18
 45
0.0
 46
0.0
 47
0.0
 48
0.0
140
0.18
141
0.09
142
0.0
143
25.4
144
1.0
145
0.0
146
1.0
147
0.09
 71
     0
 72
     0
 73
     1
 74
     1
 75
     0
 76
     0
 77
     0
 78
     0
170
     0
171
     2
172
     0
173
     0
174
     0
175
     0
176
     0
177
     0
178
     0
270
     2
271
     4
272
     4
273
     2
274
     2
340
18
275
     0
280
     0
281
     0
282
     0
283
     1
284
     0
285
     0
286
     0
287
     3
288
     0
  0
ENDTAB
  0
TABLE
  2
BLOCK_RECORD
  5
C
330
0
100
AcDbSymbolTable
 70
     7
  0
BLOCK_RECORD
  5
1E
102
{ACAD_XDICTIONARY
360
18E
102
}
330
C
100
AcDbSymbolTableRecord
100
AcDbBlockTableRecord
  2
*MODEL_SPACE
  0
BLOCK_RECORD
  5
1F
102
{ACAD_XDICTIONARY
360
190
102
}
330
C
100
AcDbSymbolTableRecord
100
AcDbBlockTableRecord
  2
*PAPER_SPACE
  0
BLOCK_RECORD
  5
12E
330
C
100
AcDbSymbolTableRecord
100
AcDbBlockTableRecord
  2
*D0
  0
BLOCK_RECORD
  5
130
330
C
100
AcDbSymbolTableRecord
100
AcDbBlockTableRecord
  2
*D1
  0
BLOCK_RECORD
  5
132
330
C
100
AcDbSymbolTableRecord
100
AcDbBlockTableRecord
  2
*D2
  0
BLOCK_RECORD
  5
134
330
C
100
AcDbSymbolTableRecord
100
AcDbBlockTableRecord
  2
*D3
  0
BLOCK_RECORD
  5
136
330
C
100
AcDbSymbolTableRecord
100
AcDbBlockTableRecord
  2
*D4
  0
BLOCK_RECORD
  5
138
330
C
100
AcDbSymbolTableRecord
100
AcDbBlockTableRecord
  2
*D5
  0
BLOCK_RECORD
  5
13A
330
C
100
AcDbSymbolTableRecord
100
AcDbBlockTableRecord
  2
*D6
  0
ENDTAB
  0
ENDSEC
  0
SECTION
  2
BLOCKS
  0
BLOCK
  5
E
330
1E
100
AcDbEntity
  8
0
100
AcDbBlockBegin
  2
*MODEL_SPACE
 70
     0
 10
0.0
 20
0.0
 30
0.0
  3
*MODEL_SPACE
  1

  0
ENDBLK
  5
F
330
1E
100
AcDbEntity
  8
0
100
AcDbBlockEnd
  0
BLOCK
  5
10
330
1F
100
AcDbEntity
 67
     1
  8
0
100
AcDbBlockBegin
  2
*PAPER_SPACE
 70
     0
 10
0.0
 20
0.0
 30
0.0
  3
*PAPER_SPACE
  1

  0
ENDBLK
  5
11
330
1F
100
AcDbEntity
 67
     1
  8
0
100
AcDbBlockEnd
  0
BLOCK
  5
142
330
12E
100
AcDbEntity
  8
0
100
AcDbBlockBegin
  2
*D0
 70
     1
 10
0.0
 20
0.0
 30
0.0
  3
*D0
  1

  0
TEXT
  5
143
330
12E
100
AcDbEntity
  8
MO_001_VIEW_PV
  6
BYBLOCK
100
AcDbText
 10
3.428570999999998
 20
48.75
 30
0.0
 40
3.0
  1
47以下
100
AcDbText
  0
LINE
  5
144
330
12E
100
AcDbEntity
  8
MO_001_VIEW_PV
  6
BYBLOCK
100
AcDbLine
 10
-16.5
 20
48.0
 30
0.0
 11
30.0
 21
48.0
 31
0.0
  0
SOLID
  5
145
330
12E
100
AcDbEntity
  8
MO_001_VIEW_PV
  6
BYBLOCK
100
AcDbTrace
 10
-13.18173999999999
 20
48.583512
 30
0.0
 11
-15.992
 21
48.0
 31
0.0
 12
-13.18173999999999
 22
47.416488
 32
0.0
 13
-13.18173999999999
 23
47.416488
 33
0.0
  0
SOLID
  5
146
330
12E
100
AcDbEntity
  8
MO_001_VIEW_PV
  6
BYBLOCK
100
AcDbTrace
 10
26.68174
 20
47.416488
 30
0.0
 11
29.49199999999999
 21
48.0
 31
0.0
 12
26.68174
 22
48.583512
 32
0.0
 13
26.68174
 23
48.583512
 33
0.0
  0
LINE
  5
147
330
12E
100
AcDbEntity
  8
MO_001_VIEW_PV
  6
BYBLOCK
100
AcDbLine
 10
-16.5
 20
40.600006
 30
0.0
 11
-16.5
 21
50.28599899999999
 31
0.0
  0
LINE
  5
148
330
12E
100
AcDbEntity
  8
MO_001_VIEW_PV
  6
BYBLOCK
100
AcDbLine
 10
30.0
 20
37.700001
 30
0.0
 11
30.0
 21
50.28599899999999
 31
0.0
  0
ENDBLK
  5
149
330
12E
100
AcDbEntity
  8
0
100
AcDbBlockEnd
  0
BLOCK
  5
14A
330
130
100
AcDbEntity
  8
0
100
AcDbBlockBegin
  2
*D1
 70
     1
 10
0.0
 20
0.0
 30
0.0
  3
*D1
  1

  0
TEXT
  5
14B
330
130
100
AcDbEntity
  8
MO_001_VIEW_PV
  6
BYBLOCK
100
AcDbText
 10
3.214285999999998
 20
56.625
 30
0.0
 40
1.5
  1
%%P1.0
100
AcDbText
  0
TEXT
  5
14C
330
130
100
AcDbEntity
  8
MO_001_VIEW_PV
  6
BYBLOCK
100
AcDbText
 10
-8.571429
 20
54.75
 30
0.0
 40
3.0
  1
68.6
100
AcDbText
  0
LINE
  5
14D
330
130
100
AcDbEntity
  8
MO_001_VIEW_PV
  6
BYBLOCK
100
AcDbLine
 10
-38.600002
 20
54.0
 30
0.0
 11
30.0
 21
54.0
 31
0.0
  0
SOLID
  5
14E
330
130
100
AcDbEntity
  8
MO_001_VIEW_PV
  6
BYBLOCK
100
AcDbTrace
 10
-35.281742
 20
54.583512
 30
0.0
 11
-38.092002
 21
54.0
 31
0.0
 12
-35.281742
 22
53.416488
 32
0.0
 13
-35.281742
 23
53.416488
 33
0.0
  0
SOLID
  5
14F
330
130
100
AcDbEntity
  8
MO_001_VIEW_PV
  6
BYBLOCK
100
AcDbTrace
 10
26.68174
 20
53.416488
 30
0.0
 11
29.49199999999999
 21
54.0
 31
0.0
 12
26.68174
 22
54.583512
 32
0.0
 13
26.68174
 23
54.583512
 33
0.0
  0
LINE
  5
150
330
130
100
AcDbEntity
  8
MO_001_VIEW_PV
  6
BYBLOCK
100
AcDbLine
 10
-38.600002
 20
5.409412
 30
0.0
 11
-38.600002
 21
56.285999
 31
0.0
  0
LINE
  5
151
330
130
100
AcDbEntity
  8
MO_001_VIEW_PV
  6
BYBLOCK
100
AcDbLine
 10
30.0
 20
37.700001
 30
0.0
 11
30.0
 21
56.285999
 31
0.0
  0
ENDBLK
  5
152
330
130
100
AcDbEntity
  8
0
100
AcDbBlockEnd
  0
BLOCK
  5
153
330
132
100
AcDbEntity
  8
0
100
AcDbBlockBegin
  2
*D2
 70
     1
 10
0.0
 20
0.0
 30
0.0
  3
*D2
  1

  0
TEXT
  5
154
330
132
100
AcDbEntity
  8
MO_001_VIEW_PV
  6
BYBLOCK
100
AcDbText
 10
57.375
 20
29.46428599999999
 30
0.0
 40
1.5
  1
%%P0.03
 50
90.0
100
AcDbText
  0
TEXT
  5
155
330
132
100
AcDbEntity
  8
MO_001_VIEW_PV
  6
BYBLOCK
100
AcDbText
 10
59.25
 20
11.67857099999999
 30
0.0
 40
3.0
  1
%%C11.11
 50
90.0
100
AcDbText
  0
LINE
  5
156
330
132
100
AcDbEntity
  8
MO_001_VIEW_PV
  6
BYBLOCK
100
AcDbLine
 10
60.0
 20
-5.554999999999998
 30
0.0
 11
60.0
 21
5.554999999999998
 31
0.0
  0
LINE
  5
157
330
132
100
AcDbEntity
  8
MO_001_VIEW_PV
  6
BYBLOCK
100
AcDbLine
 10
60.0
 20
-5.554999999999998
 30
0.0
 11
60.0
 21
-11.90499999999999
 31
0.0
  0
LINE
  5
158
330
132
100
AcDbEntity
  8
MO_001_VIEW_PV
  6
BYBLOCK
100
AcDbLine
 10
60.0
 20
5.554999999999998
 30
0.0
 11
60.0
 21
11.90499999999999
 31
0.0
  0
SOLID
  5
159
330
132
100
AcDbEntity
  8
MO_001_VIEW_PV
  6
BYBLOCK
100
AcDbTrace
 10
60.583512
 20
-8.87326
 30
0.0
 11
60.0
 21
-6.062999999999998
 31
0.0
 12
59.416488
 22
-8.87326
 32
0.0
 13
59.416488
 23
-8.87326
 33
0.0
  0
SOLID
  5
15A
330
132
100
AcDbEntity
  8
MO_001_VIEW_PV
  6
BYBLOCK
100
AcDbTrace
 10
59.416488
 20
8.87326
 30
0.0
 11
60.0
 21
6.062999999999998
 31
0.0
 12
60.583512
 22
8.87326
 32
0.0
 13
60.583512
 23
8.87326
 33
0.0
  0
LINE
  5
15B
330
132
100
AcDbEntity
  8
MO_001_VIEW_PV
  6
BYBLOCK
100
AcDbLine
 10
52.0
 20
-5.554999999999998
 30
0.0
 11
62.28599899999998
 21
-5.554999999999998
 31
0.0
  0
LINE
  5
15C
330
132
100
AcDbEntity
  8
MO_001_VIEW_PV
  6
BYBLOCK
100
AcDbLine
 10
52.0
 20
5.554999999999998
 30
0.0
 11
62.28599899999998
 21
5.554999999999998
 31
0.0
  0
LINE
  5
15D
330
132
100
AcDbEntity
  8
MO_001_VIEW_PV
  6
BYBLOCK
100
AcDbLine
 10
60.0
 20
5.554999999999998
 30
0.0
 11
60.0
 21
37.285713
 31
0.0
  0
ENDBLK
  5
15E
330
132
100
AcDbEntity
  8
0
100
AcDbBlockEnd
  0
BLOCK
  5
15F
330
134
100
AcDbEntity
  8
0
100
AcDbBlockBegin
  2
*D3
 70
     1
 10
0.0
 20
0.0
 30
0.0
  3
*D3
  1

  0
TEXT
  5
160
330
134
100
AcDbEntity
  8
MO_001_VIEW_PV
  6
BYBLOCK
100
AcDbText
 10
45.214286
 20
50.625
 30
0.0
 40
1.5
  1
%%P0.5
100
AcDbText
  0
TEXT
  5
161
330
134
100
AcDbEntity
  8
MO_001_VIEW_PV
  6
BYBLOCK
100
AcDbText
 10
33.428571
 20
48.75
 30
0.0
 40
3.0
  1
22.2
100
AcDbText
  0
LINE
  5
162
330
134
100
AcDbEntity
  8
MO_001_VIEW_PV
  6
BYBLOCK
100
AcDbLine
 10
52.19999699999998
 20
48.0
 30
0.0
 11
30.0
 21
48.0
 31
0.0
  0
SOLID
  5
163
330
134
100
AcDbEntity
  8
MO_001_VIEW_PV
  6
BYBLOCK
100
AcDbTrace
 10
48.881737
 20
47.416488
 30
0.0
 11
51.691997
 21
48.0
 31
0.0
 12
48.881737
 22
48.583512
 32
0.0
 13
48.881737
 23
48.583512
 33
0.0
  0
SOLID
  5
164
330
134
100
AcDbEntity
  8
MO_001_VIEW_PV
  6
BYBLOCK
100
AcDbTrace
 10
33.31825999999999
 20
48.583512
 30
0.0
 11
30.508
 21
48.0
 31
0.0
 12
33.31825999999999
 22
47.416488
 32
0.0
 13
33.31825999999999
 23
47.416488
 33
0.0
  0
LINE
  5
165
330
134
100
AcDbEntity
  8
MO_001_VIEW_PV
  6
BYBLOCK
100
AcDbLine
 10
52.19999699999998
 20
5.355
 30
0.0
 11
52.19999699999998
 21
50.28599899999999
 31
0.0
  0
LINE
  5
166
330
134
100
AcDbEntity
  8
MO_001_VIEW_PV
  6
BYBLOCK
100
AcDbLine
 10
30.0
 20
37.700001
 30
0.0
 11
30.0
 21
50.28599899999999
 31
0.0
  0
ENDBLK
  5
167
330
134
100
AcDbEntity
  8
0
100
AcDbBlockEnd
  0
BLOCK
  5
168
330
136
100
AcDbEntity
  8
0
100
AcDbBlockBegin
  2
*D4
 70
     1
 10
0.0
 20
0.0
 30
0.0
  3
*D4
  1

  0
TEXT
  5
169
330
136
100
AcDbEntity
  8
MO_001_VIEW_PV
  6
BYBLOCK
100
AcDbText
 10
109.9285709999999
 20
54.75
 30
0.0
 40
3.0
  1
%%C87以下
100
AcDbText
  0
LINE
  5
16A
330
136
100
AcDbEntity
  8
MO_001_VIEW_PV
  6
BYBLOCK
100
AcDbLine
 10
74.14999399999998
 20
54.0
 30
0.0
 11
159.850006
 21
54.0
 31
0.0
  0
SOLID
  5
16B
330
136
100
AcDbEntity
  8
MO_001_VIEW_PV
  6
BYBLOCK
100
AcDbTrace
 10
77.468254
 20
54.583512
 30
0.0
 11
74.65799399999998
 21
54.0
 31
0.0
 12
77.468254
 22
53.416488
 32
0.0
 13
77.468254
 23
53.416488
 33
0.0
  0
SOLID
  5
16C
330
136
100
AcDbEntity
  8
MO_001_VIEW_PV
  6
BYBLOCK
100
AcDbTrace
 10
156.5317459999999
 20
53.416488
 30
0.0
 11
159.3420059999999
 21
54.0
 31
0.0
 12
156.5317459999999
 22
54.583512
 32
0.0
 13
156.5317459999999
 23
54.583512
 33
0.0
  0
LINE
  5
16D
330
136
100
AcDbEntity
  8
MO_001_VIEW_PV
  6
BYBLOCK
100
AcDbLine
 10
74.14999399999998
 20
0.0
 30
0.0
 11
74.14999399999998
 21
56.285999
 31
0.0
  0
LINE
  5
16E
330
136
100
AcDbEntity
  8
MO_001_VIEW_PV
  6
BYBLOCK
100
AcDbLine
 10
159.850006
 20
0.0
 30
0.0
 11
159.850006
 21
56.285999
 31
0.0
  0
ENDBLK
  5
16F
330
136
100
AcDbEntity
  8
0
100
AcDbBlockEnd
  0
BLOCK
  5
170
330
138
100
AcDbEntity
  8
0
100
AcDbBlockBegin
  2
*D5
 70
     1
 10
0.0
 20
0.0
 30
0.0
  3
*D5
  1

  0
TEXT
  5
171
330
138
100
AcDbEntity
  8
MO_001_VIEW_PV
  6
BYBLOCK
100
AcDbText
 10
66.375
 20
3.214285999999998
 30
0.0
 40
1.5
  1
%%P0.3
 50
90.0
100
AcDbText
  0
TEXT
  5
172
330
138
100
AcDbEntity
  8
MO_001_VIEW_PV
  6
BYBLOCK
100
AcDbText
 10
68.25
 20
-8.571429
 30
0.0
 40
3.0
  1
54.0
 50
90.0
100
AcDbText
  0
LINE
  5
173
330
138
100
AcDbEntity
  8
MO_001_VIEW_PV
  6
BYBLOCK
100
AcDbLine
 10
69.0
 20
27.0
 30
0.0
 11
69.0
 21
-27.0
 31
0.0
  0
SOLID
  5
174
330
138
100
AcDbEntity
  8
MO_001_VIEW_PV
  6
BYBLOCK
100
AcDbTrace
 10
69.583512
 20
23.68173999999999
 30
0.0
 11
69.0
 21
26.49199999999999
 31
0.0
 12
68.416488
 22
23.68173999999999
 32
0.0
 13
68.416488
 23
23.68173999999999
 33
0.0
  0
SOLID
  5
175
330
138
100
AcDbEntity
  8
MO_001_VIEW_PV
  6
BYBLOCK
100
AcDbTrace
 10
68.416488
 20
-23.68173999999999
 30
0.0
 11
69.0
 21
-26.49199999999999
 31
0.0
 12
69.583512
 22
-23.68173999999999
 32
0.0
 13
69.583512
 23
-23.68173999999999
 33
0.0
  0
LINE
  5
176
330
138
100
AcDbEntity
  8
MO_001_VIEW_PV
  6
BYBLOCK
100
AcDbLine
 10
109.4499969999999
 20
27.0
 30
0.0
 11
66.71399699999999
 21
27.0
 31
0.0
  0
LINE
  5
177
330
138
100
AcDbEntity
  8
MO_001_VIEW_PV
  6
BYBLOCK
100
AcDbLine
 10
109.4499969999999
 20
-27.0
 30
0.0
 11
66.71399699999999
 21
-27.0
 31
0.0
  0
ENDBLK
  5
178
330
138
100
AcDbEntity
  8
0
100
AcDbBlockEnd
  0
BLOCK
  5
179
330
13A
100
AcDbEntity
  8
0
100
AcDbBlockBegin
  2
*D6
 70
     1
 10
0.0
 20
0.0
 30
0.0
  3
*D6
  1

  0
LINE
  5
17A
330
13A
100
AcDbEntity
  8
MO_001_VIEW_PV
  6
BYBLOCK
100
AcDbLine
 10
133.149994
 20
-39.690056
 30
0.0
 11
152.2859949999999
 21
-39.690056
 31
0.0
  0
TEXT
  5
17B
330
13A
100
AcDbEntity
  8
MO_001_VIEW_PV
  6
BYBLOCK
100
AcDbText
 10
149.2499999999999
 20
-71.59145999999998
 30
0.0
 40
3.0
  1
長さ250以上
 50
90.0
100
AcDbText
  0
LINE
  5
17C
330
13A
100
AcDbEntity
  8
MO_001_VIEW_PV
  6
BYBLOCK
100
AcDbLine
 10
150.0
 20
-81.35000600000003
 30
0.0
 11
150.0
 21
-39.690056
 31
0.0
  0
SOLID
  5
17D
330
13A
100
AcDbEntity
  8
MO_001_VIEW_PV
  6
BYBLOCK
100
AcDbTrace
 10
149.4164879999999
 20
-78.031746
 30
0.0
 11
150.0
 21
-80.842006
 31
0.0
 12
150.583512
 22
-78.031746
 32
0.0
 13
150.583512
 23
-78.031746
 33
0.0
  0
SOLID
  5
17E
330
13A
100
AcDbEntity
  8
MO_001_VIEW_PV
  6
BYBLOCK
100
AcDbTrace
 10
150.583512
 20
-43.008316
 30
0.0
 11
150.0
 21
-40.198056
 31
0.0
 12
149.4164879999999
 22
-43.008316
 32
0.0
 13
149.4164879999999
 23
-43.008316
 33
0.0
  0
LINE
  5
17F
330
13A
100
AcDbEntity
  8
MO_001_VIEW_PV
  6
BYBLOCK
100
AcDbLine
 10
131.7999879999999
 20
-81.35000600000003
 30
0.0
 11
152.2859949999999
 21
-81.35000600000003
 31
0.0
  0
ENDBLK
  5
180
330
13A
100
AcDbEntity
  8
0
100
AcDbBlockEnd
  0
ENDSEC
  0
SECTION
  2
ENTITIES
  0
TEXT
  5
4B
330
1E
100
AcDbEntity
  8
OVERLAY_MAP
  6
C_SOLID_L
100
AcDbText
 10
0.0
 20
6.349999999999998
 30
0.0
 40
4.1672
  1
Model Overlay Name
100
AcDbText
  0
TEXT
  5
4C
330
1E
100
AcDbEntity
  8
OVERLAY_MAP
  6
C_SOLID_L
100
AcDbText
 10
126.999998
 20
0.0
 30
0.0
 40
4.1672
  1
Number
100
AcDbText
  0
TEXT
  5
4D
330
1E
100
AcDbEntity
  8
OVERLAY_MAP
  6
C_SOLID_L
100
AcDbText
 10
177.7999969999999
 20
0.0
 30
0.0
 40
4.1672
  1
File Text
100
AcDbText
  0
TEXT
  5
4E
330
1E
100
AcDbEntity
  8
OVERLAY_MAP
  6
C_SOLID_L
100
AcDbText
 10
0.0
 20
-6.349999999999998
 30
0.0
 40
4.1672
  1
pp 8sc 
100
AcDbText
  0
TEXT
  5
4F
330
1E
100
AcDbEntity
  8
OVERLAY_MAP
  6
C_SOLID_L
100
AcDbText
 10
126.999998
 20
-6.349999999999998
 30
0.0
 40
4.1672
  1
001
100
AcDbText
  0
TEXT
  5
50
330
1E
100
AcDbEntity
  8
OVERLAY_MAP
  6
C_SOLID_L
100
AcDbText
 10
177.7999969999999
 20
-6.349999999999998
 30
0.0
 40
4.1672
  1
8S CASE SHELL                                                  140000116
100
AcDbText
  0
CIRCLE
  5
51
330
1E
100
AcDbEntity
  8
MO_001_VIEW_PV
  6
C_SOLID_M
100
AcDbCircle
 10
-90.0
 20
0.0
 30
0.0
 40
42.850006
  0
CIRCLE
  5
52
330
1E
100
AcDbEntity
  8
MO_001_VIEW_PV
  6
C_SOLID_M
100
AcDbCircle
 10
-90.0
 20
0.0
 30
0.0
 40
41.800003
  0
CIRCLE
  5
53
330
1E
100
AcDbEntity
  8
MO_001_VIEW_PV
  6
C_SOLID_M
100
AcDbCircle
 10
-90.0
 20
0.0
 30
0.0
 40
38.14999399999999
  0
LINE
  5
54
330
1E
100
AcDbEntity
  8
MO_001_VIEW_PV
  6
C_CENTER_L
100
AcDbLine
 10
-135.0
 20
0.0
 30
0.0
 11
-45.0
 21
0.0
 31
0.0
  0
LINE
  5
55
330
1E
100
AcDbEntity
  8
MO_001_VIEW_PV
  6
C_CENTER_L
100
AcDbLine
 10
-90.0
 20
45.0
 30
0.0
 11
-90.0
 21
-47.850006
 31
0.0
  0
CIRCLE
  5
56
330
1E
100
AcDbEntity
  8
MO_001_VIEW_PV
  6
C_SOLID_M
100
AcDbCircle
 10
-90.0
 20
0.0
 30
0.0
 40
38.950012
  0
LINE
  5
57
330
1E
100
AcDbEntity
  8
MO_001_VIEW_PV
  6
C_SOLID_M
100
AcDbLine
 10
29.39999399999999
 20
-42.050018
 30
0.0
 11
29.39999399999999
 21
42.050018
 31
0.0
  0
LINE
  5
58
330
1E
100
AcDbEntity
  8
MO_001_VIEW_PV
  6
C_SOLID_M
100
AcDbLine
 10
-16.5
 20
-40.600006
 30
0.0
 11
-16.5
 21
40.600006
 31
0.0
  0
LINE
  5
59
330
1E
100
AcDbEntity
  8
MO_001_VIEW_PV
  6
C_SOLID_M
100
AcDbLine
 10
-8.299988
 20
-42.850006
 30
0.0
 11
-8.299988
 21
42.850006
 31
0.0
  0
LINE
  5
5A
330
1E
100
AcDbEntity
  8
MO_001_VIEW_PV
  6
C_SOLID_M
100
AcDbLine
 10
-2.650002
 20
-42.850006
 30
0.0
 11
28.599976
 21
-42.850006
 31
0.0
  0
LINE
  5
5B
330
1E
100
AcDbEntity
  8
MO_001_VIEW_PV
  6
C_SOLID_M
100
AcDbLine
 10
-15.299988
 20
-41.800003
 30
0.0
 11
-8.5
 21
-41.800003
 31
0.0
  0
LINE
  5
5C
330
1E
100
AcDbEntity
  8
MO_001_VIEW_PV
  6
C_CENTER_L
100
AcDbLine
 10
-42.0
 20
0.0
 30
0.0
 11
54.767036
 21
0.0
 31
0.0
  0
LINE
  5
5D
330
1E
100
AcDbEntity
  8
MO_001_VIEW_PV
  6
C_SOLID_M
100
AcDbLine
 10
28.599984
 20
-42.850006
 30
0.0
 11
29.399982
 21
-42.050016
 31
0.0
  0
ARC
  5
5E
330
1E
100
AcDbEntity
  8
MO_001_VIEW_PV
  6
C_SOLID_M
100
AcDbCircle
 10
-8.5
 20
-42.0
 30
0.0
 40
0.2
100
AcDbArc
 50
0.0
 51
89.99998199999998
  0
ARC
  5
5F
330
1E
100
AcDbEntity
  8
MO_001_VIEW_PV
  6
C_SOLID_M
100
AcDbCircle
 10
-15.299988
 20
-40.600006
 30
0.0
 40
1.199999999999999
100
AcDbArc
 50
179.9999639999999
 51
270.000001
  0
LINE
  5
60
330
1E
100
AcDbEntity
  8
MO_001_VIEW_PV
  6
C_SOLID_M
100
AcDbLine
 10
28.599976
 20
42.850006
 30
0.0
 11
-8.299988
 21
42.850006
 31
0.0
  0
LINE
  5
61
330
1E
100
AcDbEntity
  8
MO_001_VIEW_PV
  6
C_SOLID_M
100
AcDbLine
 10
-8.5
 20
41.800003
 30
0.0
 11
-15.299988
 21
41.800003
 31
0.0
  0
LINE
  5
62
330
1E
100
AcDbEntity
  8
MO_001_VIEW_PV
  6
C_SOLID_M
100
AcDbLine
 10
29.399982
 20
42.050016
 30
0.0
 11
28.599984
 21
42.850006
 31
0.0
  0
ARC
  5
63
330
1E
100
AcDbEntity
  8
MO_001_VIEW_PV
  6
C_SOLID_M
100
AcDbCircle
 10
-8.5
 20
42.0
 30
0.0
 40
0.2
100
AcDbArc
 50
270.0000249999999
 51
359.999997
  0
ARC
  5
64
330
1E
100
AcDbEntity
  8
MO_001_VIEW_PV
  6
C_SOLID_M
100
AcDbCircle
 10
-15.299988
 20
40.600006
 30
0.0
 40
1.199999999999999
100
AcDbArc
 50
89.99998199999998
 51
180.0000189999999
  0
POLYLINE
  5
65
330
1E
100
AcDbEntity
  8
MO_001_VIEW_PV
  6
C_SOLID_M
100
AcDb2dPolyline
 66
     1
 10
0.0
 20
0.0
 30
0.0
  0
VERTEX
  5
1D5
330
65
100
AcDbEntity
  8
MO_001_VIEW_PV
  6
C_SOLID_M
100
AcDbVertex
100
AcDb2dVertex
 10
-2.650002
 20
-41.027824
 30
0.0
  0
VERTEX
  5
1D6
330
65
100
AcDbEntity
  8
MO_001_VIEW_PV
  6
C_SOLID_M
100
AcDbVertex
100
AcDb2dVertex
 10
-2.502524
 20
-40.975253
 30
0.0
  0
VERTEX
  5
1D7
330
65
100
AcDbEntity
  8
MO_001_VIEW_PV
  6
C_SOLID_M
100
AcDbVertex
100
AcDb2dVertex
 10
-2.370389999999999
 20
-40.92062499999999
 30
0.0
  0
VERTEX
  5
1D8
330
65
100
AcDbEntity
  8
MO_001_VIEW_PV
  6
C_SOLID_M
100
AcDbVertex
100
AcDb2dVertex
 10
-2.253127
 20
-40.864508
 30
0.0
  0
VERTEX
  5
1D9
330
65
100
AcDbEntity
  8
MO_001_VIEW_PV
  6
C_SOLID_M
100
AcDbVertex
100
AcDb2dVertex
 10
-2.150166999999999
 20
-40.80740999999998
 30
0.0
  0
VERTEX
  5
1DA
330
65
100
AcDbEntity
  8
MO_001_VIEW_PV
  6
C_SOLID_M
100
AcDbVertex
100
AcDb2dVertex
 10
-2.060867
 20
-40.749784
 30
0.0
  0
VERTEX
  5
1DB
330
65
100
AcDbEntity
  8
MO_001_VIEW_PV
  6
C_SOLID_M
100
AcDbVertex
100
AcDb2dVertex
 10
-1.984529999999999
 20
-40.69202999999999
 30
0.0
  0
VERTEX
  5
1DC
330
65
100
AcDbEntity
  8
MO_001_VIEW_PV
  6
C_SOLID_M
100
AcDbVertex
100
AcDb2dVertex
 10
-1.920425999999999
 20
-40.634496
 30
0.0
  0
VERTEX
  5
1DD
330
65
100
AcDbEntity
  8
MO_001_VIEW_PV
  6
C_SOLID_M
100
AcDbVertex
100
AcDb2dVertex
 10
-1.824697999999998
 20
-40.519425
 30
0.0
  0
VERTEX
  5
1DE
330
65
100
AcDbEntity
  8
MO_001_VIEW_PV
  6
C_SOLID_M
100
AcDbVertex
100
AcDb2dVertex
 10
-1.770051999999999
 20
-40.40847399999999
 30
0.0
  0
VERTEX
  5
1DF
330
65
100
AcDbEntity
  8
MO_001_VIEW_PV
  6
C_SOLID_M
100
AcDbVertex
100
AcDb2dVertex
 10
-1.750313999999999
 20
-40.303041
 30
0.0
  0
VERTEX
  5
1E0
330
65
100
AcDbEntity
  8
MO_001_VIEW_PV
  6
C_SOLID_M
100
AcDbVertex
100
AcDb2dVertex
 10
-1.759699
 20
-40.204021
 30
0.0
  0
VERTEX
  5
1E1
330
65
100
AcDbEntity
  8
MO_001_VIEW_PV
  6
C_SOLID_M
100
AcDbVertex
100
AcDb2dVertex
 10
-1.792933999999999
 20
-40.11192
 30
0.0
  0
VERTEX
  5
1E2
330
65
100
AcDbEntity
  8
MO_001_VIEW_PV
  6
C_SOLID_M
100
AcDbVertex
100
AcDb2dVertex
 10
-1.845313999999999
 20
-40.02694
 30
0.0
  0
VERTEX
  5
1E3
330
65
100
AcDbEntity
  8
MO_001_VIEW_PV
  6
C_SOLID_M
100
AcDbVertex
100
AcDb2dVertex
 10
-1.912715999999999
 20
-39.949056
 30
0.0
  0
VERTEX
  5
1E4
330
65
100
AcDbEntity
  8
MO_001_VIEW_PV
  6
C_SOLID_M
100
AcDbVertex
100
AcDb2dVertex
 10
-1.991579999999999
 20
-39.878083
 30
0.0
  0
VERTEX
  5
1E5
330
65
100
AcDbEntity
  8
MO_001_VIEW_PV
  6
C_SOLID_M
100
AcDbVertex
100
AcDb2dVertex
 10
-2.078875
 20
-39.813719
 30
0.0
  0
VERTEX
  5
1E6
330
65
100
AcDbEntity
  8
MO_001_VIEW_PV
  6
C_SOLID_M
100
AcDbVertex
100
AcDb2dVertex
 10
-2.172047999999999
 20
-39.755589
 30
0.0
  0
VERTEX
  5
1E7
330
65
100
AcDbEntity
  8
MO_001_VIEW_PV
  6
C_SOLID_M
100
AcDbVertex
100
AcDb2dVertex
 10
-2.374784
 20
-39.65329099999999
 30
0.0
  0
VERTEX
  5
1E8
330
65
100
AcDbEntity
  8
MO_001_VIEW_PV
  6
C_SOLID_M
100
AcDbVertex
100
AcDb2dVertex
 10
-2.580020999999999
 20
-39.572006
 30
0.0
  0
VERTEX
  5
1E9
330
65
100
AcDbEntity
  8
MO_001_VIEW_PV
  6
C_SOLID_M
100
AcDbVertex
100
AcDb2dVertex
 10
-2.778874
 20
-39.508001
 30
0.0
  0
VERTEX
  5
1EA
330
65
100
AcDbEntity
  8
MO_001_VIEW_PV
  6
C_SOLID_M
100
AcDbVertex
100
AcDb2dVertex
 10
-2.966103999999998
 20
-39.457945
 30
0.0
  0
VERTEX
  5
1EB
330
65
100
AcDbEntity
  8
MO_001_VIEW_PV
  6
C_SOLID_M
100
AcDbVertex
100
AcDb2dVertex
 10
-3.319266
 20
-39.384799
 30
0.0
  0
VERTEX
  5
1EC
330
65
100
AcDbEntity
  8
MO_001_VIEW_PV
  6
C_SOLID_M
100
AcDbVertex
100
AcDb2dVertex
 10
-3.601505999999998
 20
-39.342814
 30
0.0
  0
VERTEX
  5
1ED
330
65
100
AcDbEntity
  8
MO_001_VIEW_PV
  6
C_SOLID_M
100
AcDbVertex
100
AcDb2dVertex
 10
-4.044459999999999
 20
-39.301749
 30
0.0
  0
VERTEX
  5
1EE
330
65
100
AcDbEntity
  8
MO_001_VIEW_PV
  6
C_SOLID_M
100
AcDbVertex
100
AcDb2dVertex
 10
-4.5
 20
-39.287933
 30
0.0
  0
VERTEX
  5
1EF
330
65
100
AcDbEntity
  8
MO_001_VIEW_PV
  6
C_SOLID_M
100
AcDbVertex
100
AcDb2dVertex
 10
-4.911584999999998
 20
-39.299197
 30
0.0
  0
VERTEX
  5
1F0
330
65
100
AcDbEntity
  8
MO_001_VIEW_PV
  6
C_SOLID_M
100
AcDbVertex
100
AcDb2dVertex
 10
-5.289196999999998
 20
-39.32999699999999
 30
0.0
  0
VERTEX
  5
1F1
330
65
100
AcDbEntity
  8
MO_001_VIEW_PV
  6
C_SOLID_M
100
AcDbVertex
100
AcDb2dVertex
 10
-5.629152999999998
 20
-39.37611799999999
 30
0.0
  0
VERTEX
  5
1F2
330
65
100
AcDbEntity
  8
MO_001_VIEW_PV
  6
C_SOLID_M
100
AcDbVertex
100
AcDb2dVertex
 10
-5.930114999999998
 20
-39.433793
 30
0.0
  0
VERTEX
  5
1F3
330
65
100
AcDbEntity
  8
MO_001_VIEW_PV
  6
C_SOLID_M
100
AcDbVertex
100
AcDb2dVertex
 10
-6.192473999999998
 20
-39.499753
 30
0.0
  0
VERTEX
  5
1F4
330
65
100
AcDbEntity
  8
MO_001_VIEW_PV
  6
C_SOLID_M
100
AcDbVertex
100
AcDb2dVertex
 10
-6.417819
 20
-39.57124
 30
0.0
  0
VERTEX
  5
1F5
330
65
100
AcDbEntity
  8
MO_001_VIEW_PV
  6
C_SOLID_M
100
AcDbVertex
100
AcDb2dVertex
 10
-6.608531
 20
-39.645974
 30
0.0
  0
VERTEX
  5
1F6
330
65
100
AcDbEntity
  8
MO_001_VIEW_PV
  6
C_SOLID_M
100
AcDbVertex
100
AcDb2dVertex
 10
-6.767452
 20
-39.722112
 30
0.0
  0
VERTEX
  5
1F7
330
65
100
AcDbEntity
  8
MO_001_VIEW_PV
  6
C_SOLID_M
100
AcDbVertex
100
AcDb2dVertex
 10
-6.897649999999998
 20
-39.79820099999999
 30
0.0
  0
VERTEX
  5
1F8
330
65
100
AcDbEntity
  8
MO_001_VIEW_PV
  6
C_SOLID_M
100
AcDbVertex
100
AcDb2dVertex
 10
-7.002241
 20
-39.873118
 30
0.0
  0
VERTEX
  5
1F9
330
65
100
AcDbEntity
  8
MO_001_VIEW_PV
  6
C_SOLID_M
100
AcDbVertex
100
AcDb2dVertex
 10
-7.084264
 20
-39.946023
 30
0.0
  0
VERTEX
  5
1FA
330
65
100
AcDbEntity
  8
MO_001_VIEW_PV
  6
C_SOLID_M
100
AcDbVertex
100
AcDb2dVertex
 10
-7.146607
 20
-40.01630699999998
 30
0.0
  0
VERTEX
  5
1FB
330
65
100
AcDbEntity
  8
MO_001_VIEW_PV
  6
C_SOLID_M
100
AcDbVertex
100
AcDb2dVertex
 10
-7.19195
 20
-40.08355
 30
0.0
  0
VERTEX
  5
1FC
330
65
100
AcDbEntity
  8
MO_001_VIEW_PV
  6
C_SOLID_M
100
AcDbVertex
100
AcDb2dVertex
 10
-7.222742999999998
 20
-40.147487
 30
0.0
  0
VERTEX
  5
1FD
330
65
100
AcDbEntity
  8
MO_001_VIEW_PV
  6
C_SOLID_M
100
AcDbVertex
100
AcDb2dVertex
 10
-7.241194
 20
-40.20797
 30
0.0
  0
VERTEX
  5
1FE
330
65
100
AcDbEntity
  8
MO_001_VIEW_PV
  6
C_SOLID_M
100
AcDbVertex
100
AcDb2dVertex
 10
-7.248403999999997
 20
-40.32199799999999
 30
0.0
  0
VERTEX
  5
1FF
330
65
100
AcDbEntity
  8
MO_001_VIEW_PV
  6
C_SOLID_M
100
AcDbVertex
100
AcDb2dVertex
 10
-7.225374999999998
 20
-40.421459
 30
0.0
  0
VERTEX
  5
200
330
65
100
AcDbEntity
  8
MO_001_VIEW_PV
  6
C_SOLID_M
100
AcDbVertex
100
AcDb2dVertex
 10
-7.182935999999998
 20
-40.50742999999999
 30
0.0
  0
VERTEX
  5
201
330
65
100
AcDbEntity
  8
MO_001_VIEW_PV
  6
C_SOLID_M
100
AcDbVertex
100
AcDb2dVertex
 10
-7.128997
 20
-40.58130300000001
 30
0.0
  0
VERTEX
  5
202
330
65
100
AcDbEntity
  8
MO_001_VIEW_PV
  6
C_SOLID_M
100
AcDbVertex
100
AcDb2dVertex
 10
-7.069188999999998
 20
-40.64455099999999
 30
0.0
  0
VERTEX
  5
203
330
65
100
AcDbEntity
  8
MO_001_VIEW_PV
  6
C_SOLID_M
100
AcDbVertex
100
AcDb2dVertex
 10
-6.93706
 20
-40.75122899999999
 30
0.0
  0
VERTEX
  5
204
330
65
100
AcDbEntity
  8
MO_001_VIEW_PV
  6
C_SOLID_M
100
AcDbVertex
100
AcDb2dVertex
 10
-6.815953999999998
 20
-40.827153
 30
0.0
  0
VERTEX
  5
205
330
65
100
AcDbEntity
  8
MO_001_VIEW_PV
  6
C_SOLID_M
100
AcDbVertex
100
AcDb2dVertex
 10
-6.601172
 20
-40.933076
 30
0.0
  0
VERTEX
  5
206
330
65
100
AcDbEntity
  8
MO_001_VIEW_PV
  6
C_SOLID_M
100
AcDbVertex
100
AcDb2dVertex
 10
-6.349998
 20
-41.027824
 30
0.0
  0
SEQEND
  5
207
330
65
100
AcDbEntity
  8
MO_001_VIEW_PV
  6
C_SOLID_M
  0
CIRCLE
  5
99
330
1E
100
AcDbEntity
  8
MO_001_VIEW_PV
  6
C_SOLID_M
100
AcDbCircle
 10
117.0
 20
0.0
 30
0.0
 40
42.850006
  0
CIRCLE
  5
9A
330
1E
100
AcDbEntity
  8
MO_001_VIEW_PV
  6
C_SOLID_M
100
AcDbCircle
 10
117.0
 20
0.0
 30
0.0
 40
41.800003
  0
LINE
  5
9B
330
1E
100
AcDbEntity
  8
MO_001_VIEW_PV
  6
C_CENTER_L
100
AcDbLine
 10
162.0
 20
0.0
 30
0.0
 11
72.0
 21
0.0
 31
0.0
  0
LINE
  5
9C
330
1E
100
AcDbEntity
  8
MO_001_VIEW_PV
  6
C_CENTER_L
100
AcDbLine
 10
117.0
 20
45.0
 30
0.0
 11
117.0
 21
-47.850006
 31
0.0
  0
LINE
  5
9D
330
1E
100
AcDbEntity
  8
MO_001_VIEW_PV
  6
C_SOLID_M
100
AcDbLine
 10
28.599983
 20
-42.850006
 30
0.0
 11
28.599983
 21
42.850014
 31
0.0
  0
LINE
  5
9E
330
1E
100
AcDbEntity
  8
MO_001_VIEW_PV
  6
C_SOLID_M
100
AcDbLine
 10
30.0
 20
-37.700001
 30
0.0
 11
30.0
 21
37.700001
 31
0.0
  0
LINE
  5
9F
330
1E
100
AcDbEntity
  8
MO_001_VIEW_PV
  6
C_SOLID_M
100
AcDbLine
 10
29.39999399999999
 20
38.200001
 30
0.0
 11
29.5
 21
38.200001
 31
0.0
  0
LINE
  5
A0
330
1E
100
AcDbEntity
  8
MO_001_VIEW_PV
  6
C_SOLID_M
100
AcDbLine
 10
29.39999399999999
 20
-38.200001
 30
0.0
 11
29.5
 21
-38.200001
 31
0.0
  0
LINE
  5
A1
330
1E
100
AcDbEntity
  8
MO_001_VIEW_PV
  6
C_SOLID_M
100
AcDbLine
 10
29.500001
 20
-38.200003
 30
0.0
 11
30.000001
 21
-37.700005
 31
0.0
  0
LINE
  5
A2
330
1E
100
AcDbEntity
  8
MO_001_VIEW_PV
  6
C_SOLID_M
100
AcDbLine
 10
29.500001
 20
38.200003
 30
0.0
 11
30.000001
 21
37.700005
 31
0.0
  0
LINE
  5
A3
330
1E
100
AcDbEntity
  8
MO_001_VIEW_PV
  6
C_SOLID_M
100
AcDbLine
 10
29.5
 20
-38.19999699999998
 30
0.0
 11
29.5
 21
38.19999699999998
 31
0.0
  0
LINE
  5
A4
330
1E
100
AcDbEntity
  8
MO_001_VIEW_PV
  6
C_SOLID_M
100
AcDbLine
 10
52.19999699999998
 20
25.0
 30
0.0
 11
52.19999699999998
 21
29.0
 31
0.0
  0
LINE
  5
A5
330
1E
100
AcDbEntity
  8
MO_001_VIEW_PV
  6
C_CENTER_L
100
AcDbLine
 10
24.174385
 20
27.0
 30
0.0
 11
53.93991899999999
 21
27.0
 31
0.0
  0
LINE
  5
A6
330
1E
100
AcDbEntity
  8
MO_001_VIEW_PV
  6
C_SOLID_M
100
AcDbLine
 10
30.0
 20
30.0
 30
0.0
 11
51.199997
 21
30.0
 31
0.0
  0
LINE
  5
A7
330
1E
100
AcDbEntity
  8
MO_001_VIEW_PV
  6
C_SOLID_M
100
AcDbLine
 10
30.0
 20
24.0
 30
0.0
 11
51.199997
 21
24.0
 31
0.0
  0
LINE
  5
A8
330
1E
100
AcDbEntity
  8
MO_001_VIEW_PV
  6
C_SOLID_L
100
AcDbLine
 10
30.0
 20
29.0
 30
0.0
 11
52.19999699999998
 21
29.0
 31
0.0
  0
LINE
  5
A9
330
1E
100
AcDbEntity
  8
MO_001_VIEW_PV
  6
C_SOLID_L
100
AcDbLine
 10
30.0
 20
25.0
 30
0.0
 11
52.19999699999998
 21
25.0
 31
0.0
  0
LINE
  5
AA
330
1E
100
AcDbEntity
  8
MO_001_VIEW_PV
  6
C_SOLID_M
100
AcDbLine
 10
51.199997
 20
24.0
 30
0.0
 11
51.199997
 21
30.0
 31
0.0
  0
LINE
  5
AB
330
1E
100
AcDbEntity
  8
MO_001_VIEW_PV
  6
C_SOLID_M
100
AcDbLine
 10
51.19999299999999
 20
29.999997
 30
0.0
 11
52.199992
 21
28.99999799999999
 31
0.0
  0
LINE
  5
AC
330
1E
100
AcDbEntity
  8
MO_001_VIEW_PV
  6
C_SOLID_M
100
AcDbLine
 10
52.199994
 20
25.000002
 30
0.0
 11
51.19999299999999
 21
24.000001
 31
0.0
  0
LINE
  5
AD
330
1E
100
AcDbEntity
  8
MO_001_VIEW_PV
  6
C_SOLID_M
100
AcDbLine
 10
52.19999699999998
 20
-25.0
 30
0.0
 11
52.19999699999998
 21
-29.0
 31
0.0
  0
LINE
  5
AE
330
1E
100
AcDbEntity
  8
MO_001_VIEW_PV
  6
C_CENTER_L
100
AcDbLine
 10
24.174385
 20
-27.0
 30
0.0
 11
54.387001
 21
-27.0
 31
0.0
  0
LINE
  5
AF
330
1E
100
AcDbEntity
  8
MO_001_VIEW_PV
  6
C_SOLID_M
100
AcDbLine
 10
30.0
 20
-30.0
 30
0.0
 11
51.199997
 21
-30.0
 31
0.0
  0
LINE
  5
B0
330
1E
100
AcDbEntity
  8
MO_001_VIEW_PV
  6
C_SOLID_M
100
AcDbLine
 10
30.0
 20
-24.0
 30
0.0
 11
51.199997
 21
-24.0
 31
0.0
  0
LINE
  5
B1
330
1E
100
AcDbEntity
  8
MO_001_VIEW_PV
  6
C_SOLID_L
100
AcDbLine
 10
30.0
 20
-29.0
 30
0.0
 11
52.19999699999998
 21
-29.0
 31
0.0
  0
LINE
  5
B2
330
1E
100
AcDbEntity
  8
MO_001_VIEW_PV
  6
C_SOLID_L
100
AcDbLine
 10
30.0
 20
-25.0
 30
0.0
 11
52.19999699999998
 21
-25.0
 31
0.0
  0
LINE
  5
B3
330
1E
100
AcDbEntity
  8
MO_001_VIEW_PV
  6
C_SOLID_M
100
AcDbLine
 10
51.199997
 20
-24.0
 30
0.0
 11
51.199997
 21
-30.0
 31
0.0
  0
LINE
  5
B4
330
1E
100
AcDbEntity
  8
MO_001_VIEW_PV
  6
C_SOLID_M
100
AcDbLine
 10
51.19999299999999
 20
-29.999997
 30
0.0
 11
52.199992
 21
-28.99999799999999
 31
0.0
  0
LINE
  5
B5
330
1E
100
AcDbEntity
  8
MO_001_VIEW_PV
  6
C_SOLID_M
100
AcDbLine
 10
52.199994
 20
-25.000002
 30
0.0
 11
51.19999299999999
 21
-24.000001
 31
0.0
  0
LINE
  5
B6
330
1E
100
AcDbEntity
  8
MO_001_VIEW_PV
  6
C_SOLID_M
100
AcDbLine
 10
52.19999699999998
 20
-5.355
 30
0.0
 11
52.19999699999998
 21
5.355
 31
0.0
  0
LINE
  5
B7
330
1E
100
AcDbEntity
  8
MO_001_VIEW_PV
  6
C_SOLID_M
100
AcDbLine
 10
52.0
 20
-5.554999999999998
 30
0.0
 11
52.0
 21
5.554999999999998
 31
0.0
  0
LINE
  5
B8
330
1E
100
AcDbEntity
  8
MO_001_VIEW_PV
  6
C_SOLID_M
100
AcDbLine
 10
-38.600002
 20
-5.409412
 30
0.0
 11
-38.600002
 21
5.409412
 31
0.0
  0
LINE
  5
B9
330
1E
100
AcDbEntity
  8
MO_001_VIEW_PV
  6
C_SOLID_M
100
AcDbLine
 10
-38.20000499999999
 20
-5.554999999999998
 30
0.0
 11
-38.20000499999999
 21
5.554999999999998
 31
0.0
  0
CIRCLE
  5
BA
330
1E
100
AcDbEntity
  8
MO_001_VIEW_PV
  6
C_SOLID_M
100
AcDbCircle
 10
117.0
 20
0.0
 30
0.0
 40
7.15
  0
LINE
  5
BB
330
1E
100
AcDbEntity
  8
MO_001_VIEW_PV
  6
C_CENTER_L
100
AcDbLine
 10
124.550003
 20
27.0
 30
0.0
 11
109.4499969999999
 21
27.0
 31
0.0
  0
CIRCLE
  5
BC
330
1E
100
AcDbEntity
  8
MO_001_VIEW_PV
  6
C_SOLID_M
100
AcDbCircle
 10
117.0
 20
27.0
 30
0.0
 40
3.0
  0
CIRCLE
  5
BD
330
1E
100
AcDbEntity
  8
MO_001_VIEW_PV
  6
C_SOLID_L
100
AcDbCircle
 10
117.0
 20
27.0
 30
0.0
 40
2.0
  0
CIRCLE
  5
BE
330
1E
100
AcDbEntity
  8
MO_001_VIEW_PV
  6
C_SOLID_M
100
AcDbCircle
 10
117.0
 20
27.0
 30
0.0
 40
5.549999999999998
  0
LINE
  5
BF
330
1E
100
AcDbEntity
  8
MO_001_VIEW_PV
  6
C_CENTER_L
100
AcDbLine
 10
124.550003
 20
-27.0
 30
0.0
 11
109.4499969999999
 21
-27.0
 31
0.0
  0
CIRCLE
  5
C0
330
1E
100
AcDbEntity
  8
MO_001_VIEW_PV
  6
C_SOLID_M
100
AcDbCircle
 10
117.0
 20
-27.0
 30
0.0
 40
3.0
  0
CIRCLE
  5
C1
330
1E
100
AcDbEntity
  8
MO_001_VIEW_PV
  6
C_SOLID_L
100
AcDbCircle
 10
117.0
 20
-27.0
 30
0.0
 40
2.0
  0
CIRCLE
  5
C2
330
1E
100
AcDbEntity
  8
MO_001_VIEW_PV
  6
C_SOLID_M
100
AcDbCircle
 10
117.0
 20
-27.0
 30
0.0
 40
5.549999999999998
  0
CIRCLE
  5
C3
330
1E
100
AcDbEntity
  8
MO_001_VIEW_PV
  6
C_SOLID_M
100
AcDbCircle
 10
117.0
 20
0.0
 30
0.0
 40
38.200001
  0
CIRCLE
  5
C4
330
1E
100
AcDbEntity
  8
MO_001_VIEW_PV
  6
C_SOLID_M
100
AcDbCircle
 10
117.0
 20
0.0
 30
0.0
 40
37.700005
  0
CIRCLE
  5
C5
330
1E
100
AcDbEntity
  8
MO_001_VIEW_PV
  6
C_SOLID_M
100
AcDbCircle
 10
-90.0
 20
0.0
 30
0.0
 40
37.5
  0
LINE
  5
C6
330
1E
100
AcDbEntity
  8
MO_001_VIEW_PV
  6
C_SOLID_M
100
AcDbLine
 10
-2.650002
 20
-39.54804199999998
 30
0.0
 11
-2.650002
 21
-62.850006
 31
0.0
  0
LINE
  5
C7
330
1E
100
AcDbEntity
  8
MO_001_VIEW_PV
  6
C_SOLID_M
100
AcDbLine
 10
-6.349998
 20
-39.54804199999998
 30
0.0
 11
-6.349998
 21
-62.850006
 31
0.0
  0
LINE
  5
C8
330
1E
100
AcDbEntity
  8
MO_001_VIEW_PV
  6
C_SOLID_M
100
AcDbLine
 10
-6.349998
 20
-62.850006
 30
0.0
 11
-2.650002
 21
-62.850006
 31
0.0
  0
LINE
  5
C9
330
1E
100
AcDbEntity
  8
MO_001_VIEW_PV
  6
C_SOLID_M
100
AcDbLine
 10
-8.299988
 20
-42.850006
 30
0.0
 11
-6.349998
 21
-42.850006
 31
0.0
  0
LINE
  5
CA
330
1E
100
AcDbEntity
  8
MO_001_VIEW_PV
  6
C_SOLID_M
100
AcDbLine
 10
-3.464999999999998
 20
-62.850006
 30
0.0
 11
-3.464999999999998
 21
-70.850014
 31
0.0
  0
LINE
  5
CB
330
1E
100
AcDbEntity
  8
MO_001_VIEW_PV
  6
C_SOLID_M
100
AcDbLine
 10
-5.535
 20
-62.850006
 30
0.0
 11
-5.535
 21
-70.850014
 31
0.0
  0
ARC
  5
CC
330
1E
100
AcDbEntity
  8
MO_001_VIEW_PV
  6
C_SOLID_M
100
AcDbCircle
 10
-3.982501999999998
 20
-71.26061999999997
 30
0.0
 40
0.660612
100
AcDbArc
 50
38.430596
 51
141.569399
  0
ARC
  5
CD
330
1E
100
AcDbEntity
  8
MO_001_VIEW_PV
  6
C_SOLID_M
100
AcDbCircle
 10
-5.017498
 20
-70.439392
 30
0.0
 40
0.660612
100
AcDbArc
 50
218.4306009999999
 51
321.569404
  0
ARC
  5
CE
330
1E
100
AcDbEntity
  8
MO_001_VIEW_PV
  6
C_SOLID_M
100
AcDbCircle
 10
-3.982501999999998
 20
-70.439392
 30
0.0
 40
0.660612
100
AcDbArc
 50
218.4306009999999
 51
321.569404
  0
ARC
  5
CF
330
1E
100
AcDbEntity
  8
MO_001_VIEW_PV
  6
C_SOLID_M
100
AcDbCircle
 10
-5.017498
 20
-72.26061999999997
 30
0.0
 40
0.660612
100
AcDbArc
 50
38.430596
 51
141.569399
  0
ARC
  5
D0
330
1E
100
AcDbEntity
  8
MO_001_VIEW_PV
  6
C_SOLID_M
100
AcDbCircle
 10
-5.017498
 20
-71.439392
 30
0.0
 40
0.660612
100
AcDbArc
 50
218.4306009999999
 51
321.569404
  0
ARC
  5
D1
330
1E
100
AcDbEntity
  8
MO_001_VIEW_PV
  6
C_SOLID_M
100
AcDbCircle
 10
-3.982501999999998
 20
-72.26061999999997
 30
0.0
 40
0.660612
100
AcDbArc
 50
38.430596
 51
141.569399
  0
LINE
  5
D2
330
1E
100
AcDbEntity
  8
MO_001_VIEW_PV
  6
C_SOLID_M
100
AcDbLine
 10
-5.534995999999998
 20
-71.85000600000002
 30
0.0
 11
-5.534995999999998
 21
-76.35000600000002
 31
0.0
  0
LINE
  5
D3
330
1E
100
AcDbEntity
  8
MO_001_VIEW_PV
  6
C_SOLID_M
100
AcDbLine
 10
-3.465003999999998
 20
-71.85000600000002
 30
0.0
 11
-3.465003999999998
 21
-76.35000600000002
 31
0.0
  0
LINE
  5
D4
330
1E
100
AcDbEntity
  8
MO_001_VIEW_PV
  6
C_SOLID_M
100
AcDbLine
 10
-5.534995999999998
 20
-76.35000600000002
 30
0.0
 11
-3.465003999999998
 21
-76.35000600000002
 31
0.0
  0
LINE
  5
D5
330
1E
100
AcDbEntity
  8
MO_001_VIEW_PV
  6
C_SOLID_M
100
AcDbLine
 10
-4.0
 20
-76.35000600000002
 30
0.0
 11
-4.0
 21
-81.35000600000003
 31
0.0
  0
LINE
  5
D6
330
1E
100
AcDbEntity
  8
MO_001_VIEW_PV
  6
C_SOLID_M
100
AcDbLine
 10
-5.0
 20
-76.35000600000002
 30
0.0
 11
-5.0
 21
-81.35000600000003
 31
0.0
  0
LINE
  5
D7
330
1E
100
AcDbEntity
  8
MO_001_VIEW_PV
  6
C_SOLID_M
100
AcDbLine
 10
-5.0
 20
-81.35000600000003
 30
0.0
 11
-4.0
 21
-81.35000600000003
 31
0.0
  0
LINE
  5
D8
330
1E
100
AcDbEntity
  8
MO_001_VIEW_PV
  6
C_SOLID_M
100
AcDbLine
 10
-73.849998
 20
-39.690056
 30
0.0
 11
-73.849998
 21
-62.850006
 31
0.0
  0
LINE
  5
D9
330
1E
100
AcDbEntity
  8
MO_001_VIEW_PV
  6
C_SOLID_M
100
AcDbLine
 10
-77.549995
 20
-41.001469
 30
0.0
 11
-77.549995
 21
-62.850006
 31
0.0
  0
LINE
  5
DA
330
1E
100
AcDbEntity
  8
MO_001_VIEW_PV
  6
C_SOLID_M
100
AcDbLine
 10
-77.549995
 20
-62.850006
 30
0.0
 11
-73.849998
 21
-62.850006
 31
0.0
  0
LINE
  5
DB
330
1E
100
AcDbEntity
  8
MO_001_VIEW_PV
  6
C_SOLID_M
100
AcDbLine
 10
-74.66499300000002
 20
-62.850006
 30
0.0
 11
-74.66499300000002
 21
-70.850014
 31
0.0
  0
LINE
  5
DC
330
1E
100
AcDbEntity
  8
MO_001_VIEW_PV
  6
C_SOLID_M
100
AcDbLine
 10
-76.735001
 20
-62.850006
 30
0.0
 11
-76.735001
 21
-70.850014
 31
0.0
  0
ARC
  5
DD
330
1E
100
AcDbEntity
  8
MO_001_VIEW_PV
  6
C_SOLID_M
100
AcDbCircle
 10
-75.18249499999997
 20
-71.26061999999997
 30
0.0
 40
0.660612
100
AcDbArc
 50
38.430596
 51
141.569399
  0
ARC
  5
DE
330
1E
100
AcDbEntity
  8
MO_001_VIEW_PV
  6
C_SOLID_M
100
AcDbCircle
 10
-76.21749900000001
 20
-70.439392
 30
0.0
 40
0.660612
100
AcDbArc
 50
218.4306009999999
 51
321.569404
  0
ARC
  5
DF
330
1E
100
AcDbEntity
  8
MO_001_VIEW_PV
  6
C_SOLID_M
100
AcDbCircle
 10
-75.18249499999997
 20
-70.439392
 30
0.0
 40
0.660612
100
AcDbArc
 50
218.4306009999999
 51
321.569404
  0
ARC
  5
E0
330
1E
100
AcDbEntity
  8
MO_001_VIEW_PV
  6
C_SOLID_M
100
AcDbCircle
 10
-76.21749900000001
 20
-72.26061999999997
 30
0.0
 40
0.660612
100
AcDbArc
 50
38.430596
 51
141.569399
  0
ARC
  5
E1
330
1E
100
AcDbEntity
  8
MO_001_VIEW_PV
  6
C_SOLID_M
100
AcDbCircle
 10
-76.21749900000001
 20
-71.439392
 30
0.0
 40
0.660612
100
AcDbArc
 50
218.4306009999999
 51
321.569404
  0
ARC
  5
E2
330
1E
100
AcDbEntity
  8
MO_001_VIEW_PV
  6
C_SOLID_M
100
AcDbCircle
 10
-75.18249499999997
 20
-72.26061999999997
 30
0.0
 40
0.660612
100
AcDbArc
 50
38.430596
 51
141.569399
  0
LINE
  5
E3
330
1E
100
AcDbEntity
  8
MO_001_VIEW_PV
  6
C_SOLID_M
100
AcDbLine
 10
-76.734993
 20
-71.85000600000002
 30
0.0
 11
-76.734993
 21
-76.35000600000002
 31
0.0
  0
LINE
  5
E4
330
1E
100
AcDbEntity
  8
MO_001_VIEW_PV
  6
C_SOLID_M
100
AcDbLine
 10
-74.66500100000001
 20
-71.85000600000002
 30
0.0
 11
-74.66500100000001
 21
-76.35000600000002
 31
0.0
  0
LINE
  5
E5
330
1E
100
AcDbEntity
  8
MO_001_VIEW_PV
  6
C_SOLID_M
100
AcDbLine
 10
-76.734993
 20
-76.35000600000002
 30
0.0
 11
-74.66500100000001
 21
-76.35000600000002
 31
0.0
  0
LINE
  5
E6
330
1E
100
AcDbEntity
  8
MO_001_VIEW_PV
  6
C_SOLID_M
100
AcDbLine
 10
-75.19999699999998
 20
-76.35000600000002
 30
0.0
 11
-75.19999699999998
 21
-81.35000600000003
 31
0.0
  0
LINE
  5
E7
330
1E
100
AcDbEntity
  8
MO_001_VIEW_PV
  6
C_SOLID_M
100
AcDbLine
 10
-76.199997
 20
-76.35000600000002
 30
0.0
 11
-76.199997
 21
-81.35000600000003
 31
0.0
  0
LINE
  5
E8
330
1E
100
AcDbEntity
  8
MO_001_VIEW_PV
  6
C_SOLID_M
100
AcDbLine
 10
-76.199997
 20
-81.35000600000003
 30
0.0
 11
-75.19999699999998
 21
-81.35000600000003
 31
0.0
  0
LINE
  5
E9
330
1E
100
AcDbEntity
  8
MO_001_VIEW_PV
  6
C_SOLID_M
100
AcDbLine
 10
-102.450012
 20
-41.001465
 30
0.0
 11
-102.450012
 21
-62.850006
 31
0.0
  0
LINE
  5
EA
330
1E
100
AcDbEntity
  8
MO_001_VIEW_PV
  6
C_SOLID_M
100
AcDbLine
 10
-106.149994
 20
-39.69005999999998
 30
0.0
 11
-106.149994
 21
-62.850006
 31
0.0
  0
LINE
  5
EB
330
1E
100
AcDbEntity
  8
MO_001_VIEW_PV
  6
C_SOLID_M
100
AcDbLine
 10
-106.149994
 20
-62.850006
 30
0.0
 11
-102.450012
 21
-62.850006
 31
0.0
  0
LINE
  5
EC
330
1E
100
AcDbEntity
  8
MO_001_VIEW_PV
  6
C_SOLID_M
100
AcDbLine
 10
-103.264999
 20
-62.850006
 30
0.0
 11
-103.264999
 21
-70.850014
 31
0.0
  0
LINE
  5
ED
330
1E
100
AcDbEntity
  8
MO_001_VIEW_PV
  6
C_SOLID_M
100
AcDbLine
 10
-105.335007
 20
-62.850006
 30
0.0
 11
-105.335007
 21
-70.850014
 31
0.0
  0
ARC
  5
EE
330
1E
100
AcDbEntity
  8
MO_001_VIEW_PV
  6
C_SOLID_M
100
AcDbCircle
 10
-103.7825009999999
 20
-71.26061999999997
 30
0.0
 40
0.660612
100
AcDbArc
 50
38.430596
 51
141.569399
  0
ARC
  5
EF
330
1E
100
AcDbEntity
  8
MO_001_VIEW_PV
  6
C_SOLID_M
100
AcDbCircle
 10
-104.817505
 20
-70.439392
 30
0.0
 40
0.660612
100
AcDbArc
 50
218.4306009999999
 51
321.569404
  0
ARC
  5
F0
330
1E
100
AcDbEntity
  8
MO_001_VIEW_PV
  6
C_SOLID_M
100
AcDbCircle
 10
-103.7825009999999
 20
-70.439392
 30
0.0
 40
0.660612
100
AcDbArc
 50
218.4306009999999
 51
321.569404
  0
ARC
  5
F1
330
1E
100
AcDbEntity
  8
MO_001_VIEW_PV
  6
C_SOLID_M
100
AcDbCircle
 10
-104.817505
 20
-72.26061999999997
 30
0.0
 40
0.660612
100
AcDbArc
 50
38.430596
 51
141.569399
  0
ARC
  5
F2
330
1E
100
AcDbEntity
  8
MO_001_VIEW_PV
  6
C_SOLID_M
100
AcDbCircle
 10
-104.817505
 20
-71.439392
 30
0.0
 40
0.660612
100
AcDbArc
 50
218.4306009999999
 51
321.569404
  0
ARC
  5
F3
330
1E
100
AcDbEntity
  8
MO_001_VIEW_PV
  6
C_SOLID_M
100
AcDbCircle
 10
-103.7825009999999
 20
-72.26061999999997
 30
0.0
 40
0.660612
100
AcDbArc
 50
38.430596
 51
141.569399
  0
LINE
  5
F4
330
1E
100
AcDbEntity
  8
MO_001_VIEW_PV
  6
C_SOLID_M
100
AcDbLine
 10
-105.3349909999999
 20
-71.85000600000002
 30
0.0
 11
-105.3349909999999
 21
-76.35000600000002
 31
0.0
  0
LINE
  5
F5
330
1E
100
AcDbEntity
  8
MO_001_VIEW_PV
  6
C_SOLID_M
100
AcDbLine
 10
-103.265015
 20
-71.85000600000002
 30
0.0
 11
-103.265015
 21
-76.35000600000002
 31
0.0
  0
LINE
  5
F6
330
1E
100
AcDbEntity
  8
MO_001_VIEW_PV
  6
C_SOLID_M
100
AcDbLine
 10
-105.3349909999999
 20
-76.35000600000002
 30
0.0
 11
-103.265015
 21
-76.35000600000002
 31
0.0
  0
LINE
  5
F7
330
1E
100
AcDbEntity
  8
MO_001_VIEW_PV
  6
C_SOLID_M
100
AcDbLine
 10
-103.800003
 20
-76.35000600000002
 30
0.0
 11
-103.800003
 21
-81.35000600000003
 31
0.0
  0
LINE
  5
F8
330
1E
100
AcDbEntity
  8
MO_001_VIEW_PV
  6
C_SOLID_M
100
AcDbLine
 10
-104.800003
 20
-76.35000600000002
 30
0.0
 11
-104.800003
 21
-81.35000600000003
 31
0.0
  0
LINE
  5
F9
330
1E
100
AcDbEntity
  8
MO_001_VIEW_PV
  6
C_SOLID_M
100
AcDbLine
 10
-104.800003
 20
-81.35000600000003
 30
0.0
 11
-103.800003
 21
-81.35000600000003
 31
0.0
  0
LINE
  5
FA
330
1E
100
AcDbEntity
  8
MO_001_VIEW_PV
  6
C_SOLID_M
100
AcDbLine
 10
133.149994
 20
-39.690056
 30
0.0
 11
133.149994
 21
-62.850006
 31
0.0
  0
LINE
  5
FB
330
1E
100
AcDbEntity
  8
MO_001_VIEW_PV
  6
C_SOLID_M
100
AcDbLine
 10
129.450012
 20
-41.001469
 30
0.0
 11
129.450012
 21
-62.850006
 31
0.0
  0
LINE
  5
FC
330
1E
100
AcDbEntity
  8
MO_001_VIEW_PV
  6
C_SOLID_M
100
AcDbLine
 10
129.450012
 20
-62.850006
 30
0.0
 11
133.149994
 21
-62.850006
 31
0.0
  0
LINE
  5
FD
330
1E
100
AcDbEntity
  8
MO_001_VIEW_PV
  6
C_SOLID_M
100
AcDbLine
 10
132.335022
 20
-62.850006
 30
0.0
 11
132.335022
 21
-70.850014
 31
0.0
  0
LINE
  5
FE
330
1E
100
AcDbEntity
  8
MO_001_VIEW_PV
  6
C_SOLID_M
100
AcDbLine
 10
130.2649989999999
 20
-62.850006
 30
0.0
 11
130.2649989999999
 21
-70.850014
 31
0.0
  0
ARC
  5
FF
330
1E
100
AcDbEntity
  8
MO_001_VIEW_PV
  6
C_SOLID_M
100
AcDbCircle
 10
131.817505
 20
-71.26061999999997
 30
0.0
 40
0.660612
100
AcDbArc
 50
38.430596
 51
141.569399
  0
ARC
  5
100
330
1E
100
AcDbEntity
  8
MO_001_VIEW_PV
  6
C_SOLID_M
100
AcDbCircle
 10
130.7825009999999
 20
-70.439392
 30
0.0
 40
0.660612
100
AcDbArc
 50
218.4306009999999
 51
321.569404
  0
ARC
  5
101
330
1E
100
AcDbEntity
  8
MO_001_VIEW_PV
  6
C_SOLID_M
100
AcDbCircle
 10
131.817505
 20
-70.439392
 30
0.0
 40
0.660612
100
AcDbArc
 50
218.4306009999999
 51
321.569404
  0
ARC
  5
102
330
1E
100
AcDbEntity
  8
MO_001_VIEW_PV
  6
C_SOLID_M
100
AcDbCircle
 10
130.7825009999999
 20
-72.26061999999997
 30
0.0
 40
0.660612
100
AcDbArc
 50
38.430596
 51
141.569399
  0
ARC
  5
103
330
1E
100
AcDbEntity
  8
MO_001_VIEW_PV
  6
C_SOLID_M
100
AcDbCircle
 10
130.7825009999999
 20
-71.439392
 30
0.0
 40
0.660612
100
AcDbArc
 50
218.4306009999999
 51
321.569404
  0
ARC
  5
104
330
1E
100
AcDbEntity
  8
MO_001_VIEW_PV
  6
C_SOLID_M
100
AcDbCircle
 10
131.817505
 20
-72.26061999999997
 30
0.0
 40
0.660612
100
AcDbArc
 50
38.430596
 51
141.569399
  0
LINE
  5
105
330
1E
100
AcDbEntity
  8
MO_001_VIEW_PV
  6
C_SOLID_M
100
AcDbLine
 10
130.2650149999998
 20
-71.85000600000002
 30
0.0
 11
130.2650149999998
 21
-76.35000600000002
 31
0.0
  0
LINE
  5
106
330
1E
100
AcDbEntity
  8
MO_001_VIEW_PV
  6
C_SOLID_M
100
AcDbLine
 10
132.334991
 20
-71.85000600000002
 30
0.0
 11
132.334991
 21
-76.35000600000002
 31
0.0
  0
LINE
  5
107
330
1E
100
AcDbEntity
  8
MO_001_VIEW_PV
  6
C_SOLID_M
100
AcDbLine
 10
130.2650149999998
 20
-76.35000600000002
 30
0.0
 11
132.334991
 21
-76.35000600000002
 31
0.0
  0
LINE
  5
108
330
1E
100
AcDbEntity
  8
MO_001_VIEW_PV
  6
C_SOLID_M
100
AcDbLine
 10
131.7999879999999
 20
-76.35000600000002
 30
0.0
 11
131.7999879999999
 21
-81.35000600000003
 31
0.0
  0
LINE
  5
109
330
1E
100
AcDbEntity
  8
MO_001_VIEW_PV
  6
C_SOLID_M
100
AcDbLine
 10
130.800003
 20
-76.35000600000002
 30
0.0
 11
130.800003
 21
-81.35000600000003
 31
0.0
  0
LINE
  5
10A
330
1E
100
AcDbEntity
  8
MO_001_VIEW_PV
  6
C_SOLID_M
100
AcDbLine
 10
130.800003
 20
-81.35000600000003
 30
0.0
 11
131.7999879999999
 21
-81.35000600000003
 31
0.0
  0
LINE
  5
10B
330
1E
100
AcDbEntity
  8
MO_001_VIEW_PV
  6
C_SOLID_M
100
AcDbLine
 10
104.5499879999999
 20
-41.001465
 30
0.0
 11
104.5499879999999
 21
-62.850006
 31
0.0
  0
LINE
  5
10C
330
1E
100
AcDbEntity
  8
MO_001_VIEW_PV
  6
C_SOLID_M
100
AcDbLine
 10
100.850006
 20
-39.69005999999998
 30
0.0
 11
100.850006
 21
-62.850006
 31
0.0
  0
LINE
  5
10D
330
1E
100
AcDbEntity
  8
MO_001_VIEW_PV
  6
C_SOLID_M
100
AcDbLine
 10
100.850006
 20
-62.850006
 30
0.0
 11
104.5499879999999
 21
-62.850006
 31
0.0
  0
LINE
  5
10E
330
1E
100
AcDbEntity
  8
MO_001_VIEW_PV
  6
C_SOLID_M
100
AcDbLine
 10
103.7350009999999
 20
-62.850006
 30
0.0
 11
103.7350009999999
 21
-70.850014
 31
0.0
  0
LINE
  5
10F
330
1E
100
AcDbEntity
  8
MO_001_VIEW_PV
  6
C_SOLID_M
100
AcDbLine
 10
101.664993
 20
-62.850006
 30
0.0
 11
101.664993
 21
-70.850014
 31
0.0
  0
ARC
  5
110
330
1E
100
AcDbEntity
  8
MO_001_VIEW_PV
  6
C_SOLID_M
100
AcDbCircle
 10
103.217499
 20
-71.26061999999997
 30
0.0
 40
0.660612
100
AcDbArc
 50
38.430596
 51
141.569399
  0
ARC
  5
111
330
1E
100
AcDbEntity
  8
MO_001_VIEW_PV
  6
C_SOLID_M
100
AcDbCircle
 10
102.1824949999998
 20
-70.439392
 30
0.0
 40
0.660612
100
AcDbArc
 50
218.4306009999999
 51
321.569404
  0
ARC
  5
112
330
1E
100
AcDbEntity
  8
MO_001_VIEW_PV
  6
C_SOLID_M
100
AcDbCircle
 10
103.217499
 20
-70.439392
 30
0.0
 40
0.660612
100
AcDbArc
 50
218.4306009999999
 51
321.569404
  0
ARC
  5
113
330
1E
100
AcDbEntity
  8
MO_001_VIEW_PV
  6
C_SOLID_M
100
AcDbCircle
 10
102.1824949999998
 20
-72.26061999999997
 30
0.0
 40
0.660612
100
AcDbArc
 50
38.430596
 51
141.569399
  0
ARC
  5
114
330
1E
100
AcDbEntity
  8
MO_001_VIEW_PV
  6
C_SOLID_M
100
AcDbCircle
 10
102.1824949999998
 20
-71.439392
 30
0.0
 40
0.660612
100
AcDbArc
 50
218.4306009999999
 51
321.569404
  0
ARC
  5
115
330
1E
100
AcDbEntity
  8
MO_001_VIEW_PV
  6
C_SOLID_M
100
AcDbCircle
 10
103.217499
 20
-72.26061999999997
 30
0.0
 40
0.660612
100
AcDbArc
 50
38.430596
 51
141.569399
  0
LINE
  5
116
330
1E
100
AcDbEntity
  8
MO_001_VIEW_PV
  6
C_SOLID_M
100
AcDbLine
 10
101.6650089999999
 20
-71.85000600000002
 30
0.0
 11
101.6650089999999
 21
-76.35000600000002
 31
0.0
  0
LINE
  5
117
330
1E
100
AcDbEntity
  8
MO_001_VIEW_PV
  6
C_SOLID_M
100
AcDbLine
 10
103.734985
 20
-71.85000600000002
 30
0.0
 11
103.734985
 21
-76.35000600000002
 31
0.0
  0
LINE
  5
118
330
1E
100
AcDbEntity
  8
MO_001_VIEW_PV
  6
C_SOLID_M
100
AcDbLine
 10
101.6650089999999
 20
-76.35000600000002
 30
0.0
 11
103.734985
 21
-76.35000600000002
 31
0.0
  0
LINE
  5
119
330
1E
100
AcDbEntity
  8
MO_001_VIEW_PV
  6
C_SOLID_M
100
AcDbLine
 10
103.1999969999999
 20
-76.35000600000002
 30
0.0
 11
103.1999969999999
 21
-81.35000600000003
 31
0.0
  0
LINE
  5
11A
330
1E
100
AcDbEntity
  8
MO_001_VIEW_PV
  6
C_SOLID_M
100
AcDbLine
 10
102.1999969999999
 20
-76.35000600000002
 30
0.0
 11
102.1999969999999
 21
-81.35000600000003
 31
0.0
  0
LINE
  5
11B
330
1E
100
AcDbEntity
  8
MO_001_VIEW_PV
  6
C_SOLID_M
100
AcDbLine
 10
102.1999969999999
 20
-81.35000600000003
 30
0.0
 11
103.1999969999999
 21
-81.35000600000003
 31
0.0
  0
LINE
  5
11C
330
1E
100
AcDbEntity
  8
MO_001_VIEW_PV
  6
C_SOLID_M
100
AcDbLine
 10
-38.20000499999999
 20
5.554999999999998
 30
0.0
 11
-16.5
 21
5.554999999999998
 31
0.0
  0
LINE
  5
11D
330
1E
100
AcDbEntity
  8
MO_001_VIEW_PV
  6
C_SOLID_M
100
AcDbLine
 10
-38.20000499999999
 20
-5.554999999999998
 30
0.0
 11
-16.5
 21
-5.554999999999998
 31
0.0
  0
LINE
  5
11E
330
1E
100
AcDbEntity
  8
MO_001_VIEW_PV
  6
C_SOLID_M
100
AcDbLine
 10
52.19998799999999
 20
5.355004
 30
0.0
 11
51.999994
 21
5.555001999999999
 31
0.0
  0
LINE
  5
11F
330
1E
100
AcDbEntity
  8
MO_001_VIEW_PV
  6
C_SOLID_M
100
AcDbLine
 10
52.19998799999999
 20
-5.355004
 30
0.0
 11
51.999994
 21
-5.555001999999999
 31
0.0
  0
LINE
  5
120
330
1E
100
AcDbEntity
  8
MO_001_VIEW_PV
  6
C_SOLID_M
100
AcDbLine
 10
30.0
 20
5.554999999999998
 30
0.0
 11
52.0
 21
5.554999999999998
 31
0.0
  0
LINE
  5
121
330
1E
100
AcDbEntity
  8
MO_001_VIEW_PV
  6
C_SOLID_M
100
AcDbLine
 10
30.0
 20
-5.554999999999998
 30
0.0
 11
52.0
 21
-5.554999999999998
 31
0.0
  0
LINE
  5
122
330
1E
100
AcDbEntity
  8
MO_001_VIEW_PV
  6
C_SOLID_M
100
AcDbLine
 10
-38.200001
 20
5.554999999999998
 30
0.0
 11
-38.60000499999999
 21
5.409411
 31
0.0
  0
LINE
  5
123
330
1E
100
AcDbEntity
  8
MO_001_VIEW_PV
  6
C_SOLID_M
100
AcDbLine
 10
-38.200001
 20
-5.554999999999998
 30
0.0
 11
-38.60000499999999
 21
-5.409411
 31
0.0
  0
CIRCLE
  5
124
330
1E
100
AcDbEntity
  8
MO_001_VIEW_PV
  6
C_SOLID_M
100
AcDbCircle
 10
-90.0
 20
0.0
 30
0.0
 40
5.409412
  0
CIRCLE
  5
125
330
1E
100
AcDbEntity
  8
MO_001_VIEW_PV
  6
C_SOLID_M
100
AcDbCircle
 10
-90.0
 20
0.0
 30
0.0
 40
5.554999999999998
  0
CIRCLE
  5
126
330
1E
100
AcDbEntity
  8
MO_001_VIEW_PV
  6
C_SOLID_M
100
AcDbCircle
 10
117.0
 20
0.0
 30
0.0
 40
5.355
  0
CIRCLE
  5
127
330
1E
100
AcDbEntity
  8
MO_001_VIEW_PV
  6
C_SOLID_M
100
AcDbCircle
 10
117.0
 20
0.0
 30
0.0
 40
5.554999999999998
  0
LINE
  5
128
330
1E
100
AcDbEntity
  8
MO_001_VIEW_PV
  6
C_SOLID_M
100
AcDbLine
 10
47.566677
 20
-56.0
 30
0.0
 11
78.0
 21
-56.0
 31
0.0
  0
TEXT
  5
129
330
1E
100
AcDbEntity
  8
MO_001_VIEW_PV
  6
C_SOLID_L
100
AcDbText
 10
-37.488281
 20
-92.083594
 30
0.0
 40
4.167187
  1
8SC PushPull
100
AcDbText
  0
TEXT
  5
12A
330
1E
100
AcDbEntity
  8
MO_001_VIEW_PV
  6
C_SOLID_L
100
AcDbText
 10
154.4999999999999
 20
-81.07142900000003
 30
0.0
 40
3.0
  1
(UL1430 AWG18)
 50
90.0
100
AcDbText
  0
TEXT
  5
12B
330
1E
100
AcDbEntity
  8
MO_001_VIEW_PV
  6
C_SOLID_L
100
AcDbText
 10
50.387052
 20
-54.625076
 30
0.0
 40
3.0
  1
2-M6 P1.0
100
AcDbText
  0
TEXT
  5
12C
330
1E
100
AcDbEntity
  8
MO_001_VIEW_PV
  6
C_SOLID_L
100
AcDbText
 10
130.511719
 20
-92.083594
 30
0.0
 40
4.167187
  1
単位：mm
100
AcDbText
  0
TEXT
  5
12D
330
1E
100
AcDbEntity
  8
MO_001_VIEW_PV
  6
C_SOLID_L
100
AcDbText
 10
130.511719
 20
-98.083594
 30
0.0
 40
4.167187
  1
図は励磁時を示す
100
AcDbText
  0
DIMENSION
  5
12F
330
1E
100
AcDbEntity
  8
MO_001_VIEW_PV
  6
C_SOLID_M
100
AcDbDimension
  2
*D0
 10
9.0
 20
48.0
 30
0.0
 11
9.0
 21
48.0
 31
0.0
  1
47以下
  3
STANDARD
100
AcDbAlignedDimension
 13
30.0
 23
37.700001
 33
0.0
 14
-16.5
 24
40.600006
 34
0.0
100
AcDbRotatedDimension
  0
DIMENSION
  5
131
330
1E
100
AcDbEntity
  8
MO_001_VIEW_PV
  6
C_SOLID_M
100
AcDbDimension
  2
*D1
 10
0.0
 20
54.0
 30
0.0
 11
0.0
 21
54.0
 31
0.0
  3
STANDARD
100
AcDbAlignedDimension
 13
30.0
 23
37.700001
 33
0.0
 14
-38.600002
 24
5.409412
 34
0.0
100
AcDbRotatedDimension
  0
DIMENSION
  5
133
330
1E
100
AcDbEntity
  8
MO_001_VIEW_PV
  6
C_SOLID_M
100
AcDbDimension
  2
*D2
 10
60.0
 20
24.0
 30
0.0
 11
60.0
 21
24.0
 31
0.0
  3
STANDARD
100
AcDbAlignedDimension
 13
52.0
 23
5.554999999999998
 33
0.0
 14
52.0
 24
-5.554999999999998
 34
0.0
 50
89.999523
100
AcDbRotatedDimension
  0
DIMENSION
  5
135
330
1E
100
AcDbEntity
  8
MO_001_VIEW_PV
  6
C_SOLID_M
100
AcDbDimension
  2
*D3
 10
42.0
 20
48.0
 30
0.0
 11
42.0
 21
48.0
 31
0.0
  3
STANDARD
100
AcDbAlignedDimension
 13
30.0
 23
37.700001
 33
0.0
 14
52.19999699999998
 24
5.355
 34
0.0
100
AcDbRotatedDimension
  0
DIMENSION
  5
137
330
1E
100
AcDbEntity
  8
MO_001_VIEW_PV
  6
C_SOLID_M
100
AcDbDimension
  2
*D4
 10
117.0
 20
54.0
 30
0.0
 11
117.0
 21
54.0
 31
0.0
  1
%%C87以下
  3
STANDARD
100
AcDbAlignedDimension
 13
159.850006
 23
0.0
 33
0.0
 14
74.14999399999998
 24
0.0
 34
0.0
100
AcDbRotatedDimension
  0
DIMENSION
  5
139
330
1E
100
AcDbEntity
  8
MO_001_VIEW_PV
  6
C_SOLID_M
100
AcDbDimension
  2
*D5
 10
69.0
 20
0.0
 30
0.0
 11
69.0
 21
0.0
 31
0.0
  3
STANDARD
100
AcDbAlignedDimension
 13
109.4499969999999
 23
-27.0
 33
0.0
 14
109.4499969999999
 24
27.0
 34
0.0
 50
89.999523
100
AcDbRotatedDimension
  0
DIMENSION
  5
13B
330
1E
100
AcDbEntity
  8
MO_001_VIEW_PV
  6
C_SOLID_M
100
AcDbDimension
  2
*D6
 10
150.0
 20
-61.520031
 30
0.0
 11
150.0
 21
-61.520031
 31
0.0
  1
長さ250以上
  3
STANDARD
100
AcDbAlignedDimension
 13
133.149994
 23
-39.690056
 33
0.0
 14
131.7999879999999
 24
-81.35000600000003
 34
0.0
 50
89.999523
100
AcDbRotatedDimension
  0
LINE
  5
13C
330
1E
100
AcDbEntity
  8
MO_001_VIEW_PV
  6
C_SOLID_L
100
AcDbLine
 10
40.599999
 20
-30.0
 30
0.0
 11
47.566678
 21
-55.99999799999999
 31
0.0
  0
POLYLINE
  5
13D
330
1E
100
AcDbEntity
  8
MO_001_VIEW_PV
  6
C_SOLID_L
100
AcDb2dPolyline
 66
     1
 10
0.0
 20
0.0
 30
0.0
 70
     1
  0
VERTEX
  5
208
330
13D
100
AcDbEntity
  8
MO_001_VIEW_PV
  6
C_SOLID_L
100
AcDbVertex
100
AcDb2dVertex
 10
42.022457
 20
-33.054169
 30
0.0
  0
VERTEX
  5
209
330
13D
100
AcDbEntity
  8
MO_001_VIEW_PV
  6
C_SOLID_L
100
AcDbVertex
100
AcDb2dVertex
 10
40.731479
 20
-30.49069
 30
0.0
  0
VERTEX
  5
20A
330
13D
100
AcDbEntity
  8
MO_001_VIEW_PV
  6
C_SOLID_L
100
AcDbVertex
100
AcDb2dVertex
 10
40.89519899999999
 20
-33.356217
 30
0.0
  0
SEQEND
  5
20B
330
13D
100
AcDbEntity
  8
MO_001_VIEW_PV
  6
C_SOLID_L
  0
ENDSEC
  0
SECTION
  2
OBJECTS
  0
DICTIONARY
  5
1A
330
0
100
AcDbDictionary
  3
ACAD_GROUP
350
1B
  3
ACAD_MLINESTYLE
350
1C
  3
ACAD_LAYOUT
350
188
  3
ACAD_PLOTSETTINGS
350
189
1001
ACAD
1000
TREAT_AS_HARD
1070
     0
1000
TREAT_AS_HARD
1070
     0
  0
DICTIONARY
  5
18E
330
1E
100
AcDbDictionary
  3
ACAD_LAYOUTSELFREF
350
1D3
1001
ACAD
1000
TREAT_AS_HARD
1070
     0
  0
DICTIONARY
  5
190
330
1F
100
AcDbDictionary
  3
ACAD_LAYOUTSELFREF
350
1D4
1001
ACAD
1000
TREAT_AS_HARD
1070
     0
  0
DICTIONARY
  5
1B
102
{ACAD_REACTORS
330
1A
102
}
330
1A
100
AcDbDictionary
1001
ACAD
1000
TREAT_AS_HARD
1070
     0
1000
TREAT_AS_HARD
1070
     0
  0
DICTIONARY
  5
1C
102
{ACAD_REACTORS
330
1A
102
}
330
1A
100
AcDbDictionary
  3
STANDARD
350
1D
1001
ACAD
1000
TREAT_AS_HARD
1070
     0
1000
TREAT_AS_HARD
1070
     0
  0
DICTIONARY
  5
188
102
{ACAD_REACTORS
330
1A
102
}
330
1A
100
AcDbDictionary
1001
ACAD
1000
TREAT_AS_HARD
1070
     0
1000
TREAT_AS_HARD
1070
     0
  0
DICTIONARY
  5
189
102
{ACAD_REACTORS
330
1A
102
}
330
1A
100
AcDbDictionary
1001
ACAD
1000
TREAT_AS_HARD
1070
     0
1000
TREAT_AS_HARD
1070
     0
  0
XRECORD
  5
1D3
102
{ACAD_REACTORS
330
18E
102
}
330
18E
100
AcDbXrecord
340
1E
  0
XRECORD
  5
1D4
102
{ACAD_REACTORS
330
190
102
}
330
190
100
AcDbXrecord
340
1F
  0
MLINESTYLE
  5
1D
102
{ACAD_REACTORS
330
1C
102
}
330
1C
100
AcDbMlineStyle
  2
STANDARD
 70
     0
  3

 62
     0
 51
90.0
 52
90.0
 71
     2
 49
0.5
 62
   256
  6
BYLAYER
 49
-0.5
 62
   256
  6
BYLAYER
  0
ENDSEC
  0
EOF
