  0
SECTION
  2
HEADER
  9
$ACADVER
  1
AC1012
  9
$DWGCODEPAGE
  3
dos932
  9
$INSBASE
 10
0.0
 20
0.0
 30
0.0
  9
$EXTMIN
 10
-37.48941478150936
 20
-56.33827104543829
 30
-0.0015258207003583
  9
$EXTMAX
 10
92.46492652131321
 20
34.1311818640965
 30
0.0000000349246037
  9
$LIMMIN
 10
-38.827736
 20
-59.459766
  9
$LIMMAX
 10
91.496483
 20
36.0
  9
$ORTHOMODE
 70
     0
  9
$REGENMODE
 70
     1
  9
$FILLMODE
 70
     1
  9
$QTEXTMODE
 70
     0
  9
$MIRRTEXT
 70
     1
  9
$DRAGMODE
 70
     2
  9
$LTSCALE
 40
1.0
  9
$OSMODE
 70
    37
  9
$ATTMODE
 70
     1
  9
$TEXTSIZE
 40
4.1672
  9
$TRACEWID
 40
0.05
  9
$TEXTSTYLE
  7
STANDARD
  9
$CLAYER
  8
0
  9
$CELTYPE
  6
CONTINUOUS
  9
$CECOLOR
 62
   256
  9
$CELTSCALE
 40
1.0
  9
$DELOBJ
 70
     1
  9
$DISPSILH
 70
     0
  9
$DIMSCALE
 40
1.0
  9
$DIMASZ
 40
0.18
  9
$DIMEXO
 40
0.0625
  9
$DIMDLI
 40
0.38
  9
$DIMRND
 40
0.0
  9
$DIMDLE
 40
0.0
  9
$DIMEXE
 40
0.18
  9
$DIMTP
 40
0.0
  9
$DIMTM
 40
0.0
  9
$DIMTXT
 40
0.18
  9
$DIMCEN
 40
0.09
  9
$DIMTSZ
 40
0.0
  9
$DIMTOL
 70
     0
  9
$DIMLIM
 70
     0
  9
$DIMTIH
 70
     1
  9
$DIMTOH
 70
     1
  9
$DIMSE1
 70
     0
  9
$DIMSE2
 70
     0
  9
$DIMTAD
 70
     0
  9
$DIMZIN
 70
     0
  9
$DIMBLK
  1

  9
$DIMASO
 70
     1
  9
$DIMSHO
 70
     1
  9
$DIMPOST
  1

  9
$DIMAPOST
  1

  9
$DIMALT
 70
     0
  9
$DIMALTD
 70
     2
  9
$DIMALTF
 40
25.4
  9
$DIMLFAC
 40
1.0
  9
$DIMTOFL
 70
     0
  9
$DIMTVP
 40
0.0
  9
$DIMTIX
 70
     0
  9
$DIMSOXD
 70
     0
  9
$DIMSAH
 70
     0
  9
$DIMBLK1
  1

  9
$DIMBLK2
  1

  9
$DIMSTYLE
  2
STANDARD
  9
$DIMCLRD
 70
     0
  9
$DIMCLRE
 70
     0
  9
$DIMCLRT
 70
     0
  9
$DIMTFAC
 40
1.0
  9
$DIMGAP
 40
0.09
  9
$DIMJUST
 70
     0
  9
$DIMSD1
 70
     0
  9
$DIMSD2
 70
     0
  9
$DIMTOLJ
 70
     1
  9
$DIMTZIN
 70
     0
  9
$DIMALTZ
 70
     0
  9
$DIMALTTZ
 70
     0
  9
$DIMFIT
 70
     3
  9
$DIMUPT
 70
     0
  9
$DIMUNIT
 70
     2
  9
$DIMDEC
 70
     4
  9
$DIMTDEC
 70
     4
  9
$DIMALTU
 70
     2
  9
$DIMALTTD
 70
     2
  9
$DIMTXSTY
  7
STANDARD
  9
$DIMAUNIT
 70
     0
  9
$LUNITS
 70
     2
  9
$LUPREC
 70
     6
  9
$SKETCHINC
 40
0.1
  9
$FILLETRAD
 40
0.0
  9
$AUNITS
 70
     0
  9
$AUPREC
 70
     4
  9
$MENU
  1
acad
  9
$ELEVATION
 40
0.0
  9
$PELEVATION
 40
0.0
  9
$THICKNESS
 40
0.0
  9
$LIMCHECK
 70
     0
  9
$BLIPMODE
 70
     0
  9
$CHAMFERA
 40
0.0
  9
$CHAMFERB
 40
0.0
  9
$CHAMFERC
 40
0.0
  9
$CHAMFERD
 40
0.0
  9
$SKPOLY
 70
     0
  9
$TDCREATE
 40
2376123.569110150
  9
$TDUPDATE
 40
2451687.684189814
  9
$TDINDWG
 40
0.0007736111
  9
$TDUSRTIMER
 40
0.0007736111
  9
$USRTIMER
 70
     1
  9
$ANGBASE
 50
0.0
  9
$ANGDIR
 70
     0
  9
$PDMODE
 70
     0
  9
$PDSIZE
 40
0.0
  9
$PLINEWID
 40
0.0
  9
$COORDS
 70
     1
  9
$SPLFRAME
 70
     0
  9
$SPLINETYPE
 70
     6
  9
$SPLINESEGS
 70
     8
  9
$ATTDIA
 70
     0
  9
$ATTREQ
 70
     1
  9
$HANDLING
 70
 10241
  9
$HANDSEED
  5
343
  9
$SURFTAB1
 70
     6
  9
$SURFTAB2
 70
     6
  9
$SURFTYPE
 70
     6
  9
$SURFU
 70
     6
  9
$SURFV
 70
     6
  9
$UCSNAME
  2

  9
$UCSORG
 10
-0.6000060000000001
 20
0.0
 30
0.0
  9
$UCSXDIR
 10
1.0
 20
0.0
 30
0.0
  9
$UCSYDIR
 10
0.0
 20
1.0
 30
0.0
  9
$PUCSNAME
  2

  9
$PUCSORG
 10
0.0
 20
0.0
 30
0.0
  9
$PUCSXDIR
 10
1.0
 20
0.0
 30
0.0
  9
$PUCSYDIR
 10
0.0
 20
1.0
 30
0.0
  9
$USERI1
 70
     0
  9
$USERI2
 70
     0
  9
$USERI3
 70
     0
  9
$USERI4
 70
     0
  9
$USERI5
 70
     0
  9
$USERR1
 40
0.0
  9
$USERR2
 40
0.0
  9
$USERR3
 40
0.0
  9
$USERR4
 40
0.0
  9
$USERR5
 40
0.0
  9
$WORLDVIEW
 70
     1
  9
$SHADEDGE
 70
     3
  9
$SHADEDIF
 70
    70
  9
$TILEMODE
 70
     1
  9
$MAXACTVP
 70
    16
  9
$PINSBASE
 10
0.0
 20
0.0
 30
0.0
  9
$PLIMCHECK
 70
     0
  9
$PEXTMIN
 10
-38.827736
 20
-59.459766
 30
1.000000000000000E+20
  9
$PEXTMAX
 10
91.496483
 20
36.0
 30
-1.000000000000000E+20
  9
$PLIMMIN
 10
0.0
 20
0.0
  9
$PLIMMAX
 10
12.0
 20
9.0
  9
$UNITMODE
 70
     0
  9
$VISRETAIN
 70
     0
  9
$PLINEGEN
 70
     0
  9
$PSLTSCALE
 70
     1
  9
$TREEDEPTH
 70
  3020
  9
$PICKSTYLE
 70
     1
  9
$CMLSTYLE
  2
STANDARD
  9
$CMLJUST
 70
     0
  9
$CMLSCALE
 40
1.0
  9
$SAVEIMAGES
 70
     1
  0
ENDSEC
  0
SECTION
  2
CLASSES
  0
CLASS
  1
ACDBDICTIONARYWDFLT
  2
AcDbDictionaryWithDefault
  3
AutoCAD 2000
 90
    32768
280
     0
281
     0
  0
CLASS
  1
ACDBPLACEHOLDER
  2
AcDbPlaceHolder
  3
AutoCAD 2000
 90
    32768
280
     0
281
     0
  0
CLASS
  1
LAYOUT
  2
AcDbLayout
  3
AutoCAD 2000
 90
    32768
280
     0
281
     0
  0
CLASS
  1
LONG_TRANSACTION
  2
AcDbLongTransaction
  3
AutoCAD 2000
 90
    32768
280
     0
281
     0
  0
CLASS
  1
LWPOLYLINE
  2
AcDbPolyline
  3
AutoCAD 2000
 90
    32768
280
     0
281
     1
  0
CLASS
  1
HATCH
  2
AcDbHatch
  3
AutoCAD 2000
 90
    32768
280
     0
281
     1
  0
CLASS
  1
XRECORD
  2
AcDbXrecord
  3
AutoCAD 2000
 90
    32768
280
     0
281
     0
  0
ENDSEC
  0
SECTION
  2
TABLES
  0
TABLE
  2
VPORT
  5
7
330
0
100
AcDbSymbolTable
 70
     2
  0
VPORT
  5
2B3
330
7
100
AcDbSymbolTableRecord
100
AcDbViewportTableRecord
  2
*ACTIVE
 70
     0
 10
0.0
 20
0.0
 11
1.0
 21
1.0
 12
26.81859526065659
 22
-11.729883
 13
0.0
 23
0.0
 14
6.349999999999999
 24
6.349999999999999
 15
6.349999999999999
 25
6.349999999999999
 16
0.0
 26
0.0
 36
1.0
 17
0.0
 27
0.0
 37
0.0
 40
96.44728082068965
 41
1.644214162348877
 42
50.0
 43
0.0
 44
0.0
 50
0.0
 51
0.0
 71
     0
 72
   100
 73
     1
 74
     1
 75
     0
 76
     0
 77
     0
 78
     0
  0
ENDTAB
  0
TABLE
  2
LTYPE
  5
4
330
0
100
AcDbSymbolTable
 70
    37
  0
LTYPE
  5
12
330
4
100
AcDbSymbolTableRecord
100
AcDbLinetypeTableRecord
  2
BYBLOCK
 70
     0
  3

 72
    65
 73
     0
 40
0.0
  0
LTYPE
  5
13
330
4
100
AcDbSymbolTableRecord
100
AcDbLinetypeTableRecord
  2
BYLAYER
 70
     0
  3

 72
    65
 73
     0
 40
0.0
  0
LTYPE
  5
14
330
4
100
AcDbSymbolTableRecord
100
AcDbLinetypeTableRecord
  2
CONTINUOUS
 70
     0
  3
DXF Default line type
 72
    65
 73
     0
 40
0.0
  0
LTYPE
  5
20
330
4
100
AcDbSymbolTableRecord
100
AcDbLinetypeTableRecord
  2
DASHED
 70
     0
  3
DXF Dashed
 72
    65
 73
     2
 40
0.75
 49
0.5
 74
     0
 49
-0.25
 74
     0
  0
LTYPE
  5
21
330
4
100
AcDbSymbolTableRecord
100
AcDbLinetypeTableRecord
  2
HIDDEN
 70
     0
  3
DXF Hidden
 72
    65
 73
     2
 40
0.375
 49
0.25
 74
     0
 49
-0.125
 74
     0
  0
LTYPE
  5
22
330
4
100
AcDbSymbolTableRecord
100
AcDbLinetypeTableRecord
  2
CENTER
 70
     0
  3
DXF Center
 72
    65
 73
     4
 40
2.0
 49
1.25
 74
     0
 49
-0.25
 74
     0
 49
0.25
 74
     0
 49
-0.25
 74
     0
  0
LTYPE
  5
23
330
4
100
AcDbSymbolTableRecord
100
AcDbLinetypeTableRecord
  2
PHANTOM
 70
     0
  3
DXF Phantom
 72
    65
 73
     6
 40
2.5
 49
1.25
 74
     0
 49
-0.25
 74
     0
 49
0.25
 74
     0
 49
-0.25
 74
     0
 49
0.25
 74
     0
 49
-0.25
 74
     0
  0
LTYPE
  5
24
330
4
100
AcDbSymbolTableRecord
100
AcDbLinetypeTableRecord
  2
DOT
 70
     0
  3
DXF DOT
 72
    65
 73
     2
 40
0.25
 49
0.0
 74
     0
 49
-0.25
 74
     0
  0
LTYPE
  5
25
330
4
100
AcDbSymbolTableRecord
100
AcDbLinetypeTableRecord
  2
DASHDOT
 70
     0
  3
DXF Dash Dot
 72
    65
 73
     4
 40
1.0
 49
0.5
 74
     0
 49
-0.25
 74
     0
 49
0.0
 74
     0
 49
-0.25
 74
     0
  0
LTYPE
  5
26
330
4
100
AcDbSymbolTableRecord
100
AcDbLinetypeTableRecord
  2
BORDER
 70
     0
  3
DXF Border
 72
    65
 73
     6
 40
1.75
 49
0.5
 74
     0
 49
-0.25
 74
     0
 49
0.5
 74
     0
 49
-0.25
 74
     0
 49
0.0
 74
     0
 49
-0.25
 74
     0
  0
LTYPE
  5
27
330
4
100
AcDbSymbolTableRecord
100
AcDbLinetypeTableRecord
  2
DIVIDE
 70
     0
  3
DXF Divide
 72
    65
 73
     6
 40
1.25
 49
0.5
 74
     0
 49
-0.25
 74
     0
 49
0.0
 74
     0
 49
-0.25
 74
     0
 49
0.0
 74
     0
 49
-0.25
 74
     0
  0
LTYPE
  5
28
330
4
100
AcDbSymbolTableRecord
100
AcDbLinetypeTableRecord
  2
C_SOLID_L
 70
     0
  3
CADAM Solid Light
 72
    65
 73
     0
 40
0.0
  0
LTYPE
  5
29
330
4
100
AcDbSymbolTableRecord
100
AcDbLinetypeTableRecord
  2
C_SOLID_M
 70
     0
  3
CADAM Solid Medium
 72
    65
 73
     0
 40
0.0
  0
LTYPE
  5
2A
330
4
100
AcDbSymbolTableRecord
100
AcDbLinetypeTableRecord
  2
C_SOLID_H
 70
     0
  3
CADAM Solid Heavy
 72
    65
 73
     0
 40
0.0
  0
LTYPE
  5
2B
330
4
100
AcDbSymbolTableRecord
100
AcDbLinetypeTableRecord
  2
C_DASHED_L
 70
     0
  3
CADAM Dashed Light
 72
    65
 73
     2
 40
0.375
 49
0.25
 74
     0
 49
-0.125
 74
     0
  0
LTYPE
  5
2C
330
4
100
AcDbSymbolTableRecord
100
AcDbLinetypeTableRecord
  2
C_DASHED_M
 70
     0
  3
CADAM Dashed Medium
 72
    65
 73
     2
 40
0.5
 49
0.375
 74
     0
 49
-0.125
 74
     0
  0
LTYPE
  5
2D
330
4
100
AcDbSymbolTableRecord
100
AcDbLinetypeTableRecord
  2
C_CENTER_L
 70
     0
  3
CADAM Center Light
 72
    65
 73
     4
 40
2.0
 49
1.25
 74
     0
 49
-0.25
 74
     0
 49
0.25
 74
     0
 49
-0.25
 74
     0
  0
LTYPE
  5
2E
330
4
100
AcDbSymbolTableRecord
100
AcDbLinetypeTableRecord
  2
C_PHANTOM_L
 70
     0
  3
CADAM Phantom Light
 72
    65
 73
     6
 40
2.5
 49
1.25
 74
     0
 49
-0.25
 74
     0
 49
0.25
 74
     0
 49
-0.25
 74
     0
 49
0.25
 74
     0
 49
-0.25
 74
     0
  0
LTYPE
  5
2F
330
4
100
AcDbSymbolTableRecord
100
AcDbLinetypeTableRecord
  2
C_BREAK_M
 70
     0
  3
CADAM Break Medium
 72
    65
 73
     4
 40
1.0
 49
0.5
 74
     0
 49
-0.25
 74
     0
 49
0.0
 74
     0
 49
-0.25
 74
     0
  0
LTYPE
  5
30
330
4
100
AcDbSymbolTableRecord
100
AcDbLinetypeTableRecord
  2
C_NC
 70
     0
  3
CADAM NC
 72
    65
 73
     0
 40
0.0
  0
LTYPE
  5
31
330
4
100
AcDbSymbolTableRecord
100
AcDbLinetypeTableRecord
  2
DSH1
 70
     0
  3
CADAM Style2 Type 1 Dashed Line
 72
    65
 73
     2
 40
0.075
 49
0.04
 74
     0
 49
-0.035
 74
     0
  0
LTYPE
  5
32
330
4
100
AcDbSymbolTableRecord
100
AcDbLinetypeTableRecord
  2
DSH2
 70
     0
  3
CADAM Style2 Type 2 Dashed Line
 72
    65
 73
     2
 40
0.15
 49
0.11
 74
     0
 49
-0.04
 74
     0
  0
LTYPE
  5
33
330
4
100
AcDbSymbolTableRecord
100
AcDbLinetypeTableRecord
  2
DSH3
 70
     0
  3
CADAM Style2 Type 3 Dashed Line
 72
    65
 73
     2
 40
0.2
 49
0.15
 74
     0
 49
-0.05
 74
     0
  0
LTYPE
  5
34
330
4
100
AcDbSymbolTableRecord
100
AcDbLinetypeTableRecord
  2
DSH4
 70
     0
  3
CADAM Style2 Type 4 Dashed Line
 72
    65
 73
     2
 40
0.36
 49
0.28
 74
     0
 49
-0.08
 74
     0
  0
LTYPE
  5
35
330
4
100
AcDbSymbolTableRecord
100
AcDbLinetypeTableRecord
  2
DSH5
 70
     0
  3
CADAM Style2 Type 5 Dashed Line
 72
    65
 73
     2
 40
0.47
 49
0.39
 74
     0
 49
-0.08
 74
     0
  0
LTYPE
  5
36
330
4
100
AcDbSymbolTableRecord
100
AcDbLinetypeTableRecord
  2
DSH6
 70
     0
  3
CADAM Style2 Type 6 Dashed Line
 72
    65
 73
     2
 40
0.9
 49
0.8100000000000001
 74
     0
 49
-0.09
 74
     0
  0
LTYPE
  5
37
330
4
100
AcDbSymbolTableRecord
100
AcDbLinetypeTableRecord
  2
PL1
 70
     0
  3
Style 2 Type 1 Phantom Line
 72
    65
 73
     6
 40
1.0
 49
0.6
 74
     0
 49
-0.08
 74
     0
 49
0.08
 74
     0
 49
-0.08
 74
     0
 49
0.08
 74
     0
 49
-0.08
 74
     0
  0
LTYPE
  5
38
330
4
100
AcDbSymbolTableRecord
100
AcDbLinetypeTableRecord
  2
PL2
 70
     0
  3
Style 2 Type 2 Phantom Line
 72
    65
 73
     6
 40
1.08
 49
0.6
 74
     0
 49
-0.08
 74
     0
 49
0.12
 74
     0
 49
-0.08
 74
     0
 49
0.12
 74
     0
 49
-0.08
 74
     0
  0
LTYPE
  5
39
330
4
100
AcDbSymbolTableRecord
100
AcDbLinetypeTableRecord
  2
PL3
 70
     0
  3
Style 2 Type 3 Phantom Line
 72
    65
 73
     6
 40
2.0
 49
1.439999999999999
 74
     0
 49
-0.08
 74
     0
 49
0.16
 74
     0
 49
-0.08
 74
     0
 49
0.16
 74
     0
 49
-0.08
 74
     0
  0
LTYPE
  5
3A
330
4
100
AcDbSymbolTableRecord
100
AcDbLinetypeTableRecord
  2
CL1
 70
     0
  3
CADAM Style 2 Type 1 Center Line
 72
    65
 73
     4
 40
0.7
 49
0.45
 74
     0
 49
-0.06
 74
     0
 49
0.13
 74
     0
 49
-0.06
 74
     0
  0
LTYPE
  5
3B
330
4
100
AcDbSymbolTableRecord
100
AcDbLinetypeTableRecord
  2
CL2
 70
     0
  3
CADAM Style 2 Type 2 Center Line
 72
    65
 73
     4
 40
1.199999999999999
 49
1.01
 74
     0
 49
-0.06
 74
     0
 49
0.11
 74
     0
 49
-0.06
 74
     0
  0
LTYPE
  5
3C
330
4
100
AcDbSymbolTableRecord
100
AcDbLinetypeTableRecord
  2
CL3
 70
     0
  3
CADAM Style 2 Type 3 Center Line
 72
    65
 73
     4
 40
1.199999999999999
 49
0.98
 74
     0
 49
-0.06
 74
     0
 49
0.1
 74
     0
 49
-0.06
 74
     0
  0
LTYPE
  5
3D
330
4
100
AcDbSymbolTableRecord
100
AcDbLinetypeTableRecord
  2
CL4
 70
     0
  3
CADAM Style 2 Type 4 Center Line
 72
    65
 73
     4
 40
2.2
 49
1.929999999999999
 74
     0
 49
-0.07
 74
     0
 49
0.13
 74
     0
 49
-0.07
 74
     0
  0
LTYPE
  5
3E
330
4
100
AcDbSymbolTableRecord
100
AcDbLinetypeTableRecord
  2
CL5
 70
     0
  3
CADAM Style 2 Type 5 Center Line
 72
    65
 73
     4
 40
2.2
 49
1.879999999999999
 74
     0
 49
-0.07
 74
     0
 49
0.18
 74
     0
 49
-0.07
 74
     0
  0
LTYPE
  5
3F
330
4
100
AcDbSymbolTableRecord
100
AcDbLinetypeTableRecord
  2
SBK1
 70
     0
  3
CADAM Style 2 Type 1 SetBack Line
 72
    65
 73
     8
 40
2.7
 49
0.1
 74
     0
 49
-0.08
 74
     0
 49
0.1
 74
     0
 49
-0.8
 74
     0
 49
0.0
 74
     0
 49
0.0
 74
     0
 49
0.0
 74
     0
 49
0.0
 74
     0
  0
LTYPE
  5
40
330
4
100
AcDbSymbolTableRecord
100
AcDbLinetypeTableRecord
  2
SBK2
 70
     0
  3
CADAM Style 2 Type 2 SetBack Line
 72
    65
 73
     8
 40
3.709999999999999
 49
0.13
 74
     0
 49
-0.08
 74
     0
 49
0.13
 74
     0
 49
-0.8
 74
     0
 49
0.0
 74
     0
 49
0.0
 74
     0
 49
0.0
 74
     0
 49
0.0
 74
     0
  0
LTYPE
  5
41
330
4
100
AcDbSymbolTableRecord
100
AcDbLinetypeTableRecord
  2
STCH
 70
     0
  3
CADAM Style2 Stitch Line
 72
    65
 73
     2
 40
0.25
 49
0.0
 74
     0
 49
-0.25
 74
     0
  0
LTYPE
  5
42
330
4
100
AcDbSymbolTableRecord
100
AcDbLinetypeTableRecord
  2
MTCH
 70
     0
  3
CADAM Style2 Match Line
 72
    65
 73
     6
 40
2.0
 49
1.439999999999999
 74
     0
 49
-0.8
 74
     0
 49
0.16
 74
     0
 49
-0.08
 74
     0
 49
0.16
 74
     0
 49
-0.08
 74
     0
  0
LTYPE
  5
43
330
4
100
AcDbSymbolTableRecord
100
AcDbLinetypeTableRecord
  2
SLD
 70
     0
  3
CADAM Solid_EXT2
 72
    65
 73
     0
 40
0.0
  0
ENDTAB
  0
TABLE
  2
LAYER
  5
2
330
0
100
AcDbSymbolTable
 70
     7
  0
LAYER
  5
15
330
2
100
AcDbSymbolTableRecord
100
AcDbLayerTableRecord
  2
0
 70
     0
 62
     7
  6
CONTINUOUS
  0
LAYER
  5
44
330
2
100
AcDbSymbolTableRecord
100
AcDbLayerTableRecord
  2
MO_001_NOSHOW
 70
     1
 62
     7
  6
CONTINUOUS
  0
LAYER
  5
45
330
2
100
AcDbSymbolTableRecord
100
AcDbLayerTableRecord
  2
MO_001_VIEW_PV
 70
     0
 62
     7
  6
CONTINUOUS
  0
LAYER
  5
46
330
2
100
AcDbSymbolTableRecord
100
AcDbLayerTableRecord
  2
OVERLAY_MAP
 70
     1
 62
     7
  6
CONTINUOUS
  0
LAYER
  5
47
330
2
100
AcDbSymbolTableRecord
100
AcDbLayerTableRecord
  2
DITTOS
 70
     0
 62
     7
  6
CONTINUOUS
  0
LAYER
  5
48
330
2
100
AcDbSymbolTableRecord
100
AcDbLayerTableRecord
  2
SYMBOLS
 70
     0
 62
     7
  6
CONTINUOUS
  0
LAYER
  5
49
330
2
100
AcDbSymbolTableRecord
100
AcDbLayerTableRecord
  2
SETS
 70
     0
 62
     7
  6
CONTINUOUS
  0
ENDTAB
  0
TABLE
  2
STYLE
  5
3
330
0
100
AcDbSymbolTable
 70
     1
  0
STYLE
  5
18
330
3
100
AcDbSymbolTableRecord
100
AcDbTextStyleTableRecord
  2
STANDARD
 70
     0
 40
4.1672
 41
1.0
 50
0.0
 71
     0
 42
4.1672
  3
monotxt
  4
BIGFONT
  0
ENDTAB
  0
TABLE
  2
VIEW
  5
5
330
0
100
AcDbSymbolTable
 70
     0
  0
ENDTAB
  0
TABLE
  2
UCS
  5
6
330
0
100
AcDbSymbolTable
 70
     1
  0
UCS
  5
4A
330
6
100
AcDbSymbolTableRecord
100
AcDbUCSTableRecord
  2
MO_001_VIEW_PV_P
 70
     0
 10
0.0
 20
0.0
 30
0.0
 11
1.0
 21
0.0
 31
0.0
 12
-0.0000000002051034
 22
1.0
 32
0.0
  0
ENDTAB
  0
TABLE
  2
APPID
  5
8
330
0
100
AcDbSymbolTable
 70
     1
  0
APPID
  5
17
330
8
100
AcDbSymbolTableRecord
100
AcDbRegAppTableRecord
  2
ACAD
 70
     0
  0
ENDTAB
  0
TABLE
  2
DIMSTYLE
  5
9
330
0
100
AcDbSymbolTable
 70
     1
  0
DIMSTYLE
105
19
102
{ACAD_REACTORS
330
20C
330
20E
330
210
330
212
330
214
330
216
330
218
330
21A
330
21C
330
21E
330
220
330
222
102
}
330
9
100
AcDbSymbolTableRecord
100
AcDbDimStyleTableRecord
  2
STANDARD
 70
     0
  3

  4

  5

  6

  7

 40
1.0
 41
0.18
 42
0.0625
 43
0.38
 44
0.18
 45
0.0
 46
0.0
 47
0.0
 48
0.0
140
0.18
141
0.09
142
0.0
143
25.4
144
1.0
145
0.0
146
1.0
147
0.09
 71
     0
 72
     0
 73
     1
 74
     1
 75
     0
 76
     0
 77
     0
 78
     0
170
     0
171
     2
172
     0
173
     0
174
     0
175
     0
176
     0
177
     0
178
     0
270
     2
271
     4
272
     4
273
     2
274
     2
340
18
275
     0
280
     0
281
     0
282
     0
283
     1
284
     0
285
     0
286
     0
287
     3
288
     0
  0
ENDTAB
  0
TABLE
  2
BLOCK_RECORD
  5
C
330
0
100
AcDbSymbolTable
 70
    12
  0
BLOCK_RECORD
  5
1E
102
{ACAD_XDICTIONARY
360
2B4
102
}
330
C
100
AcDbSymbolTableRecord
100
AcDbBlockTableRecord
  2
*MODEL_SPACE
  0
BLOCK_RECORD
  5
1F
102
{ACAD_XDICTIONARY
360
2B6
102
}
330
C
100
AcDbSymbolTableRecord
100
AcDbBlockTableRecord
  2
*PAPER_SPACE
  0
BLOCK_RECORD
  5
20B
330
C
100
AcDbSymbolTableRecord
100
AcDbBlockTableRecord
  2
*D0
  0
BLOCK_RECORD
  5
20D
330
C
100
AcDbSymbolTableRecord
100
AcDbBlockTableRecord
  2
*D1
  0
BLOCK_RECORD
  5
20F
330
C
100
AcDbSymbolTableRecord
100
AcDbBlockTableRecord
  2
*D2
  0
BLOCK_RECORD
  5
211
330
C
100
AcDbSymbolTableRecord
100
AcDbBlockTableRecord
  2
*D3
  0
BLOCK_RECORD
  5
213
330
C
100
AcDbSymbolTableRecord
100
AcDbBlockTableRecord
  2
*D4
  0
BLOCK_RECORD
  5
215
330
C
100
AcDbSymbolTableRecord
100
AcDbBlockTableRecord
  2
*D5
  0
BLOCK_RECORD
  5
217
330
C
100
AcDbSymbolTableRecord
100
AcDbBlockTableRecord
  2
*D6
  0
BLOCK_RECORD
  5
219
330
C
100
AcDbSymbolTableRecord
100
AcDbBlockTableRecord
  2
*D7
  0
BLOCK_RECORD
  5
21B
330
C
100
AcDbSymbolTableRecord
100
AcDbBlockTableRecord
  2
*D8
  0
BLOCK_RECORD
  5
21D
330
C
100
AcDbSymbolTableRecord
100
AcDbBlockTableRecord
  2
*D9
  0
BLOCK_RECORD
  5
21F
330
C
100
AcDbSymbolTableRecord
100
AcDbBlockTableRecord
  2
*D10
  0
BLOCK_RECORD
  5
221
330
C
100
AcDbSymbolTableRecord
100
AcDbBlockTableRecord
  2
*D11
  0
ENDTAB
  0
ENDSEC
  0
SECTION
  2
BLOCKS
  0
BLOCK
  5
E
330
1E
100
AcDbEntity
  8
0
100
AcDbBlockBegin
  2
*MODEL_SPACE
 70
     0
 10
0.0
 20
0.0
 30
0.0
  3
*MODEL_SPACE
  1

  0
ENDBLK
  5
F
330
1E
100
AcDbEntity
  8
0
100
AcDbBlockEnd
  0
BLOCK
  5
10
330
1F
100
AcDbEntity
 67
     1
  8
0
100
AcDbBlockBegin
  2
*PAPER_SPACE
 70
     0
 10
0.0
 20
0.0
 30
0.0
  3
*PAPER_SPACE
  1

  0
ENDBLK
  5
11
330
1F
100
AcDbEntity
 67
     1
  8
0
100
AcDbBlockEnd
  0
BLOCK
  5
229
330
20B
100
AcDbEntity
  8
0
100
AcDbBlockBegin
  2
*D0
 70
     1
 10
0.0
 20
0.0
 30
0.0
  3
*D0
  1

  0
TEXT
  5
22A
330
20B
100
AcDbEntity
  8
MO_001_VIEW_PV
  6
BYBLOCK
100
AcDbText
 10
23.055148
 20
26.625
 30
0.0
 40
1.5
  1
%%P0.5
100
AcDbText
  0
TEXT
  5
22B
330
20B
100
AcDbEntity
  8
MO_001_VIEW_PV
  6
BYBLOCK
100
AcDbText
 10
14.269434
 20
24.75
 30
0.0
 40
3.0
  1
9.1
100
AcDbText
  0
LINE
  5
22C
330
20B
100
AcDbEntity
  8
MO_001_VIEW_PV
  6
BYBLOCK
100
AcDbLine
 10
0.0
 20
24.0
 30
0.0
 11
9.100006
 21
24.0
 31
0.0
  0
LINE
  5
22D
330
20B
100
AcDbEntity
  8
MO_001_VIEW_PV
  6
BYBLOCK
100
AcDbLine
 10
0.0
 20
24.0
 30
0.0
 11
-6.349999999999999
 21
24.0
 31
0.0
  0
LINE
  5
22E
330
20B
100
AcDbEntity
  8
MO_001_VIEW_PV
  6
BYBLOCK
100
AcDbLine
 10
9.100006
 20
24.0
 30
0.0
 11
15.450006
 21
24.0
 31
0.0
  0
SOLID
  5
22F
330
20B
100
AcDbEntity
  8
MO_001_VIEW_PV
  6
BYBLOCK
100
AcDbTrace
 10
-3.318259999999999
 20
23.416488
 30
0.0
 11
-0.508
 21
24.0
 31
0.0
 12
-3.318259999999999
 22
24.583512
 32
0.0
 13
-3.318259999999999
 23
24.583512
 33
0.0
  0
SOLID
  5
230
330
20B
100
AcDbEntity
  8
MO_001_VIEW_PV
  6
BYBLOCK
100
AcDbTrace
 10
12.418266
 20
24.583512
 30
0.0
 11
9.608005999999999
 21
24.0
 31
0.0
 12
12.418266
 22
23.416488
 32
0.0
 13
12.418266
 23
23.416488
 33
0.0
  0
LINE
  5
231
330
20B
100
AcDbEntity
  8
MO_001_NOSHOW
  6
BYBLOCK
100
AcDbLine
 10
0.0
 20
12.300003
 30
0.0
 11
0.0
 21
26.285999
 31
0.0
  0
LINE
  5
232
330
20B
100
AcDbEntity
  8
MO_001_VIEW_PV
  6
BYBLOCK
100
AcDbLine
 10
9.100006
 20
9.900002
 30
0.0
 11
9.100006
 21
26.285999
 31
0.0
  0
LINE
  5
233
330
20B
100
AcDbEntity
  8
MO_001_VIEW_PV
  6
BYBLOCK
100
AcDbLine
 10
9.100006
 20
24.0
 30
0.0
 11
29.376577
 21
24.0
 31
0.0
  0
ENDBLK
  5
234
330
20B
100
AcDbEntity
  8
0
100
AcDbBlockEnd
  0
BLOCK
  5
235
330
20D
100
AcDbEntity
  8
0
100
AcDbBlockBegin
  2
*D1
 70
     1
 10
0.0
 20
0.0
 30
0.0
  3
*D1
  1

  0
TEXT
  5
236
330
20D
100
AcDbEntity
  8
MO_001_VIEW_PV
  6
BYBLOCK
100
AcDbText
 10
-13.9059
 20
24.75
 30
0.0
 40
3.0
  1
17以下
100
AcDbText
  0
LINE
  5
237
330
20D
100
AcDbEntity
  8
MO_001_VIEW_PV
  6
BYBLOCK
100
AcDbLine
 10
-16.668943
 20
24.0
 30
0.0
 11
0.0
 21
24.0
 31
0.0
  0
SOLID
  5
238
330
20D
100
AcDbEntity
  8
MO_001_VIEW_PV
  6
BYBLOCK
100
AcDbTrace
 10
-13.35068299999999
 20
24.583512
 30
0.0
 11
-16.160943
 21
24.0
 31
0.0
 12
-13.35068299999999
 22
23.416488
 32
0.0
 13
-13.35068299999999
 23
23.416488
 33
0.0
  0
SOLID
  5
239
330
20D
100
AcDbEntity
  8
MO_001_VIEW_PV
  6
BYBLOCK
100
AcDbTrace
 10
-3.318259999999999
 20
23.416488
 30
0.0
 11
-0.508
 21
24.0
 31
0.0
 12
-3.318259999999999
 22
24.583512
 32
0.0
 13
-3.318259999999999
 23
24.583512
 33
0.0
  0
LINE
  5
23A
330
20D
100
AcDbEntity
  8
MO_001_VIEW_PV
  6
BYBLOCK
100
AcDbLine
 10
-16.668943
 20
6.419037
 30
0.0
 11
-16.668943
 21
26.285999
 31
0.0
  0
LINE
  5
23B
330
20D
100
AcDbEntity
  8
MO_001_NOSHOW
  6
BYBLOCK
100
AcDbLine
 10
0.0
 20
12.300003
 30
0.0
 11
0.0
 21
26.285999
 31
0.0
  0
ENDBLK
  5
23C
330
20D
100
AcDbEntity
  8
0
100
AcDbBlockEnd
  0
BLOCK
  5
23D
330
20F
100
AcDbEntity
  8
0
100
AcDbBlockBegin
  2
*D2
 70
     1
 10
0.0
 20
0.0
 30
0.0
  3
*D2
  1

  0
TEXT
  5
23E
330
20F
100
AcDbEntity
  8
MO_001_VIEW_PV
  6
BYBLOCK
100
AcDbText
 10
-14.785714
 20
32.625
 30
0.0
 40
1.5
  1
%%P1.0
100
AcDbText
  0
TEXT
  5
23F
330
20F
100
AcDbEntity
  8
MO_001_VIEW_PV
  6
BYBLOCK
100
AcDbText
 10
-26.571429
 20
30.75
 30
0.0
 40
3.0
  1
28.3
100
AcDbText
  0
LINE
  5
240
330
20F
100
AcDbEntity
  8
MO_001_VIEW_PV
  6
BYBLOCK
100
AcDbLine
 10
0.0
 20
30.0
 30
0.0
 11
-28.27844199999999
 21
30.0
 31
0.0
  0
SOLID
  5
241
330
20F
100
AcDbEntity
  8
MO_001_VIEW_PV
  6
BYBLOCK
100
AcDbTrace
 10
-3.318259999999999
 20
29.416488
 30
0.0
 11
-0.508
 21
30.0
 31
0.0
 12
-3.318259999999999
 22
30.583512
 32
0.0
 13
-3.318259999999999
 23
30.583512
 33
0.0
  0
SOLID
  5
242
330
20F
100
AcDbEntity
  8
MO_001_VIEW_PV
  6
BYBLOCK
100
AcDbTrace
 10
-24.96018199999999
 20
30.583512
 30
0.0
 11
-27.770442
 21
30.0
 31
0.0
 12
-24.96018199999999
 22
29.416488
 32
0.0
 13
-24.96018199999999
 23
29.416488
 33
0.0
  0
LINE
  5
243
330
20F
100
AcDbEntity
  8
MO_001_VIEW_PV
  6
BYBLOCK
100
AcDbLine
 10
0.0
 20
22.670486
 30
0.0
 11
0.0
 21
32.28599899999999
 31
0.0
  0
LINE
  5
244
330
20F
100
AcDbEntity
  8
MO_001_VIEW_PV
  6
BYBLOCK
100
AcDbLine
 10
-28.27844199999999
 20
22.597065
 30
0.0
 11
-28.27844199999999
 21
32.28599899999999
 31
0.0
  0
LINE
  5
245
330
20F
100
AcDbEntity
  8
MO_001_VIEW_PV
  6
BYBLOCK
100
AcDbLine
 10
-28.27844199999999
 20
1.877823
 30
0.0
 11
-28.27844199999999
 21
17.450382
 31
0.0
  0
LINE
  5
246
330
20F
100
AcDbEntity
  8
MO_001_VIEW_PV
  6
BYBLOCK
100
AcDbLine
 10
0.0
 20
12.300003
 30
0.0
 11
0.0
 21
17.560516
 31
0.0
  0
ENDBLK
  5
247
330
20F
100
AcDbEntity
  8
0
100
AcDbBlockEnd
  0
BLOCK
  5
248
330
211
100
AcDbEntity
  8
0
100
AcDbBlockBegin
  2
*D3
 70
     1
 10
0.0
 20
0.0
 30
0.0
  3
*D3
  1

  0
TEXT
  5
249
330
211
100
AcDbEntity
  8
MO_001_VIEW_PV
  6
BYBLOCK
100
AcDbText
 10
25.077403
 20
32.625
 30
0.0
 40
1.5
  1
%%P0.5
100
AcDbText
  0
TEXT
  5
24A
330
211
100
AcDbEntity
  8
MO_001_VIEW_PV
  6
BYBLOCK
100
AcDbText
 10
13.291689
 20
30.75
 30
0.0
 40
3.0
  1
12.4
100
AcDbText
  0
LINE
  5
24B
330
211
100
AcDbEntity
  8
MO_001_VIEW_PV
  6
BYBLOCK
100
AcDbLine
 10
0.0
 20
30.0
 30
0.0
 11
12.421547
 21
30.0
 31
0.0
  0
SOLID
  5
24C
330
211
100
AcDbEntity
  8
MO_001_VIEW_PV
  6
BYBLOCK
100
AcDbTrace
 10
3.318259999999999
 20
30.583512
 30
0.0
 11
0.508
 21
30.0
 31
0.0
 12
3.318259999999999
 22
29.416488
 32
0.0
 13
3.318259999999999
 23
29.416488
 33
0.0
  0
SOLID
  5
24D
330
211
100
AcDbEntity
  8
MO_001_VIEW_PV
  6
BYBLOCK
100
AcDbTrace
 10
9.103286999999999
 20
29.416488
 30
0.0
 11
11.91354699999999
 21
30.0
 31
0.0
 12
9.103286999999999
 22
30.583512
 32
0.0
 13
9.103286999999999
 23
30.583512
 33
0.0
  0
LINE
  5
24E
330
211
100
AcDbEntity
  8
MO_001_NOSHOW
  6
BYBLOCK
100
AcDbLine
 10
0.0
 20
12.300003
 30
0.0
 11
0.0
 21
32.28599899999999
 31
0.0
  0
LINE
  5
24F
330
211
100
AcDbEntity
  8
MO_001_VIEW_PV
  6
BYBLOCK
100
AcDbLine
 10
12.421547
 20
1.684998
 30
0.0
 11
12.421547
 21
32.28599899999999
 31
0.0
  0
LINE
  5
250
330
211
100
AcDbEntity
  8
MO_001_VIEW_PV
  6
BYBLOCK
100
AcDbLine
 10
12.421547
 20
30.0
 30
0.0
 11
31.398832
 21
30.0
 31
0.0
  0
ENDBLK
  5
251
330
211
100
AcDbEntity
  8
0
100
AcDbBlockEnd
  0
BLOCK
  5
252
330
213
100
AcDbEntity
  8
0
100
AcDbBlockBegin
  2
*D4
 70
     1
 10
0.0
 20
0.0
 30
0.0
  3
*D4
  1

  0
TEXT
  5
253
330
213
100
AcDbEntity
  8
MO_001_VIEW_PV
  6
BYBLOCK
100
AcDbText
 10
33.375
 20
21.96428599999999
 30
0.0
 40
1.5
  1
%%P0.03
 50
90.0
100
AcDbText
  0
TEXT
  5
254
330
213
100
AcDbEntity
  8
MO_001_VIEW_PV
  6
BYBLOCK
100
AcDbText
 10
35.25
 20
7.178571
 30
0.0
 40
3.0
  1
%%C3.97
 50
90.0
100
AcDbText
  0
LINE
  5
255
330
213
100
AcDbEntity
  8
MO_001_VIEW_PV
  6
BYBLOCK
100
AcDbLine
 10
36.0
 20
-1.985
 30
0.0
 11
36.0
 21
1.985000999999999
 31
0.0
  0
LINE
  5
256
330
213
100
AcDbEntity
  8
MO_001_VIEW_PV
  6
BYBLOCK
100
AcDbLine
 10
36.0
 20
-1.985
 30
0.0
 11
36.0
 21
-8.335
 31
0.0
  0
LINE
  5
257
330
213
100
AcDbEntity
  8
MO_001_VIEW_PV
  6
BYBLOCK
100
AcDbLine
 10
36.0
 20
1.985000999999999
 30
0.0
 11
36.0
 21
8.335001
 31
0.0
  0
SOLID
  5
258
330
213
100
AcDbEntity
  8
MO_001_VIEW_PV
  6
BYBLOCK
100
AcDbTrace
 10
36.583512
 20
-5.303261
 30
0.0
 11
36.0
 21
-2.493
 31
0.0
 12
35.416488
 22
-5.303261
 32
0.0
 13
35.416488
 23
-5.303261
 33
0.0
  0
SOLID
  5
259
330
213
100
AcDbEntity
  8
MO_001_VIEW_PV
  6
BYBLOCK
100
AcDbTrace
 10
35.416488
 20
5.303261
 30
0.0
 11
36.0
 21
2.493001
 31
0.0
 12
36.583512
 22
5.303261
 32
0.0
 13
36.583512
 23
5.303261
 33
0.0
  0
LINE
  5
25A
330
213
100
AcDbEntity
  8
MO_001_VIEW_PV
  6
BYBLOCK
100
AcDbLine
 10
12.12155899999999
 20
-1.985
 30
0.0
 11
38.285999
 21
-1.985
 31
0.0
  0
LINE
  5
25B
330
213
100
AcDbEntity
  8
MO_001_VIEW_PV
  6
BYBLOCK
100
AcDbLine
 10
12.12155899999999
 20
1.985000999999999
 30
0.0
 11
38.285999
 21
1.985000999999999
 31
0.0
  0
LINE
  5
25C
330
213
100
AcDbEntity
  8
MO_001_VIEW_PV
  6
BYBLOCK
100
AcDbLine
 10
36.0
 20
1.985000999999999
 30
0.0
 11
36.0
 21
29.785713
 31
0.0
  0
ENDBLK
  5
25D
330
213
100
AcDbEntity
  8
0
100
AcDbBlockEnd
  0
BLOCK
  5
25E
330
215
100
AcDbEntity
  8
0
100
AcDbBlockBegin
  2
*D5
 70
     1
 10
0.0
 20
0.0
 30
0.0
  3
*D5
  1

  0
TEXT
  5
25F
330
215
100
AcDbEntity
  8
MO_001_VIEW_PV
  6
BYBLOCK
100
AcDbText
 10
16.92857099999999
 20
-23.25
 30
0.0
 40
3.0
  1
8.7以上
100
AcDbText
  0
LINE
  5
260
330
215
100
AcDbEntity
  8
MO_001_VIEW_PV
  6
BYBLOCK
100
AcDbLine
 10
12.421547
 20
-24.0
 30
0.0
 11
3.421547
 21
-24.0
 31
0.0
  0
LINE
  5
261
330
215
100
AcDbEntity
  8
MO_001_VIEW_PV
  6
BYBLOCK
100
AcDbLine
 10
12.421547
 20
-24.0
 30
0.0
 11
18.771547
 21
-24.0
 31
0.0
  0
LINE
  5
262
330
215
100
AcDbEntity
  8
MO_001_VIEW_PV
  6
BYBLOCK
100
AcDbLine
 10
3.421547
 20
-24.0
 30
0.0
 11
-2.928452999999999
 21
-24.0
 31
0.0
  0
SOLID
  5
263
330
215
100
AcDbEntity
  8
MO_001_VIEW_PV
  6
BYBLOCK
100
AcDbTrace
 10
15.739807
 20
-23.416488
 30
0.0
 11
12.929547
 21
-24.0
 31
0.0
 12
15.739807
 22
-24.583512
 32
0.0
 13
15.739807
 23
-24.583512
 33
0.0
  0
SOLID
  5
264
330
215
100
AcDbEntity
  8
MO_001_VIEW_PV
  6
BYBLOCK
100
AcDbTrace
 10
0.103287
 20
-24.583512
 30
0.0
 11
2.913547
 21
-24.0
 31
0.0
 12
0.103287
 22
-23.416488
 32
0.0
 13
0.103287
 23
-23.416488
 33
0.0
  0
LINE
  5
265
330
215
100
AcDbEntity
  8
MO_001_VIEW_PV
  6
BYBLOCK
100
AcDbLine
 10
12.421547
 20
-1.684997
 30
0.0
 11
12.421547
 21
-26.285999
 31
0.0
  0
LINE
  5
266
330
215
100
AcDbEntity
  8
MO_001_VIEW_PV
  6
BYBLOCK
100
AcDbLine
 10
3.421547
 20
1.385002
 30
0.0
 11
3.421547
 21
-26.285999
 31
0.0
  0
LINE
  5
267
330
215
100
AcDbEntity
  8
MO_001_VIEW_PV
  6
BYBLOCK
100
AcDbLine
 10
32.035713
 20
-24.0
 30
0.0
 11
12.421547
 21
-24.0
 31
0.0
  0
ENDBLK
  5
268
330
215
100
AcDbEntity
  8
0
100
AcDbBlockEnd
  0
BLOCK
  5
269
330
217
100
AcDbEntity
  8
0
100
AcDbBlockBegin
  2
*D6
 70
     1
 10
0.0
 20
0.0
 30
0.0
  3
*D6
  1

  0
TEXT
  5
26A
330
217
100
AcDbEntity
  8
MO_001_VIEW_PV
  6
BYBLOCK
100
AcDbText
 10
-1.360165999999999
 20
20.625
 30
0.0
 40
1.5
  1
%%P0.1
100
AcDbText
  0
TEXT
  5
26B
330
217
100
AcDbEntity
  8
MO_001_VIEW_PV
  6
BYBLOCK
100
AcDbText
 10
-10.14588
 20
18.75
 30
0.0
 40
3.0
  1
1.2
100
AcDbText
  0
LINE
  5
26C
330
217
100
AcDbEntity
  8
MO_001_VIEW_PV
  6
BYBLOCK
100
AcDbLine
 10
-15.578453
 20
18.0
 30
0.0
 11
-14.378441
 21
18.0
 31
0.0
  0
LINE
  5
26D
330
217
100
AcDbEntity
  8
MO_001_VIEW_PV
  6
BYBLOCK
100
AcDbLine
 10
-14.378441
 20
18.0
 30
0.0
 11
-8.028441
 21
18.0
 31
0.0
  0
SOLID
  5
26E
330
217
100
AcDbEntity
  8
MO_001_VIEW_PV
  6
BYBLOCK
100
AcDbTrace
 10
-15.578453
 20
18.635
 30
0.0
 11
-15.578453
 21
17.36499999999999
 31
0.0
 12
-15.578453
 22
18.635
 32
0.0
 13
-15.578453
 23
18.635
 33
0.0
  0
SOLID
  5
26F
330
217
100
AcDbEntity
  8
MO_001_VIEW_PV
  6
BYBLOCK
100
AcDbTrace
 10
-11.060181
 20
18.58351199999999
 30
0.0
 11
-13.87044099999999
 21
18.0
 31
0.0
 12
-11.060181
 22
17.416488
 32
0.0
 13
-11.060181
 23
17.416488
 33
0.0
  0
LINE
  5
270
330
217
100
AcDbEntity
  8
MO_001_VIEW_PV
  6
BYBLOCK
100
AcDbLine
 10
-15.578453
 20
12.699997
 30
0.0
 11
-15.578453
 21
20.285999
 31
0.0
  0
LINE
  5
271
330
217
100
AcDbEntity
  8
MO_001_VIEW_PV
  6
BYBLOCK
100
AcDbLine
 10
-14.378441
 20
12.699997
 30
0.0
 11
-14.378441
 21
20.285999
 31
0.0
  0
LINE
  5
272
330
217
100
AcDbEntity
  8
MO_001_VIEW_PV
  6
BYBLOCK
100
AcDbLine
 10
-14.378441
 20
18.0
 30
0.0
 11
4.961262999999999
 21
18.0
 31
0.0
  0
ENDBLK
  5
273
330
217
100
AcDbEntity
  8
0
100
AcDbBlockEnd
  0
BLOCK
  5
274
330
219
100
AcDbEntity
  8
0
100
AcDbBlockBegin
  2
*D7
 70
     1
 10
0.0
 20
0.0
 30
0.0
  3
*D7
  1

  0
TEXT
  5
275
330
219
100
AcDbEntity
  8
MO_001_VIEW_PV
  6
BYBLOCK
100
AcDbText
 10
-25.775478
 20
20.625
 30
0.0
 40
1.5
  1
%%P0.3
100
AcDbText
  0
TEXT
  5
276
330
219
100
AcDbEntity
  8
MO_001_VIEW_PV
  6
BYBLOCK
100
AcDbText
 10
-34.56119199999999
 20
18.75
 30
0.0
 40
3.0
  1
1.1
100
AcDbText
  0
LINE
  5
277
330
219
100
AcDbEntity
  8
MO_001_VIEW_PV
  6
BYBLOCK
100
AcDbLine
 10
-16.668943
 20
18.0
 30
0.0
 11
-15.578453
 21
18.0
 31
0.0
  0
LINE
  5
278
330
219
100
AcDbEntity
  8
MO_001_VIEW_PV
  6
BYBLOCK
100
AcDbLine
 10
-16.668943
 20
18.0
 30
0.0
 11
-23.018943
 21
18.0
 31
0.0
  0
SOLID
  5
279
330
219
100
AcDbEntity
  8
MO_001_VIEW_PV
  6
BYBLOCK
100
AcDbTrace
 10
-19.987204
 20
17.416488
 30
0.0
 11
-17.17694299999999
 21
18.0
 31
0.0
 12
-19.987204
 22
18.58351199999999
 32
0.0
 13
-19.987204
 23
18.58351199999999
 33
0.0
  0
LINE
  5
27A
330
219
100
AcDbEntity
  8
MO_001_VIEW_PV
  6
BYBLOCK
100
AcDbLine
 10
-16.668943
 20
6.419037
 30
0.0
 11
-16.668943
 21
20.285999
 31
0.0
  0
LINE
  5
27B
330
219
100
AcDbEntity
  8
MO_001_VIEW_PV
  6
BYBLOCK
100
AcDbLine
 10
-15.578453
 20
12.699997
 30
0.0
 11
-15.578453
 21
20.285999
 31
0.0
  0
LINE
  5
27C
330
219
100
AcDbEntity
  8
MO_001_VIEW_PV
  6
BYBLOCK
100
AcDbLine
 10
-35.525475
 20
18.0
 30
0.0
 11
-16.668943
 21
18.0
 31
0.0
  0
ENDBLK
  5
27D
330
219
100
AcDbEntity
  8
0
100
AcDbBlockEnd
  0
BLOCK
  5
27E
330
21B
100
AcDbEntity
  8
0
100
AcDbBlockBegin
  2
*D8
 70
     1
 10
0.0
 20
0.0
 30
0.0
  3
*D8
  1

  0
TEXT
  5
27F
330
21B
100
AcDbEntity
  8
MO_001_VIEW_PV
  6
BYBLOCK
100
AcDbText
 10
54.928571
 20
24.75
 30
0.0
 40
3.0
  1
%%C30以下
100
AcDbText
  0
LINE
  5
280
330
21B
100
AcDbEntity
  8
MO_001_VIEW_PV
  6
BYBLOCK
100
AcDbLine
 10
47.69999699999999
 20
24.0
 30
0.0
 11
76.300003
 21
24.0
 31
0.0
  0
SOLID
  5
281
330
21B
100
AcDbEntity
  8
MO_001_VIEW_PV
  6
BYBLOCK
100
AcDbTrace
 10
51.018257
 20
24.583512
 30
0.0
 11
48.207997
 21
24.0
 31
0.0
 12
51.018257
 22
23.416488
 32
0.0
 13
51.018257
 23
23.416488
 33
0.0
  0
SOLID
  5
282
330
21B
100
AcDbEntity
  8
MO_001_VIEW_PV
  6
BYBLOCK
100
AcDbTrace
 10
72.98174300000001
 20
23.416488
 30
0.0
 11
75.79200300000001
 21
24.0
 31
0.0
 12
72.98174300000001
 22
24.583512
 32
0.0
 13
72.98174300000001
 23
24.583512
 33
0.0
  0
LINE
  5
283
330
21B
100
AcDbEntity
  8
MO_001_VIEW_PV
  6
BYBLOCK
100
AcDbLine
 10
47.69999699999999
 20
0.0
 30
0.0
 11
47.69999699999999
 21
26.285999
 31
0.0
  0
LINE
  5
284
330
21B
100
AcDbEntity
  8
MO_001_VIEW_PV
  6
BYBLOCK
100
AcDbLine
 10
76.300003
 20
0.0
 30
0.0
 11
76.300003
 21
26.285999
 31
0.0
  0
ENDBLK
  5
285
330
21B
100
AcDbEntity
  8
0
100
AcDbBlockEnd
  0
BLOCK
  5
286
330
21D
100
AcDbEntity
  8
0
100
AcDbBlockBegin
  2
*D9
 70
     1
 10
0.0
 20
0.0
 30
0.0
  3
*D9
  1

  0
LINE
  5
287
330
21D
100
AcDbEntity
  8
MO_001_VIEW_PV
  6
BYBLOCK
100
AcDbLine
 10
44.521606
 20
-9.15
 30
0.0
 11
44.521606
 21
9.15
 31
0.0
  0
LINE
  5
288
330
21D
100
AcDbEntity
  8
MO_001_VIEW_PV
  6
BYBLOCK
100
AcDbLine
 10
44.521606
 20
-9.15
 30
0.0
 11
44.521606
 21
-15.5
 31
0.0
  0
LINE
  5
289
330
21D
100
AcDbEntity
  8
MO_001_VIEW_PV
  6
BYBLOCK
100
AcDbLine
 10
44.521606
 20
9.15
 30
0.0
 11
44.521606
 21
15.5
 31
0.0
  0
SOLID
  5
28A
330
21D
100
AcDbEntity
  8
MO_001_VIEW_PV
  6
BYBLOCK
100
AcDbTrace
 10
45.10511799999999
 20
-12.46826
 30
0.0
 11
44.521606
 21
-9.657999999999999
 31
0.0
 12
43.938095
 22
-12.46826
 32
0.0
 13
43.938095
 23
-12.46826
 33
0.0
  0
SOLID
  5
28B
330
21D
100
AcDbEntity
  8
MO_001_VIEW_PV
  6
BYBLOCK
100
AcDbTrace
 10
43.938095
 20
12.46826
 30
0.0
 11
44.521606
 21
9.657999999999999
 31
0.0
 12
45.10511799999999
 22
12.46826
 32
0.0
 13
45.10511799999999
 23
12.46826
 33
0.0
  0
LINE
  5
28C
330
21D
100
AcDbEntity
  8
MO_001_VIEW_PV
  6
BYBLOCK
100
AcDbLine
 10
59.0
 20
-9.15
 30
0.0
 11
42.235607
 21
-9.15
 31
0.0
  0
LINE
  5
28D
330
21D
100
AcDbEntity
  8
MO_001_VIEW_PV
  6
BYBLOCK
100
AcDbLine
 10
59.0
 20
9.15
 30
0.0
 11
42.235607
 21
9.15
 31
0.0
  0
TEXT
  5
28E
330
21D
100
AcDbEntity
  8
MO_001_VIEW_PV
  6
BYBLOCK
100
AcDbText
 10
41.89660599999999
 20
3.214285999999999
 30
0.0
 40
1.5
  1
%%P0.3
 50
90.0
100
AcDbText
  0
TEXT
  5
28F
330
21D
100
AcDbEntity
  8
MO_001_VIEW_PV
  6
BYBLOCK
100
AcDbText
 10
43.77160599999999
 20
-8.571429
 30
0.0
 40
3.0
  1
18.3
 50
90.0
100
AcDbText
  0
LINE
  5
290
330
21D
100
AcDbEntity
  8
MO_001_VIEW_PV
  6
BYBLOCK
100
AcDbLine
 10
44.521606
 20
-9.535713000000001
 30
0.0
 11
44.521606
 21
-9.15
 31
0.0
  0
LINE
  5
291
330
21D
100
AcDbEntity
  8
MO_001_VIEW_PV
  6
BYBLOCK
100
AcDbLine
 10
44.521606
 20
9.15
 30
0.0
 11
44.521606
 21
9.535713000000001
 31
0.0
  0
ENDBLK
  5
292
330
21D
100
AcDbEntity
  8
0
100
AcDbBlockEnd
  0
BLOCK
  5
293
330
21F
100
AcDbEntity
  8
0
100
AcDbBlockBegin
  2
*D10
 70
     1
 10
0.0
 20
0.0
 30
0.0
  3
*D10
  1

  0
TEXT
  5
294
330
21F
100
AcDbEntity
  8
MO_001_VIEW_PV
  6
BYBLOCK
100
AcDbText
 10
52.672727
 20
18.75
 30
0.0
 40
3.0
  1
%%C14以下
100
AcDbText
  0
LINE
  5
295
330
21F
100
AcDbEntity
  8
MO_001_VIEW_PV
  6
BYBLOCK
100
AcDbLine
 10
55.800003
 20
18.0
 30
0.0
 11
68.199997
 21
18.0
 31
0.0
  0
LINE
  5
296
330
21F
100
AcDbEntity
  8
MO_001_VIEW_PV
  6
BYBLOCK
100
AcDbLine
 10
55.800003
 20
18.0
 30
0.0
 11
49.450003
 21
18.0
 31
0.0
  0
LINE
  5
297
330
21F
100
AcDbEntity
  8
MO_001_VIEW_PV
  6
BYBLOCK
100
AcDbLine
 10
68.199997
 20
18.0
 30
0.0
 11
74.54999699999999
 21
18.0
 31
0.0
  0
SOLID
  5
298
330
21F
100
AcDbEntity
  8
MO_001_VIEW_PV
  6
BYBLOCK
100
AcDbTrace
 10
52.481743
 20
17.416488
 30
0.0
 11
55.292003
 21
18.0
 31
0.0
 12
52.481743
 22
18.58351199999999
 32
0.0
 13
52.481743
 23
18.58351199999999
 33
0.0
  0
SOLID
  5
299
330
21F
100
AcDbEntity
  8
MO_001_VIEW_PV
  6
BYBLOCK
100
AcDbTrace
 10
71.51825699999999
 20
18.58351199999999
 30
0.0
 11
68.70799699999999
 21
18.0
 31
0.0
 12
71.51825699999999
 22
17.416488
 32
0.0
 13
71.51825699999999
 23
17.416488
 33
0.0
  0
LINE
  5
29A
330
21F
100
AcDbEntity
  8
MO_001_VIEW_PV
  6
BYBLOCK
100
AcDbLine
 10
55.800003
 20
0.0
 30
0.0
 11
55.800003
 21
20.285999
 31
0.0
  0
LINE
  5
29B
330
21F
100
AcDbEntity
  8
MO_001_VIEW_PV
  6
BYBLOCK
100
AcDbLine
 10
68.199997
 20
0.0
 30
0.0
 11
68.199997
 21
20.285999
 31
0.0
  0
LINE
  5
29C
330
21F
100
AcDbEntity
  8
MO_001_VIEW_PV
  6
BYBLOCK
100
AcDbLine
 10
51.708443
 20
18.0
 30
0.0
 11
55.800003
 21
18.0
 31
0.0
  0
ENDBLK
  5
29D
330
21F
100
AcDbEntity
  8
0
100
AcDbBlockEnd
  0
BLOCK
  5
29E
330
221
100
AcDbEntity
  8
0
100
AcDbBlockBegin
  2
*D11
 70
     1
 10
0.0
 20
0.0
 30
0.0
  3
*D11
  1

  0
TEXT
  5
29F
330
221
100
AcDbEntity
  8
MO_001_VIEW_PV
  6
BYBLOCK
100
AcDbText
 10
83.08618100000002
 20
7.169241
 30
0.0
 40
3.0
  1
長さ250以上
 50
90.0
100
AcDbText
  0
LINE
  5
2A0
330
221
100
AcDbEntity
  8
MO_001_VIEW_PV
  6
BYBLOCK
100
AcDbLine
 10
83.83618199999999
 20
-32.30001099999999
 30
0.0
 11
83.83618199999999
 21
-13.18794699999999
 31
0.0
  0
SOLID
  5
2A1
330
221
100
AcDbEntity
  8
MO_001_VIEW_PV
  6
BYBLOCK
100
AcDbTrace
 10
83.25267
 20
-28.981751
 30
0.0
 11
83.83618199999999
 21
-31.792011
 31
0.0
 12
84.41969300000002
 22
-28.981751
 32
0.0
 13
84.41969300000002
 23
-28.981751
 33
0.0
  0
SOLID
  5
2A2
330
221
100
AcDbEntity
  8
MO_001_VIEW_PV
  6
BYBLOCK
100
AcDbTrace
 10
84.41969300000002
 20
-16.506207
 30
0.0
 11
83.83618199999999
 21
-13.695947
 31
0.0
 12
83.25267
 22
-16.506207
 32
0.0
 13
83.25267
 23
-16.506207
 33
0.0
  0
LINE
  5
2A3
330
221
100
AcDbEntity
  8
MO_001_VIEW_PV
  6
BYBLOCK
100
AcDbLine
 10
67.128838
 20
-32.30001099999999
 30
0.0
 11
86.122185
 21
-32.30001099999999
 31
0.0
  0
LINE
  5
2A4
330
221
100
AcDbEntity
  8
MO_001_VIEW_PV
  6
BYBLOCK
100
AcDbLine
 10
67.528839
 20
-13.18794699999999
 30
0.0
 11
86.122185
 21
-13.18794699999999
 31
0.0
  0
LINE
  5
2A5
330
221
100
AcDbEntity
  8
MO_001_VIEW_PV
  6
BYBLOCK
100
AcDbLine
 10
83.83618199999999
 20
-13.18794699999999
 30
0.0
 11
83.83618199999999
 21
28.276382
 31
0.0
  0
ENDBLK
  5
2A6
330
221
100
AcDbEntity
  8
0
100
AcDbBlockEnd
  0
ENDSEC
  0
SECTION
  2
ENTITIES
  0
TEXT
  5
4B
330
1E
100
AcDbEntity
  8
OVERLAY_MAP
  6
C_SOLID_L
100
AcDbText
 10
0.0
 20
6.349999999999999
 30
0.0
 40
4.1672
  1
Model Overlay Name
100
AcDbText
  0
TEXT
  5
4C
330
1E
100
AcDbEntity
  8
OVERLAY_MAP
  6
C_SOLID_L
100
AcDbText
 10
126.999998
 20
0.0
 30
0.0
 40
4.1672
  1
Number
100
AcDbText
  0
TEXT
  5
4D
330
1E
100
AcDbEntity
  8
OVERLAY_MAP
  6
C_SOLID_L
100
AcDbText
 10
177.7999969999999
 20
0.0
 30
0.0
 40
4.1672
  1
File Text
100
AcDbText
  0
TEXT
  5
4E
330
1E
100
AcDbEntity
  8
OVERLAY_MAP
  6
C_SOLID_L
100
AcDbText
 10
0.0
 20
-6.349999999999999
 30
0.0
 40
4.1672
  1
ro 2e349 
100
AcDbText
  0
TEXT
  5
4F
330
1E
100
AcDbEntity
  8
OVERLAY_MAP
  6
C_SOLID_L
100
AcDbText
 10
126.999998
 20
-6.349999999999999
 30
0.0
 40
4.1672
  1
001
100
AcDbText
  0
TEXT
  5
50
330
1E
100
AcDbEntity
  8
OVERLAY_MAP
  6
C_SOLID_L
100
AcDbText
 10
177.7999969999999
 20
-6.349999999999999
 30
0.0
 40
4.1672
  1
                                                                   00139
100
AcDbText
  0
LINE
  5
51
330
1E
100
AcDbEntity
  8
MO_001_VIEW_PV
  6
C_CENTER_L
100
AcDbLine
 10
-29.40997299999999
 20
0.0
 30
0.0
 11
13.72379299999999
 21
0.0
 31
0.0
  0
LINE
  5
52
330
1E
100
AcDbEntity
  8
MO_001_VIEW_PV
  6
C_SOLID_M
100
AcDbLine
 10
-13.600006
 20
11.599998
 30
0.0
 11
-13.600006
 21
-11.599998
 31
0.0
  0
LINE
  5
53
330
1E
100
AcDbEntity
  8
MO_001_VIEW_PV
  6
C_SOLID_M
100
AcDbLine
 10
-0.6000060000000001
 20
14.300003
 30
0.0
 11
-0.6000060000000001
 21
-14.300003
 31
0.0
  0
LINE
  5
54
330
1E
100
AcDbEntity
  8
MO_001_VIEW_PV
  6
C_SOLID_M
100
AcDbLine
 10
-10.89999399999999
 20
14.300003
 30
0.0
 11
-0.6000060000000001
 21
14.300003
 31
0.0
  0
LINE
  5
55
330
1E
100
AcDbEntity
  8
MO_001_VIEW_PV
  6
C_SOLID_M
100
AcDbLine
 10
-10.89999399999999
 20
-14.300003
 30
0.0
 11
-0.6000060000000001
 21
-14.300003
 31
0.0
  0
ARC
  5
56
330
1E
100
AcDbEntity
  8
MO_001_VIEW_PV
  6
C_SOLID_M
100
AcDbCircle
 10
-10.89999399999999
 20
11.599998
 30
0.0
 40
2.7
100
AcDbArc
 50
90.000002
 51
180.000005
  0
ARC
  5
57
330
1E
100
AcDbEntity
  8
MO_001_VIEW_PV
  6
C_SOLID_M
100
AcDbCircle
 10
-10.89999399999999
 20
-11.599998
 30
0.0
 40
2.7
100
AcDbArc
 50
179.9999909999999
 51
215.482346
  0
LINE
  5
58
330
1E
100
AcDbEntity
  8
MO_001_VIEW_PV
  6
C_SOLID_M
100
AcDbLine
 10
-0.399994
 20
12.565002
 30
0.0
 11
-0.399994
 21
-12.565002
 31
0.0
  0
LINE
  5
59
330
1E
100
AcDbEntity
  8
MO_001_VIEW_PV
  6
C_SOLID_M
100
AcDbLine
 10
-0.6000020000000001
 20
12.764999
 30
0.0
 11
-0.400001
 21
12.56499699999999
 31
0.0
  0
LINE
  5
5A
330
1E
100
AcDbEntity
  8
MO_001_VIEW_PV
  6
C_SOLID_M
100
AcDbLine
 10
-0.400005
 20
-12.564994
 30
0.0
 11
-0.6000060000000001
 21
-12.76499499999999
 31
0.0
  0
LINE
  5
5B
330
1E
100
AcDbEntity
  8
MO_001_VIEW_PV
  6
C_SOLID_M
100
AcDbLine
 10
9.100006
 20
9.900002
 30
0.0
 11
9.100006
 21
8.400002
 31
0.0
  0
LINE
  5
5C
330
1E
100
AcDbEntity
  8
MO_001_VIEW_PV
  6
C_CENTER_L
100
AcDbLine
 10
-1.644484999999999
 20
9.150002
 30
0.0
 11
10.069824
 21
9.150002
 31
0.0
  0
LINE
  5
5D
330
1E
100
AcDbEntity
  8
MO_001_VIEW_PV
  6
C_SOLID_M
100
AcDbLine
 10
0.0
 20
10.30000299999999
 30
0.0
 11
8.700011999999999
 21
10.30000299999999
 31
0.0
  0
LINE
  5
5E
330
1E
100
AcDbEntity
  8
MO_001_VIEW_PV
  6
C_SOLID_L
100
AcDbLine
 10
0.0
 20
8.0
 30
0.0
 11
8.700011999999999
 21
8.0
 31
0.0
  0
LINE
  5
5F
330
1E
100
AcDbEntity
  8
MO_001_VIEW_PV
  6
C_SOLID_L
100
AcDbLine
 10
0.0
 20
9.900002
 30
0.0
 11
9.100006
 21
9.900002
 31
0.0
  0
LINE
  5
60
330
1E
100
AcDbEntity
  8
MO_001_VIEW_PV
  6
C_SOLID_M
100
AcDbLine
 10
0.0
 20
8.400002
 30
0.0
 11
9.100006
 21
8.400002
 31
0.0
  0
LINE
  5
61
330
1E
100
AcDbEntity
  8
MO_001_VIEW_PV
  6
C_SOLID_M
100
AcDbLine
 10
8.700011999999999
 20
10.30000299999999
 30
0.0
 11
8.700011999999999
 21
8.0
 31
0.0
  0
LINE
  5
62
330
1E
100
AcDbEntity
  8
MO_001_VIEW_PV
  6
C_SOLID_M
100
AcDbLine
 10
8.699999
 20
10.299997
 30
0.0
 11
9.099996
 21
9.9
 31
0.0
  0
LINE
  5
63
330
1E
100
AcDbEntity
  8
MO_001_VIEW_PV
  6
C_SOLID_M
100
AcDbLine
 10
8.700001
 20
7.999996
 30
0.0
 11
9.100002999999999
 21
8.399999000000001
 31
0.0
  0
LINE
  5
64
330
1E
100
AcDbEntity
  8
MO_001_VIEW_PV
  6
C_SOLID_M
100
AcDbLine
 10
9.100006
 20
-9.900002
 30
0.0
 11
9.100006
 21
-8.400002
 31
0.0
  0
LINE
  5
65
330
1E
100
AcDbEntity
  8
MO_001_VIEW_PV
  6
C_CENTER_L
100
AcDbLine
 10
-1.644484999999999
 20
-9.150002
 30
0.0
 11
10.069824
 21
-9.150002
 31
0.0
  0
LINE
  5
66
330
1E
100
AcDbEntity
  8
MO_001_VIEW_PV
  6
C_SOLID_M
100
AcDbLine
 10
0.0
 20
-10.30000299999999
 30
0.0
 11
8.700011999999999
 21
-10.30000299999999
 31
0.0
  0
LINE
  5
67
330
1E
100
AcDbEntity
  8
MO_001_VIEW_PV
  6
C_SOLID_L
100
AcDbLine
 10
0.0
 20
-8.0
 30
0.0
 11
8.700011999999999
 21
-8.0
 31
0.0
  0
LINE
  5
68
330
1E
100
AcDbEntity
  8
MO_001_VIEW_PV
  6
C_SOLID_L
100
AcDbLine
 10
0.0
 20
-9.900002
 30
0.0
 11
9.100006
 21
-9.900002
 31
0.0
  0
LINE
  5
69
330
1E
100
AcDbEntity
  8
MO_001_VIEW_PV
  6
C_SOLID_M
100
AcDbLine
 10
0.0
 20
-8.400002
 30
0.0
 11
9.100006
 21
-8.400002
 31
0.0
  0
LINE
  5
6A
330
1E
100
AcDbEntity
  8
MO_001_VIEW_PV
  6
C_SOLID_M
100
AcDbLine
 10
8.700011999999999
 20
-10.30000299999999
 30
0.0
 11
8.700011999999999
 21
-8.0
 31
0.0
  0
LINE
  5
6B
330
1E
100
AcDbEntity
  8
MO_001_VIEW_PV
  6
C_SOLID_M
100
AcDbLine
 10
8.699999
 20
-10.300001
 30
0.0
 11
9.099997
 21
-9.900002999999999
 31
0.0
  0
LINE
  5
6C
330
1E
100
AcDbEntity
  8
MO_001_VIEW_PV
  6
C_SOLID_M
100
AcDbLine
 10
8.699999999999999
 20
-7.999999
 30
0.0
 11
9.100001999999999
 21
-8.400002
 31
0.0
  0
ARC
  5
6D
330
1E
100
AcDbEntity
  8
MO_001_VIEW_PV
  6
C_SOLID_M
100
AcDbCircle
 10
-13.988007
 20
-9.5
 30
0.0
 40
1.190499999999999
100
AcDbArc
 50
70.97904599999999
 51
109.144893
  0
LINE
  5
6E
330
1E
100
AcDbEntity
  8
MO_001_VIEW_PV
  6
C_SOLID_M
100
AcDbLine
 10
-14.378441
 20
-12.699997
 30
0.0
 11
-14.378441
 21
12.699997
 31
0.0
  0
LINE
  5
6F
330
1E
100
AcDbEntity
  8
MO_001_VIEW_PV
  6
C_SOLID_M
100
AcDbLine
 10
-15.578453
 20
-12.699997
 30
0.0
 11
-15.578453
 21
12.699997
 31
0.0
  0
LINE
  5
70
330
1E
100
AcDbEntity
  8
MO_001_VIEW_PV
  6
C_SOLID_M
100
AcDbLine
 10
-15.578453
 20
12.699997
 30
0.0
 11
-14.378441
 21
12.699997
 31
0.0
  0
LINE
  5
71
330
1E
100
AcDbEntity
  8
MO_001_VIEW_PV
  6
C_SOLID_M
100
AcDbLine
 10
-15.578453
 20
-12.699997
 30
0.0
 11
-14.378441
 21
-12.699997
 31
0.0
  0
LINE
  5
72
330
1E
100
AcDbEntity
  8
MO_001_VIEW_PV
  6
C_SOLID_M
100
AcDbLine
 10
-15.678434
 20
1.664802999999999
 30
0.0
 11
-15.578453
 21
1.664802999999999
 31
0.0
  0
ARC
  5
73
330
1E
100
AcDbEntity
  8
MO_001_VIEW_PV
  6
C_SOLID_M
100
AcDbCircle
 10
-15.478453
 20
6.419037
 30
0.0
 40
1.190499999999999
100
AcDbArc
 50
94.81844800000001
 51
186.638963
  0
ARC
  5
74
330
1E
100
AcDbEntity
  8
MO_001_VIEW_PV
  6
C_SOLID_M
100
AcDbCircle
 10
-15.678434
 20
2.164803
 30
0.0
 40
0.5
100
AcDbArc
 50
186.6389659999999
 51
269.999998
  0
LINE
  5
75
330
1E
100
AcDbEntity
  8
MO_001_VIEW_PV
  6
C_SOLID_M
100
AcDbLine
 10
-16.66095799999999
 20
6.281400999999999
 30
0.0
 11
-16.175085
 21
2.106996
 31
0.0
  0
ARC
  5
76
330
1E
100
AcDbEntity
  8
MO_001_VIEW_PV
  6
C_SOLID_M
100
AcDbCircle
 10
-15.478453
 20
-9.5
 30
0.0
 40
1.190498
100
AcDbArc
 50
94.818455
 51
265.181548
  0
LINE
  5
77
330
1E
100
AcDbEntity
  8
MO_001_VIEW_PV
  6
C_SOLID_M
100
AcDbLine
 10
-14.378441
 20
-6.300003
 30
0.0
 11
-13.600006
 21
-6.300003
 31
0.0
  0
LINE
  5
78
330
1E
100
AcDbEntity
  8
MO_001_VIEW_PV
  6
C_SOLID_M
100
AcDbLine
 10
-16.178444
 20
-5.150001999999999
 30
0.0
 11
-15.578453
 21
-5.150001999999999
 31
0.0
  0
LINE
  5
79
330
1E
100
AcDbEntity
  8
MO_001_VIEW_PV
  6
C_SOLID_M
100
AcDbLine
 10
-16.178444
 20
-5.150001999999999
 30
0.0
 11
-16.178444
 21
2.164803
 31
0.0
  0
LINE
  5
7A
330
1E
100
AcDbEntity
  8
MO_001_VIEW_PV
  6
C_SOLID_M
100
AcDbLine
 10
-28.27844199999999
 20
1.877823
 30
0.0
 11
-28.27844199999999
 21
-1.877815
 31
0.0
  0
LINE
  5
7B
330
1E
100
AcDbEntity
  8
MO_001_VIEW_PV
  6
C_SOLID_M
100
AcDbLine
 10
-27.878441
 20
1.985
 30
0.0
 11
-27.878441
 21
-1.985000999999999
 31
0.0
  0
LINE
  5
7C
330
1E
100
AcDbEntity
  8
MO_001_VIEW_PV
  6
C_SOLID_M
100
AcDbLine
 10
-27.878441
 20
1.985000999999999
 30
0.0
 11
-16.178444
 21
1.985000999999999
 31
0.0
  0
LINE
  5
7D
330
1E
100
AcDbEntity
  8
MO_001_VIEW_PV
  6
C_SOLID_M
100
AcDbLine
 10
-27.87843599999999
 20
1.985001999999999
 30
0.0
 11
-28.278449
 21
1.877817999999999
 31
0.0
  0
LINE
  5
7E
330
1E
100
AcDbEntity
  8
MO_001_VIEW_PV
  6
C_SOLID_M
100
AcDbLine
 10
-27.878438
 20
-1.985008999999999
 30
0.0
 11
-28.278451
 21
-1.877825999999999
 31
0.0
  0
LINE
  5
7F
330
1E
100
AcDbEntity
  8
MO_001_VIEW_PV
  6
C_SOLID_M
100
AcDbLine
 10
-27.878441
 20
-1.985000999999999
 30
0.0
 11
-16.178444
 21
-1.985000999999999
 31
0.0
  0
LINE
  5
80
330
1E
100
AcDbEntity
  8
MO_001_VIEW_PV
  6
C_SOLID_M
100
AcDbLine
 10
-15.878441
 20
0.920616
 30
0.0
 11
-15.578453
 21
0.920616
 31
0.0
  0
LINE
  5
81
330
1E
100
AcDbEntity
  8
MO_001_VIEW_PV
  6
C_SOLID_M
100
AcDbLine
 10
-16.178444
 20
1.279998999999999
 30
0.0
 11
-15.878441
 21
1.279998999999999
 31
0.0
  0
LINE
  5
82
330
1E
100
AcDbEntity
  8
MO_001_VIEW_PV
  6
C_SOLID_M
100
AcDbLine
 10
-15.878441
 20
-0.920616
 30
0.0
 11
-15.578453
 21
-0.920616
 31
0.0
  0
LINE
  5
83
330
1E
100
AcDbEntity
  8
MO_001_VIEW_PV
  6
C_SOLID_M
100
AcDbLine
 10
-16.178444
 20
-1.279998999999999
 30
0.0
 11
-15.878441
 21
-1.279998999999999
 31
0.0
  0
LINE
  5
84
330
1E
100
AcDbEntity
  8
MO_001_VIEW_PV
  6
C_SOLID_M
100
AcDbLine
 10
-15.878441
 20
-1.279998999999999
 30
0.0
 11
-15.878441
 21
1.279998999999999
 31
0.0
  0
LINE
  5
85
330
1E
100
AcDbEntity
  8
MO_001_VIEW_PV
  6
C_SOLID_M
100
AcDbLine
 10
-16.178444
 20
-3.724769999999999
 30
0.0
 11
-15.878441
 21
-3.724769999999999
 31
0.0
  0
LINE
  5
86
330
1E
100
AcDbEntity
  8
MO_001_VIEW_PV
  6
C_SOLID_M
100
AcDbLine
 10
-15.878441
 20
-3.971885999999999
 30
0.0
 11
-15.578453
 21
-3.971885999999999
 31
0.0
  0
LINE
  5
87
330
1E
100
AcDbEntity
  8
MO_001_VIEW_PV
  6
C_SOLID_M
100
AcDbLine
 10
-15.878441
 20
-4.937308999999999
 30
0.0
 11
-15.578453
 21
-4.937308999999999
 31
0.0
  0
LINE
  5
88
330
1E
100
AcDbEntity
  8
MO_001_VIEW_PV
  6
C_SOLID_M
100
AcDbLine
 10
-16.178444
 20
-5.004768
 30
0.0
 11
-15.878441
 21
-5.004768
 31
0.0
  0
LINE
  5
89
330
1E
100
AcDbEntity
  8
MO_001_VIEW_PV
  6
C_SOLID_M
100
AcDbLine
 10
-15.878441
 20
-5.004768
 30
0.0
 11
-15.878441
 21
-3.724769999999999
 31
0.0
  0
LINE
  5
8A
330
1E
100
AcDbEntity
  8
MO_001_VIEW_PV
  6
C_SOLID_M
100
AcDbLine
 10
12.421547
 20
1.684998
 30
0.0
 11
12.421547
 21
-1.684997
 31
0.0
  0
LINE
  5
8B
330
1E
100
AcDbEntity
  8
MO_001_VIEW_PV
  6
C_SOLID_M
100
AcDbLine
 10
3.421547
 20
1.985000999999999
 30
0.0
 11
12.12155899999999
 21
1.985000999999999
 31
0.0
  0
LINE
  5
8C
330
1E
100
AcDbEntity
  8
MO_001_VIEW_PV
  6
C_SOLID_M
100
AcDbLine
 10
12.12155899999999
 20
-1.985000999999999
 30
0.0
 11
3.021552999999999
 21
-1.985000999999999
 31
0.0
  0
LINE
  5
8D
330
1E
100
AcDbEntity
  8
MO_001_VIEW_PV
  6
C_SOLID_M
100
AcDbLine
 10
3.421547
 20
1.985000999999999
 30
0.0
 11
3.421547
 21
1.385002
 31
0.0
  0
LINE
  5
8E
330
1E
100
AcDbEntity
  8
MO_001_VIEW_PV
  6
C_SOLID_M
100
AcDbLine
 10
3.021552999999999
 20
1.385002
 30
0.0
 11
3.421547
 21
1.385002
 31
0.0
  0
LINE
  5
8F
330
1E
100
AcDbEntity
  8
MO_001_VIEW_PV
  6
C_SOLID_M
100
AcDbLine
 10
12.12155899999999
 20
1.985000999999999
 30
0.0
 11
12.12155899999999
 21
-1.985000999999999
 31
0.0
  0
LINE
  5
90
330
1E
100
AcDbEntity
  8
MO_001_VIEW_PV
  6
C_SOLID_M
100
AcDbLine
 10
12.12155
 20
1.985001999999999
 30
0.0
 11
12.42155399999999
 21
1.684997
 31
0.0
  0
LINE
  5
91
330
1E
100
AcDbEntity
  8
MO_001_VIEW_PV
  6
C_SOLID_M
100
AcDbLine
 10
12.121549
 20
-1.984997
 30
0.0
 11
12.421548
 21
-1.684998
 31
0.0
  0
LINE
  5
92
330
1E
100
AcDbEntity
  8
MO_001_VIEW_PV
  6
C_SOLID_M
100
AcDbLine
 10
0.0
 20
12.300003
 30
0.0
 11
-0.399994
 21
12.300003
 31
0.0
  0
LINE
  5
93
330
1E
100
AcDbEntity
  8
MO_001_VIEW_PV
  6
C_SOLID_M
100
AcDbLine
 10
0.0
 20
-12.300003
 30
0.0
 11
-0.399994
 21
-12.300003
 31
0.0
  0
LINE
  5
94
330
1E
100
AcDbEntity
  8
MO_001_VIEW_PV
  6
C_SOLID_M
100
AcDbLine
 10
-0.399994
 20
12.300003
 30
0.0
 11
-0.399994
 21
-12.300003
 31
0.0
  0
LINE
  5
95
330
1E
100
AcDbEntity
  8
MO_001_VIEW_PV
  6
C_SOLID_M
100
AcDbLine
 10
0.0
 20
12.300003
 30
0.0
 11
0.0
 21
-12.300003
 31
0.0
  0
LINE
  5
96
330
1E
100
AcDbEntity
  8
MO_001_VIEW_PV
  6
C_SOLID_M
100
AcDbLine
 10
1.899993999999999
 20
-5.501166999999999
 30
0.0
 11
1.899993999999999
 21
-5.949996999999999
 31
0.0
  0
LINE
  5
97
330
1E
100
AcDbEntity
  8
MO_001_VIEW_PV
  6
C_SOLID_M
100
AcDbLine
 10
1.600006
 20
-3.941924999999999
 30
0.0
 11
0.399994
 21
-3.941924999999999
 31
0.0
  0
LINE
  5
98
330
1E
100
AcDbEntity
  8
MO_001_VIEW_PV
  6
C_SOLID_M
100
AcDbLine
 10
1.600463999999999
 20
2.364371999999999
 30
0.0
 11
0.399994
 21
2.364371999999999
 31
0.0
  0
LINE
  5
99
330
1E
100
AcDbEntity
  8
MO_001_VIEW_PV
  6
C_SOLID_M
100
AcDbLine
 10
1.600006
 20
4.998146
 30
0.0
 11
0.399994
 21
4.998146
 31
0.0
  0
LINE
  5
9A
330
1E
100
AcDbEntity
  8
MO_001_VIEW_PV
  6
C_SOLID_M
100
AcDbLine
 10
1.899993999999999
 20
5.761344999999999
 30
0.0
 11
1.899993999999999
 21
5.048148999999999
 31
0.0
  0
LINE
  5
9B
330
1E
100
AcDbEntity
  8
MO_001_VIEW_PV
  6
C_SOLID_M
100
AcDbLine
 10
1.899993999999999
 20
3.180884999999999
 30
0.0
 11
1.899993999999999
 21
2.564368999999999
 31
0.0
  0
LINE
  5
9C
330
1E
100
AcDbEntity
  8
MO_001_VIEW_PV
  6
C_SOLID_M
100
AcDbLine
 10
1.899993999999999
 20
-4.091927
 30
0.0
 11
1.899993999999999
 21
-4.674102999999999
 31
0.0
  0
ARC
  5
9D
330
1E
100
AcDbEntity
  8
MO_001_VIEW_PV
  6
C_SOLID_M
100
AcDbCircle
 10
0.399994
 20
6.211342
 30
0.0
 40
0.4
100
AcDbArc
 50
179.9999909999999
 51
270.000001
  0
LINE
  5
9E
330
1E
100
AcDbEntity
  8
MO_001_VIEW_PV
  6
C_SOLID_M
100
AcDbLine
 10
1.600006
 20
5.352608
 30
0.0
 11
0.399994
 21
5.352608
 31
0.0
  0
LINE
  5
9F
330
1E
100
AcDbEntity
  8
MO_001_VIEW_PV
  6
C_SOLID_M
100
AcDbLine
 10
1.600006
 20
5.81134
 30
0.0
 11
0.399994
 21
5.81134
 31
0.0
  0
LINE
  5
A0
330
1E
100
AcDbEntity
  8
MO_001_VIEW_PV
  6
C_SOLID_M
100
AcDbLine
 10
1.600006
 20
3.380889999999999
 30
0.0
 11
0.399506
 21
3.380889999999999
 31
0.0
  0
LINE
  5
A1
330
1E
100
AcDbEntity
  8
MO_001_VIEW_PV
  6
C_SOLID_M
100
AcDbLine
 10
1.600463999999999
 20
2.516761999999999
 30
0.0
 11
0.399994
 21
2.516761999999999
 31
0.0
  0
LINE
  5
A2
330
1E
100
AcDbEntity
  8
MO_001_VIEW_PV
  6
C_SOLID_M
100
AcDbLine
 10
1.600006
 20
-0.5485
 30
0.0
 11
0.399567
 21
-0.5485
 31
0.0
  0
LINE
  5
A3
330
1E
100
AcDbEntity
  8
MO_001_VIEW_PV
  6
C_SOLID_M
100
AcDbLine
 10
1.600006
 20
-0.531799
 30
0.0
 11
0.399567
 21
-0.531799
 31
0.0
  0
LINE
  5
A4
330
1E
100
AcDbEntity
  8
MO_001_VIEW_PV
  6
C_SOLID_M
100
AcDbLine
 10
1.600006
 20
-1.499724999999999
 30
0.0
 11
0.399689
 21
-1.499724999999999
 31
0.0
  0
LINE
  5
A5
330
1E
100
AcDbEntity
  8
MO_001_VIEW_PV
  6
C_SOLID_M
100
AcDbLine
 10
1.899993999999999
 20
-0.8317949999999999
 30
0.0
 11
1.899993999999999
 21
-1.199729999999999
 31
0.0
  0
LINE
  5
A6
330
1E
100
AcDbEntity
  8
MO_001_VIEW_PV
  6
C_SOLID_M
100
AcDbLine
 10
1.600006
 20
-4.211608999999999
 30
0.0
 11
0.399994
 21
-4.211608999999999
 31
0.0
  0
LINE
  5
A7
330
1E
100
AcDbEntity
  8
MO_001_VIEW_PV
  6
C_SOLID_M
100
AcDbLine
 10
1.600006
 20
-4.824104
 30
0.0
 11
0.399994
 21
-4.824104
 31
0.0
  0
LINE
  5
A8
330
1E
100
AcDbEntity
  8
MO_001_VIEW_PV
  6
C_SOLID_M
100
AcDbLine
 10
1.899993999999999
 20
-5.501166999999999
 30
0.0
 11
0.399994
 21
-5.501166999999999
 31
0.0
  0
LINE
  5
A9
330
1E
100
AcDbEntity
  8
MO_001_VIEW_PV
  6
C_SOLID_M
100
AcDbLine
 10
1.899993999999999
 20
-5.897644
 30
0.0
 11
0.399994
 21
-5.897644
 31
0.0
  0
LINE
  5
AA
330
1E
100
AcDbEntity
  8
MO_001_VIEW_PV
  6
C_SOLID_M
100
AcDbLine
 10
1.899993999999999
 20
-5.949996999999999
 30
0.0
 11
0.399994
 21
-5.949996999999999
 31
0.0
  0
ARC
  5
AB
330
1E
100
AcDbEntity
  8
MO_001_VIEW_PV
  6
C_SOLID_M
100
AcDbCircle
 10
0.399994
 20
-6.349998
 30
0.0
 40
0.4
100
AcDbArc
 50
90.00000899999999
 51
179.9999909999999
  0
ARC
  5
AC
330
1E
100
AcDbEntity
  8
MO_001_VIEW_PV
  6
C_SOLID_M
100
AcDbCircle
 10
0.399994
 20
-6.297646
 30
0.0
 40
0.4
100
AcDbArc
 50
90.00000899999999
 51
179.9999909999999
  0
ARC
  5
AD
330
1E
100
AcDbEntity
  8
MO_001_VIEW_PV
  6
C_SOLID_M
100
AcDbCircle
 10
0.399994
 20
-6.301162999999999
 30
0.0
 40
0.8
100
AcDbArc
 50
89.999996
 51
119.999976
  0
POLYLINE
  5
AE
330
1E
100
AcDbEntity
  8
MO_001_VIEW_PV
  6
C_SOLID_M
100
AcDb2dPolyline
 66
     1
 10
0.0
 20
0.0
 30
0.0
  0
VERTEX
  5
2B8
330
AE
100
AcDbEntity
  8
MO_001_VIEW_PV
  6
C_SOLID_M
100
AcDbVertex
100
AcDb2dVertex
 10
0.399994
 20
-4.824104
 30
0.0
  0
VERTEX
  5
2B9
330
AE
100
AcDbEntity
  8
MO_001_VIEW_PV
  6
C_SOLID_M
100
AcDbVertex
100
AcDb2dVertex
 10
0.321959
 20
-4.830594
 30
0.0
  0
VERTEX
  5
2BA
330
AE
100
AcDbEntity
  8
MO_001_VIEW_PV
  6
C_SOLID_M
100
AcDbVertex
100
AcDb2dVertex
 10
0.211438
 20
-4.863985999999999
 30
0.0
  0
VERTEX
  5
2BB
330
AE
100
AcDbEntity
  8
MO_001_VIEW_PV
  6
C_SOLID_M
100
AcDbVertex
100
AcDb2dVertex
 10
0.117155
 20
-4.92303
 30
0.0
  0
VERTEX
  5
2BC
330
AE
100
AcDbEntity
  8
MO_001_VIEW_PV
  6
C_SOLID_M
100
AcDbVertex
100
AcDb2dVertex
 10
0.067411
 20
-4.974212
 30
0.0
  0
VERTEX
  5
2BD
330
AE
100
AcDbEntity
  8
MO_001_VIEW_PV
  6
C_SOLID_M
100
AcDbVertex
100
AcDb2dVertex
 10
0.017224
 20
-5.063812999999999
 30
0.0
  0
VERTEX
  5
2BE
330
AE
100
AcDbEntity
  8
MO_001_VIEW_PV
  6
C_SOLID_M
100
AcDbVertex
100
AcDb2dVertex
 10
0.0
 20
-5.161858
 30
0.0
  0
SEQEND
  5
2BF
330
AE
100
AcDbEntity
  8
MO_001_VIEW_PV
  6
C_SOLID_M
  0
POLYLINE
  5
B7
330
1E
100
AcDbEntity
  8
MO_001_VIEW_PV
  6
C_SOLID_M
100
AcDb2dPolyline
 66
     1
 10
0.0
 20
0.0
 30
0.0
  0
VERTEX
  5
2C0
330
B7
100
AcDbEntity
  8
MO_001_VIEW_PV
  6
C_SOLID_M
100
AcDbVertex
100
AcDb2dVertex
 10
0.0
 20
-3.873855999999999
 30
0.0
  0
VERTEX
  5
2C1
330
B7
100
AcDbEntity
  8
MO_001_VIEW_PV
  6
C_SOLID_M
100
AcDbVertex
100
AcDb2dVertex
 10
0.007686
 20
-3.939748
 30
0.0
  0
VERTEX
  5
2C2
330
B7
100
AcDbEntity
  8
MO_001_VIEW_PV
  6
C_SOLID_M
100
AcDbVertex
100
AcDb2dVertex
 10
0.047231
 20
-4.033070999999999
 30
0.0
  0
VERTEX
  5
2C3
330
B7
100
AcDbEntity
  8
MO_001_VIEW_PV
  6
C_SOLID_M
100
AcDbVertex
100
AcDb2dVertex
 10
0.117155
 20
-4.112683
 30
0.0
  0
VERTEX
  5
2C4
330
B7
100
AcDbEntity
  8
MO_001_VIEW_PV
  6
C_SOLID_M
100
AcDbVertex
100
AcDb2dVertex
 10
0.177769
 20
-4.154687
 30
0.0
  0
VERTEX
  5
2C5
330
B7
100
AcDbEntity
  8
MO_001_VIEW_PV
  6
C_SOLID_M
100
AcDbVertex
100
AcDb2dVertex
 10
0.283882
 20
-4.197065
 30
0.0
  0
VERTEX
  5
2C6
330
B7
100
AcDbEntity
  8
MO_001_VIEW_PV
  6
C_SOLID_M
100
AcDbVertex
100
AcDb2dVertex
 10
0.399994
 20
-4.211608999999999
 30
0.0
  0
SEQEND
  5
2C7
330
B7
100
AcDbEntity
  8
MO_001_VIEW_PV
  6
C_SOLID_M
  0
POLYLINE
  5
C0
330
1E
100
AcDbEntity
  8
MO_001_VIEW_PV
  6
C_SOLID_M
100
AcDb2dPolyline
 66
     1
 10
0.0
 20
0.0
 30
0.0
  0
VERTEX
  5
2C8
330
C0
100
AcDbEntity
  8
MO_001_VIEW_PV
  6
C_SOLID_M
100
AcDbVertex
100
AcDb2dVertex
 10
0.0
 20
-3.604172
 30
0.0
  0
VERTEX
  5
2C9
330
C0
100
AcDbEntity
  8
MO_001_VIEW_PV
  6
C_SOLID_M
100
AcDbVertex
100
AcDb2dVertex
 10
0.007686
 20
-3.670063999999999
 30
0.0
  0
VERTEX
  5
2CA
330
C0
100
AcDbEntity
  8
MO_001_VIEW_PV
  6
C_SOLID_M
100
AcDbVertex
100
AcDb2dVertex
 10
0.047231
 20
-3.763387999999999
 30
0.0
  0
VERTEX
  5
2CB
330
C0
100
AcDbEntity
  8
MO_001_VIEW_PV
  6
C_SOLID_M
100
AcDbVertex
100
AcDb2dVertex
 10
0.117155
 20
-3.842998999999999
 30
0.0
  0
VERTEX
  5
2CC
330
C0
100
AcDbEntity
  8
MO_001_VIEW_PV
  6
C_SOLID_M
100
AcDbVertex
100
AcDb2dVertex
 10
0.177769
 20
-3.885002999999999
 30
0.0
  0
VERTEX
  5
2CD
330
C0
100
AcDbEntity
  8
MO_001_VIEW_PV
  6
C_SOLID_M
100
AcDbVertex
100
AcDb2dVertex
 10
0.283882
 20
-3.927380999999999
 30
0.0
  0
VERTEX
  5
2CE
330
C0
100
AcDbEntity
  8
MO_001_VIEW_PV
  6
C_SOLID_M
100
AcDbVertex
100
AcDb2dVertex
 10
0.399994
 20
-3.941924999999999
 30
0.0
  0
SEQEND
  5
2CF
330
C0
100
AcDbEntity
  8
MO_001_VIEW_PV
  6
C_SOLID_M
  0
ARC
  5
C9
330
1E
100
AcDbEntity
  8
MO_001_VIEW_PV
  6
C_SOLID_M
100
AcDbCircle
 10
0.399994
 20
5.752608999999999
 30
0.0
 40
0.4
100
AcDbArc
 50
179.9999909999999
 51
270.000001
  0
ARC
  5
CA
330
1E
100
AcDbEntity
  8
MO_001_VIEW_PV
  6
C_SOLID_M
100
AcDbCircle
 10
0.399994
 20
5.798148999999999
 30
0.0
 40
0.8
100
AcDbArc
 50
240.000024
 51
270.0000039999999
  0
POLYLINE
  5
CB
330
1E
100
AcDbEntity
  8
MO_001_VIEW_PV
  6
C_SOLID_M
100
AcDb2dPolyline
 66
     1
 10
0.0
 20
0.0
 30
0.0
  0
VERTEX
  5
2D0
330
CB
100
AcDbEntity
  8
MO_001_VIEW_PV
  6
C_SOLID_M
100
AcDbVertex
100
AcDb2dVertex
 10
0.0
 20
3.689559999999999
 30
0.0
  0
VERTEX
  5
2D1
330
CB
100
AcDbEntity
  8
MO_001_VIEW_PV
  6
C_SOLID_M
100
AcDbVertex
100
AcDb2dVertex
 10
0.007698
 20
3.629293
 30
0.0
  0
VERTEX
  5
2D2
330
CB
100
AcDbEntity
  8
MO_001_VIEW_PV
  6
C_SOLID_M
100
AcDbVertex
100
AcDb2dVertex
 10
0.047304
 20
3.543944999999999
 30
0.0
  0
VERTEX
  5
2D3
330
CB
100
AcDbEntity
  8
MO_001_VIEW_PV
  6
C_SOLID_M
100
AcDbVertex
100
AcDb2dVertex
 10
0.117331
 20
3.471156999999999
 30
0.0
  0
VERTEX
  5
2D4
330
CB
100
AcDbEntity
  8
MO_001_VIEW_PV
  6
C_SOLID_M
100
AcDbVertex
100
AcDb2dVertex
 10
0.178027
 20
3.432770999999999
 30
0.0
  0
VERTEX
  5
2D5
330
CB
100
AcDbEntity
  8
MO_001_VIEW_PV
  6
C_SOLID_M
100
AcDbVertex
100
AcDb2dVertex
 10
0.284268
 20
3.394083999999999
 30
0.0
  0
VERTEX
  5
2D6
330
CB
100
AcDbEntity
  8
MO_001_VIEW_PV
  6
C_SOLID_M
100
AcDbVertex
100
AcDb2dVertex
 10
0.4004900000000001
 20
3.380883
 30
0.0
  0
SEQEND
  5
2D7
330
CB
100
AcDbEntity
  8
MO_001_VIEW_PV
  6
C_SOLID_M
  0
POLYLINE
  5
D4
330
1E
100
AcDbEntity
  8
MO_001_VIEW_PV
  6
C_SOLID_M
100
AcDb2dPolyline
 66
     1
 10
0.0
 20
0.0
 30
0.0
  0
VERTEX
  5
2D8
330
D4
100
AcDbEntity
  8
MO_001_VIEW_PV
  6
C_SOLID_M
100
AcDbVertex
100
AcDb2dVertex
 10
0.4004900000000001
 20
2.516754
 30
0.0
  0
VERTEX
  5
2D9
330
D4
100
AcDbEntity
  8
MO_001_VIEW_PV
  6
C_SOLID_M
100
AcDbVertex
100
AcDb2dVertex
 10
0.322385
 20
2.510888
 30
0.0
  0
VERTEX
  5
2DA
330
D4
100
AcDbEntity
  8
MO_001_VIEW_PV
  6
C_SOLID_M
100
AcDbVertex
100
AcDb2dVertex
 10
0.211739
 20
2.480431
 30
0.0
  0
VERTEX
  5
2DB
330
D4
100
AcDbEntity
  8
MO_001_VIEW_PV
  6
C_SOLID_M
100
AcDbVertex
100
AcDb2dVertex
 10
0.117331
 20
2.426482
 30
0.0
  0
VERTEX
  5
2DC
330
D4
100
AcDbEntity
  8
MO_001_VIEW_PV
  6
C_SOLID_M
100
AcDbVertex
100
AcDb2dVertex
 10
0.067515
 20
2.379690999999999
 30
0.0
  0
VERTEX
  5
2DD
330
D4
100
AcDbEntity
  8
MO_001_VIEW_PV
  6
C_SOLID_M
100
AcDbVertex
100
AcDb2dVertex
 10
0.017251
 20
2.297754999999999
 30
0.0
  0
VERTEX
  5
2DE
330
D4
100
AcDbEntity
  8
MO_001_VIEW_PV
  6
C_SOLID_M
100
AcDbVertex
100
AcDb2dVertex
 10
0.0
 20
2.208083999999999
 30
0.0
  0
SEQEND
  5
2DF
330
D4
100
AcDbEntity
  8
MO_001_VIEW_PV
  6
C_SOLID_M
  0
POLYLINE
  5
DD
330
1E
100
AcDbEntity
  8
MO_001_VIEW_PV
  6
C_SOLID_M
100
AcDb2dPolyline
 66
     1
 10
0.0
 20
0.0
 30
0.0
  0
VERTEX
  5
2E0
330
DD
100
AcDbEntity
  8
MO_001_VIEW_PV
  6
C_SOLID_M
100
AcDbVertex
100
AcDb2dVertex
 10
0.4004900000000001
 20
2.364364
 30
0.0
  0
VERTEX
  5
2E1
330
DD
100
AcDbEntity
  8
MO_001_VIEW_PV
  6
C_SOLID_M
100
AcDbVertex
100
AcDb2dVertex
 10
0.322385
 20
2.358499
 30
0.0
  0
VERTEX
  5
2E2
330
DD
100
AcDbEntity
  8
MO_001_VIEW_PV
  6
C_SOLID_M
100
AcDbVertex
100
AcDb2dVertex
 10
0.211739
 20
2.328040999999999
 30
0.0
  0
VERTEX
  5
2E3
330
DD
100
AcDbEntity
  8
MO_001_VIEW_PV
  6
C_SOLID_M
100
AcDbVertex
100
AcDb2dVertex
 10
0.117331
 20
2.274093
 30
0.0
  0
VERTEX
  5
2E4
330
DD
100
AcDbEntity
  8
MO_001_VIEW_PV
  6
C_SOLID_M
100
AcDbVertex
100
AcDb2dVertex
 10
0.067515
 20
2.227301999999999
 30
0.0
  0
VERTEX
  5
2E5
330
DD
100
AcDbEntity
  8
MO_001_VIEW_PV
  6
C_SOLID_M
100
AcDbVertex
100
AcDb2dVertex
 10
0.017251
 20
2.145364999999999
 30
0.0
  0
VERTEX
  5
2E6
330
DD
100
AcDbEntity
  8
MO_001_VIEW_PV
  6
C_SOLID_M
100
AcDbVertex
100
AcDb2dVertex
 10
0.0
 20
2.055695
 30
0.0
  0
SEQEND
  5
2E7
330
DD
100
AcDbEntity
  8
MO_001_VIEW_PV
  6
C_SOLID_M
  0
POLYLINE
  5
E6
330
1E
100
AcDbEntity
  8
MO_001_VIEW_PV
  6
C_SOLID_M
100
AcDb2dPolyline
 66
     1
 10
0.0
 20
0.0
 30
0.0
  0
VERTEX
  5
2E8
330
E6
100
AcDbEntity
  8
MO_001_VIEW_PV
  6
C_SOLID_M
100
AcDbVertex
100
AcDb2dVertex
 10
0.4003130000000001
 20
-1.499724999999999
 30
0.0
  0
VERTEX
  5
2E9
330
E6
100
AcDbEntity
  8
MO_001_VIEW_PV
  6
C_SOLID_M
100
AcDbVertex
100
AcDb2dVertex
 10
0.322233
 20
-1.506921999999999
 30
0.0
  0
VERTEX
  5
2EA
330
E6
100
AcDbEntity
  8
MO_001_VIEW_PV
  6
C_SOLID_M
100
AcDbVertex
100
AcDb2dVertex
 10
0.211631
 20
-1.544167
 30
0.0
  0
VERTEX
  5
2EB
330
E6
100
AcDbEntity
  8
MO_001_VIEW_PV
  6
C_SOLID_M
100
AcDbVertex
100
AcDb2dVertex
 10
0.117268
 20
-1.610097999999999
 30
0.0
  0
VERTEX
  5
2EC
330
E6
100
AcDbEntity
  8
MO_001_VIEW_PV
  6
C_SOLID_M
100
AcDbVertex
100
AcDb2dVertex
 10
0.067478
 20
-1.667268999999999
 30
0.0
  0
VERTEX
  5
2ED
330
E6
100
AcDbEntity
  8
MO_001_VIEW_PV
  6
C_SOLID_M
100
AcDbVertex
100
AcDb2dVertex
 10
0.017241
 20
-1.767374
 30
0.0
  0
VERTEX
  5
2EE
330
E6
100
AcDbEntity
  8
MO_001_VIEW_PV
  6
C_SOLID_M
100
AcDbVertex
100
AcDb2dVertex
 10
0.0
 20
-1.876922999999999
 30
0.0
  0
SEQEND
  5
2EF
330
E6
100
AcDbEntity
  8
MO_001_VIEW_PV
  6
C_SOLID_M
  0
POLYLINE
  5
EF
330
1E
100
AcDbEntity
  8
MO_001_VIEW_PV
  6
C_SOLID_M
100
AcDb2dPolyline
 66
     1
 10
0.0
 20
0.0
 30
0.0
  0
VERTEX
  5
2F0
330
EF
100
AcDbEntity
  8
MO_001_VIEW_PV
  6
C_SOLID_M
100
AcDbVertex
100
AcDb2dVertex
 10
0.0
 20
-0.154602
 30
0.0
  0
VERTEX
  5
2F1
330
EF
100
AcDbEntity
  8
MO_001_VIEW_PV
  6
C_SOLID_M
100
AcDbVertex
100
AcDb2dVertex
 10
0.007694
 20
-0.228226
 30
0.0
  0
VERTEX
  5
2F2
330
EF
100
AcDbEntity
  8
MO_001_VIEW_PV
  6
C_SOLID_M
100
AcDbVertex
100
AcDb2dVertex
 10
0.047278
 20
-0.332494
 30
0.0
  0
VERTEX
  5
2F3
330
EF
100
AcDbEntity
  8
MO_001_VIEW_PV
  6
C_SOLID_M
100
AcDbVertex
100
AcDb2dVertex
 10
0.117268
 20
-0.4214270000000001
 30
0.0
  0
VERTEX
  5
2F4
330
EF
100
AcDbEntity
  8
MO_001_VIEW_PV
  6
C_SOLID_M
100
AcDbVertex
100
AcDb2dVertex
 10
0.177935
 20
-0.4683340000000001
 30
0.0
  0
VERTEX
  5
2F5
330
EF
100
AcDbEntity
  8
MO_001_VIEW_PV
  6
C_SOLID_M
100
AcDbVertex
100
AcDb2dVertex
 10
0.28413
 20
-0.515628
 30
0.0
  0
VERTEX
  5
2F6
330
EF
100
AcDbEntity
  8
MO_001_VIEW_PV
  6
C_SOLID_M
100
AcDbVertex
100
AcDb2dVertex
 10
0.4003130000000001
 20
-0.531799
 30
0.0
  0
SEQEND
  5
2F7
330
EF
100
AcDbEntity
  8
MO_001_VIEW_PV
  6
C_SOLID_M
  0
POLYLINE
  5
F8
330
1E
100
AcDbEntity
  8
MO_001_VIEW_PV
  6
C_SOLID_M
100
AcDb2dPolyline
 66
     1
 10
0.0
 20
0.0
 30
0.0
  0
VERTEX
  5
2F8
330
F8
100
AcDbEntity
  8
MO_001_VIEW_PV
  6
C_SOLID_M
100
AcDbVertex
100
AcDb2dVertex
 10
0.0
 20
-0.171303
 30
0.0
  0
VERTEX
  5
2F9
330
F8
100
AcDbEntity
  8
MO_001_VIEW_PV
  6
C_SOLID_M
100
AcDbVertex
100
AcDb2dVertex
 10
0.007694
 20
-0.244927
 30
0.0
  0
VERTEX
  5
2FA
330
F8
100
AcDbEntity
  8
MO_001_VIEW_PV
  6
C_SOLID_M
100
AcDbVertex
100
AcDb2dVertex
 10
0.047278
 20
-0.349195
 30
0.0
  0
VERTEX
  5
2FB
330
F8
100
AcDbEntity
  8
MO_001_VIEW_PV
  6
C_SOLID_M
100
AcDbVertex
100
AcDb2dVertex
 10
0.117268
 20
-0.438128
 30
0.0
  0
VERTEX
  5
2FC
330
F8
100
AcDbEntity
  8
MO_001_VIEW_PV
  6
C_SOLID_M
100
AcDbVertex
100
AcDb2dVertex
 10
0.177935
 20
-0.4850350000000001
 30
0.0
  0
VERTEX
  5
2FD
330
F8
100
AcDbEntity
  8
MO_001_VIEW_PV
  6
C_SOLID_M
100
AcDbVertex
100
AcDb2dVertex
 10
0.28413
 20
-0.532329
 30
0.0
  0
VERTEX
  5
2FE
330
F8
100
AcDbEntity
  8
MO_001_VIEW_PV
  6
C_SOLID_M
100
AcDbVertex
100
AcDb2dVertex
 10
0.4003130000000001
 20
-0.5485
 30
0.0
  0
SEQEND
  5
2FF
330
F8
100
AcDbEntity
  8
MO_001_VIEW_PV
  6
C_SOLID_M
  0
LINE
  5
101
330
1E
100
AcDbEntity
  8
MO_001_VIEW_PV
  6
C_SOLID_M
100
AcDbLine
 10
3.021545
 20
2.145001999999999
 30
0.0
 11
3.021545
 21
-2.453499
 31
0.0
  0
LINE
  5
102
330
1E
100
AcDbEntity
  8
MO_001_VIEW_PV
  6
C_SOLID_M
100
AcDbLine
 10
1.899993999999999
 20
5.550003
 30
0.0
 11
2.0
 21
5.550003
 31
0.0
  0
LINE
  5
103
330
1E
100
AcDbEntity
  8
MO_001_VIEW_PV
  6
C_SOLID_M
100
AcDbLine
 10
1.899993999999999
 20
-5.550003
 30
0.0
 11
2.0
 21
-5.550003
 31
0.0
  0
LINE
  5
104
330
1E
100
AcDbEntity
  8
MO_001_VIEW_PV
  6
C_SOLID_M
100
AcDbLine
 10
2.0
 20
5.550003
 30
0.0
 11
2.0
 21
-5.550003
 31
0.0
  0
ARC
  5
105
330
1E
100
AcDbEntity
  8
MO_001_VIEW_PV
  6
C_SOLID_M
100
AcDbCircle
 10
-13.988007
 20
5.964798
 30
0.0
 40
1.190499999999999
100
AcDbArc
 50
250.8551069999999
 51
289.020954
  0
ARC
  5
106
330
1E
100
AcDbEntity
  8
MO_001_VIEW_PV
  6
C_SOLID_M
100
AcDbCircle
 10
-13.988007
 20
5.964798
 30
0.0
 40
1.190499999999999
100
AcDbArc
 50
70.97904599999999
 51
109.144893
  0
ARC
  5
107
330
1E
100
AcDbEntity
  8
MO_001_VIEW_PV
  6
C_SOLID_M
100
AcDbCircle
 10
1.600006
 20
-1.199729999999999
 30
0.0
 40
0.3
100
AcDbArc
 50
269.999998
 51
0.00001
  0
ARC
  5
108
330
1E
100
AcDbEntity
  8
MO_001_VIEW_PV
  6
C_SOLID_M
100
AcDbCircle
 10
1.600006
 20
-0.8317949999999999
 30
0.0
 40
0.3
100
AcDbArc
 50
0.0
 51
89.99998900000001
  0
ARC
  5
109
330
1E
100
AcDbEntity
  8
MO_001_VIEW_PV
  6
C_SOLID_M
100
AcDbCircle
 10
1.600006
 20
-0.8484950000000001
 30
0.0
 40
0.3
100
AcDbArc
 50
0.0
 51
89.99998900000001
  0
POLYLINE
  5
10A
330
1E
100
AcDbEntity
  8
MO_001_VIEW_PV
  6
C_SOLID_M
100
AcDb2dPolyline
 66
     1
 10
0.0
 20
0.0
 30
0.0
  0
VERTEX
  5
300
330
10A
100
AcDbEntity
  8
MO_001_VIEW_PV
  6
C_SOLID_M
100
AcDbVertex
100
AcDb2dVertex
 10
1.899993999999999
 20
-4.361609999999999
 30
0.0
  0
VERTEX
  5
301
330
10A
100
AcDbEntity
  8
MO_001_VIEW_PV
  6
C_SOLID_M
100
AcDbVertex
100
AcDb2dVertex
 10
1.894229999999999
 20
-4.332347
 30
0.0
  0
VERTEX
  5
302
330
10A
100
AcDbEntity
  8
MO_001_VIEW_PV
  6
C_SOLID_M
100
AcDbVertex
100
AcDb2dVertex
 10
1.864572
 20
-4.290899999999999
 30
0.0
  0
VERTEX
  5
303
330
10A
100
AcDbEntity
  8
MO_001_VIEW_PV
  6
C_SOLID_M
100
AcDbVertex
100
AcDb2dVertex
 10
1.812129999999999
 20
-4.255543
 30
0.0
  0
VERTEX
  5
304
330
10A
100
AcDbEntity
  8
MO_001_VIEW_PV
  6
C_SOLID_M
100
AcDbVertex
100
AcDb2dVertex
 10
1.714806
 20
-4.223027
 30
0.0
  0
VERTEX
  5
305
330
10A
100
AcDbEntity
  8
MO_001_VIEW_PV
  6
C_SOLID_M
100
AcDbVertex
100
AcDb2dVertex
 10
1.600006
 20
-4.211608999999999
 30
0.0
  0
SEQEND
  5
306
330
10A
100
AcDbEntity
  8
MO_001_VIEW_PV
  6
C_SOLID_M
  0
POLYLINE
  5
112
330
1E
100
AcDbEntity
  8
MO_001_VIEW_PV
  6
C_SOLID_M
100
AcDb2dPolyline
 66
     1
 10
0.0
 20
0.0
 30
0.0
  0
VERTEX
  5
307
330
112
100
AcDbEntity
  8
MO_001_VIEW_PV
  6
C_SOLID_M
100
AcDbVertex
100
AcDb2dVertex
 10
1.899993999999999
 20
-4.091927
 30
0.0
  0
VERTEX
  5
308
330
112
100
AcDbEntity
  8
MO_001_VIEW_PV
  6
C_SOLID_M
100
AcDbVertex
100
AcDb2dVertex
 10
1.894229999999999
 20
-4.062662999999999
 30
0.0
  0
VERTEX
  5
309
330
112
100
AcDbEntity
  8
MO_001_VIEW_PV
  6
C_SOLID_M
100
AcDbVertex
100
AcDb2dVertex
 10
1.864572
 20
-4.021216
 30
0.0
  0
VERTEX
  5
30A
330
112
100
AcDbEntity
  8
MO_001_VIEW_PV
  6
C_SOLID_M
100
AcDbVertex
100
AcDb2dVertex
 10
1.812129999999999
 20
-3.985858999999999
 30
0.0
  0
VERTEX
  5
30B
330
112
100
AcDbEntity
  8
MO_001_VIEW_PV
  6
C_SOLID_M
100
AcDbVertex
100
AcDb2dVertex
 10
1.714806
 20
-3.953342999999999
 30
0.0
  0
VERTEX
  5
30C
330
112
100
AcDbEntity
  8
MO_001_VIEW_PV
  6
C_SOLID_M
100
AcDbVertex
100
AcDb2dVertex
 10
1.600006
 20
-3.941924999999999
 30
0.0
  0
SEQEND
  5
30D
330
112
100
AcDbEntity
  8
MO_001_VIEW_PV
  6
C_SOLID_M
  0
POLYLINE
  5
11A
330
1E
100
AcDbEntity
  8
MO_001_VIEW_PV
  6
C_SOLID_M
100
AcDb2dPolyline
 66
     1
 10
0.0
 20
0.0
 30
0.0
  0
VERTEX
  5
30E
330
11A
100
AcDbEntity
  8
MO_001_VIEW_PV
  6
C_SOLID_M
100
AcDbVertex
100
AcDb2dVertex
 10
1.600006
 20
-4.824104
 30
0.0
  0
VERTEX
  5
30F
330
11A
100
AcDbEntity
  8
MO_001_VIEW_PV
  6
C_SOLID_M
100
AcDbVertex
100
AcDb2dVertex
 10
1.714806
 20
-4.812686
 30
0.0
  0
VERTEX
  5
310
330
11A
100
AcDbEntity
  8
MO_001_VIEW_PV
  6
C_SOLID_M
100
AcDbVertex
100
AcDb2dVertex
 10
1.812129999999999
 20
-4.78017
 30
0.0
  0
VERTEX
  5
311
330
11A
100
AcDbEntity
  8
MO_001_VIEW_PV
  6
C_SOLID_M
100
AcDbVertex
100
AcDb2dVertex
 10
1.849436999999999
 20
-4.757438999999999
 30
0.0
  0
VERTEX
  5
312
330
11A
100
AcDbEntity
  8
MO_001_VIEW_PV
  6
C_SOLID_M
100
AcDbVertex
100
AcDb2dVertex
 10
1.887077
 20
-4.717646
 30
0.0
  0
VERTEX
  5
313
330
11A
100
AcDbEntity
  8
MO_001_VIEW_PV
  6
C_SOLID_M
100
AcDbVertex
100
AcDb2dVertex
 10
1.899993999999999
 20
-4.674102999999999
 30
0.0
  0
SEQEND
  5
314
330
11A
100
AcDbEntity
  8
MO_001_VIEW_PV
  6
C_SOLID_M
  0
POLYLINE
  5
122
330
1E
100
AcDbEntity
  8
MO_001_VIEW_PV
  6
C_SOLID_M
100
AcDb2dPolyline
 66
     1
 10
0.0
 20
0.0
 30
0.0
  0
VERTEX
  5
315
330
122
100
AcDbEntity
  8
MO_001_VIEW_PV
  6
C_SOLID_M
100
AcDbVertex
100
AcDb2dVertex
 10
1.899993999999999
 20
3.180884999999999
 30
0.0
  0
VERTEX
  5
316
330
122
100
AcDbEntity
  8
MO_001_VIEW_PV
  6
C_SOLID_M
100
AcDbVertex
100
AcDb2dVertex
 10
1.894229999999999
 20
3.219904
 30
0.0
  0
VERTEX
  5
317
330
122
100
AcDbEntity
  8
MO_001_VIEW_PV
  6
C_SOLID_M
100
AcDbVertex
100
AcDb2dVertex
 10
1.864572
 20
3.275166999999999
 30
0.0
  0
VERTEX
  5
318
330
122
100
AcDbEntity
  8
MO_001_VIEW_PV
  6
C_SOLID_M
100
AcDbVertex
100
AcDb2dVertex
 10
1.812129999999999
 20
3.322309999999999
 30
0.0
  0
VERTEX
  5
319
330
122
100
AcDbEntity
  8
MO_001_VIEW_PV
  6
C_SOLID_M
100
AcDbVertex
100
AcDb2dVertex
 10
1.714806
 20
3.365665
 30
0.0
  0
VERTEX
  5
31A
330
122
100
AcDbEntity
  8
MO_001_VIEW_PV
  6
C_SOLID_M
100
AcDbVertex
100
AcDb2dVertex
 10
1.600006
 20
3.380889999999999
 30
0.0
  0
SEQEND
  5
31B
330
122
100
AcDbEntity
  8
MO_001_VIEW_PV
  6
C_SOLID_M
  0
POLYLINE
  5
12A
330
1E
100
AcDbEntity
  8
MO_001_VIEW_PV
  6
C_SOLID_M
100
AcDb2dPolyline
 66
     1
 10
0.0
 20
0.0
 30
0.0
  0
VERTEX
  5
31C
330
12A
100
AcDbEntity
  8
MO_001_VIEW_PV
  6
C_SOLID_M
100
AcDbVertex
100
AcDb2dVertex
 10
1.600006
 20
2.516761999999999
 30
0.0
  0
VERTEX
  5
31D
330
12A
100
AcDbEntity
  8
MO_001_VIEW_PV
  6
C_SOLID_M
100
AcDbVertex
100
AcDb2dVertex
 10
1.714806
 20
2.531985999999999
 30
0.0
  0
VERTEX
  5
31E
330
12A
100
AcDbEntity
  8
MO_001_VIEW_PV
  6
C_SOLID_M
100
AcDbVertex
100
AcDb2dVertex
 10
1.812129999999999
 20
2.57534
 30
0.0
  0
VERTEX
  5
31F
330
12A
100
AcDbEntity
  8
MO_001_VIEW_PV
  6
C_SOLID_M
100
AcDbVertex
100
AcDb2dVertex
 10
1.849436999999999
 20
2.605646
 30
0.0
  0
VERTEX
  5
320
330
12A
100
AcDbEntity
  8
MO_001_VIEW_PV
  6
C_SOLID_M
100
AcDbVertex
100
AcDb2dVertex
 10
1.887077
 20
2.658703
 30
0.0
  0
VERTEX
  5
321
330
12A
100
AcDbEntity
  8
MO_001_VIEW_PV
  6
C_SOLID_M
100
AcDbVertex
100
AcDb2dVertex
 10
1.899993999999999
 20
2.716759
 30
0.0
  0
SEQEND
  5
322
330
12A
100
AcDbEntity
  8
MO_001_VIEW_PV
  6
C_SOLID_M
  0
POLYLINE
  5
132
330
1E
100
AcDbEntity
  8
MO_001_VIEW_PV
  6
C_SOLID_M
100
AcDb2dPolyline
 66
     1
 10
0.0
 20
0.0
 30
0.0
  0
VERTEX
  5
323
330
132
100
AcDbEntity
  8
MO_001_VIEW_PV
  6
C_SOLID_M
100
AcDbVertex
100
AcDb2dVertex
 10
1.600006
 20
2.364371999999999
 30
0.0
  0
VERTEX
  5
324
330
132
100
AcDbEntity
  8
MO_001_VIEW_PV
  6
C_SOLID_M
100
AcDbVertex
100
AcDb2dVertex
 10
1.714806
 20
2.379595999999999
 30
0.0
  0
VERTEX
  5
325
330
132
100
AcDbEntity
  8
MO_001_VIEW_PV
  6
C_SOLID_M
100
AcDbVertex
100
AcDb2dVertex
 10
1.812129999999999
 20
2.42295
 30
0.0
  0
VERTEX
  5
326
330
132
100
AcDbEntity
  8
MO_001_VIEW_PV
  6
C_SOLID_M
100
AcDbVertex
100
AcDb2dVertex
 10
1.849436999999999
 20
2.453256999999999
 30
0.0
  0
VERTEX
  5
327
330
132
100
AcDbEntity
  8
MO_001_VIEW_PV
  6
C_SOLID_M
100
AcDbVertex
100
AcDb2dVertex
 10
1.887077
 20
2.506313
 30
0.0
  0
VERTEX
  5
328
330
132
100
AcDbEntity
  8
MO_001_VIEW_PV
  6
C_SOLID_M
100
AcDbVertex
100
AcDb2dVertex
 10
1.899993999999999
 20
2.564368999999999
 30
0.0
  0
SEQEND
  5
329
330
132
100
AcDbEntity
  8
MO_001_VIEW_PV
  6
C_SOLID_M
  0
POLYLINE
  5
13A
330
1E
100
AcDbEntity
  8
MO_001_VIEW_PV
  6
C_SOLID_M
100
AcDb2dPolyline
 66
     1
 10
0.0
 20
0.0
 30
0.0
  0
VERTEX
  5
32A
330
13A
100
AcDbEntity
  8
MO_001_VIEW_PV
  6
C_SOLID_M
100
AcDbVertex
100
AcDb2dVertex
 10
1.899993999999999
 20
5.761344999999999
 30
0.0
  0
VERTEX
  5
32B
330
13A
100
AcDbEntity
  8
MO_001_VIEW_PV
  6
C_SOLID_M
100
AcDbVertex
100
AcDb2dVertex
 10
1.894229999999999
 20
5.771098999999999
 30
0.0
  0
VERTEX
  5
32C
330
13A
100
AcDbEntity
  8
MO_001_VIEW_PV
  6
C_SOLID_M
100
AcDbVertex
100
AcDb2dVertex
 10
1.864572
 20
5.784912999999999
 30
0.0
  0
VERTEX
  5
32D
330
13A
100
AcDbEntity
  8
MO_001_VIEW_PV
  6
C_SOLID_M
100
AcDbVertex
100
AcDb2dVertex
 10
1.812129999999999
 20
5.796696999999999
 30
0.0
  0
VERTEX
  5
32E
330
13A
100
AcDbEntity
  8
MO_001_VIEW_PV
  6
C_SOLID_M
100
AcDbVertex
100
AcDb2dVertex
 10
1.714806
 20
5.807534999999999
 30
0.0
  0
VERTEX
  5
32F
330
13A
100
AcDbEntity
  8
MO_001_VIEW_PV
  6
C_SOLID_M
100
AcDbVertex
100
AcDb2dVertex
 10
1.600006
 20
5.81134
 30
0.0
  0
SEQEND
  5
330
330
13A
100
AcDbEntity
  8
MO_001_VIEW_PV
  6
C_SOLID_M
  0
POLYLINE
  5
142
330
1E
100
AcDbEntity
  8
MO_001_VIEW_PV
  6
C_SOLID_M
100
AcDb2dPolyline
 66
     1
 10
0.0
 20
0.0
 30
0.0
  0
VERTEX
  5
331
330
142
100
AcDbEntity
  8
MO_001_VIEW_PV
  6
C_SOLID_M
100
AcDbVertex
100
AcDb2dVertex
 10
1.600006
 20
5.352608
 30
0.0
  0
VERTEX
  5
332
330
142
100
AcDbEntity
  8
MO_001_VIEW_PV
  6
C_SOLID_M
100
AcDbVertex
100
AcDb2dVertex
 10
1.714806
 20
5.356412999999999
 30
0.0
  0
VERTEX
  5
333
330
142
100
AcDbEntity
  8
MO_001_VIEW_PV
  6
C_SOLID_M
100
AcDbVertex
100
AcDb2dVertex
 10
1.812129999999999
 20
5.367251
 30
0.0
  0
VERTEX
  5
334
330
142
100
AcDbEntity
  8
MO_001_VIEW_PV
  6
C_SOLID_M
100
AcDbVertex
100
AcDb2dVertex
 10
1.877158999999999
 20
5.383471
 30
0.0
  0
VERTEX
  5
335
330
142
100
AcDbEntity
  8
MO_001_VIEW_PV
  6
C_SOLID_M
100
AcDbVertex
100
AcDb2dVertex
 10
1.894229999999999
 20
5.39285
 30
0.0
  0
VERTEX
  5
336
330
142
100
AcDbEntity
  8
MO_001_VIEW_PV
  6
C_SOLID_M
100
AcDbVertex
100
AcDb2dVertex
 10
1.899993999999999
 20
5.402603
 30
0.0
  0
SEQEND
  5
337
330
142
100
AcDbEntity
  8
MO_001_VIEW_PV
  6
C_SOLID_M
  0
POLYLINE
  5
14A
330
1E
100
AcDbEntity
  8
MO_001_VIEW_PV
  6
C_SOLID_M
100
AcDb2dPolyline
 66
     1
 10
0.0
 20
0.0
 30
0.0
  0
VERTEX
  5
338
330
14A
100
AcDbEntity
  8
MO_001_VIEW_PV
  6
C_SOLID_M
100
AcDbVertex
100
AcDb2dVertex
 10
1.600006
 20
4.998146
 30
0.0
  0
VERTEX
  5
339
330
14A
100
AcDbEntity
  8
MO_001_VIEW_PV
  6
C_SOLID_M
100
AcDbVertex
100
AcDb2dVertex
 10
1.714806
 20
5.001951999999999
 30
0.0
  0
VERTEX
  5
33A
330
14A
100
AcDbEntity
  8
MO_001_VIEW_PV
  6
C_SOLID_M
100
AcDbVertex
100
AcDb2dVertex
 10
1.812129999999999
 20
5.012792
 30
0.0
  0
VERTEX
  5
33B
330
14A
100
AcDbEntity
  8
MO_001_VIEW_PV
  6
C_SOLID_M
100
AcDbVertex
100
AcDb2dVertex
 10
1.877158999999999
 20
5.029014
 30
0.0
  0
VERTEX
  5
33C
330
14A
100
AcDbEntity
  8
MO_001_VIEW_PV
  6
C_SOLID_M
100
AcDbVertex
100
AcDb2dVertex
 10
1.894229999999999
 20
5.038394
 30
0.0
  0
VERTEX
  5
33D
330
14A
100
AcDbEntity
  8
MO_001_VIEW_PV
  6
C_SOLID_M
100
AcDbVertex
100
AcDb2dVertex
 10
1.899993999999999
 20
5.048148999999999
 30
0.0
  0
SEQEND
  5
33E
330
14A
100
AcDbEntity
  8
MO_001_VIEW_PV
  6
C_SOLID_M
  0
LINE
  5
152
330
1E
100
AcDbEntity
  8
MO_001_VIEW_PV
  6
C_CENTER_L
100
AcDbLine
 10
62.0
 20
15.0
 30
0.0
 11
62.0
 21
-15.0
 31
0.0
  0
LINE
  5
153
330
1E
100
AcDbEntity
  8
MO_001_VIEW_PV
  6
C_CENTER_L
100
AcDbLine
 10
47.0
 20
0.0
 30
0.0
 11
77.0
 21
0.0
 31
0.0
  0
CIRCLE
  5
154
330
1E
100
AcDbEntity
  8
MO_001_VIEW_PV
  6
C_SOLID_M
100
AcDbCircle
 10
62.0
 20
0.0
 30
0.0
 40
1.985000999999999
  0
CIRCLE
  5
155
330
1E
100
AcDbEntity
  8
MO_001_VIEW_PV
  6
C_SOLID_M
100
AcDbCircle
 10
62.0
 20
0.0
 30
0.0
 40
1.685
  0
CIRCLE
  5
156
330
1E
100
AcDbEntity
  8
MO_001_VIEW_PV
  6
C_SOLID_M
100
AcDbCircle
 10
62.0
 20
0.0
 30
0.0
 40
14.3
  0
ARC
  5
157
330
1E
100
AcDbEntity
  8
MO_001_VIEW_PV
  6
C_SOLID_M
100
AcDbCircle
 10
62.0
 20
4.9
 30
0.0
 40
1.3
100
AcDbArc
 50
35.334782
 51
144.664704
  0
ARC
  5
158
330
1E
100
AcDbEntity
  8
MO_001_VIEW_PV
  6
C_SOLID_M
100
AcDbCircle
 10
65.149666
 20
3.753605
 30
0.0
 40
1.3
100
AcDbArc
 50
353.6882339999999
 51
104.664822
  0
ARC
  5
159
330
1E
100
AcDbEntity
  8
MO_001_VIEW_PV
  6
C_SOLID_M
100
AcDbCircle
 10
62.0
 20
0.0
 30
0.0
 40
5.95
100
AcDbArc
 50
65.871287
 51
74.128747
  0
LINE
  5
15A
330
1E
100
AcDbEntity
  8
MO_001_VIEW_PV
  6
C_SOLID_M
100
AcDbLine
 10
63.49001
 20
5.346248
 30
0.0
 11
63.627199
 21
5.723174
 31
0.0
  0
LINE
  5
15B
330
1E
100
AcDbEntity
  8
MO_001_VIEW_PV
  6
C_SOLID_M
100
AcDbLine
 10
64.295113
 20
5.053214999999999
 30
0.0
 11
64.432303
 21
5.430139999999999
 31
0.0
  0
LINE
  5
15C
330
1E
100
AcDbEntity
  8
MO_001_VIEW_PV
  6
C_SOLID_M
100
AcDbLine
 10
64.432264
 20
5.430147999999999
 30
0.0
 11
65.623227
 21
4.964274999999999
 31
0.0
  0
ARC
  5
15D
330
1E
100
AcDbEntity
  8
MO_001_VIEW_PV
  6
C_SOLID_M
100
AcDbCircle
 10
64.61802699999999
 20
5.785194
 30
0.0
 40
0.8
100
AcDbArc
 50
245.651439
 51
284.6648169999999
  0
ARC
  5
15E
330
1E
100
AcDbEntity
  8
MO_001_VIEW_PV
  6
C_SOLID_M
100
AcDbCircle
 10
63.71315
 20
6.114542
 30
0.0
 40
0.8
100
AcDbArc
 50
215.3347769999999
 51
254.348373
  0
LINE
  5
15F
330
1E
100
AcDbEntity
  8
MO_001_VIEW_PV
  6
C_SOLID_M
100
AcDbLine
 10
63.627158
 20
5.723169
 30
0.0
 11
62.415377
 21
6.131823
 31
0.0
  0
LINE
  5
160
330
1E
100
AcDbEntity
  8
MO_001_VIEW_PV
  6
C_SOLID_M
100
AcDbLine
 10
59.567721
 20
5.430147999999999
 30
0.0
 11
58.376759
 21
4.964274999999999
 31
0.0
  0
ARC
  5
161
330
1E
100
AcDbEntity
  8
MO_001_VIEW_PV
  6
C_SOLID_M
100
AcDbCircle
 10
59.382004
 20
5.785204
 30
0.0
 40
0.8
100
AcDbArc
 50
255.3347619999999
 51
294.3483509999999
  0
LINE
  5
162
330
1E
100
AcDbEntity
  8
MO_001_VIEW_PV
  6
C_SOLID_M
100
AcDbLine
 10
59.70488299999999
 20
5.053219999999999
 30
0.0
 11
59.56769399999999
 21
5.430142
 31
0.0
  0
ARC
  5
163
330
1E
100
AcDbEntity
  8
MO_001_VIEW_PV
  6
C_SOLID_M
100
AcDbCircle
 10
62.0
 20
0.0
 30
0.0
 40
5.95
100
AcDbArc
 50
105.8712719999999
 51
114.1287249999999
  0
LINE
  5
164
330
1E
100
AcDbEntity
  8
MO_001_VIEW_PV
  6
C_SOLID_M
100
AcDbLine
 10
60.50998599999999
 20
5.346254
 30
0.0
 11
60.372798
 21
5.723176
 31
0.0
  0
ARC
  5
165
330
1E
100
AcDbEntity
  8
MO_001_VIEW_PV
  6
C_SOLID_M
100
AcDbCircle
 10
60.286873
 20
6.114548
 30
0.0
 40
0.8
100
AcDbArc
 50
285.651417
 51
324.664795
  0
LINE
  5
166
330
1E
100
AcDbEntity
  8
MO_001_VIEW_PV
  6
C_SOLID_M
100
AcDbLine
 10
60.37279599999999
 20
5.723176999999999
 30
0.0
 11
61.584577
 21
6.131831
 31
0.0
  0
LINE
  5
167
330
1E
100
AcDbEntity
  8
MO_001_VIEW_PV
  6
C_SOLID_M
100
AcDbLine
 10
56.646351
 20
2.596289
 30
0.0
 11
56.03348100000001
 21
1.473879999999999
 31
0.0
  0
ARC
  5
168
330
1E
100
AcDbEntity
  8
MO_001_VIEW_PV
  6
C_SOLID_M
100
AcDbCircle
 10
56.27584099999999
 20
2.748906
 30
0.0
 40
0.8
100
AcDbArc
 50
295.334761
 51
334.3483519999999
  0
LINE
  5
169
330
1E
100
AcDbEntity
  8
MO_001_VIEW_PV
  6
C_SOLID_M
100
AcDbLine
 10
56.99372199999999
 20
2.395718999999999
 30
0.0
 11
56.64634599999999
 21
2.596277
 31
0.0
  0
ARC
  5
16A
330
1E
100
AcDbEntity
  8
MO_001_VIEW_PV
  6
C_SOLID_M
100
AcDbCircle
 10
62.0
 20
0.0
 30
0.0
 40
5.95
100
AcDbArc
 50
145.871271
 51
154.128724
  0
LINE
  5
16B
330
1E
100
AcDbEntity
  8
MO_001_VIEW_PV
  6
C_SOLID_M
100
AcDbLine
 10
57.42210899999999
 20
3.137706999999999
 30
0.0
 11
57.07473199999999
 21
3.338265
 31
0.0
  0
ARC
  5
16C
330
1E
100
AcDbEntity
  8
MO_001_VIEW_PV
  6
C_SOLID_M
100
AcDbCircle
 10
56.757309
 20
3.582837999999999
 30
0.0
 40
0.8
100
AcDbArc
 50
325.651416
 51
4.664794999999999
  0
LINE
  5
16D
330
1E
100
AcDbEntity
  8
MO_001_VIEW_PV
  6
C_SOLID_M
100
AcDbLine
 10
57.074721
 20
3.338269999999999
 30
0.0
 11
57.74032099999999
 21
4.430233999999999
 31
0.0
  0
ARC
  5
16E
330
1E
100
AcDbEntity
  8
MO_001_VIEW_PV
  6
C_SOLID_M
100
AcDbCircle
 10
58.850342
 20
3.753617999999999
 30
0.0
 40
1.3
100
AcDbArc
 50
75.33478000000002
 51
184.66471
  0
LINE
  5
16F
330
1E
100
AcDbEntity
  8
MO_001_VIEW_PV
  6
C_SOLID_M
100
AcDbLine
 10
56.22998199999999
 20
-1.452401
 30
0.0
 11
56.481968
 21
-2.706161999999999
 31
0.0
  0
ARC
  5
170
330
1E
100
AcDbEntity
  8
MO_001_VIEW_PV
  6
C_SOLID_M
100
AcDbCircle
 10
55.848076
 20
-1.573635
 30
0.0
 40
0.8
100
AcDbArc
 50
335.334761
 51
14.348353
  0
LINE
  5
171
330
1E
100
AcDbEntity
  8
MO_001_VIEW_PV
  6
C_SOLID_M
100
AcDbLine
 10
56.62504399999999
 20
-1.382749
 30
0.0
 11
56.230022
 21
-1.452402
 31
0.0
  0
ARC
  5
172
330
1E
100
AcDbEntity
  8
MO_001_VIEW_PV
  6
C_SOLID_M
100
AcDbCircle
 10
62.0
 20
0.0
 30
0.0
 40
5.95
100
AcDbArc
 50
185.87128
 51
194.128733
  0
LINE
  5
173
330
1E
100
AcDbEntity
  8
MO_001_VIEW_PV
  6
C_SOLID_M
100
AcDbLine
 10
56.476267
 20
-0.5389910000000001
 30
0.0
 11
56.08124499999999
 21
-0.608644
 31
0.0
  0
ARC
  5
174
330
1E
100
AcDbEntity
  8
MO_001_VIEW_PV
  6
C_SOLID_M
100
AcDbCircle
 10
55.68086199999999
 20
-0.6253210000000001
 30
0.0
 40
0.8
100
AcDbArc
 50
5.651416
 51
44.664796
  0
LINE
  5
175
330
1E
100
AcDbEntity
  8
MO_001_VIEW_PV
  6
C_SOLID_M
100
AcDbLine
 10
56.08120899999999
 20
-0.6086450000000001
 30
0.0
 11
55.88918599999999
 21
0.65569
 31
0.0
  0
ARC
  5
176
330
1E
100
AcDbEntity
  8
MO_001_VIEW_PV
  6
C_SOLID_M
100
AcDbCircle
 10
57.174438
 20
0.850877
 30
0.0
 40
1.3
100
AcDbArc
 50
115.3347789999999
 51
224.664716
  0
LINE
  5
177
330
1E
100
AcDbEntity
  8
MO_001_VIEW_PV
  6
C_SOLID_M
100
AcDbLine
 10
58.513519
 20
-4.821495999999999
 30
0.0
 11
59.512452
 21
-5.619958999999999
 31
0.0
  0
ARC
  5
178
330
1E
100
AcDbEntity
  8
MO_001_VIEW_PV
  6
C_SOLID_M
100
AcDbCircle
 10
58.298866
 20
-5.159855999999999
 30
0.0
 40
0.8
100
AcDbArc
 50
15.334762
 51
54.348351
  0
LINE
  5
179
330
1E
100
AcDbEntity
  8
MO_001_VIEW_PV
  6
C_SOLID_M
100
AcDbLine
 10
58.77130199999999
 20
-4.514222
 30
0.0
 11
58.51347
 21
-4.821494
 31
0.0
  0
ARC
  5
17A
330
1E
100
AcDbEntity
  8
MO_001_VIEW_PV
  6
C_SOLID_M
100
AcDbCircle
 10
62.0
 20
0.0
 30
0.0
 40
5.95
100
AcDbArc
 50
225.871286
 51
234.128739
  0
LINE
  5
17B
330
1E
100
AcDbEntity
  8
MO_001_VIEW_PV
  6
C_SOLID_M
100
AcDbLine
 10
58.114976
 20
-3.963498999999999
 30
0.0
 11
57.85714399999999
 21
-4.270770999999999
 31
0.0
  0
ARC
  5
17C
330
1E
100
AcDbEntity
  8
MO_001_VIEW_PV
  6
C_SOLID_M
100
AcDbCircle
 10
57.561211
 20
-4.540886
 30
0.0
 40
0.8
100
AcDbArc
 50
45.65141699999999
 51
84.664798
  0
LINE
  5
17D
330
1E
100
AcDbEntity
  8
MO_001_VIEW_PV
  6
C_SOLID_M
100
AcDbLine
 10
57.857177
 20
-4.270773999999999
 30
0.0
 11
56.897379
 21
-3.425666
 31
0.0
  0
ARC
  5
17E
330
1E
100
AcDbEntity
  8
MO_001_VIEW_PV
  6
C_SOLID_M
100
AcDbCircle
 10
57.75646999999999
 20
-2.449999
 30
0.0
 40
1.3
100
AcDbArc
 50
155.334785
 51
264.6647209999999
  0
LINE
  5
17F
330
1E
100
AcDbEntity
  8
MO_001_VIEW_PV
  6
C_SOLID_M
100
AcDbLine
 10
62.428371
 20
-5.934556999999999
 30
0.0
 11
63.70684
 21
-5.904112999999999
 31
0.0
  0
ARC
  5
180
330
1E
100
AcDbEntity
  8
MO_001_VIEW_PV
  6
C_SOLID_M
100
AcDbCircle
 10
62.48146099999999
 20
-6.331722
 30
0.0
 40
0.8
100
AcDbArc
 50
55.33476
 51
94.348354
  0
LINE
  5
181
330
1E
100
AcDbEntity
  8
MO_001_VIEW_PV
  6
C_SOLID_M
100
AcDbLine
 10
62.42838299999999
 20
-5.533444
 30
0.0
 11
62.42838299999999
 21
-5.93456
 31
0.0
  0
ARC
  5
182
330
1E
100
AcDbEntity
  8
MO_001_VIEW_PV
  6
C_SOLID_M
100
AcDbCircle
 10
62.0
 20
0.0
 30
0.0
 40
5.95
100
AcDbArc
 50
265.871285
 51
274.128738
  0
LINE
  5
183
330
1E
100
AcDbEntity
  8
MO_001_VIEW_PV
  6
C_SOLID_M
100
AcDbLine
 10
61.571617
 20
-5.533443
 30
0.0
 11
61.571617
 21
-5.93456
 31
0.0
  0
ARC
  5
184
330
1E
100
AcDbEntity
  8
MO_001_VIEW_PV
  6
C_SOLID_M
100
AcDbCircle
 10
61.518517
 20
-6.331719
 30
0.0
 40
0.8
100
AcDbArc
 50
85.65141899999998
 51
115.069891
  0
LINE
  5
185
330
1E
100
AcDbEntity
  8
MO_001_VIEW_PV
  6
C_SOLID_M
100
AcDbLine
 10
61.311627
 20
-5.928366999999999
 30
0.0
 11
60.293139
 21
-5.904113999999999
 31
0.0
  0
ARC
  5
186
330
1E
100
AcDbEntity
  8
MO_001_VIEW_PV
  6
C_SOLID_M
100
AcDbCircle
 10
60.32409699999999
 20
-4.604493999999999
 30
0.0
 40
1.3
100
AcDbArc
 50
195.334794
 51
303.240684
  0
LINE
  5
187
330
1E
100
AcDbEntity
  8
MO_001_VIEW_PV
  6
C_SOLID_M
100
AcDbLine
 10
66.142841
 20
-4.270766
 30
0.0
 11
67.102639
 21
-3.425658
 31
0.0
  0
ARC
  5
188
330
1E
100
AcDbEntity
  8
MO_001_VIEW_PV
  6
C_SOLID_M
100
AcDbCircle
 10
66.438766
 20
-4.540905
 30
0.0
 40
0.8
100
AcDbArc
 50
95.33476300000002
 51
134.348359
  0
LINE
  5
189
330
1E
100
AcDbEntity
  8
MO_001_VIEW_PV
  6
C_SOLID_M
100
AcDbLine
 10
65.88500500000001
 20
-3.963497
 30
0.0
 11
66.142837
 21
-4.270769999999999
 31
0.0
  0
ARC
  5
18A
330
1E
100
AcDbEntity
  8
MO_001_VIEW_PV
  6
C_SOLID_M
100
AcDbCircle
 10
62.0
 20
0.0
 30
0.0
 40
5.95
100
AcDbArc
 50
305.871284
 51
314.128736
  0
LINE
  5
18B
330
1E
100
AcDbEntity
  8
MO_001_VIEW_PV
  6
C_SOLID_M
100
AcDbLine
 10
65.228678
 20
-4.514221
 30
0.0
 11
65.48650999999999
 21
-4.821493
 31
0.0
  0
ARC
  5
18C
330
1E
100
AcDbEntity
  8
MO_001_VIEW_PV
  6
C_SOLID_M
100
AcDbCircle
 10
65.701111
 20
-5.159870999999999
 30
0.0
 40
0.8
100
AcDbArc
 50
125.651425
 51
164.66481
  0
LINE
  5
18D
330
1E
100
AcDbEntity
  8
MO_001_VIEW_PV
  6
C_SOLID_M
100
AcDbLine
 10
65.486541
 20
-4.821499
 30
0.0
 11
64.48760799999999
 21
-5.619962
 31
0.0
  0
ARC
  5
18E
330
1E
100
AcDbEntity
  8
MO_001_VIEW_PV
  6
C_SOLID_M
100
AcDbCircle
 10
63.675903
 20
-4.604493999999999
 30
0.0
 40
1.3
100
AcDbArc
 50
235.3348
 51
344.664714
  0
LINE
  5
18F
330
1E
100
AcDbEntity
  8
MO_001_VIEW_PV
  6
C_SOLID_M
100
AcDbLine
 10
67.918812
 20
-0.608649
 30
0.0
 11
68.11083499999999
 21
0.6556880000000001
 31
0.0
  0
ARC
  5
190
330
1E
100
AcDbEntity
  8
MO_001_VIEW_PV
  6
C_SOLID_M
100
AcDbCircle
 10
68.31913799999999
 20
-0.625349
 30
0.0
 40
0.8
100
AcDbArc
 50
135.334762
 51
174.3483649999999
  0
LINE
  5
191
330
1E
100
AcDbEntity
  8
MO_001_VIEW_PV
  6
C_SOLID_M
100
AcDbLine
 10
67.523756
 20
-0.5389970000000001
 30
0.0
 11
67.918778
 21
-0.60865
 31
0.0
  0
ARC
  5
192
330
1E
100
AcDbEntity
  8
MO_001_VIEW_PV
  6
C_SOLID_M
100
AcDbCircle
 10
62.0
 20
0.0
 30
0.0
 40
5.549999999999999
100
AcDbArc
 50
0.0
 51
90.000002
  0
ARC
  5
193
330
1E
100
AcDbEntity
  8
MO_001_VIEW_PV
  6
C_SOLID_M
100
AcDbCircle
 10
62.0
 20
0.0
 30
0.0
 40
5.95
100
AcDbArc
 50
345.871283
 51
354.128737
  0
LINE
  5
194
330
1E
100
AcDbEntity
  8
MO_001_VIEW_PV
  6
C_SOLID_M
100
AcDbLine
 10
67.37497900000001
 20
-1.382753
 30
0.0
 11
67.77000100000001
 21
-1.452405999999999
 31
0.0
  0
ARC
  5
195
330
1E
100
AcDbEntity
  8
MO_001_VIEW_PV
  6
C_SOLID_M
100
AcDbCircle
 10
68.15191699999999
 20
-1.573662
 30
0.0
 40
0.8
100
AcDbArc
 50
165.6514299999999
 51
204.664815
  0
LINE
  5
196
330
1E
100
AcDbEntity
  8
MO_001_VIEW_PV
  6
C_SOLID_M
100
AcDbLine
 10
67.770038
 20
-1.452411
 30
0.0
 11
67.518053
 21
-2.706172
 31
0.0
  0
ARC
  5
197
330
1E
100
AcDbEntity
  8
MO_001_VIEW_PV
  6
C_SOLID_M
100
AcDbCircle
 10
66.24352299999999
 20
-2.450000999999999
 30
0.0
 40
1.3
100
AcDbArc
 50
275.334799
 51
24.664715
  0
LINE
  5
198
330
1E
100
AcDbEntity
  8
MO_001_VIEW_PV
  6
C_SOLID_M
100
AcDbLine
 10
66.92528399999999
 20
3.338269999999999
 30
0.0
 11
66.25968399999999
 21
4.430234999999999
 31
0.0
  0
ARC
  5
199
330
1E
100
AcDbEntity
  8
MO_001_VIEW_PV
  6
C_SOLID_M
100
AcDbCircle
 10
67.24270600000001
 20
3.582816
 30
0.0
 40
0.8
100
AcDbArc
 50
175.334767
 51
214.3483709999999
  0
LINE
  5
19A
330
1E
100
AcDbEntity
  8
MO_001_VIEW_PV
  6
C_SOLID_M
100
AcDbLine
 10
66.577917
 20
3.137716999999999
 30
0.0
 11
66.92529300000001
 21
3.338274999999999
 31
0.0
  0
ARC
  5
19B
330
1E
100
AcDbEntity
  8
MO_001_VIEW_PV
  6
C_SOLID_M
100
AcDbCircle
 10
62.0
 20
0.0
 30
0.0
 40
5.95
100
AcDbArc
 50
25.871283
 51
34.128737
  0
LINE
  5
19C
330
1E
100
AcDbEntity
  8
MO_001_VIEW_PV
  6
C_SOLID_M
100
AcDbLine
 10
67.00630600000001
 20
2.395725999999999
 30
0.0
 11
67.35368199999999
 21
2.596283999999999
 31
0.0
  0
ARC
  5
19D
330
1E
100
AcDbEntity
  8
MO_001_VIEW_PV
  6
C_SOLID_M
100
AcDbCircle
 10
67.72417400000001
 20
2.748881
 30
0.0
 40
0.8
100
AcDbArc
 50
205.6514399999999
 51
244.664811
  0
LINE
  5
19E
330
1E
100
AcDbEntity
  8
MO_001_VIEW_PV
  6
C_SOLID_M
100
AcDbLine
 10
67.35368100000001
 20
2.59628
 30
0.0
 11
67.966549
 21
1.473875
 31
0.0
  0
ARC
  5
19F
330
1E
100
AcDbEntity
  8
MO_001_VIEW_PV
  6
C_SOLID_M
100
AcDbCircle
 10
66.825562
 20
0.850875
 30
0.0
 40
1.3
100
AcDbArc
 50
315.3347979999999
 51
64.664714
  0
CIRCLE
  5
1A0
330
1E
100
AcDbEntity
  8
MO_001_VIEW_PV
  6
C_SOLID_M
100
AcDbCircle
 10
62.0
 20
0.0
 30
0.0
 40
12.3
  0
CIRCLE
  5
1A1
330
1E
100
AcDbEntity
  8
MO_001_VIEW_PV
  6
C_SOLID_M
100
AcDbCircle
 10
62.0
 20
0.0
 30
0.0
 40
12.3
  0
CIRCLE
  5
1A2
330
1E
100
AcDbEntity
  8
MO_001_VIEW_PV
  6
C_SOLID_M
100
AcDbCircle
 10
71.150002
 20
0.0
 30
0.0
 40
1.35
  0
CIRCLE
  5
1A3
330
1E
100
AcDbEntity
  8
MO_001_VIEW_PV
  6
C_SOLID_M
100
AcDbCircle
 10
62.0
 20
9.15
 30
0.0
 40
1.35
  0
CIRCLE
  5
1A4
330
1E
100
AcDbEntity
  8
MO_001_VIEW_PV
  6
C_SOLID_M
100
AcDbCircle
 10
52.849998
 20
0.0
 30
0.0
 40
1.35
  0
CIRCLE
  5
1A5
330
1E
100
AcDbEntity
  8
MO_001_VIEW_PV
  6
C_SOLID_M
100
AcDbCircle
 10
62.0
 20
-9.15
 30
0.0
 40
1.35
  0
CIRCLE
  5
1A6
330
1E
100
AcDbEntity
  8
MO_001_VIEW_PV
  6
C_SOLID_M
100
AcDbCircle
 10
62.0
 20
9.15
 30
0.0
 40
0.75
  0
CIRCLE
  5
1A7
330
1E
100
AcDbEntity
  8
MO_001_VIEW_PV
  6
C_SOLID_M
100
AcDbCircle
 10
62.0
 20
9.15
 30
0.0
 40
1.149999999999999
  0
CIRCLE
  5
1A8
330
1E
100
AcDbEntity
  8
MO_001_VIEW_PV
  6
C_SOLID_M
100
AcDbCircle
 10
62.0
 20
-9.15
 30
0.0
 40
0.75
  0
CIRCLE
  5
1A9
330
1E
100
AcDbEntity
  8
MO_001_VIEW_PV
  6
C_SOLID_M
100
AcDbCircle
 10
62.0
 20
-9.15
 30
0.0
 40
1.149999999999999
  0
LINE
  5
1AA
330
1E
100
AcDbEntity
  8
MO_001_VIEW_PV
  6
C_CENTER_L
100
AcDbLine
 10
59.0
 20
9.15
 30
0.0
 11
65.0
 21
9.15
 31
0.0
  0
LINE
  5
1AB
330
1E
100
AcDbEntity
  8
MO_001_VIEW_PV
  6
C_CENTER_L
100
AcDbLine
 10
59.0
 20
-9.15
 30
0.0
 11
65.0
 21
-9.15
 31
0.0
  0
CIRCLE
  5
1AC
330
1E
100
AcDbEntity
  8
MO_001_VIEW_PV
  6
C_SOLID_M
100
AcDbCircle
 10
62.0
 20
0.0
 30
0.0
 40
12.864998
  0
CIRCLE
  5
1AD
330
1E
100
AcDbEntity
  8
MO_001_VIEW_PV
  6
C_SOLID_M
100
AcDbCircle
 10
62.0
 20
0.0
 30
0.0
 40
12.564998
  0
ARC
  5
1AE
330
1E
100
AcDbEntity
  8
MO_001_VIEW_PV
  6
C_SOLID_M
100
AcDbCircle
 10
62.0
 20
0.0
 30
0.0
 40
5.389999999999999
100
AcDbArc
 50
269.999998
 51
90.000002
  0
ARC
  5
1AF
330
1E
100
AcDbEntity
  8
MO_001_VIEW_PV
  6
C_SOLID_M
100
AcDbCircle
 10
62.0
 20
0.0
 30
0.0
 40
5.23
100
AcDbArc
 50
269.999998
 51
90.000002
  0
ARC
  5
1B0
330
1E
100
AcDbEntity
  8
MO_001_VIEW_PV
  6
C_SOLID_M
100
AcDbCircle
 10
62.0
 20
0.0
 30
0.0
 40
2.145000999999999
100
AcDbArc
 50
90.000002
 51
270.000001
  0
ARC
  5
1B1
330
1E
100
AcDbEntity
  8
MO_001_VIEW_PV
  6
C_SOLID_M
100
AcDbCircle
 10
62.0
 20
0.08
 30
0.0
 40
5.469999999999999
100
AcDbArc
 50
90.000002
 51
270.000001
  0
ARC
  5
1B2
330
1E
100
AcDbEntity
  8
MO_001_VIEW_PV
  6
C_SOLID_M
100
AcDbCircle
 10
62.0
 20
0.08
 30
0.0
 40
5.309999999999999
100
AcDbArc
 50
90.000002
 51
270.000001
  0
ARC
  5
1B3
330
1E
100
AcDbEntity
  8
MO_001_VIEW_PV
  6
C_SOLID_M
100
AcDbCircle
 10
62.0
 20
0.0
 30
0.0
 40
5.549999999999999
100
AcDbArc
 50
145.651407
 51
154.348342
  0
ARC
  5
1B4
330
1E
100
AcDbEntity
  8
MO_001_VIEW_PV
  6
C_SOLID_M
100
AcDbCircle
 10
62.0
 20
0.0
 30
0.0
 40
5.549999999999999
100
AcDbArc
 50
105.651401
 51
114.348356
  0
ARC
  5
1B5
330
1E
100
AcDbEntity
  8
MO_001_VIEW_PV
  6
C_SOLID_M
100
AcDbCircle
 10
62.0
 20
0.0
 30
0.0
 40
5.549999999999999
100
AcDbArc
 50
185.651403
 51
194.348351
  0
ARC
  5
1B6
330
1E
100
AcDbEntity
  8
MO_001_VIEW_PV
  6
C_SOLID_M
100
AcDbCircle
 10
62.0
 20
0.0
 30
0.0
 40
5.549999999999999
100
AcDbArc
 50
225.651408
 51
0.00001
  0
LINE
  5
1B7
330
1E
100
AcDbEntity
  8
MO_001_VIEW_PV
  6
C_SOLID_M
100
AcDbLine
 10
58.499973
 20
-4.307249999999999
 30
0.0
 11
58.58972399999999
 21
-4.196798999999999
 31
0.0
  0
ARC
  5
1B8
330
1E
100
AcDbEntity
  8
MO_001_VIEW_PV
  6
C_SOLID_M
100
AcDbCircle
 10
62.0
 20
0.0
 30
0.0
 40
6.15
100
AcDbArc
 50
269.999998
 51
277.2837109999999
  0
ARC
  5
1B9
330
1E
100
AcDbEntity
  8
MO_001_VIEW_PV
  6
C_SOLID_M
100
AcDbCircle
 10
62.0
 20
0.0
 30
0.0
 40
6.309999999999999
100
AcDbArc
 50
269.999998
 51
277.283684
  0
LINE
  5
1BA
330
1E
100
AcDbEntity
  8
MO_001_VIEW_PV
  6
C_SOLID_M
100
AcDbLine
 10
62.79996999999999
 20
-6.259079999999999
 30
0.0
 11
62.779685
 21
-6.100370999999999
 31
0.0
  0
ARC
  5
1BB
330
1E
100
AcDbEntity
  8
MO_001_VIEW_PV
  6
C_SOLID_M
100
AcDbCircle
 10
62.0
 20
-5.65
 30
0.0
 40
0.5
100
AcDbArc
 50
229.518907
 51
269.999998
  0
ARC
  5
1BC
330
1E
100
AcDbEntity
  8
MO_001_VIEW_PV
  6
C_SOLID_M
100
AcDbCircle
 10
59.967575
 20
-6.750683999999999
 30
0.0
 40
1.5
100
AcDbArc
 50
49.28675399999999
 51
73.244524
  0
ARC
  5
1BD
330
1E
100
AcDbEntity
  8
MO_001_VIEW_PV
  6
C_SOLID_M
100
AcDbCircle
 10
59.967575
 20
-6.750683999999999
 30
0.0
 40
1.656649
100
AcDbArc
 50
49.518912
 51
51.157116
  0
LINE
  5
1BE
330
1E
100
AcDbEntity
  8
MO_001_VIEW_PV
  6
C_SOLID_M
100
AcDbLine
 10
61.04305
 20
-5.490597
 30
0.0
 11
61.67539
 21
-6.030305999999999
 31
0.0
  0
ARC
  5
1BF
330
1E
100
AcDbEntity
  8
MO_001_VIEW_PV
  6
C_SOLID_M
100
AcDbCircle
 10
62.0
 20
-5.65
 30
0.0
 40
0.6600000000000001
100
AcDbArc
 50
229.286749
 51
269.999998
  0
LINE
  5
1C0
330
1E
100
AcDbEntity
  8
MO_001_VIEW_PV
  6
C_SOLID_M
100
AcDbLine
 10
60.94599399999999
 20
-5.613712999999999
 30
0.0
 11
61.569509
 21
-6.150272
 31
0.0
  0
LINE
  5
1C1
330
1E
100
AcDbEntity
  8
MO_001_VIEW_PV
  6
C_SOLID_M
100
AcDbLine
 10
61.57160799999999
 20
-5.934557999999999
 30
0.0
 11
61.56296700000001
 21
-5.934352999999999
 31
0.0
  0
ARC
  5
1C2
330
1E
100
AcDbEntity
  8
MO_001_VIEW_PV
  6
C_SOLID_M
100
AcDbCircle
 10
62.0
 20
-0.154248
 30
0.0
 40
2.299250999999999
100
AcDbArc
 50
269.999998
 51
90.000002
  0
ARC
  5
1C3
330
1E
100
AcDbEntity
  8
MO_001_VIEW_PV
  6
C_SOLID_M
100
AcDbCircle
 10
62.0
 20
-0.154248
 30
0.0
 40
2.150752
100
AcDbArc
 50
269.999998
 51
37.277263
  0
ARC
  5
1C4
330
1E
100
AcDbEntity
  8
MO_001_VIEW_PV
  6
C_SOLID_M
100
AcDbCircle
 10
62.0
 20
-0.154248
 30
0.0
 40
1.990752
100
AcDbArc
 50
269.999998
 51
4.357268
  0
ARC
  5
1C5
330
1E
100
AcDbEntity
  8
MO_001_VIEW_PV
  6
C_SOLID_M
100
AcDbCircle
 10
63.233955
 20
0.7850000000000001
 30
0.0
 40
0.6
100
AcDbArc
 50
37.277243
 51
67.24875800000001
  0
ARC
  5
1C6
330
1E
100
AcDbEntity
  8
MO_001_VIEW_PV
  6
C_SOLID_M
100
AcDbCircle
 10
-13.988007
 20
-9.5
 30
0.0
 40
1.190499999999999
100
AcDbArc
 50
250.8551069999999
 51
289.020954
  0
ARC
  5
1C7
330
1E
100
AcDbEntity
  8
MO_001_VIEW_PV
  6
C_SOLID_M
100
AcDbCircle
 10
-15.78524999999999
 20
-26.776733
 30
0.0
 40
0.5
100
AcDbArc
 50
36.869788
 51
143.130207
  0
ARC
  5
1C8
330
1E
100
AcDbEntity
  8
MO_001_VIEW_PV
  6
C_SOLID_M
100
AcDbCircle
 10
-15.78524999999999
 20
-26.176735
 30
0.0
 40
0.5
100
AcDbArc
 50
216.8697929999999
 51
323.130212
  0
ARC
  5
1C9
330
1E
100
AcDbEntity
  8
MO_001_VIEW_PV
  6
C_SOLID_M
100
AcDbCircle
 10
-14.98524699999999
 20
-26.176735
 30
0.0
 40
0.5
100
AcDbArc
 50
216.8697929999999
 51
323.130212
  0
LINE
  5
1CA
330
1E
100
AcDbEntity
  8
MO_001_VIEW_PV
  6
C_SOLID_M
100
AcDbLine
 10
-14.585249
 20
-20.230331
 30
0.0
 11
-14.585249
 21
-26.47673
 31
0.0
  0
LINE
  5
1CB
330
1E
100
AcDbEntity
  8
MO_001_VIEW_PV
  6
C_SOLID_M
100
AcDbLine
 10
-16.18524899999999
 20
-20.230331
 30
0.0
 11
-16.18524899999999
 21
-26.47673
 31
0.0
  0
ARC
  5
1CC
330
1E
100
AcDbEntity
  8
MO_001_VIEW_PV
  6
C_SOLID_M
100
AcDbCircle
 10
-6.585249
 20
-20.230331
 30
0.0
 40
9.599999999999999
100
AcDbArc
 50
135.0
 51
180.000005
  0
ARC
  5
1CD
330
1E
100
AcDbEntity
  8
MO_001_VIEW_PV
  6
C_SOLID_M
100
AcDbCircle
 10
-6.585249
 20
-20.230331
 30
0.0
 40
8.0
100
AcDbArc
 50
135.0
 51
180.000005
  0
LINE
  5
1CE
330
1E
100
AcDbEntity
  8
MO_001_VIEW_PV
  6
C_SOLID_M
100
AcDbLine
 10
-13.373473
 20
-13.442107
 30
0.0
 11
-12.745125
 21
-12.813759
 31
0.0
  0
LINE
  5
1CF
330
1E
100
AcDbEntity
  8
MO_001_VIEW_PV
  6
C_SOLID_M
100
AcDbLine
 10
-12.242103
 20
-14.57347699999999
 30
0.0
 11
-11.457015
 21
-13.788389
 31
0.0
  0
ARC
  5
1D0
330
1E
100
AcDbEntity
  8
MO_001_VIEW_PV
  6
C_SOLID_M
100
AcDbCircle
 10
-13.65560499999999
 20
-15.355614
 30
0.0
 40
2.7
100
AcDbArc
 50
23.34268199999999
 51
84.11999499999998
  0
ARC
  5
1D1
330
1E
100
AcDbEntity
  8
MO_001_VIEW_PV
  6
C_SOLID_M
100
AcDbCircle
 10
-10.89999399999999
 20
-11.599998
 30
0.0
 40
2.7
100
AcDbArc
 50
250.292573
 51
269.999998
  0
LINE
  5
1D2
330
1E
100
AcDbEntity
  8
MO_001_VIEW_PV
  6
C_SOLID_M
100
AcDbLine
 10
65.928833
 20
-13.7497
 30
0.0
 11
65.928833
 21
-20.300003
 31
0.0
  0
LINE
  5
1D3
330
1E
100
AcDbEntity
  8
MO_001_VIEW_PV
  6
C_SOLID_M
100
AcDbLine
 10
67.528839
 20
-13.187948
 30
0.0
 11
67.528839
 21
-20.300003
 31
0.0
  0
ARC
  5
1D4
330
1E
100
AcDbEntity
  8
MO_001_VIEW_PV
  6
C_SOLID_M
100
AcDbCircle
 10
66.32884200000001
 20
-20.600002
 30
0.0
 40
0.5
100
AcDbArc
 50
36.869788
 51
143.130207
  0
ARC
  5
1D5
330
1E
100
AcDbEntity
  8
MO_001_VIEW_PV
  6
C_SOLID_M
100
AcDbCircle
 10
66.32884200000001
 20
-20.000004
 30
0.0
 40
0.5
100
AcDbArc
 50
216.8697929999999
 51
323.130212
  0
ARC
  5
1D6
330
1E
100
AcDbEntity
  8
MO_001_VIEW_PV
  6
C_SOLID_M
100
AcDbCircle
 10
67.128845
 20
-20.000004
 30
0.0
 40
0.5
100
AcDbArc
 50
216.8697929999999
 51
323.130212
  0
LINE
  5
1D7
330
1E
100
AcDbEntity
  8
MO_001_VIEW_PV
  6
C_SOLID_M
100
AcDbLine
 10
56.471169
 20
-13.187948
 30
0.0
 11
56.471169
 21
-20.300003
 31
0.0
  0
ARC
  5
1D8
330
1E
100
AcDbEntity
  8
MO_001_VIEW_PV
  6
C_SOLID_M
100
AcDbCircle
 10
56.87116999999999
 20
-20.600002
 30
0.0
 40
0.5
100
AcDbArc
 50
36.869788
 51
143.130207
  0
ARC
  5
1D9
330
1E
100
AcDbEntity
  8
MO_001_VIEW_PV
  6
C_SOLID_M
100
AcDbCircle
 10
56.87116999999999
 20
-20.000004
 30
0.0
 40
0.5
100
AcDbArc
 50
216.8697929999999
 51
323.130212
  0
ARC
  5
1DA
330
1E
100
AcDbEntity
  8
MO_001_VIEW_PV
  6
C_SOLID_M
100
AcDbCircle
 10
57.67117299999999
 20
-20.000004
 30
0.0
 40
0.5
100
AcDbArc
 50
216.8697929999999
 51
323.130212
  0
LINE
  5
1DB
330
1E
100
AcDbEntity
  8
MO_001_VIEW_PV
  6
C_SOLID_M
100
AcDbLine
 10
58.071167
 20
-13.7497
 30
0.0
 11
58.071167
 21
-20.300003
 31
0.0
  0
LINE
  5
1DC
330
1E
100
AcDbEntity
  8
MO_001_VIEW_PV
  6
C_SOLID_M
100
AcDbLine
 10
65.928833
 20
-27.30001099999999
 30
0.0
 11
65.928833
 21
-21.30002199999999
 31
0.0
  0
LINE
  5
1DD
330
1E
100
AcDbEntity
  8
MO_001_VIEW_PV
  6
C_SOLID_M
100
AcDbLine
 10
67.528839
 20
-27.30001099999999
 30
0.0
 11
67.528839
 21
-21.30002199999999
 31
0.0
  0
LINE
  5
1DE
330
1E
100
AcDbEntity
  8
MO_001_VIEW_PV
  6
C_SOLID_M
100
AcDbLine
 10
56.471169
 20
-27.30001099999999
 30
0.0
 11
56.471169
 21
-21.30002199999999
 31
0.0
  0
LINE
  5
1DF
330
1E
100
AcDbEntity
  8
MO_001_VIEW_PV
  6
C_SOLID_M
100
AcDbLine
 10
58.071167
 20
-27.30001099999999
 30
0.0
 11
58.071167
 21
-21.30002199999999
 31
0.0
  0
LINE
  5
1E0
330
1E
100
AcDbEntity
  8
MO_001_VIEW_PV
  6
C_SOLID_M
100
AcDbLine
 10
65.928833
 20
-27.30001099999999
 30
0.0
 11
67.528839
 21
-27.30001099999999
 31
0.0
  0
LINE
  5
1E1
330
1E
100
AcDbEntity
  8
MO_001_VIEW_PV
  6
C_SOLID_M
100
AcDbLine
 10
56.471169
 20
-27.30001099999999
 30
0.0
 11
58.071167
 21
-27.30001099999999
 31
0.0
  0
ARC
  5
1E2
330
1E
100
AcDbEntity
  8
MO_001_VIEW_PV
  6
C_SOLID_M
100
AcDbCircle
 10
67.12883000000001
 20
-21.600002
 30
0.0
 40
0.5
100
AcDbArc
 50
36.869795
 51
143.130207
  0
ARC
  5
1E3
330
1E
100
AcDbEntity
  8
MO_001_VIEW_PV
  6
C_SOLID_M
100
AcDbCircle
 10
67.12883000000001
 20
-21.000004
 30
0.0
 40
0.5
100
AcDbArc
 50
216.8697929999999
 51
323.130205
  0
ARC
  5
1E4
330
1E
100
AcDbEntity
  8
MO_001_VIEW_PV
  6
C_SOLID_M
100
AcDbCircle
 10
66.328827
 20
-21.60002099999999
 30
0.0
 40
0.5
100
AcDbArc
 50
36.869795
 51
143.130207
  0
ARC
  5
1E5
330
1E
100
AcDbEntity
  8
MO_001_VIEW_PV
  6
C_SOLID_M
100
AcDbCircle
 10
56.871155
 20
-21.600031
 30
0.0
 40
0.5
100
AcDbArc
 50
36.869795
 51
143.130207
  0
ARC
  5
1E6
330
1E
100
AcDbEntity
  8
MO_001_VIEW_PV
  6
C_SOLID_M
100
AcDbCircle
 10
57.671158
 20
-21.60001199999999
 30
0.0
 40
0.5
100
AcDbArc
 50
36.869795
 51
143.130207
  0
ARC
  5
1E7
330
1E
100
AcDbEntity
  8
MO_001_VIEW_PV
  6
C_SOLID_M
100
AcDbCircle
 10
57.671158
 20
-21.000013
 30
0.0
 40
0.5
100
AcDbArc
 50
216.8697929999999
 51
323.130205
  0
LINE
  5
1E8
330
1E
100
AcDbEntity
  8
MO_001_VIEW_PV
  6
C_SOLID_M
100
AcDbLine
 10
67.128838
 20
-27.30001099999999
 30
0.0
 11
67.128838
 21
-32.30001099999999
 31
0.0
  0
LINE
  5
1E9
330
1E
100
AcDbEntity
  8
MO_001_VIEW_PV
  6
C_SOLID_M
100
AcDbLine
 10
66.328835
 20
-27.30001099999999
 30
0.0
 11
66.328835
 21
-32.30001099999999
 31
0.0
  0
LINE
  5
1EA
330
1E
100
AcDbEntity
  8
MO_001_VIEW_PV
  6
C_SOLID_M
100
AcDbLine
 10
66.328835
 20
-32.30001099999999
 30
0.0
 11
67.128838
 21
-32.30001099999999
 31
0.0
  0
LINE
  5
1EB
330
1E
100
AcDbEntity
  8
MO_001_VIEW_PV
  6
C_SOLID_M
100
AcDbLine
 10
57.671165
 20
-27.30001099999999
 30
0.0
 11
57.671165
 21
-32.30001099999999
 31
0.0
  0
LINE
  5
1EC
330
1E
100
AcDbEntity
  8
MO_001_VIEW_PV
  6
C_SOLID_M
100
AcDbLine
 10
56.871162
 20
-27.30001099999999
 30
0.0
 11
56.871162
 21
-32.30001099999999
 31
0.0
  0
LINE
  5
1ED
330
1E
100
AcDbEntity
  8
MO_001_VIEW_PV
  6
C_SOLID_M
100
AcDbLine
 10
56.871162
 20
-32.30001099999999
 30
0.0
 11
57.671165
 21
-32.30001099999999
 31
0.0
  0
LINE
  5
1EE
330
1E
100
AcDbEntity
  8
MO_001_VIEW_PV
  6
C_SOLID_M
100
AcDbLine
 10
-7.475485
 20
-30.0
 30
0.0
 11
28.692402
 21
-30.0
 31
0.0
  0
ARC
  5
1EF
330
1E
100
AcDbEntity
  8
MO_001_VIEW_PV
  6
C_SOLID_M
100
AcDbCircle
 10
62.0
 20
0.08
 30
0.0
 40
5.150001
100
AcDbArc
 50
90.000002
 51
270.000001
  0
ARC
  5
1F0
330
1E
100
AcDbEntity
  8
MO_001_VIEW_PV
  6
C_SOLID_M
100
AcDbCircle
 10
62.0
 20
-0.325625
 30
0.0
 40
4.904376
100
AcDbArc
 50
269.999998
 51
90.000002
  0
ARC
  5
1F1
330
1E
100
AcDbEntity
  8
MO_001_VIEW_PV
  6
C_SOLID_M
100
AcDbCircle
 10
62.0
 20
-0.325625
 30
0.0
 40
4.744375999999999
100
AcDbArc
 50
269.999998
 51
90.000002
  0
ARC
  5
1F2
330
1E
100
AcDbEntity
  8
MO_001_VIEW_PV
  6
C_SOLID_M
100
AcDbCircle
 10
62.0
 20
0.137125
 30
0.0
 40
4.441626
100
AcDbArc
 50
90.000002
 51
270.000001
  0
ARC
  5
1F3
330
1E
100
AcDbEntity
  8
MO_001_VIEW_PV
  6
C_SOLID_M
100
AcDbCircle
 10
62.0
 20
-0.268499
 30
0.0
 40
4.036001
100
AcDbArc
 50
269.999998
 51
90.000002
  0
ARC
  5
1F4
330
1E
100
AcDbEntity
  8
MO_001_VIEW_PV
  6
C_SOLID_M
100
AcDbCircle
 10
62.0
 20
0.194251
 30
0.0
 40
3.573249999999999
100
AcDbArc
 50
90.000002
 51
270.000001
  0
ARC
  5
1F5
330
1E
100
AcDbEntity
  8
MO_001_VIEW_PV
  6
C_SOLID_M
100
AcDbCircle
 10
62.0
 20
-0.211374
 30
0.0
 40
3.167625
100
AcDbArc
 50
269.999998
 51
90.000002
  0
ARC
  5
1F6
330
1E
100
AcDbEntity
  8
MO_001_VIEW_PV
  6
C_SOLID_M
100
AcDbCircle
 10
62.0
 20
0.251376
 30
0.0
 40
2.704874999999999
100
AcDbArc
 50
90.000002
 51
270.000001
  0
ARC
  5
1F7
330
1E
100
AcDbEntity
  8
MO_001_VIEW_PV
  6
C_SOLID_M
100
AcDbCircle
 10
62.0
 20
0.137125
 30
0.0
 40
4.281626
100
AcDbArc
 50
90.000002
 51
270.000001
  0
ARC
  5
1F8
330
1E
100
AcDbEntity
  8
MO_001_VIEW_PV
  6
C_SOLID_M
100
AcDbCircle
 10
62.0
 20
-0.268499
 30
0.0
 40
3.876001
100
AcDbArc
 50
269.999998
 51
90.000002
  0
ARC
  5
1F9
330
1E
100
AcDbEntity
  8
MO_001_VIEW_PV
  6
C_SOLID_M
100
AcDbCircle
 10
62.0
 20
0.194251
 30
0.0
 40
3.41325
100
AcDbArc
 50
90.000002
 51
270.000001
  0
ARC
  5
1FA
330
1E
100
AcDbEntity
  8
MO_001_VIEW_PV
  6
C_SOLID_M
100
AcDbCircle
 10
62.0
 20
-0.211374
 30
0.0
 40
3.007625999999999
100
AcDbArc
 50
269.999998
 51
90.000002
  0
ARC
  5
1FB
330
1E
100
AcDbEntity
  8
MO_001_VIEW_PV
  6
C_SOLID_M
100
AcDbCircle
 10
62.0
 20
0.251376
 30
0.0
 40
2.544875999999999
100
AcDbArc
 50
90.000002
 51
270.000001
  0
LINE
  5
1FC
330
1E
100
AcDbEntity
  8
MO_001_VIEW_PV
  6
C_SOLID_M
100
AcDbLine
 10
2.0
 20
4.578751
 30
0.0
 11
2.170258
 21
4.578751
 31
0.0
  0
LINE
  5
1FD
330
1E
100
AcDbEntity
  8
MO_001_VIEW_PV
  6
C_SOLID_M
100
AcDbLine
 10
2.155727999999999
 20
3.767501
 30
0.0
 11
2.510772999999999
 21
3.767501
 31
0.0
  0
LINE
  5
1FE
330
1E
100
AcDbEntity
  8
MO_001_VIEW_PV
  6
C_SOLID_M
100
AcDbLine
 10
2.491445999999999
 20
2.956252
 30
0.0
 11
2.851288
 21
2.956252
 31
0.0
  0
LINE
  5
1FF
330
1E
100
AcDbEntity
  8
MO_001_VIEW_PV
  6
C_SOLID_M
100
AcDbLine
 10
2.829486
 20
2.145001999999999
 30
0.0
 11
3.021545
 21
2.145001999999999
 31
0.0
  0
LINE
  5
200
330
1E
100
AcDbEntity
  8
MO_001_VIEW_PV
  6
C_SOLID_M
100
AcDbLine
 10
2.705902999999999
 20
-2.453499
 30
0.0
 11
3.021545
 21
-2.453499
 31
0.0
  0
LINE
  5
201
330
1E
100
AcDbEntity
  8
MO_001_VIEW_PV
  6
C_SOLID_M
100
AcDbLine
 10
2.011153999999999
 20
-4.304499999999999
 30
0.0
 11
2.340515
 21
-4.304499999999999
 31
0.0
  0
LINE
  5
202
330
1E
100
AcDbEntity
  8
MO_001_VIEW_PV
  6
C_SOLID_M
100
AcDbLine
 10
2.362563999999999
 20
-3.378998999999999
 30
0.0
 11
2.681029999999999
 21
-3.378998999999999
 31
0.0
  0
LINE
  5
203
330
1E
100
AcDbEntity
  8
MO_001_VIEW_PV
  6
C_SOLID_M
100
AcDbLine
 10
2.0
 20
-4.927251999999999
 30
0.0
 11
2.170258
 21
4.57875
 31
0.0
  0
LINE
  5
204
330
1E
100
AcDbEntity
  8
MO_001_VIEW_PV
  6
C_SOLID_M
100
AcDbLine
 10
2.340515
 20
-4.304499999999999
 30
0.0
 11
2.510772999999999
 21
3.767501
 31
0.0
  0
LINE
  5
205
330
1E
100
AcDbEntity
  8
MO_001_VIEW_PV
  6
C_SOLID_M
100
AcDbLine
 10
2.851288
 20
2.956252
 30
0.0
 11
2.681029999999999
 21
-3.378998999999999
 31
0.0
  0
TEXT
  5
206
330
1E
100
AcDbEntity
  8
MO_001_VIEW_PV
  6
C_SOLID_L
100
AcDbText
 10
-37.488281
 20
-44.083594
 30
0.0
 40
4.167187
  1
2E X3・X4・X9付
100
AcDbText
  0
TEXT
  5
207
330
1E
100
AcDbEntity
  8
MO_001_VIEW_PV
  6
C_SOLID_L
100
AcDbText
 10
-5.046914
 20
-29.25
 30
0.0
 40
3.0
  1
2-M2.3 P0.4
100
AcDbText
  0
TEXT
  5
208
330
1E
100
AcDbEntity
  8
MO_001_VIEW_PV
  6
C_SOLID_L
100
AcDbText
 10
88.149773
 20
-12.791106
 30
0.0
 40
3.0
  1
(UL1430 AWG24)
 50
90.0
100
AcDbText
  0
TEXT
  5
209
330
1E
100
AcDbEntity
  8
MO_001_VIEW_PV
  6
C_SOLID_L
100
AcDbText
 10
70.51171899999999
 20
-50.08359399999999
 30
0.0
 40
4.167187
  1
単位：mm
100
AcDbText
  0
TEXT
  5
20A
330
1E
100
AcDbEntity
  8
MO_001_VIEW_PV
  6
C_SOLID_L
100
AcDbText
 10
70.51171899999999
 20
-56.334375
 30
0.0
 40
4.167187
  1
無励磁時
100
AcDbText
  0
DIMENSION
  5
20C
330
1E
100
AcDbEntity
  8
MO_001_VIEW_PV
  6
C_SOLID_M
100
AcDbDimension
  2
*D0
 10
21.340862
 20
24.0
 30
0.0
 11
21.340862
 21
24.0
 31
0.0
  3
STANDARD
100
AcDbAlignedDimension
 13
9.100006
 23
9.900002
 33
0.0
 14
0.0
 24
12.300003
 34
0.0
100
AcDbRotatedDimension
  0
DIMENSION
  5
20E
330
1E
100
AcDbEntity
  8
MO_001_VIEW_PV
  6
C_SOLID_M
100
AcDbDimension
  2
*D1
 10
-8.334471999999999
 20
24.0
 30
0.0
 11
-8.334471999999999
 21
24.0
 31
0.0
  1
17以下
  3
STANDARD
100
AcDbAlignedDimension
 13
0.0
 23
12.300003
 33
0.0
 14
-16.668943
 24
6.419037
 34
0.0
100
AcDbRotatedDimension
  0
DIMENSION
  5
210
330
1E
100
AcDbEntity
  8
MO_001_VIEW_PV
  6
C_SOLID_M
100
AcDbDimension
  2
*D2
 10
-18.0
 20
30.0
 30
0.0
 11
-18.0
 21
30.0
 31
0.0
  3
STANDARD
100
AcDbAlignedDimension
 13
-28.27844199999999
 23
1.877823
 33
0.0
 14
0.0
 24
12.300003
 34
0.0
100
AcDbRotatedDimension
  0
DIMENSION
  5
212
330
1E
100
AcDbEntity
  8
MO_001_VIEW_PV
  6
C_SOLID_M
100
AcDbDimension
  2
*D3
 10
21.863117
 20
30.0
 30
0.0
 11
21.863117
 21
30.0
 31
0.0
  3
STANDARD
100
AcDbAlignedDimension
 13
12.421547
 23
1.684998
 33
0.0
 14
0.0
 24
12.300003
 34
0.0
100
AcDbRotatedDimension
  0
DIMENSION
  5
214
330
1E
100
AcDbEntity
  8
MO_001_VIEW_PV
  6
C_SOLID_M
100
AcDbDimension
  2
*D4
 10
36.0
 20
18.0
 30
0.0
 11
36.0
 21
18.0
 31
0.0
  3
STANDARD
100
AcDbAlignedDimension
 13
12.12155899999999
 23
1.985000999999999
 33
0.0
 14
12.12155899999999
 24
-1.985
 34
0.0
 50
89.999523
100
AcDbRotatedDimension
  0
DIMENSION
  5
216
330
1E
100
AcDbEntity
  8
MO_001_VIEW_PV
  6
C_SOLID_M
100
AcDbDimension
  2
*D5
 10
24.0
 20
-24.0
 30
0.0
 11
24.0
 21
-24.0
 31
0.0
  1
9.0以上
  3
STANDARD
100
AcDbAlignedDimension
 13
3.421547
 23
1.385002
 33
0.0
 14
12.421547
 24
-1.684997
 34
0.0
100
AcDbRotatedDimension
  0
DIMENSION
  5
218
330
1E
100
AcDbEntity
  8
MO_001_VIEW_PV
  6
C_SOLID_M
100
AcDbDimension
  2
*D6
 10
-3.074450999999999
 20
18.0
 30
0.0
 11
-3.074450999999999
 21
18.0
 31
0.0
  3
STANDARD
100
AcDbAlignedDimension
 13
-14.378441
 23
12.699997
 33
0.0
 14
-15.578453
 24
12.699997
 34
0.0
100
AcDbRotatedDimension
  0
DIMENSION
  5
21A
330
1E
100
AcDbEntity
  8
MO_001_VIEW_PV
  6
C_SOLID_M
100
AcDbDimension
  2
*D7
 10
-27.489763
 20
18.0
 30
0.0
 11
-27.489763
 21
18.0
 31
0.0
  3
STANDARD
100
AcDbAlignedDimension
 13
-15.578453
 23
12.699997
 33
0.0
 14
-16.668943
 24
6.419037
 34
0.0
100
AcDbRotatedDimension
  0
DIMENSION
  5
21C
330
1E
100
AcDbEntity
  8
MO_001_VIEW_PV
  6
C_SOLID_M
100
AcDbDimension
  2
*D8
 10
62.0
 20
24.0
 30
0.0
 11
62.0
 21
24.0
 31
0.0
  1
%%C30以下
  3
STANDARD
100
AcDbAlignedDimension
 13
76.300003
 23
0.0
 33
0.0
 14
47.69999699999999
 24
0.0
 34
0.0
100
AcDbRotatedDimension
  0
DIMENSION
  5
21E
330
1E
100
AcDbEntity
  8
MO_001_VIEW_PV
  6
C_SOLID_M
100
AcDbDimension
  2
*D9
 10
44.521606
 20
0.0
 30
0.0
 11
44.521606
 21
0.0
 31
0.0
  3
STANDARD
100
AcDbAlignedDimension
 13
59.0
 23
9.15
 33
0.0
 14
59.0
 24
-9.15
 34
0.0
 50
89.999523
100
AcDbRotatedDimension
  0
DIMENSION
  5
220
330
1E
100
AcDbEntity
  8
MO_001_VIEW_PV
  6
C_SOLID_M
100
AcDbDimension
  2
*D10
 10
59.744156
 20
18.0
 30
0.0
 11
59.744156
 21
18.0
 31
0.0
  1
%%C14以下
  3
STANDARD
100
AcDbAlignedDimension
 13
68.199997
 23
0.0
 33
0.0
 14
55.800003
 24
0.0
 34
0.0
100
AcDbRotatedDimension
  0
DIMENSION
  5
222
330
1E
100
AcDbEntity
  8
MO_001_VIEW_PV
  6
C_SOLID_M
100
AcDbDimension
  2
*D11
 10
83.83618199999999
 20
17.240669
 30
0.0
 11
83.83618199999999
 21
17.240669
 31
0.0
  1
長さ250以上
  3
STANDARD
100
AcDbAlignedDimension
 13
67.528839
 23
-13.18794699999999
 33
0.0
 14
67.128838
 24
-32.30001099999999
 34
0.0
 50
89.999523
100
AcDbRotatedDimension
  0
LINE
  5
223
330
1E
100
AcDbEntity
  8
MO_001_VIEW_PV
  6
C_SOLID_L
100
AcDbLine
 10
1.710774
 20
-10.30000299999999
 30
0.0
 11
-7.475485
 21
-30.000001
 31
0.0
  0
POLYLINE
  5
224
330
1E
100
AcDbEntity
  8
MO_001_VIEW_PV
  6
C_SOLID_L
100
AcDb2dPolyline
 66
     1
 10
0.0
 20
0.0
 30
0.0
 70
     1
  0
VERTEX
  5
33F
330
224
100
AcDbEntity
  8
MO_001_VIEW_PV
  6
C_SOLID_L
100
AcDbVertex
100
AcDb2dVertex
 10
0.8372579999999999
 20
-13.553971
 30
0.0
  0
VERTEX
  5
340
330
224
100
AcDbEntity
  8
MO_001_VIEW_PV
  6
C_SOLID_L
100
AcDbVertex
100
AcDb2dVertex
 10
1.496083999999999
 20
-10.760408
 30
0.0
  0
VERTEX
  5
341
330
224
100
AcDbEntity
  8
MO_001_VIEW_PV
  6
C_SOLID_L
100
AcDbVertex
100
AcDb2dVertex
 10
-0.220425
 20
-13.060766
 30
0.0
  0
SEQEND
  5
342
330
224
100
AcDbEntity
  8
MO_001_VIEW_PV
  6
C_SOLID_L
  0
ENDSEC
  0
SECTION
  2
OBJECTS
  0
DICTIONARY
  5
1A
330
0
100
AcDbDictionary
  3
ACAD_GROUP
350
1B
  3
ACAD_MLINESTYLE
350
1C
  3
ACAD_LAYOUT
350
2AE
  3
ACAD_PLOTSETTINGS
350
2AF
1001
ACAD
1000
TREAT_AS_HARD
1070
     0
  0
DICTIONARY
  5
2B4
330
1E
100
AcDbDictionary
  3
ACAD_LAYOUTSELFREF
350
2B5
  0
DICTIONARY
  5
2B6
330
1F
100
AcDbDictionary
  3
ACAD_LAYOUTSELFREF
350
2B7
  0
DICTIONARY
  5
1B
102
{ACAD_REACTORS
330
1A
102
}
330
1A
100
AcDbDictionary
1001
ACAD
1000
TREAT_AS_HARD
1070
     0
  0
DICTIONARY
  5
1C
102
{ACAD_REACTORS
330
1A
102
}
330
1A
100
AcDbDictionary
  3
STANDARD
350
1D
1001
ACAD
1000
TREAT_AS_HARD
1070
     0
  0
DICTIONARY
  5
2AE
102
{ACAD_REACTORS
330
1A
102
}
330
1A
100
AcDbDictionary
1001
ACAD
1000
TREAT_AS_HARD
1070
     0
  0
DICTIONARY
  5
2AF
102
{ACAD_REACTORS
330
1A
102
}
330
1A
100
AcDbDictionary
1001
ACAD
1000
TREAT_AS_HARD
1070
     0
  0
XRECORD
  5
2B5
102
{ACAD_REACTORS
330
2B4
102
}
330
2B4
100
AcDbXrecord
340
1E
  0
XRECORD
  5
2B7
102
{ACAD_REACTORS
330
2B6
102
}
330
2B6
100
AcDbXrecord
340
1F
  0
MLINESTYLE
  5
1D
102
{ACAD_REACTORS
330
1C
102
}
330
1C
100
AcDbMlineStyle
  2
STANDARD
 70
     0
  3

 62
     0
 51
90.0
 52
90.0
 71
     2
 49
0.5
 62
   256
  6
BYLAYER
 49
-0.5
 62
   256
  6
BYLAYER
  0
ENDSEC
  0
EOF
