  0
SECTION
  2
HEADER
  9
$ACADVER
  1
AC1012
  9
$DWGCODEPAGE
  3
dos932
  9
$INSBASE
 10
0.0
 20
0.0
 30
0.0
  9
$EXTMIN
 10
-21.07267590755128
 20
-73.27213201074773
 30
-0.0015258207003583
  9
$EXTMAX
 10
103.509152859986
 20
40.13383752499533
 30
0.0000000349246037
  9
$LIMMIN
 10
-21.06880599999999
 20
-76.393845
  9
$LIMMAX
 10
105.75
 20
42.0
  9
$ORTHOMODE
 70
     0
  9
$REGENMODE
 70
     1
  9
$FILLMODE
 70
     1
  9
$QTEXTMODE
 70
     0
  9
$MIRRTEXT
 70
     1
  9
$DRAGMODE
 70
     2
  9
$LTSCALE
 40
1.0
  9
$OSMODE
 70
    37
  9
$ATTMODE
 70
     1
  9
$TEXTSIZE
 40
4.1672
  9
$TRACEWID
 40
0.05
  9
$TEXTSTYLE
  7
STANDARD
  9
$CLAYER
  8
0
  9
$CELTYPE
  6
CONTINUOUS
  9
$CECOLOR
 62
   256
  9
$CELTSCALE
 40
1.0
  9
$DELOBJ
 70
     1
  9
$DISPSILH
 70
     0
  9
$DIMSCALE
 40
1.0
  9
$DIMASZ
 40
0.18
  9
$DIMEXO
 40
0.0625
  9
$DIMDLI
 40
0.38
  9
$DIMRND
 40
0.0
  9
$DIMDLE
 40
0.0
  9
$DIMEXE
 40
0.18
  9
$DIMTP
 40
0.0
  9
$DIMTM
 40
0.0
  9
$DIMTXT
 40
0.18
  9
$DIMCEN
 40
0.09
  9
$DIMTSZ
 40
0.0
  9
$DIMTOL
 70
     0
  9
$DIMLIM
 70
     0
  9
$DIMTIH
 70
     1
  9
$DIMTOH
 70
     1
  9
$DIMSE1
 70
     0
  9
$DIMSE2
 70
     0
  9
$DIMTAD
 70
     0
  9
$DIMZIN
 70
     0
  9
$DIMBLK
  1

  9
$DIMASO
 70
     1
  9
$DIMSHO
 70
     1
  9
$DIMPOST
  1

  9
$DIMAPOST
  1

  9
$DIMALT
 70
     0
  9
$DIMALTD
 70
     2
  9
$DIMALTF
 40
25.4
  9
$DIMLFAC
 40
1.0
  9
$DIMTOFL
 70
     0
  9
$DIMTVP
 40
0.0
  9
$DIMTIX
 70
     0
  9
$DIMSOXD
 70
     0
  9
$DIMSAH
 70
     0
  9
$DIMBLK1
  1

  9
$DIMBLK2
  1

  9
$DIMSTYLE
  2
STANDARD
  9
$DIMCLRD
 70
     0
  9
$DIMCLRE
 70
     0
  9
$DIMCLRT
 70
     0
  9
$DIMTFAC
 40
1.0
  9
$DIMGAP
 40
0.09
  9
$DIMJUST
 70
     0
  9
$DIMSD1
 70
     0
  9
$DIMSD2
 70
     0
  9
$DIMTOLJ
 70
     1
  9
$DIMTZIN
 70
     0
  9
$DIMALTZ
 70
     0
  9
$DIMALTTZ
 70
     0
  9
$DIMFIT
 70
     3
  9
$DIMUPT
 70
     0
  9
$DIMUNIT
 70
     2
  9
$DIMDEC
 70
     4
  9
$DIMTDEC
 70
     4
  9
$DIMALTU
 70
     2
  9
$DIMALTTD
 70
     2
  9
$DIMTXSTY
  7
STANDARD
  9
$DIMAUNIT
 70
     0
  9
$LUNITS
 70
     2
  9
$LUPREC
 70
     6
  9
$SKETCHINC
 40
0.1
  9
$FILLETRAD
 40
0.0
  9
$AUNITS
 70
     0
  9
$AUPREC
 70
     4
  9
$MENU
  1
acad
  9
$ELEVATION
 40
0.0
  9
$PELEVATION
 40
0.0
  9
$THICKNESS
 40
0.0
  9
$LIMCHECK
 70
     0
  9
$BLIPMODE
 70
     0
  9
$CHAMFERA
 40
0.0
  9
$CHAMFERB
 40
0.0
  9
$CHAMFERC
 40
0.0
  9
$CHAMFERD
 40
0.0
  9
$SKPOLY
 70
     0
  9
$TDCREATE
 40
2376123.569110301
  9
$TDUPDATE
 40
2451687.688080324
  9
$TDINDWG
 40
0.0011017361
  9
$TDUSRTIMER
 40
0.0011011574
  9
$USRTIMER
 70
     1
  9
$ANGBASE
 50
0.0
  9
$ANGDIR
 70
     0
  9
$PDMODE
 70
     0
  9
$PDSIZE
 40
0.0
  9
$PLINEWID
 40
0.0
  9
$COORDS
 70
     1
  9
$SPLFRAME
 70
     0
  9
$SPLINETYPE
 70
     6
  9
$SPLINESEGS
 70
     8
  9
$ATTDIA
 70
     0
  9
$ATTREQ
 70
     1
  9
$HANDLING
 70
 10241
  9
$HANDSEED
  5
2D8
  9
$SURFTAB1
 70
     6
  9
$SURFTAB2
 70
     6
  9
$SURFTYPE
 70
     6
  9
$SURFU
 70
     6
  9
$SURFV
 70
     6
  9
$UCSNAME
  2

  9
$UCSORG
 10
16.44999899999999
 20
0.0
 30
0.0
  9
$UCSXDIR
 10
1.0
 20
0.0
 30
0.0
  9
$UCSYDIR
 10
0.0
 20
1.0
 30
0.0
  9
$PUCSNAME
  2

  9
$PUCSORG
 10
0.0
 20
0.0
 30
0.0
  9
$PUCSXDIR
 10
1.0
 20
0.0
 30
0.0
  9
$PUCSYDIR
 10
0.0
 20
1.0
 30
0.0
  9
$USERI1
 70
     0
  9
$USERI2
 70
     0
  9
$USERI3
 70
     0
  9
$USERI4
 70
     0
  9
$USERI5
 70
     0
  9
$USERR1
 40
0.0
  9
$USERR2
 40
0.0
  9
$USERR3
 40
0.0
  9
$USERR4
 40
0.0
  9
$USERR5
 40
0.0
  9
$WORLDVIEW
 70
     1
  9
$SHADEDGE
 70
     3
  9
$SHADEDIF
 70
    70
  9
$TILEMODE
 70
     1
  9
$MAXACTVP
 70
    16
  9
$PINSBASE
 10
0.0
 20
0.0
 30
0.0
  9
$PLIMCHECK
 70
     0
  9
$PEXTMIN
 10
-21.06880599999999
 20
-76.393845
 30
1.000000000000000E+20
  9
$PEXTMAX
 10
105.75
 20
42.0
 30
-1.000000000000000E+20
  9
$PLIMMIN
 10
0.0
 20
0.0
  9
$PLIMMAX
 10
12.0
 20
9.0
  9
$UNITMODE
 70
     0
  9
$VISRETAIN
 70
     0
  9
$PLINEGEN
 70
     0
  9
$PSLTSCALE
 70
     1
  9
$TREEDEPTH
 70
  3020
  9
$PICKSTYLE
 70
     1
  9
$CMLSTYLE
  2
STANDARD
  9
$CMLJUST
 70
     0
  9
$CMLSCALE
 40
1.0
  9
$SAVEIMAGES
 70
     1
  0
ENDSEC
  0
SECTION
  2
CLASSES
  0
CLASS
  1
ACDBDICTIONARYWDFLT
  2
AcDbDictionaryWithDefault
  3
AutoCAD 2000
 90
    32768
280
     0
281
     0
  0
CLASS
  1
ACDBPLACEHOLDER
  2
AcDbPlaceHolder
  3
AutoCAD 2000
 90
    32768
280
     0
281
     0
  0
CLASS
  1
LAYOUT
  2
AcDbLayout
  3
AutoCAD 2000
 90
    32768
280
     0
281
     0
  0
CLASS
  1
LONG_TRANSACTION
  2
AcDbLongTransaction
  3
AutoCAD 2000
 90
    32768
280
     0
281
     0
  0
CLASS
  1
LWPOLYLINE
  2
AcDbPolyline
  3
AutoCAD 2000
 90
    32768
280
     0
281
     1
  0
CLASS
  1
HATCH
  2
AcDbHatch
  3
AutoCAD 2000
 90
    32768
280
     0
281
     1
  0
CLASS
  1
XRECORD
  2
AcDbXrecord
  3
AutoCAD 2000
 90
    32768
280
     0
281
     0
  0
ENDSEC
  0
SECTION
  2
TABLES
  0
TABLE
  2
VPORT
  5
7
330
0
100
AcDbSymbolTable
 70
     2
  0
VPORT
  5
28A
330
7
100
AcDbSymbolTableRecord
100
AcDbViewportTableRecord
  2
*ACTIVE
 70
     0
 10
0.0
 20
0.0
 11
1.0
 21
1.0
 12
42.33866204622436
 22
-17.1969225
 13
0.0
 23
0.0
 14
6.349999999999999
 24
6.349999999999999
 15
6.349999999999999
 25
6.349999999999999
 16
0.0
 26
0.0
 36
1.0
 17
0.0
 27
0.0
 37
0.0
 40
119.6186089137931
 41
1.644214162348877
 42
50.0
 43
0.0
 44
0.0
 50
0.0
 51
0.0
 71
     0
 72
   100
 73
     1
 74
     0
 75
     0
 76
     0
 77
     0
 78
     0
  0
ENDTAB
  0
TABLE
  2
LTYPE
  5
4
330
0
100
AcDbSymbolTable
 70
    37
  0
LTYPE
  5
12
330
4
100
AcDbSymbolTableRecord
100
AcDbLinetypeTableRecord
  2
BYBLOCK
 70
     0
  3

 72
    65
 73
     0
 40
0.0
  0
LTYPE
  5
13
330
4
100
AcDbSymbolTableRecord
100
AcDbLinetypeTableRecord
  2
BYLAYER
 70
     0
  3

 72
    65
 73
     0
 40
0.0
  0
LTYPE
  5
14
330
4
100
AcDbSymbolTableRecord
100
AcDbLinetypeTableRecord
  2
CONTINUOUS
 70
     0
  3
DXF Default line type
 72
    65
 73
     0
 40
0.0
  0
LTYPE
  5
20
330
4
100
AcDbSymbolTableRecord
100
AcDbLinetypeTableRecord
  2
DASHED
 70
     0
  3
DXF Dashed
 72
    65
 73
     2
 40
0.75
 49
0.5
 74
     0
 49
-0.25
 74
     0
  0
LTYPE
  5
21
330
4
100
AcDbSymbolTableRecord
100
AcDbLinetypeTableRecord
  2
HIDDEN
 70
     0
  3
DXF Hidden
 72
    65
 73
     2
 40
0.375
 49
0.25
 74
     0
 49
-0.125
 74
     0
  0
LTYPE
  5
22
330
4
100
AcDbSymbolTableRecord
100
AcDbLinetypeTableRecord
  2
CENTER
 70
     0
  3
DXF Center
 72
    65
 73
     4
 40
2.0
 49
1.25
 74
     0
 49
-0.25
 74
     0
 49
0.25
 74
     0
 49
-0.25
 74
     0
  0
LTYPE
  5
23
330
4
100
AcDbSymbolTableRecord
100
AcDbLinetypeTableRecord
  2
PHANTOM
 70
     0
  3
DXF Phantom
 72
    65
 73
     6
 40
2.5
 49
1.25
 74
     0
 49
-0.25
 74
     0
 49
0.25
 74
     0
 49
-0.25
 74
     0
 49
0.25
 74
     0
 49
-0.25
 74
     0
  0
LTYPE
  5
24
330
4
100
AcDbSymbolTableRecord
100
AcDbLinetypeTableRecord
  2
DOT
 70
     0
  3
DXF DOT
 72
    65
 73
     2
 40
0.25
 49
0.0
 74
     0
 49
-0.25
 74
     0
  0
LTYPE
  5
25
330
4
100
AcDbSymbolTableRecord
100
AcDbLinetypeTableRecord
  2
DASHDOT
 70
     0
  3
DXF Dash Dot
 72
    65
 73
     4
 40
1.0
 49
0.5
 74
     0
 49
-0.25
 74
     0
 49
0.0
 74
     0
 49
-0.25
 74
     0
  0
LTYPE
  5
26
330
4
100
AcDbSymbolTableRecord
100
AcDbLinetypeTableRecord
  2
BORDER
 70
     0
  3
DXF Border
 72
    65
 73
     6
 40
1.75
 49
0.5
 74
     0
 49
-0.25
 74
     0
 49
0.5
 74
     0
 49
-0.25
 74
     0
 49
0.0
 74
     0
 49
-0.25
 74
     0
  0
LTYPE
  5
27
330
4
100
AcDbSymbolTableRecord
100
AcDbLinetypeTableRecord
  2
DIVIDE
 70
     0
  3
DXF Divide
 72
    65
 73
     6
 40
1.25
 49
0.5
 74
     0
 49
-0.25
 74
     0
 49
0.0
 74
     0
 49
-0.25
 74
     0
 49
0.0
 74
     0
 49
-0.25
 74
     0
  0
LTYPE
  5
28
330
4
100
AcDbSymbolTableRecord
100
AcDbLinetypeTableRecord
  2
C_SOLID_L
 70
     0
  3
CADAM Solid Light
 72
    65
 73
     0
 40
0.0
  0
LTYPE
  5
29
330
4
100
AcDbSymbolTableRecord
100
AcDbLinetypeTableRecord
  2
C_SOLID_M
 70
     0
  3
CADAM Solid Medium
 72
    65
 73
     0
 40
0.0
  0
LTYPE
  5
2A
330
4
100
AcDbSymbolTableRecord
100
AcDbLinetypeTableRecord
  2
C_SOLID_H
 70
     0
  3
CADAM Solid Heavy
 72
    65
 73
     0
 40
0.0
  0
LTYPE
  5
2B
330
4
100
AcDbSymbolTableRecord
100
AcDbLinetypeTableRecord
  2
C_DASHED_L
 70
     0
  3
CADAM Dashed Light
 72
    65
 73
     2
 40
0.375
 49
0.25
 74
     0
 49
-0.125
 74
     0
  0
LTYPE
  5
2C
330
4
100
AcDbSymbolTableRecord
100
AcDbLinetypeTableRecord
  2
C_DASHED_M
 70
     0
  3
CADAM Dashed Medium
 72
    65
 73
     2
 40
0.5
 49
0.375
 74
     0
 49
-0.125
 74
     0
  0
LTYPE
  5
2D
330
4
100
AcDbSymbolTableRecord
100
AcDbLinetypeTableRecord
  2
C_CENTER_L
 70
     0
  3
CADAM Center Light
 72
    65
 73
     4
 40
2.0
 49
1.25
 74
     0
 49
-0.25
 74
     0
 49
0.25
 74
     0
 49
-0.25
 74
     0
  0
LTYPE
  5
2E
330
4
100
AcDbSymbolTableRecord
100
AcDbLinetypeTableRecord
  2
C_PHANTOM_L
 70
     0
  3
CADAM Phantom Light
 72
    65
 73
     6
 40
2.5
 49
1.25
 74
     0
 49
-0.25
 74
     0
 49
0.25
 74
     0
 49
-0.25
 74
     0
 49
0.25
 74
     0
 49
-0.25
 74
     0
  0
LTYPE
  5
2F
330
4
100
AcDbSymbolTableRecord
100
AcDbLinetypeTableRecord
  2
C_BREAK_M
 70
     0
  3
CADAM Break Medium
 72
    65
 73
     4
 40
1.0
 49
0.5
 74
     0
 49
-0.25
 74
     0
 49
0.0
 74
     0
 49
-0.25
 74
     0
  0
LTYPE
  5
30
330
4
100
AcDbSymbolTableRecord
100
AcDbLinetypeTableRecord
  2
C_NC
 70
     0
  3
CADAM NC
 72
    65
 73
     0
 40
0.0
  0
LTYPE
  5
31
330
4
100
AcDbSymbolTableRecord
100
AcDbLinetypeTableRecord
  2
DSH1
 70
     0
  3
CADAM Style2 Type 1 Dashed Line
 72
    65
 73
     2
 40
0.075
 49
0.04
 74
     0
 49
-0.035
 74
     0
  0
LTYPE
  5
32
330
4
100
AcDbSymbolTableRecord
100
AcDbLinetypeTableRecord
  2
DSH2
 70
     0
  3
CADAM Style2 Type 2 Dashed Line
 72
    65
 73
     2
 40
0.15
 49
0.11
 74
     0
 49
-0.04
 74
     0
  0
LTYPE
  5
33
330
4
100
AcDbSymbolTableRecord
100
AcDbLinetypeTableRecord
  2
DSH3
 70
     0
  3
CADAM Style2 Type 3 Dashed Line
 72
    65
 73
     2
 40
0.2
 49
0.15
 74
     0
 49
-0.05
 74
     0
  0
LTYPE
  5
34
330
4
100
AcDbSymbolTableRecord
100
AcDbLinetypeTableRecord
  2
DSH4
 70
     0
  3
CADAM Style2 Type 4 Dashed Line
 72
    65
 73
     2
 40
0.36
 49
0.28
 74
     0
 49
-0.08
 74
     0
  0
LTYPE
  5
35
330
4
100
AcDbSymbolTableRecord
100
AcDbLinetypeTableRecord
  2
DSH5
 70
     0
  3
CADAM Style2 Type 5 Dashed Line
 72
    65
 73
     2
 40
0.47
 49
0.39
 74
     0
 49
-0.08
 74
     0
  0
LTYPE
  5
36
330
4
100
AcDbSymbolTableRecord
100
AcDbLinetypeTableRecord
  2
DSH6
 70
     0
  3
CADAM Style2 Type 6 Dashed Line
 72
    65
 73
     2
 40
0.9
 49
0.8100000000000001
 74
     0
 49
-0.09
 74
     0
  0
LTYPE
  5
37
330
4
100
AcDbSymbolTableRecord
100
AcDbLinetypeTableRecord
  2
PL1
 70
     0
  3
Style 2 Type 1 Phantom Line
 72
    65
 73
     6
 40
1.0
 49
0.6
 74
     0
 49
-0.08
 74
     0
 49
0.08
 74
     0
 49
-0.08
 74
     0
 49
0.08
 74
     0
 49
-0.08
 74
     0
  0
LTYPE
  5
38
330
4
100
AcDbSymbolTableRecord
100
AcDbLinetypeTableRecord
  2
PL2
 70
     0
  3
Style 2 Type 2 Phantom Line
 72
    65
 73
     6
 40
1.08
 49
0.6
 74
     0
 49
-0.08
 74
     0
 49
0.12
 74
     0
 49
-0.08
 74
     0
 49
0.12
 74
     0
 49
-0.08
 74
     0
  0
LTYPE
  5
39
330
4
100
AcDbSymbolTableRecord
100
AcDbLinetypeTableRecord
  2
PL3
 70
     0
  3
Style 2 Type 3 Phantom Line
 72
    65
 73
     6
 40
2.0
 49
1.439999999999999
 74
     0
 49
-0.08
 74
     0
 49
0.16
 74
     0
 49
-0.08
 74
     0
 49
0.16
 74
     0
 49
-0.08
 74
     0
  0
LTYPE
  5
3A
330
4
100
AcDbSymbolTableRecord
100
AcDbLinetypeTableRecord
  2
CL1
 70
     0
  3
CADAM Style 2 Type 1 Center Line
 72
    65
 73
     4
 40
0.7
 49
0.45
 74
     0
 49
-0.06
 74
     0
 49
0.13
 74
     0
 49
-0.06
 74
     0
  0
LTYPE
  5
3B
330
4
100
AcDbSymbolTableRecord
100
AcDbLinetypeTableRecord
  2
CL2
 70
     0
  3
CADAM Style 2 Type 2 Center Line
 72
    65
 73
     4
 40
1.199999999999999
 49
1.01
 74
     0
 49
-0.06
 74
     0
 49
0.11
 74
     0
 49
-0.06
 74
     0
  0
LTYPE
  5
3C
330
4
100
AcDbSymbolTableRecord
100
AcDbLinetypeTableRecord
  2
CL3
 70
     0
  3
CADAM Style 2 Type 3 Center Line
 72
    65
 73
     4
 40
1.199999999999999
 49
0.98
 74
     0
 49
-0.06
 74
     0
 49
0.1
 74
     0
 49
-0.06
 74
     0
  0
LTYPE
  5
3D
330
4
100
AcDbSymbolTableRecord
100
AcDbLinetypeTableRecord
  2
CL4
 70
     0
  3
CADAM Style 2 Type 4 Center Line
 72
    65
 73
     4
 40
2.2
 49
1.929999999999999
 74
     0
 49
-0.07
 74
     0
 49
0.13
 74
     0
 49
-0.07
 74
     0
  0
LTYPE
  5
3E
330
4
100
AcDbSymbolTableRecord
100
AcDbLinetypeTableRecord
  2
CL5
 70
     0
  3
CADAM Style 2 Type 5 Center Line
 72
    65
 73
     4
 40
2.2
 49
1.879999999999999
 74
     0
 49
-0.07
 74
     0
 49
0.18
 74
     0
 49
-0.07
 74
     0
  0
LTYPE
  5
3F
330
4
100
AcDbSymbolTableRecord
100
AcDbLinetypeTableRecord
  2
SBK1
 70
     0
  3
CADAM Style 2 Type 1 SetBack Line
 72
    65
 73
     8
 40
2.7
 49
0.1
 74
     0
 49
-0.08
 74
     0
 49
0.1
 74
     0
 49
-0.8
 74
     0
 49
0.0
 74
     0
 49
0.0
 74
     0
 49
0.0
 74
     0
 49
0.0
 74
     0
  0
LTYPE
  5
40
330
4
100
AcDbSymbolTableRecord
100
AcDbLinetypeTableRecord
  2
SBK2
 70
     0
  3
CADAM Style 2 Type 2 SetBack Line
 72
    65
 73
     8
 40
3.709999999999999
 49
0.13
 74
     0
 49
-0.08
 74
     0
 49
0.13
 74
     0
 49
-0.8
 74
     0
 49
0.0
 74
     0
 49
0.0
 74
     0
 49
0.0
 74
     0
 49
0.0
 74
     0
  0
LTYPE
  5
41
330
4
100
AcDbSymbolTableRecord
100
AcDbLinetypeTableRecord
  2
STCH
 70
     0
  3
CADAM Style2 Stitch Line
 72
    65
 73
     2
 40
0.25
 49
0.0
 74
     0
 49
-0.25
 74
     0
  0
LTYPE
  5
42
330
4
100
AcDbSymbolTableRecord
100
AcDbLinetypeTableRecord
  2
MTCH
 70
     0
  3
CADAM Style2 Match Line
 72
    65
 73
     6
 40
2.0
 49
1.439999999999999
 74
     0
 49
-0.8
 74
     0
 49
0.16
 74
     0
 49
-0.08
 74
     0
 49
0.16
 74
     0
 49
-0.08
 74
     0
  0
LTYPE
  5
43
330
4
100
AcDbSymbolTableRecord
100
AcDbLinetypeTableRecord
  2
SLD
 70
     0
  3
CADAM Solid_EXT2
 72
    65
 73
     0
 40
0.0
  0
ENDTAB
  0
TABLE
  2
LAYER
  5
2
330
0
100
AcDbSymbolTable
 70
     7
  0
LAYER
  5
15
330
2
100
AcDbSymbolTableRecord
100
AcDbLayerTableRecord
  2
0
 70
     0
 62
     7
  6
CONTINUOUS
  0
LAYER
  5
44
330
2
100
AcDbSymbolTableRecord
100
AcDbLayerTableRecord
  2
MO_001_NOSHOW
 70
     1
 62
     7
  6
CONTINUOUS
  0
LAYER
  5
45
330
2
100
AcDbSymbolTableRecord
100
AcDbLayerTableRecord
  2
MO_001_VIEW_PV
 70
     0
 62
     7
  6
CONTINUOUS
  0
LAYER
  5
46
330
2
100
AcDbSymbolTableRecord
100
AcDbLayerTableRecord
  2
OVERLAY_MAP
 70
     1
 62
     7
  6
CONTINUOUS
  0
LAYER
  5
47
330
2
100
AcDbSymbolTableRecord
100
AcDbLayerTableRecord
  2
DITTOS
 70
     0
 62
     7
  6
CONTINUOUS
  0
LAYER
  5
48
330
2
100
AcDbSymbolTableRecord
100
AcDbLayerTableRecord
  2
SYMBOLS
 70
     0
 62
     7
  6
CONTINUOUS
  0
LAYER
  5
49
330
2
100
AcDbSymbolTableRecord
100
AcDbLayerTableRecord
  2
SETS
 70
     0
 62
     7
  6
CONTINUOUS
  0
ENDTAB
  0
TABLE
  2
STYLE
  5
3
330
0
100
AcDbSymbolTable
 70
     1
  0
STYLE
  5
18
330
3
100
AcDbSymbolTableRecord
100
AcDbTextStyleTableRecord
  2
STANDARD
 70
     0
 40
4.1672
 41
1.0
 50
0.0
 71
     0
 42
4.1672
  3
monotxt
  4
BIGFONT
  0
ENDTAB
  0
TABLE
  2
VIEW
  5
5
330
0
100
AcDbSymbolTable
 70
     0
  0
ENDTAB
  0
TABLE
  2
UCS
  5
6
330
0
100
AcDbSymbolTable
 70
     1
  0
ENDTAB
  0
TABLE
  2
APPID
  5
8
330
0
100
AcDbSymbolTable
 70
     1
  0
APPID
  5
17
330
8
100
AcDbSymbolTableRecord
100
AcDbRegAppTableRecord
  2
ACAD
 70
     0
  0
ENDTAB
  0
TABLE
  2
DIMSTYLE
  5
9
330
0
100
AcDbSymbolTable
 70
     1
  0
DIMSTYLE
105
19
102
{ACAD_REACTORS
330
1E6
330
1E8
330
1EA
330
1EC
330
1EE
330
1F0
330
1F2
330
1F4
330
1F6
330
1F8
330
1FA
330
1FC
102
}
330
9
100
AcDbSymbolTableRecord
100
AcDbDimStyleTableRecord
  2
STANDARD
 70
     0
  3

  4

  5

  6

  7

 40
1.0
 41
0.18
 42
0.0625
 43
0.38
 44
0.18
 45
0.0
 46
0.0
 47
0.0
 48
0.0
140
0.18
141
0.09
142
0.0
143
25.4
144
1.0
145
0.0
146
1.0
147
0.09
 71
     0
 72
     0
 73
     1
 74
     1
 75
     0
 76
     0
 77
     0
 78
     0
170
     0
171
     2
172
     0
173
     0
174
     0
175
     0
176
     0
177
     0
178
     0
270
     2
271
     4
272
     4
273
     2
274
     2
340
18
275
     0
280
     0
281
     0
282
     0
283
     1
284
     0
285
     0
286
     0
287
     3
288
     0
  0
ENDTAB
  0
TABLE
  2
BLOCK_RECORD
  5
C
330
0
100
AcDbSymbolTable
 70
    12
  0
BLOCK_RECORD
  5
1E
102
{ACAD_XDICTIONARY
360
28B
102
}
330
C
100
AcDbSymbolTableRecord
100
AcDbBlockTableRecord
  2
*MODEL_SPACE
  0
BLOCK_RECORD
  5
1F
102
{ACAD_XDICTIONARY
360
28D
102
}
330
C
100
AcDbSymbolTableRecord
100
AcDbBlockTableRecord
  2
*PAPER_SPACE
  0
BLOCK_RECORD
  5
1E5
330
C
100
AcDbSymbolTableRecord
100
AcDbBlockTableRecord
  2
*D0
  0
BLOCK_RECORD
  5
1E7
330
C
100
AcDbSymbolTableRecord
100
AcDbBlockTableRecord
  2
*D1
  0
BLOCK_RECORD
  5
1E9
330
C
100
AcDbSymbolTableRecord
100
AcDbBlockTableRecord
  2
*D2
  0
BLOCK_RECORD
  5
1EB
330
C
100
AcDbSymbolTableRecord
100
AcDbBlockTableRecord
  2
*D3
  0
BLOCK_RECORD
  5
1ED
330
C
100
AcDbSymbolTableRecord
100
AcDbBlockTableRecord
  2
*D4
  0
BLOCK_RECORD
  5
1EF
330
C
100
AcDbSymbolTableRecord
100
AcDbBlockTableRecord
  2
*D5
  0
BLOCK_RECORD
  5
1F1
330
C
100
AcDbSymbolTableRecord
100
AcDbBlockTableRecord
  2
*D6
  0
BLOCK_RECORD
  5
1F3
330
C
100
AcDbSymbolTableRecord
100
AcDbBlockTableRecord
  2
*D7
  0
BLOCK_RECORD
  5
1F5
330
C
100
AcDbSymbolTableRecord
100
AcDbBlockTableRecord
  2
*D8
  0
BLOCK_RECORD
  5
1F7
330
C
100
AcDbSymbolTableRecord
100
AcDbBlockTableRecord
  2
*D9
  0
BLOCK_RECORD
  5
1F9
330
C
100
AcDbSymbolTableRecord
100
AcDbBlockTableRecord
  2
*D10
  0
BLOCK_RECORD
  5
1FB
330
C
100
AcDbSymbolTableRecord
100
AcDbBlockTableRecord
  2
*D11
  0
ENDTAB
  0
ENDSEC
  0
SECTION
  2
BLOCKS
  0
BLOCK
  5
E
330
1E
100
AcDbEntity
  8
0
100
AcDbBlockBegin
  2
*MODEL_SPACE
 70
     0
 10
0.0
 20
0.0
 30
0.0
  3
*MODEL_SPACE
  1

  0
ENDBLK
  5
F
330
1E
100
AcDbEntity
  8
0
100
AcDbBlockEnd
  0
BLOCK
  5
10
330
1F
100
AcDbEntity
 67
     1
  8
0
100
AcDbBlockBegin
  2
*PAPER_SPACE
 70
     0
 10
0.0
 20
0.0
 30
0.0
  3
*PAPER_SPACE
  1

  0
ENDBLK
  5
11
330
1F
100
AcDbEntity
 67
     1
  8
0
100
AcDbBlockEnd
  0
BLOCK
  5
203
330
1E5
100
AcDbEntity
  8
0
100
AcDbBlockBegin
  2
*D0
 70
     1
 10
0.0
 20
0.0
 30
0.0
  3
*D0
  1

  0
TEXT
  5
204
330
1E5
100
AcDbEntity
  8
MO_001_VIEW_PV
  6
BYBLOCK
100
AcDbText
 10
11.591998
 20
26.625
 30
0.0
 40
1.5
  1
%%P0.1
100
AcDbText
  0
TEXT
  5
205
330
1E5
100
AcDbEntity
  8
MO_001_VIEW_PV
  6
BYBLOCK
100
AcDbText
 10
2.806284
 20
24.75
 30
0.0
 40
3.0
  1
1.6
100
AcDbText
  0
LINE
  5
206
330
1E5
100
AcDbEntity
  8
MO_001_VIEW_PV
  6
BYBLOCK
100
AcDbLine
 10
-2.638106
 20
24.0
 30
0.0
 11
-1.0381
 21
24.0
 31
0.0
  0
LINE
  5
207
330
1E5
100
AcDbEntity
  8
MO_001_VIEW_PV
  6
BYBLOCK
100
AcDbLine
 10
-1.0381
 20
24.0
 30
0.0
 11
5.311899999999999
 21
24.0
 31
0.0
  0
SOLID
  5
208
330
1E5
100
AcDbEntity
  8
MO_001_VIEW_PV
  6
BYBLOCK
100
AcDbTrace
 10
-2.638106
 20
24.635
 30
0.0
 11
-2.638106
 21
23.365
 31
0.0
 12
-2.638106
 22
24.635
 32
0.0
 13
-2.638106
 23
24.635
 33
0.0
  0
SOLID
  5
209
330
1E5
100
AcDbEntity
  8
MO_001_VIEW_PV
  6
BYBLOCK
100
AcDbTrace
 10
2.280159999999999
 20
24.583512
 30
0.0
 11
-0.5301000000000001
 21
24.0
 31
0.0
 12
2.280159999999999
 22
23.416488
 32
0.0
 13
2.280159999999999
 23
23.416488
 33
0.0
  0
LINE
  5
20A
330
1E5
100
AcDbEntity
  8
MO_001_VIEW_PV
  6
BYBLOCK
100
AcDbLine
 10
-2.638106
 20
15.0
 30
0.0
 11
-2.638106
 21
26.285999
 31
0.0
  0
LINE
  5
20B
330
1E5
100
AcDbEntity
  8
MO_001_VIEW_PV
  6
BYBLOCK
100
AcDbLine
 10
-1.0381
 20
15.0
 30
0.0
 11
-1.0381
 21
26.285999
 31
0.0
  0
LINE
  5
20C
330
1E5
100
AcDbEntity
  8
MO_001_VIEW_PV
  6
BYBLOCK
100
AcDbLine
 10
-1.0381
 20
24.0
 30
0.0
 11
17.91342699999999
 21
24.0
 31
0.0
  0
ENDBLK
  5
20D
330
1E5
100
AcDbEntity
  8
0
100
AcDbBlockEnd
  0
BLOCK
  5
20E
330
1E7
100
AcDbEntity
  8
0
100
AcDbBlockBegin
  2
*D1
 70
     1
 10
0.0
 20
0.0
 30
0.0
  3
*D1
  1

  0
TEXT
  5
20F
330
1E7
100
AcDbEntity
  8
MO_001_VIEW_PV
  6
BYBLOCK
100
AcDbText
 10
-11.318805
 20
26.625
 30
0.0
 40
1.5
  1
%%P0.3
100
AcDbText
  0
TEXT
  5
210
330
1E7
100
AcDbEntity
  8
MO_001_VIEW_PV
  6
BYBLOCK
100
AcDbText
 10
-20.104519
 20
24.75
 30
0.0
 40
3.0
  1
1.2
100
AcDbText
  0
LINE
  5
211
330
1E7
100
AcDbEntity
  8
MO_001_VIEW_PV
  6
BYBLOCK
100
AcDbLine
 10
-3.836135
 20
24.0
 30
0.0
 11
-2.638106
 21
24.0
 31
0.0
  0
LINE
  5
212
330
1E7
100
AcDbEntity
  8
MO_001_VIEW_PV
  6
BYBLOCK
100
AcDbLine
 10
-3.836135
 20
24.0
 30
0.0
 11
-10.186135
 21
24.0
 31
0.0
  0
SOLID
  5
213
330
1E7
100
AcDbEntity
  8
MO_001_VIEW_PV
  6
BYBLOCK
100
AcDbTrace
 10
-7.154395
 20
23.416488
 30
0.0
 11
-4.344134999999999
 21
24.0
 31
0.0
 12
-7.154395
 22
24.583512
 32
0.0
 13
-7.154395
 23
24.583512
 33
0.0
  0
LINE
  5
214
330
1E7
100
AcDbEntity
  8
MO_001_VIEW_PV
  6
BYBLOCK
100
AcDbLine
 10
-3.836135
 20
8.5
 30
0.0
 11
-3.836135
 21
26.285999
 31
0.0
  0
LINE
  5
215
330
1E7
100
AcDbEntity
  8
MO_001_VIEW_PV
  6
BYBLOCK
100
AcDbLine
 10
-2.638106
 20
15.0
 30
0.0
 11
-2.638106
 21
26.285999
 31
0.0
  0
LINE
  5
216
330
1E7
100
AcDbEntity
  8
MO_001_VIEW_PV
  6
BYBLOCK
100
AcDbLine
 10
-21.06880599999999
 20
24.0
 30
0.0
 11
-3.836135
 21
24.0
 31
0.0
  0
ENDBLK
  5
217
330
1E7
100
AcDbEntity
  8
0
100
AcDbBlockEnd
  0
BLOCK
  5
218
330
1E9
100
AcDbEntity
  8
0
100
AcDbBlockBegin
  2
*D2
 70
     1
 10
0.0
 20
0.0
 30
0.0
  3
*D2
  1

  0
TEXT
  5
219
330
1E9
100
AcDbEntity
  8
MO_001_VIEW_PV
  6
BYBLOCK
100
AcDbText
 10
0.7355030000000001
 20
30.75
 30
0.0
 40
3.0
  1
21以下
100
AcDbText
  0
LINE
  5
21A
330
1E9
100
AcDbEntity
  8
MO_001_VIEW_PV
  6
BYBLOCK
100
AcDbLine
 10
16.449999
 20
30.0
 30
0.0
 11
-3.836135
 21
30.0
 31
0.0
  0
SOLID
  5
21B
330
1E9
100
AcDbEntity
  8
MO_001_VIEW_PV
  6
BYBLOCK
100
AcDbTrace
 10
13.131739
 20
29.416488
 30
0.0
 11
15.941999
 21
30.0
 31
0.0
 12
13.131739
 22
30.583512
 32
0.0
 13
13.131739
 23
30.583512
 33
0.0
  0
SOLID
  5
21C
330
1E9
100
AcDbEntity
  8
MO_001_VIEW_PV
  6
BYBLOCK
100
AcDbTrace
 10
-0.517875
 20
30.583512
 30
0.0
 11
-3.328135
 21
30.0
 31
0.0
 12
-0.517875
 22
29.416488
 32
0.0
 13
-0.517875
 23
29.416488
 33
0.0
  0
LINE
  5
21D
330
1E9
100
AcDbEntity
  8
MO_001_NOSHOW
  6
BYBLOCK
100
AcDbLine
 10
16.449999
 20
14.300003
 30
0.0
 11
16.449999
 21
32.28599899999999
 31
0.0
  0
LINE
  5
21E
330
1E9
100
AcDbEntity
  8
MO_001_VIEW_PV
  6
BYBLOCK
100
AcDbLine
 10
-3.836135
 20
8.5
 30
0.0
 11
-3.836135
 21
32.28599899999999
 31
0.0
  0
ENDBLK
  5
21F
330
1E9
100
AcDbEntity
  8
0
100
AcDbBlockEnd
  0
BLOCK
  5
220
330
1EB
100
AcDbEntity
  8
0
100
AcDbBlockBegin
  2
*D3
 70
     1
 10
0.0
 20
0.0
 30
0.0
  3
*D3
  1

  0
TEXT
  5
221
330
1EB
100
AcDbEntity
  8
MO_001_VIEW_PV
  6
BYBLOCK
100
AcDbText
 10
45.29096899999999
 20
32.625
 30
0.0
 40
1.5
  1
%%P0.5
100
AcDbText
  0
TEXT
  5
222
330
1EB
100
AcDbEntity
  8
MO_001_VIEW_PV
  6
BYBLOCK
100
AcDbText
 10
33.505254
 20
30.75
 30
0.0
 40
3.0
  1
16.3
100
AcDbText
  0
LINE
  5
223
330
1EB
100
AcDbEntity
  8
MO_001_VIEW_PV
  6
BYBLOCK
100
AcDbLine
 10
16.449999
 20
30.0
 30
0.0
 11
32.75
 21
30.0
 31
0.0
  0
SOLID
  5
224
330
1EB
100
AcDbEntity
  8
MO_001_VIEW_PV
  6
BYBLOCK
100
AcDbTrace
 10
19.768259
 20
30.583512
 30
0.0
 11
16.95799899999999
 21
30.0
 31
0.0
 12
19.768259
 22
29.416488
 32
0.0
 13
19.768259
 23
29.416488
 33
0.0
  0
SOLID
  5
225
330
1EB
100
AcDbEntity
  8
MO_001_VIEW_PV
  6
BYBLOCK
100
AcDbTrace
 10
29.43174
 20
29.416488
 30
0.0
 11
32.24199999999999
 21
30.0
 31
0.0
 12
29.43174
 22
30.583512
 32
0.0
 13
29.43174
 23
30.583512
 33
0.0
  0
LINE
  5
226
330
1EB
100
AcDbEntity
  8
MO_001_NOSHOW
  6
BYBLOCK
100
AcDbLine
 10
16.449999
 20
14.300003
 30
0.0
 11
16.449999
 21
20.693958
 31
0.0
  0
LINE
  5
227
330
1EB
100
AcDbEntity
  8
MO_001_VIEW_PV
  6
BYBLOCK
100
AcDbLine
 10
32.75
 20
12.099998
 30
0.0
 11
32.75
 21
32.28599899999999
 31
0.0
  0
LINE
  5
228
330
1EB
100
AcDbEntity
  8
MO_001_VIEW_PV
  6
BYBLOCK
100
AcDbLine
 10
32.75
 20
30.0
 30
0.0
 11
51.612396
 21
30.0
 31
0.0
  0
ENDBLK
  5
229
330
1EB
100
AcDbEntity
  8
0
100
AcDbBlockEnd
  0
BLOCK
  5
22A
330
1ED
100
AcDbEntity
  8
0
100
AcDbBlockBegin
  2
*D4
 70
     1
 10
0.0
 20
0.0
 30
0.0
  3
*D4
  1

  0
TEXT
  5
22B
330
1ED
100
AcDbEntity
  8
MO_001_VIEW_PV
  6
BYBLOCK
100
AcDbText
 10
3.720233999999999
 20
38.625
 30
0.0
 40
1.5
  1
%%P1.0
100
AcDbText
  0
TEXT
  5
22C
330
1ED
100
AcDbEntity
  8
MO_001_VIEW_PV
  6
BYBLOCK
100
AcDbText
 10
-8.065481
 20
36.75
 30
0.0
 40
3.0
  1
31.9
100
AcDbText
  0
LINE
  5
22D
330
1ED
100
AcDbEntity
  8
MO_001_VIEW_PV
  6
BYBLOCK
100
AcDbLine
 10
16.449999
 20
36.0
 30
0.0
 11
-15.438103
 21
36.0
 31
0.0
  0
SOLID
  5
22E
330
1ED
100
AcDbEntity
  8
MO_001_VIEW_PV
  6
BYBLOCK
100
AcDbTrace
 10
13.131739
 20
35.416488
 30
0.0
 11
15.941999
 21
36.0
 31
0.0
 12
13.131739
 22
36.583512
 32
0.0
 13
13.131739
 23
36.583512
 33
0.0
  0
SOLID
  5
22F
330
1ED
100
AcDbEntity
  8
MO_001_VIEW_PV
  6
BYBLOCK
100
AcDbTrace
 10
-12.119843
 20
36.583512
 30
0.0
 11
-14.93010299999999
 21
36.0
 31
0.0
 12
-12.119843
 22
35.416488
 32
0.0
 13
-12.119843
 23
35.416488
 33
0.0
  0
LINE
  5
230
330
1ED
100
AcDbEntity
  8
MO_001_VIEW_PV
  6
BYBLOCK
100
AcDbLine
 10
16.449999
 20
28.766762
 30
0.0
 11
16.449999
 21
38.285999
 31
0.0
  0
LINE
  5
231
330
1ED
100
AcDbEntity
  8
MO_001_VIEW_PV
  6
BYBLOCK
100
AcDbLine
 10
-15.438103
 20
27.9445
 30
0.0
 11
-15.438103
 21
38.285999
 31
0.0
  0
LINE
  5
232
330
1ED
100
AcDbEntity
  8
MO_001_VIEW_PV
  6
BYBLOCK
100
AcDbLine
 10
-15.438103
 20
2.272818999999999
 30
0.0
 11
-15.438103
 21
23.18491199999999
 31
0.0
  0
LINE
  5
233
330
1ED
100
AcDbEntity
  8
MO_001_VIEW_PV
  6
BYBLOCK
100
AcDbLine
 10
16.449999
 20
14.300003
 30
0.0
 11
16.449999
 21
23.51005199999999
 31
0.0
  0
ENDBLK
  5
234
330
1ED
100
AcDbEntity
  8
0
100
AcDbBlockEnd
  0
BLOCK
  5
235
330
1EF
100
AcDbEntity
  8
0
100
AcDbBlockBegin
  2
*D5
 70
     1
 10
0.0
 20
0.0
 30
0.0
  3
*D5
  1

  0
TEXT
  5
236
330
1EF
100
AcDbEntity
  8
MO_001_VIEW_PV
  6
BYBLOCK
100
AcDbText
 10
34.262197
 20
-23.25
 30
0.0
 40
3.0
  1
8.3以上
100
AcDbText
  0
LINE
  5
237
330
1EF
100
AcDbEntity
  8
MO_001_VIEW_PV
  6
BYBLOCK
100
AcDbLine
 10
20.361902
 20
-24.0
 30
0.0
 11
28.96189899999999
 21
-24.0
 31
0.0
  0
LINE
  5
238
330
1EF
100
AcDbEntity
  8
MO_001_VIEW_PV
  6
BYBLOCK
100
AcDbLine
 10
20.361902
 20
-24.0
 30
0.0
 11
14.011902
 21
-24.0
 31
0.0
  0
LINE
  5
239
330
1EF
100
AcDbEntity
  8
MO_001_VIEW_PV
  6
BYBLOCK
100
AcDbLine
 10
28.96189899999999
 20
-24.0
 30
0.0
 11
35.31189899999999
 21
-24.0
 31
0.0
  0
SOLID
  5
23A
330
1EF
100
AcDbEntity
  8
MO_001_VIEW_PV
  6
BYBLOCK
100
AcDbTrace
 10
17.043642
 20
-24.583512
 30
0.0
 11
19.85390199999999
 21
-24.0
 31
0.0
 12
17.043642
 22
-23.416488
 32
0.0
 13
17.043642
 23
-23.416488
 33
0.0
  0
SOLID
  5
23B
330
1EF
100
AcDbEntity
  8
MO_001_VIEW_PV
  6
BYBLOCK
100
AcDbTrace
 10
32.280159
 20
-23.416488
 30
0.0
 11
29.469899
 21
-24.0
 31
0.0
 12
32.280159
 22
-24.583512
 32
0.0
 13
32.280159
 23
-24.583512
 33
0.0
  0
LINE
  5
23C
330
1EF
100
AcDbEntity
  8
MO_001_VIEW_PV
  6
BYBLOCK
100
AcDbLine
 10
20.361902
 20
1.580002
 30
0.0
 11
20.361902
 21
-26.285999
 31
0.0
  0
LINE
  5
23D
330
1EF
100
AcDbEntity
  8
MO_001_VIEW_PV
  6
BYBLOCK
100
AcDbLine
 10
28.96189899999999
 20
-2.080001999999999
 30
0.0
 11
28.96189899999999
 21
-26.285999
 31
0.0
  0
LINE
  5
23E
330
1EF
100
AcDbEntity
  8
MO_001_VIEW_PV
  6
BYBLOCK
100
AcDbLine
 10
28.96189899999999
 20
-24.0
 30
0.0
 11
49.369339
 21
-24.0
 31
0.0
  0
ENDBLK
  5
23F
330
1EF
100
AcDbEntity
  8
0
100
AcDbBlockEnd
  0
BLOCK
  5
240
330
1F1
100
AcDbEntity
  8
0
100
AcDbBlockBegin
  2
*D6
 70
     1
 10
0.0
 20
0.0
 30
0.0
  3
*D6
  1

  0
TEXT
  5
241
330
1F1
100
AcDbEntity
  8
MO_001_VIEW_PV
  6
BYBLOCK
100
AcDbText
 10
42.37499999999999
 20
21.21628499999999
 30
0.0
 40
1.5
  1
%%P0.03
 50
90.0
100
AcDbText
  0
TEXT
  5
242
330
1F1
100
AcDbEntity
  8
MO_001_VIEW_PV
  6
BYBLOCK
100
AcDbText
 10
44.24999999999999
 20
6.430569999999999
 30
0.0
 40
3.0
  1
%%C4.76
 50
90.0
100
AcDbText
  0
LINE
  5
243
330
1F1
100
AcDbEntity
  8
MO_001_VIEW_PV
  6
BYBLOCK
100
AcDbLine
 10
45.0
 20
-2.379996999999999
 30
0.0
 11
45.0
 21
2.379996999999999
 31
0.0
  0
LINE
  5
244
330
1F1
100
AcDbEntity
  8
MO_001_VIEW_PV
  6
BYBLOCK
100
AcDbLine
 10
45.0
 20
-2.379996999999999
 30
0.0
 11
45.0
 21
-8.729997
 31
0.0
  0
LINE
  5
245
330
1F1
100
AcDbEntity
  8
MO_001_VIEW_PV
  6
BYBLOCK
100
AcDbLine
 10
45.0
 20
2.379996999999999
 30
0.0
 11
45.0
 21
8.729997
 31
0.0
  0
SOLID
  5
246
330
1F1
100
AcDbEntity
  8
MO_001_VIEW_PV
  6
BYBLOCK
100
AcDbTrace
 10
45.58351199999999
 20
-5.698256999999999
 30
0.0
 11
45.0
 21
-2.887997
 31
0.0
 12
44.416488
 22
-5.698256999999999
 32
0.0
 13
44.416488
 23
-5.698256999999999
 33
0.0
  0
SOLID
  5
247
330
1F1
100
AcDbEntity
  8
MO_001_VIEW_PV
  6
BYBLOCK
100
AcDbTrace
 10
44.416488
 20
5.698258
 30
0.0
 11
45.0
 21
2.887997
 31
0.0
 12
45.58351199999999
 22
5.698258
 32
0.0
 13
45.58351199999999
 23
5.698258
 33
0.0
  0
LINE
  5
248
330
1F1
100
AcDbEntity
  8
MO_001_VIEW_PV
  6
BYBLOCK
100
AcDbLine
 10
28.661896
 20
-2.379996999999999
 30
0.0
 11
47.28599899999999
 21
-2.379996999999999
 31
0.0
  0
LINE
  5
249
330
1F1
100
AcDbEntity
  8
MO_001_VIEW_PV
  6
BYBLOCK
100
AcDbLine
 10
28.661896
 20
2.379996999999999
 30
0.0
 11
47.28599899999999
 21
2.379996999999999
 31
0.0
  0
LINE
  5
24A
330
1F1
100
AcDbEntity
  8
MO_001_VIEW_PV
  6
BYBLOCK
100
AcDbLine
 10
45.0
 20
2.379996999999999
 30
0.0
 11
45.0
 21
29.03771199999999
 31
0.0
  0
ENDBLK
  5
24B
330
1F1
100
AcDbEntity
  8
0
100
AcDbBlockEnd
  0
BLOCK
  5
24C
330
1F3
100
AcDbEntity
  8
0
100
AcDbBlockBegin
  2
*D7
 70
     1
 10
0.0
 20
0.0
 30
0.0
  3
*D7
  1

  0
TEXT
  5
24D
330
1F3
100
AcDbEntity
  8
MO_001_VIEW_PV
  6
BYBLOCK
100
AcDbText
 10
67.92857099999999
 20
36.75
 30
0.0
 40
3.0
  1
%%C34以下
100
AcDbText
  0
LINE
  5
24E
330
1F3
100
AcDbEntity
  8
MO_001_VIEW_PV
  6
BYBLOCK
100
AcDbLine
 10
58.349998
 20
36.0
 30
0.0
 11
91.65000199999999
 21
36.0
 31
0.0
  0
SOLID
  5
24F
330
1F3
100
AcDbEntity
  8
MO_001_VIEW_PV
  6
BYBLOCK
100
AcDbTrace
 10
61.668259
 20
36.583512
 30
0.0
 11
58.857998
 21
36.0
 31
0.0
 12
61.668259
 22
35.416488
 32
0.0
 13
61.668259
 23
35.416488
 33
0.0
  0
SOLID
  5
250
330
1F3
100
AcDbEntity
  8
MO_001_VIEW_PV
  6
BYBLOCK
100
AcDbTrace
 10
88.331741
 20
35.416488
 30
0.0
 11
91.142002
 21
36.0
 31
0.0
 12
88.331741
 22
36.583512
 32
0.0
 13
88.331741
 23
36.583512
 33
0.0
  0
LINE
  5
251
330
1F3
100
AcDbEntity
  8
MO_001_VIEW_PV
  6
BYBLOCK
100
AcDbLine
 10
58.349998
 20
0.0
 30
0.0
 11
58.349998
 21
38.285999
 31
0.0
  0
LINE
  5
252
330
1F3
100
AcDbEntity
  8
MO_001_VIEW_PV
  6
BYBLOCK
100
AcDbLine
 10
91.65000199999999
 20
0.0
 30
0.0
 11
91.65000199999999
 21
38.285999
 31
0.0
  0
ENDBLK
  5
253
330
1F3
100
AcDbEntity
  8
0
100
AcDbBlockEnd
  0
BLOCK
  5
254
330
1F5
100
AcDbEntity
  8
0
100
AcDbBlockBegin
  2
*D8
 70
     1
 10
0.0
 20
0.0
 30
0.0
  3
*D8
  1

  0
TEXT
  5
255
330
1F5
100
AcDbEntity
  8
MO_001_VIEW_PV
  6
BYBLOCK
100
AcDbText
 10
67.92857099999999
 20
30.75
 30
0.0
 40
3.0
  1
%%C17以下
100
AcDbText
  0
LINE
  5
256
330
1F5
100
AcDbEntity
  8
MO_001_VIEW_PV
  6
BYBLOCK
100
AcDbLine
 10
67.449997
 20
30.0
 30
0.0
 11
82.550003
 21
30.0
 31
0.0
  0
LINE
  5
257
330
1F5
100
AcDbEntity
  8
MO_001_VIEW_PV
  6
BYBLOCK
100
AcDbLine
 10
67.449997
 20
30.0
 30
0.0
 11
61.09999699999999
 21
30.0
 31
0.0
  0
LINE
  5
258
330
1F5
100
AcDbEntity
  8
MO_001_VIEW_PV
  6
BYBLOCK
100
AcDbLine
 10
82.550003
 20
30.0
 30
0.0
 11
88.900003
 21
30.0
 31
0.0
  0
SOLID
  5
259
330
1F5
100
AcDbEntity
  8
MO_001_VIEW_PV
  6
BYBLOCK
100
AcDbTrace
 10
64.131737
 20
29.416488
 30
0.0
 11
66.941997
 21
30.0
 31
0.0
 12
64.131737
 22
30.583512
 32
0.0
 13
64.131737
 23
30.583512
 33
0.0
  0
SOLID
  5
25A
330
1F5
100
AcDbEntity
  8
MO_001_VIEW_PV
  6
BYBLOCK
100
AcDbTrace
 10
85.868263
 20
30.583512
 30
0.0
 11
83.05800299999999
 21
30.0
 31
0.0
 12
85.868263
 22
29.416488
 32
0.0
 13
85.868263
 23
29.416488
 33
0.0
  0
LINE
  5
25B
330
1F5
100
AcDbEntity
  8
MO_001_VIEW_PV
  6
BYBLOCK
100
AcDbLine
 10
67.449997
 20
0.0
 30
0.0
 11
67.449997
 21
32.28599899999999
 31
0.0
  0
LINE
  5
25C
330
1F5
100
AcDbEntity
  8
MO_001_VIEW_PV
  6
BYBLOCK
100
AcDbLine
 10
82.550003
 20
0.0
 30
0.0
 11
82.550003
 21
32.28599899999999
 31
0.0
  0
LINE
  5
25D
330
1F5
100
AcDbEntity
  8
MO_001_VIEW_PV
  6
BYBLOCK
100
AcDbLine
 10
66.964287
 20
30.0
 30
0.0
 11
67.449997
 21
30.0
 31
0.0
  0
LINE
  5
25E
330
1F5
100
AcDbEntity
  8
MO_001_VIEW_PV
  6
BYBLOCK
100
AcDbLine
 10
82.550003
 20
30.0
 30
0.0
 11
83.03571299999999
 21
30.0
 31
0.0
  0
ENDBLK
  5
25F
330
1F5
100
AcDbEntity
  8
0
100
AcDbBlockEnd
  0
BLOCK
  5
260
330
1F7
100
AcDbEntity
  8
0
100
AcDbBlockBegin
  2
*D9
 70
     1
 10
0.0
 20
0.0
 30
0.0
  3
*D9
  1

  0
TEXT
  5
261
330
1F7
100
AcDbEntity
  8
MO_001_VIEW_PV
  6
BYBLOCK
100
AcDbText
 10
51.375
 20
3.214285999999999
 30
0.0
 40
1.5
  1
%%P0.3
 50
90.0
100
AcDbText
  0
TEXT
  5
262
330
1F7
100
AcDbEntity
  8
MO_001_VIEW_PV
  6
BYBLOCK
100
AcDbText
 10
53.25
 20
-8.571429
 30
0.0
 40
3.0
  1
22.2
 50
90.0
100
AcDbText
  0
LINE
  5
263
330
1F7
100
AcDbEntity
  8
MO_001_VIEW_PV
  6
BYBLOCK
100
AcDbLine
 10
54.0
 20
11.1
 30
0.0
 11
54.0
 21
-11.1
 31
0.0
  0
SOLID
  5
264
330
1F7
100
AcDbEntity
  8
MO_001_VIEW_PV
  6
BYBLOCK
100
AcDbTrace
 10
54.583512
 20
7.781739999999999
 30
0.0
 11
54.0
 21
10.592
 31
0.0
 12
53.416488
 22
7.781739999999999
 32
0.0
 13
53.416488
 23
7.781739999999999
 33
0.0
  0
SOLID
  5
265
330
1F7
100
AcDbEntity
  8
MO_001_VIEW_PV
  6
BYBLOCK
100
AcDbTrace
 10
53.416488
 20
-7.781739999999999
 30
0.0
 11
54.0
 21
-10.592
 31
0.0
 12
54.583512
 22
-7.781739999999999
 32
0.0
 13
54.583512
 23
-7.781739999999999
 33
0.0
  0
LINE
  5
266
330
1F7
100
AcDbEntity
  8
MO_001_VIEW_PV
  6
BYBLOCK
100
AcDbLine
 10
72.0
 20
11.1
 30
0.0
 11
51.714001
 21
11.1
 31
0.0
  0
LINE
  5
267
330
1F7
100
AcDbEntity
  8
MO_001_VIEW_PV
  6
BYBLOCK
100
AcDbLine
 10
72.0
 20
-11.1
 30
0.0
 11
51.714001
 21
-11.1
 31
0.0
  0
ENDBLK
  5
268
330
1F7
100
AcDbEntity
  8
0
100
AcDbBlockEnd
  0
BLOCK
  5
269
330
1F9
100
AcDbEntity
  8
0
100
AcDbBlockBegin
  2
*D10
 70
     1
 10
0.0
 20
0.0
 30
0.0
  3
*D10
  1

  0
TEXT
  5
26A
330
1F9
100
AcDbEntity
  8
MO_001_VIEW_PV
  6
BYBLOCK
100
AcDbText
 10
98.25000000000001
 20
1.928570999999999
 30
0.0
 40
3.0
  1
長さ250以上
 50
90.0
100
AcDbText
  0
LINE
  5
26B
330
1F9
100
AcDbEntity
  8
MO_001_VIEW_PV
  6
BYBLOCK
100
AcDbLine
 10
99.0
 20
-40.35633899999999
 30
0.0
 11
99.0
 21
-15.307513
 31
0.0
  0
SOLID
  5
26C
330
1F9
100
AcDbEntity
  8
MO_001_VIEW_PV
  6
BYBLOCK
100
AcDbTrace
 10
98.41648800000001
 20
-37.038078
 30
0.0
 11
99.0
 21
-39.848339
 31
0.0
 12
99.583512
 22
-37.038078
 32
0.0
 13
99.583512
 23
-37.038078
 33
0.0
  0
SOLID
  5
26D
330
1F9
100
AcDbEntity
  8
MO_001_VIEW_PV
  6
BYBLOCK
100
AcDbTrace
 10
99.583512
 20
-18.625773
 30
0.0
 11
99.0
 21
-15.815513
 31
0.0
 12
98.41648800000001
 22
-18.625773
 32
0.0
 13
98.41648800000001
 23
-18.625773
 33
0.0
  0
LINE
  5
26E
330
1F9
100
AcDbEntity
  8
MO_001_VIEW_PV
  6
BYBLOCK
100
AcDbLine
 10
80.800003
 20
-40.35633899999999
 30
0.0
 11
101.286003
 21
-40.35633899999999
 31
0.0
  0
LINE
  5
26F
330
1F9
100
AcDbEntity
  8
MO_001_VIEW_PV
  6
BYBLOCK
100
AcDbLine
 10
81.55000300000001
 20
-15.307513
 30
0.0
 11
101.286003
 21
-15.307513
 31
0.0
  0
LINE
  5
270
330
1F9
100
AcDbEntity
  8
MO_001_VIEW_PV
  6
BYBLOCK
100
AcDbLine
 10
99.0
 20
-15.307513
 30
0.0
 11
99.0
 21
23.035713
 31
0.0
  0
ENDBLK
  5
271
330
1F9
100
AcDbEntity
  8
0
100
AcDbBlockEnd
  0
BLOCK
  5
272
330
1FB
100
AcDbEntity
  8
0
100
AcDbBlockBegin
  2
*D11
 70
     1
 10
0.0
 20
0.0
 30
0.0
  3
*D11
  1

  0
TEXT
  5
273
330
1FB
100
AcDbEntity
  8
MO_001_VIEW_PV
  6
BYBLOCK
100
AcDbText
 10
45.214286
 20
38.625
 30
0.0
 40
1.5
  1
%%P0.5
100
AcDbText
  0
TEXT
  5
274
330
1FB
100
AcDbEntity
  8
MO_001_VIEW_PV
  6
BYBLOCK
100
AcDbText
 10
33.428571
 20
36.75
 30
0.0
 40
3.0
  1
12.5
100
AcDbText
  0
LINE
  5
275
330
1FB
100
AcDbEntity
  8
MO_001_VIEW_PV
  6
BYBLOCK
100
AcDbLine
 10
16.449999
 20
36.0
 30
0.0
 11
28.96189899999999
 21
36.0
 31
0.0
  0
LINE
  5
276
330
1FB
100
AcDbEntity
  8
MO_001_VIEW_PV
  6
BYBLOCK
100
AcDbLine
 10
16.449999
 20
36.0
 30
0.0
 11
10.099999
 21
36.0
 31
0.0
  0
LINE
  5
277
330
1FB
100
AcDbEntity
  8
MO_001_VIEW_PV
  6
BYBLOCK
100
AcDbLine
 10
28.96189899999999
 20
36.0
 30
0.0
 11
35.31189899999999
 21
36.0
 31
0.0
  0
SOLID
  5
278
330
1FB
100
AcDbEntity
  8
MO_001_VIEW_PV
  6
BYBLOCK
100
AcDbTrace
 10
13.131739
 20
35.416488
 30
0.0
 11
15.941999
 21
36.0
 31
0.0
 12
13.131739
 22
36.583512
 32
0.0
 13
13.131739
 23
36.583512
 33
0.0
  0
SOLID
  5
279
330
1FB
100
AcDbEntity
  8
MO_001_VIEW_PV
  6
BYBLOCK
100
AcDbTrace
 10
32.280159
 20
36.583512
 30
0.0
 11
29.469899
 21
36.0
 31
0.0
 12
32.280159
 22
35.416488
 32
0.0
 13
32.280159
 23
35.416488
 33
0.0
  0
LINE
  5
27A
330
1FB
100
AcDbEntity
  8
MO_001_VIEW_PV
  6
BYBLOCK
100
AcDbLine
 10
16.449999
 20
28.860634
 30
0.0
 11
16.449999
 21
38.285999
 31
0.0
  0
LINE
  5
27B
330
1FB
100
AcDbEntity
  8
MO_001_VIEW_PV
  6
BYBLOCK
100
AcDbLine
 10
28.96189899999999
 20
2.080001999999999
 30
0.0
 11
28.96189899999999
 21
38.285999
 31
0.0
  0
LINE
  5
27C
330
1FB
100
AcDbEntity
  8
MO_001_VIEW_PV
  6
BYBLOCK
100
AcDbLine
 10
28.96189899999999
 20
36.0
 30
0.0
 11
51.535713
 21
36.0
 31
0.0
  0
ENDBLK
  5
27D
330
1FB
100
AcDbEntity
  8
0
100
AcDbBlockEnd
  0
ENDSEC
  0
SECTION
  2
ENTITIES
  0
TEXT
  5
4B
330
1E
100
AcDbEntity
  8
OVERLAY_MAP
  6
C_SOLID_L
100
AcDbText
 10
0.0
 20
6.349999999999999
 30
0.0
 40
4.1672
  1
Model Overlay Name
100
AcDbText
  0
TEXT
  5
4C
330
1E
100
AcDbEntity
  8
OVERLAY_MAP
  6
C_SOLID_L
100
AcDbText
 10
126.999998
 20
0.0
 30
0.0
 40
4.1672
  1
Number
100
AcDbText
  0
TEXT
  5
4D
330
1E
100
AcDbEntity
  8
OVERLAY_MAP
  6
C_SOLID_L
100
AcDbText
 10
177.7999969999999
 20
0.0
 30
0.0
 40
4.1672
  1
File Text
100
AcDbText
  0
TEXT
  5
4E
330
1E
100
AcDbEntity
  8
OVERLAY_MAP
  6
C_SOLID_L
100
AcDbText
 10
0.0
 20
-6.349999999999999
 30
0.0
 40
4.1672
  1
ro 3e349 
100
AcDbText
  0
TEXT
  5
4F
330
1E
100
AcDbEntity
  8
OVERLAY_MAP
  6
C_SOLID_L
100
AcDbText
 10
126.999998
 20
-6.349999999999999
 30
0.0
 40
4.1672
  1
001
100
AcDbText
  0
TEXT
  5
50
330
1E
100
AcDbEntity
  8
OVERLAY_MAP
  6
C_SOLID_L
100
AcDbText
 10
177.7999969999999
 20
-6.349999999999999
 30
0.0
 40
4.1672
  1
                                                                   00139
100
AcDbText
  0
LINE
  5
51
330
1E
100
AcDbEntity
  8
MO_001_VIEW_PV
  6
C_CENTER_L
100
AcDbLine
 10
56.0
 20
0.0
 30
0.0
 11
95.0
 21
0.0
 31
0.0
  0
LINE
  5
52
330
1E
100
AcDbEntity
  8
MO_001_VIEW_PV
  6
C_CENTER_L
100
AcDbLine
 10
75.0
 20
20.000001
 30
0.0
 11
75.0
 21
-19.99999899999999
 31
0.0
  0
CIRCLE
  5
53
330
1E
100
AcDbEntity
  8
MO_001_VIEW_PV
  6
C_SOLID_M
100
AcDbCircle
 10
75.0
 20
0.0
 30
0.0
 40
2.27282
  0
CIRCLE
  5
54
330
1E
100
AcDbEntity
  8
MO_001_VIEW_PV
  6
C_SOLID_M
100
AcDbCircle
 10
75.0
 20
0.0
 30
0.0
 40
2.379999999999999
  0
CIRCLE
  5
55
330
1E
100
AcDbEntity
  8
MO_001_VIEW_PV
  6
C_SOLID_M
100
AcDbCircle
 10
75.0
 20
0.0
 30
0.0
 40
16.65
  0
LINE
  5
56
330
1E
100
AcDbEntity
  8
MO_001_VIEW_PV
  6
C_CENTER_L
100
AcDbLine
 10
72.0
 20
11.1
 30
0.0
 11
78.0
 21
11.1
 31
0.0
  0
CIRCLE
  5
57
330
1E
100
AcDbEntity
  8
MO_001_VIEW_PV
  6
C_SOLID_M
100
AcDbCircle
 10
75.0
 20
0.0
 30
0.0
 40
15.01499899999999
  0
CIRCLE
  5
58
330
1E
100
AcDbEntity
  8
MO_001_VIEW_PV
  6
C_SOLID_M
100
AcDbCircle
 10
75.0
 20
0.0
 30
0.0
 40
14.815
  0
CIRCLE
  5
59
330
1E
100
AcDbEntity
  8
MO_001_VIEW_PV
  6
C_SOLID_M
100
AcDbCircle
 10
75.0
 20
11.1
 30
0.0
 40
1.5
  0
CIRCLE
  5
5A
330
1E
100
AcDbEntity
  8
MO_001_VIEW_PV
  6
C_SOLID_M
100
AcDbCircle
 10
75.0
 20
11.1
 30
0.0
 40
1.0
  0
CIRCLE
  5
5B
330
1E
100
AcDbEntity
  8
MO_001_VIEW_PV
  6
C_SOLID_M
100
AcDbCircle
 10
75.0
 20
-11.1
 30
0.0
 40
1.0
  0
CIRCLE
  5
5C
330
1E
100
AcDbEntity
  8
MO_001_VIEW_PV
  6
C_SOLID_M
100
AcDbCircle
 10
75.0
 20
-11.1
 30
0.0
 40
1.5
  0
LINE
  5
5D
330
1E
100
AcDbEntity
  8
MO_001_VIEW_PV
  6
C_CENTER_L
100
AcDbLine
 10
72.0
 20
-11.1
 30
0.0
 11
78.0
 21
-11.1
 31
0.0
  0
CIRCLE
  5
5E
330
1E
100
AcDbEntity
  8
MO_001_VIEW_PV
  6
C_SOLID_M
100
AcDbCircle
 10
75.0
 20
0.0
 30
0.0
 40
14.3
  0
CIRCLE
  5
5F
330
1E
100
AcDbEntity
  8
MO_001_VIEW_PV
  6
C_SOLID_M
100
AcDbCircle
 10
75.0
 20
11.1
 30
0.0
 40
1.75
  0
CIRCLE
  5
60
330
1E
100
AcDbEntity
  8
MO_001_VIEW_PV
  6
C_SOLID_M
100
AcDbCircle
 10
63.900002
 20
0.0
 30
0.0
 40
1.75
  0
CIRCLE
  5
61
330
1E
100
AcDbEntity
  8
MO_001_VIEW_PV
  6
C_SOLID_M
100
AcDbCircle
 10
75.0
 20
-11.1
 30
0.0
 40
1.75
  0
CIRCLE
  5
62
330
1E
100
AcDbEntity
  8
MO_001_VIEW_PV
  6
C_SOLID_M
100
AcDbCircle
 10
86.099998
 20
0.0
 30
0.0
 40
1.75
  0
ARC
  5
63
330
1E
100
AcDbEntity
  8
MO_001_VIEW_PV
  6
C_SOLID_M
100
AcDbCircle
 10
75.0
 20
6.7
 30
0.0
 40
1.399999999999999
100
AcDbArc
 50
21.58299299999999
 51
158.4170029999999
  0
ARC
  5
64
330
1E
100
AcDbEntity
  8
MO_001_VIEW_PV
  6
C_SOLID_M
100
AcDbCircle
 10
75.0
 20
0.0
 30
0.0
 40
7.15
100
AcDbArc
 50
102.808581
 51
117.1914159999999
  0
ARC
  5
65
330
1E
100
AcDbEntity
  8
MO_001_VIEW_PV
  6
C_SOLID_M
100
AcDbCircle
 10
75.0
 20
0.0
 30
0.0
 40
7.549999999999999
100
AcDbArc
 50
103.001329
 51
116.998682
  0
LINE
  5
66
330
1E
100
AcDbEntity
  8
MO_001_VIEW_PV
  6
C_SOLID_M
100
AcDbLine
 10
73.439355
 20
6.977593999999999
 30
0.0
 11
73.301461
 21
7.356453
 31
0.0
  0
LINE
  5
67
330
1E
100
AcDbEntity
  8
MO_001_VIEW_PV
  6
C_SOLID_M
100
AcDbLine
 10
71.71043199999999
 20
6.348316999999999
 30
0.0
 11
71.57253799999999
 21
6.727175999999999
 31
0.0
  0
LINE
  5
68
330
1E
100
AcDbEntity
  8
MO_001_VIEW_PV
  6
C_SOLID_M
100
AcDbLine
 10
73.30145400000001
 20
7.356451999999999
 30
0.0
 11
74.318779
 21
7.92308
 31
0.0
  0
ARC
  5
69
330
1E
100
AcDbEntity
  8
MO_001_VIEW_PV
  6
C_SOLID_M
100
AcDbCircle
 10
73.326202
 20
7.362127
 30
0.0
 40
0.4
100
AcDbArc
 50
282.808583
 51
338.416992
  0
ARC
  5
6A
330
1E
100
AcDbEntity
  8
MO_001_VIEW_PV
  6
C_SOLID_M
100
AcDbCircle
 10
71.54991899999998
 20
6.715610999999999
 30
0.0
 40
0.4
100
AcDbArc
 50
241.5829609999999
 51
297.191431
  0
LINE
  5
6B
330
1E
100
AcDbEntity
  8
MO_001_VIEW_PV
  6
C_SOLID_M
100
AcDbLine
 10
71.572542
 20
6.72718
 30
0.0
 11
70.429004
 21
6.507317999999999
 31
0.0
  0
ARC
  5
6C
330
1E
100
AcDbEntity
  8
MO_001_VIEW_PV
  6
C_SOLID_M
100
AcDbCircle
 10
76.673798
 20
7.362127
 30
0.0
 40
0.4
100
AcDbArc
 50
201.58301
 51
257.191398
  0
ARC
  5
6D
330
1E
100
AcDbEntity
  8
MO_001_VIEW_PV
  6
C_SOLID_M
100
AcDbCircle
 10
70.693321
 20
5.132498
 30
0.0
 40
1.399999999999999
100
AcDbArc
 50
61.58299399999999
 51
198.417009
  0
ARC
  5
6E
330
1E
100
AcDbEntity
  8
MO_001_VIEW_PV
  6
C_SOLID_M
100
AcDbCircle
 10
75.0
 20
0.0
 30
0.0
 40
7.15
100
AcDbArc
 50
142.808587
 51
157.191422
  0
ARC
  5
6F
330
1E
100
AcDbEntity
  8
MO_001_VIEW_PV
  6
C_SOLID_M
100
AcDbCircle
 10
75.0
 20
0.0
 30
0.0
 40
7.549999999999999
100
AcDbArc
 50
143.001335
 51
156.998687
  0
LINE
  5
70
330
1E
100
AcDbEntity
  8
MO_001_VIEW_PV
  6
C_SOLID_M
100
AcDbLine
 10
69.319367
 20
4.341978
 30
0.0
 11
68.97020600000001
 21
4.543566
 31
0.0
  0
LINE
  5
71
330
1E
100
AcDbEntity
  8
MO_001_VIEW_PV
  6
C_SOLID_M
100
AcDbLine
 10
68.39941999999999
 20
2.748597
 30
0.0
 11
68.05026600000001
 21
2.950181
 31
0.0
  0
LINE
  5
72
330
1E
100
AcDbEntity
  8
MO_001_VIEW_PV
  6
C_SOLID_M
100
AcDbLine
 10
68.970189
 20
4.543563999999999
 30
0.0
 11
69.385283
 21
5.631546
 31
0.0
  0
ARC
  5
73
330
1E
100
AcDbEntity
  8
MO_001_VIEW_PV
  6
C_SOLID_M
100
AcDbCircle
 10
68.98551199999999
 20
4.563822
 30
0.0
 40
0.4
100
AcDbArc
 50
322.8085819999999
 51
18.416992
  0
ARC
  5
74
330
1E
100
AcDbEntity
  8
MO_001_VIEW_PV
  6
C_SOLID_M
100
AcDbCircle
 10
68.04037499999999
 20
2.926784999999999
 30
0.0
 40
0.4
100
AcDbArc
 50
281.58296
 51
337.1914319999999
  0
LINE
  5
75
330
1E
100
AcDbEntity
  8
MO_001_VIEW_PV
  6
C_SOLID_M
100
AcDbLine
 10
68.050265
 20
2.950186
 30
0.0
 11
67.315593
 21
2.046715999999999
 31
0.0
  0
ARC
  5
76
330
1E
100
AcDbEntity
  8
MO_001_VIEW_PV
  6
C_SOLID_M
100
AcDbCircle
 10
71.54991899999998
 20
6.715610999999999
 30
0.0
 40
0.4
100
AcDbArc
 50
241.583016
 51
297.191397
  0
ARC
  5
77
330
1E
100
AcDbEntity
  8
MO_001_VIEW_PV
  6
C_SOLID_M
100
AcDbCircle
 10
68.401787
 20
1.163443
 30
0.0
 40
1.399999999999999
100
AcDbArc
 50
101.582992
 51
238.417015
  0
ARC
  5
78
330
1E
100
AcDbEntity
  8
MO_001_VIEW_PV
  6
C_SOLID_M
100
AcDbCircle
 10
75.0
 20
0.0
 30
0.0
 40
7.15
100
AcDbArc
 50
182.8085959999999
 51
197.191431
  0
ARC
  5
79
330
1E
100
AcDbEntity
  8
MO_001_VIEW_PV
  6
C_SOLID_M
100
AcDbCircle
 10
75.0
 20
0.0
 30
0.0
 40
7.549999999999999
100
AcDbArc
 50
183.0013439999999
 51
196.9986969999999
  0
LINE
  5
7A
330
1E
100
AcDbEntity
  8
MO_001_VIEW_PV
  6
C_SOLID_M
100
AcDbLine
 10
67.85741
 20
-0.325297
 30
0.0
 11
67.46036
 21
-0.395307
 31
0.0
  0
LINE
  5
7B
330
1E
100
AcDbEntity
  8
MO_001_VIEW_PV
  6
C_SOLID_M
100
AcDbLine
 10
68.176896
 20
-2.137227999999999
 30
0.0
 11
67.779853
 21
-2.207237
 31
0.0
  0
LINE
  5
7C
330
1E
100
AcDbEntity
  8
MO_001_VIEW_PV
  6
C_SOLID_M
100
AcDbLine
 10
67.460334
 20
-0.395313
 30
0.0
 11
67.07897199999999
 21
0.7049479999999999
 31
0.0
  0
ARC
  5
7D
330
1E
100
AcDbEntity
  8
MO_001_VIEW_PV
  6
C_SOLID_M
100
AcDbCircle
 10
67.459068
 20
-0.369946
 30
0.0
 40
0.4
100
AcDbArc
 50
2.808581999999999
 51
58.416989
  0
ARC
  5
7E
330
1E
100
AcDbEntity
  8
MO_001_VIEW_PV
  6
C_SOLID_M
100
AcDbCircle
 10
67.78731500000001
 20
-2.231516
 30
0.0
 40
0.4
100
AcDbArc
 50
321.5829589999999
 51
17.19143199999999
  0
LINE
  5
7F
330
1E
100
AcDbEntity
  8
MO_001_VIEW_PV
  6
C_SOLID_M
100
AcDbLine
 10
67.77983299999999
 20
-2.20724
 30
0.0
 11
67.797781
 21
-3.371579
 31
0.0
  0
ARC
  5
80
330
1E
100
AcDbEntity
  8
MO_001_VIEW_PV
  6
C_SOLID_M
100
AcDbCircle
 10
68.04037499999999
 20
2.926784999999999
 30
0.0
 40
0.4
100
AcDbArc
 50
281.583015
 51
337.1913979999999
  0
ARC
  5
81
330
1E
100
AcDbEntity
  8
MO_001_VIEW_PV
  6
C_SOLID_M
100
AcDbCircle
 10
69.197632
 20
-3.35
 30
0.0
 40
1.399999999999999
100
AcDbArc
 50
141.582991
 51
278.4170069999999
  0
ARC
  5
82
330
1E
100
AcDbEntity
  8
MO_001_VIEW_PV
  6
C_SOLID_M
100
AcDbCircle
 10
75.0
 20
0.0
 30
0.0
 40
7.15
100
AcDbArc
 50
222.808602
 51
237.191437
  0
ARC
  5
83
330
1E
100
AcDbEntity
  8
MO_001_VIEW_PV
  6
C_SOLID_M
100
AcDbCircle
 10
75.0
 20
0.0
 30
0.0
 40
7.549999999999999
100
AcDbArc
 50
223.00135
 51
236.998702
  0
LINE
  5
84
330
1E
100
AcDbEntity
  8
MO_001_VIEW_PV
  6
C_SOLID_M
100
AcDbLine
 10
69.73756
 20
-4.840367999999999
 30
0.0
 11
69.47840699999999
 21
-5.149216
 31
0.0
  0
LINE
  5
85
330
1E
100
AcDbEntity
  8
MO_001_VIEW_PV
  6
C_SOLID_M
100
AcDbLine
 10
71.146992
 20
-6.023020999999999
 30
0.0
 11
70.887838
 21
-6.331868
 31
0.0
  0
LINE
  5
86
330
1E
100
AcDbEntity
  8
MO_001_VIEW_PV
  6
C_SOLID_M
100
AcDbLine
 10
69.478422
 20
-5.149219999999999
 30
0.0
 11
68.47905199999999
 21
-4.551508
 31
0.0
  0
ARC
  5
87
330
1E
100
AcDbEntity
  8
MO_001_VIEW_PV
  6
C_SOLID_M
100
AcDbCircle
 10
69.461105
 20
-5.130612
 30
0.0
 40
0.4
100
AcDbArc
 50
42.808583
 51
98.41698800000001
  0
ARC
  5
88
330
1E
100
AcDbEntity
  8
MO_001_VIEW_PV
  6
C_SOLID_M
100
AcDbCircle
 10
70.909149
 20
-6.345666
 30
0.0
 40
0.4
100
AcDbArc
 50
1.582958999999999
 51
57.19143100000001
  0
LINE
  5
89
330
1E
100
AcDbEntity
  8
MO_001_VIEW_PV
  6
C_SOLID_M
100
AcDbLine
 10
70.88782900000001
 20
-6.331870999999999
 30
0.0
 11
71.64999899999999
 21
-7.212267999999999
 31
0.0
  0
ARC
  5
8A
330
1E
100
AcDbEntity
  8
MO_001_VIEW_PV
  6
C_SOLID_M
100
AcDbCircle
 10
67.78731500000001
 20
-2.231515
 30
0.0
 40
0.4
100
AcDbArc
 50
321.583014
 51
17.19139799999999
  0
ARC
  5
8B
330
1E
100
AcDbEntity
  8
MO_001_VIEW_PV
  6
C_SOLID_M
100
AcDbCircle
 10
72.708466
 20
-6.295939999999999
 30
0.0
 40
1.399999999999999
100
AcDbArc
 50
181.583001
 51
312.52928
  0
ARC
  5
8C
330
1E
100
AcDbEntity
  8
MO_001_VIEW_PV
  6
C_SOLID_M
100
AcDbCircle
 10
75.0
 20
0.0
 30
0.0
 40
7.15
100
AcDbArc
 50
262.8086009999999
 51
277.191435
  0
ARC
  5
8D
330
1E
100
AcDbEntity
  8
MO_001_VIEW_PV
  6
C_SOLID_M
100
AcDbCircle
 10
75.0
 20
0.0
 30
0.0
 40
7.549999999999999
100
AcDbArc
 50
263.001349
 51
276.9987009999999
  0
LINE
  5
8E
330
1E
100
AcDbEntity
  8
MO_001_VIEW_PV
  6
C_SOLID_M
100
AcDbLine
 10
74.08005799999999
 20
-7.090571999999999
 30
0.0
 11
74.08005899999999
 21
-7.493744999999999
 31
0.0
  0
LINE
  5
8F
330
1E
100
AcDbEntity
  8
MO_001_VIEW_PV
  6
C_SOLID_M
100
AcDbLine
 10
75.91993999999999
 20
-7.090571999999999
 30
0.0
 11
75.91993999999999
 21
-7.493744999999999
 31
0.0
  0
LINE
  5
90
330
1E
100
AcDbEntity
  8
MO_001_VIEW_PV
  6
C_SOLID_M
100
AcDbLine
 10
73.813265
 20
-7.536560999999999
 30
0.0
 11
72.93029799999999
 21
-7.678256
 31
0.0
  0
ARC
  5
91
330
1E
100
AcDbEntity
  8
MO_001_VIEW_PV
  6
C_SOLID_M
100
AcDbCircle
 10
74.05485500000001
 20
-7.490607999999999
 30
0.0
 40
0.4
100
AcDbArc
 50
82.80858499999999
 51
123.1084219999999
  0
ARC
  5
92
330
1E
100
AcDbEntity
  8
MO_001_VIEW_PV
  6
C_SOLID_M
100
AcDbCircle
 10
75.94514499999999
 20
-7.490607999999999
 30
0.0
 40
0.4
100
AcDbArc
 50
41.58295999999999
 51
97.191434
  0
LINE
  5
93
330
1E
100
AcDbEntity
  8
MO_001_VIEW_PV
  6
C_SOLID_M
100
AcDbLine
 10
75.91994800000001
 20
-7.493746
 30
0.0
 11
77.06971999999999
 21
-7.678256
 31
0.0
  0
ARC
  5
94
330
1E
100
AcDbEntity
  8
MO_001_VIEW_PV
  6
C_SOLID_M
100
AcDbCircle
 10
70.909149
 20
-6.345665
 30
0.0
 40
0.4
100
AcDbArc
 50
1.583013999999999
 51
57.19139699999999
  0
ARC
  5
95
330
1E
100
AcDbEntity
  8
MO_001_VIEW_PV
  6
C_SOLID_M
100
AcDbCircle
 10
77.291534
 20
-6.295939999999999
 30
0.0
 40
1.399999999999999
100
AcDbArc
 50
221.583006
 51
358.416999
  0
ARC
  5
96
330
1E
100
AcDbEntity
  8
MO_001_VIEW_PV
  6
C_SOLID_M
100
AcDbCircle
 10
75.0
 20
0.0
 30
0.0
 40
7.15
100
AcDbArc
 50
302.808599
 51
317.1914339999999
  0
ARC
  5
97
330
1E
100
AcDbEntity
  8
MO_001_VIEW_PV
  6
C_SOLID_M
100
AcDbCircle
 10
75.0
 20
0.0
 30
0.0
 40
7.549999999999999
100
AcDbArc
 50
303.001347
 51
316.9986999999999
  0
LINE
  5
98
330
1E
100
AcDbEntity
  8
MO_001_VIEW_PV
  6
C_SOLID_M
100
AcDbLine
 10
78.85299899999999
 20
-6.023026999999999
 30
0.0
 11
79.112156
 21
-6.331876999999999
 31
0.0
  0
LINE
  5
99
330
1E
100
AcDbEntity
  8
MO_001_VIEW_PV
  6
C_SOLID_M
100
AcDbLine
 10
80.26243
 20
-4.840373
 30
0.0
 11
80.521586
 21
-5.149223
 31
0.0
  0
LINE
  5
9A
330
1E
100
AcDbEntity
  8
MO_001_VIEW_PV
  6
C_SOLID_M
100
AcDbLine
 10
79.11216
 20
-6.331866999999999
 30
0.0
 11
78.349988
 21
-7.212266
 31
0.0
  0
ARC
  5
9B
330
1E
100
AcDbEntity
  8
MO_001_VIEW_PV
  6
C_SOLID_M
100
AcDbCircle
 10
79.090851
 20
-6.345665
 30
0.0
 40
0.4
100
AcDbArc
 50
122.8085909999999
 51
178.416999
  0
ARC
  5
9C
330
1E
100
AcDbEntity
  8
MO_001_VIEW_PV
  6
C_SOLID_M
100
AcDbCircle
 10
80.538895
 20
-5.130611
 30
0.0
 40
0.4
100
AcDbArc
 50
81.582962
 51
137.191439
  0
LINE
  5
9D
330
1E
100
AcDbEntity
  8
MO_001_VIEW_PV
  6
C_SOLID_M
100
AcDbLine
 10
80.521617
 20
-5.149213999999999
 30
0.0
 11
81.520988
 21
-4.551503
 31
0.0
  0
ARC
  5
9E
330
1E
100
AcDbEntity
  8
MO_001_VIEW_PV
  6
C_SOLID_M
100
AcDbCircle
 10
75.94514499999999
 20
-7.490607999999999
 30
0.0
 40
0.4
100
AcDbArc
 50
41.583015
 51
97.19139900000001
  0
ARC
  5
9F
330
1E
100
AcDbEntity
  8
MO_001_VIEW_PV
  6
C_SOLID_M
100
AcDbCircle
 10
80.80236799999999
 20
-3.35
 30
0.0
 40
1.399999999999999
100
AcDbArc
 50
261.5830049999999
 51
38.417
  0
ARC
  5
A0
330
1E
100
AcDbEntity
  8
MO_001_VIEW_PV
  6
C_SOLID_M
100
AcDbCircle
 10
75.0
 20
0.0
 30
0.0
 40
7.15
100
AcDbArc
 50
342.8086
 51
357.1914339999999
  0
ARC
  5
A1
330
1E
100
AcDbEntity
  8
MO_001_VIEW_PV
  6
C_SOLID_M
100
AcDbCircle
 10
75.0
 20
0.0
 30
0.0
 40
7.549999999999999
100
AcDbArc
 50
343.0013479999999
 51
356.9986999999999
  0
LINE
  5
A2
330
1E
100
AcDbEntity
  8
MO_001_VIEW_PV
  6
C_SOLID_M
100
AcDbLine
 10
81.823119
 20
-2.137229
 30
0.0
 11
82.22016899999999
 21
-2.20724
 31
0.0
  0
LINE
  5
A3
330
1E
100
AcDbEntity
  8
MO_001_VIEW_PV
  6
C_SOLID_M
100
AcDbLine
 10
82.14260999999998
 20
-0.325301
 30
0.0
 11
82.53966
 21
-0.395312
 31
0.0
  0
LINE
  5
A4
330
1E
100
AcDbEntity
  8
MO_001_VIEW_PV
  6
C_SOLID_M
100
AcDbLine
 10
82.22014599999999
 20
-2.207238999999999
 30
0.0
 11
82.202198
 21
-3.371577999999999
 31
0.0
  0
ARC
  5
A5
330
1E
100
AcDbEntity
  8
MO_001_VIEW_PV
  6
C_SOLID_M
100
AcDbCircle
 10
82.21268499999998
 20
-2.231515
 30
0.0
 40
0.4
100
AcDbArc
 50
162.8085959999999
 51
218.417005
  0
ARC
  5
A6
330
1E
100
AcDbEntity
  8
MO_001_VIEW_PV
  6
C_SOLID_M
100
AcDbCircle
 10
82.54093199999999
 20
-0.369944
 30
0.0
 40
0.4
100
AcDbArc
 50
121.5829679999999
 51
177.1914449999999
  0
LINE
  5
A7
330
1E
100
AcDbEntity
  8
MO_001_VIEW_PV
  6
C_SOLID_M
100
AcDbLine
 10
82.539648
 20
-0.39531
 30
0.0
 11
82.921011
 21
0.7049520000000001
 31
0.0
  0
ARC
  5
A8
330
1E
100
AcDbEntity
  8
MO_001_VIEW_PV
  6
C_SOLID_M
100
AcDbCircle
 10
80.538895
 20
-5.130612
 30
0.0
 40
0.4
100
AcDbArc
 50
81.583017
 51
137.1913979999999
  0
ARC
  5
A9
330
1E
100
AcDbEntity
  8
MO_001_VIEW_PV
  6
C_SOLID_M
100
AcDbCircle
 10
81.598213
 20
1.163443
 30
0.0
 40
1.399999999999999
100
AcDbArc
 50
301.583004
 51
78.41699900000001
  0
ARC
  5
AA
330
1E
100
AcDbEntity
  8
MO_001_VIEW_PV
  6
C_SOLID_M
100
AcDbCircle
 10
75.0
 20
0.0
 30
0.0
 40
7.15
100
AcDbArc
 50
22.80860099999999
 51
37.191435
  0
ARC
  5
AB
330
1E
100
AcDbEntity
  8
MO_001_VIEW_PV
  6
C_SOLID_M
100
AcDbCircle
 10
75.0
 20
0.0
 30
0.0
 40
7.549999999999999
100
AcDbArc
 50
23.00134799999999
 51
36.998701
  0
LINE
  5
AC
330
1E
100
AcDbEntity
  8
MO_001_VIEW_PV
  6
C_SOLID_M
100
AcDbLine
 10
81.600599
 20
2.748594999999999
 30
0.0
 11
81.94975900000001
 21
2.950182999999999
 31
0.0
  0
LINE
  5
AD
330
1E
100
AcDbEntity
  8
MO_001_VIEW_PV
  6
C_SOLID_M
100
AcDbLine
 10
80.680657
 20
4.341979
 30
0.0
 11
81.029817
 21
4.543566999999999
 31
0.0
  0
LINE
  5
AE
330
1E
100
AcDbEntity
  8
MO_001_VIEW_PV
  6
C_SOLID_M
100
AcDbLine
 10
81.949751
 20
2.950186
 30
0.0
 11
82.684428
 21
2.046708999999999
 31
0.0
  0
ARC
  5
AF
330
1E
100
AcDbEntity
  8
MO_001_VIEW_PV
  6
C_SOLID_M
100
AcDbCircle
 10
81.959625
 20
2.926785999999999
 30
0.0
 40
0.4
100
AcDbArc
 50
202.808606
 51
258.417008
  0
ARC
  5
B0
330
1E
100
AcDbEntity
  8
MO_001_VIEW_PV
  6
C_SOLID_M
100
AcDbCircle
 10
81.014481
 20
4.563823
 30
0.0
 40
0.4
100
AcDbArc
 50
161.582974
 51
217.191451
  0
LINE
  5
B1
330
1E
100
AcDbEntity
  8
MO_001_VIEW_PV
  6
C_SOLID_M
100
AcDbLine
 10
81.029795
 20
4.543558999999999
 30
0.0
 11
80.61470099999999
 21
5.631541999999999
 31
0.0
  0
ARC
  5
B2
330
1E
100
AcDbEntity
  8
MO_001_VIEW_PV
  6
C_SOLID_M
100
AcDbCircle
 10
82.54093199999999
 20
-0.369946
 30
0.0
 40
0.4
100
AcDbArc
 50
121.5830229999999
 51
177.191404
  0
ARC
  5
B3
330
1E
100
AcDbEntity
  8
MO_001_VIEW_PV
  6
C_SOLID_M
100
AcDbCircle
 10
79.306679
 20
5.132498
 30
0.0
 40
1.399999999999999
100
AcDbArc
 50
341.583004
 51
118.416998
  0
ARC
  5
B4
330
1E
100
AcDbEntity
  8
MO_001_VIEW_PV
  6
C_SOLID_M
100
AcDbCircle
 10
75.0
 20
0.0
 30
0.0
 40
7.15
100
AcDbArc
 50
62.80860300000001
 51
77.19143800000001
  0
ARC
  5
B5
330
1E
100
AcDbEntity
  8
MO_001_VIEW_PV
  6
C_SOLID_M
100
AcDbCircle
 10
75.0
 20
0.0
 30
0.0
 40
7.549999999999999
100
AcDbArc
 50
63.001351
 51
76.998703
  0
LINE
  5
B6
330
1E
100
AcDbEntity
  8
MO_001_VIEW_PV
  6
C_SOLID_M
100
AcDbLine
 10
78.289563
 20
6.348311999999999
 30
0.0
 11
78.42745699999999
 21
6.727172999999999
 31
0.0
  0
LINE
  5
B7
330
1E
100
AcDbEntity
  8
MO_001_VIEW_PV
  6
C_SOLID_M
100
AcDbLine
 10
76.560641
 20
6.977591999999999
 30
0.0
 11
76.698534
 21
7.356449
 31
0.0
  0
LINE
  5
B8
330
1E
100
AcDbEntity
  8
MO_001_VIEW_PV
  6
C_SOLID_M
100
AcDbLine
 10
78.42744499999999
 20
6.72718
 30
0.0
 11
79.570983
 21
6.507317999999999
 31
0.0
  0
ARC
  5
B9
330
1E
100
AcDbEntity
  8
MO_001_VIEW_PV
  6
C_SOLID_M
100
AcDbCircle
 10
78.45008100000001
 20
6.715610999999999
 30
0.0
 40
0.4
100
AcDbArc
 50
242.8086109999999
 51
298.417006
  0
ARC
  5
BA
330
1E
100
AcDbEntity
  8
MO_001_VIEW_PV
  6
C_SOLID_M
100
AcDbCircle
 10
76.67379
 20
7.362127
 30
0.0
 40
0.4
100
AcDbArc
 50
201.582983
 51
257.1914529999999
  0
LINE
  5
BB
330
1E
100
AcDbEntity
  8
MO_001_VIEW_PV
  6
C_SOLID_M
100
AcDbLine
 10
76.69854599999999
 20
7.356455
 30
0.0
 11
75.68121999999999
 21
7.923083
 31
0.0
  0
ARC
  5
BC
330
1E
100
AcDbEntity
  8
MO_001_VIEW_PV
  6
C_SOLID_M
100
AcDbCircle
 10
81.014488
 20
4.563822
 30
0.0
 40
0.4
100
AcDbArc
 50
161.583028
 51
217.19141
  0
ARC
  5
BD
330
1E
100
AcDbEntity
  8
MO_001_VIEW_PV
  6
C_SOLID_M
100
AcDbCircle
 10
75.0
 20
0.0
 30
0.0
 40
7.15
100
AcDbArc
 50
230.2170209999999
 51
90.000002
  0
ARC
  5
BE
330
1E
100
AcDbEntity
  8
MO_001_VIEW_PV
  6
C_SOLID_M
100
AcDbCircle
 10
75.0
 20
0.0
 30
0.0
 40
6.9
100
AcDbArc
 50
269.999998
 51
90.000002
  0
ARC
  5
BF
330
1E
100
AcDbEntity
  8
MO_001_VIEW_PV
  6
C_SOLID_M
100
AcDbCircle
 10
75.0
 20
0.0
 30
0.0
 40
7.75
100
AcDbArc
 50
266.100636
 51
272.0255789999999
  0
ARC
  5
C0
330
1E
100
AcDbEntity
  8
MO_001_VIEW_PV
  6
C_SOLID_M
100
AcDbCircle
 10
75.0
 20
0.0
 30
0.0
 40
8.0
100
AcDbArc
 50
266.100636
 51
272.0255789999999
  0
LINE
  5
C1
330
1E
100
AcDbEntity
  8
MO_001_VIEW_PV
  6
C_SOLID_M
100
AcDbLine
 10
75.27395300000001
 20
-7.745158999999999
 30
0.0
 11
75.28279000000001
 21
-7.995002999999999
 31
0.0
  0
ARC
  5
C2
330
1E
100
AcDbEntity
  8
MO_001_VIEW_PV
  6
C_SOLID_M
100
AcDbCircle
 10
74.506973
 20
-7.233216
 30
0.0
 40
0.5
100
AcDbArc
 50
210.2250299999999
 51
266.100636
  0
ARC
  5
C3
330
1E
100
AcDbEntity
  8
MO_001_VIEW_PV
  6
C_SOLID_M
100
AcDbCircle
 10
74.506973
 20
-7.233216
 30
0.0
 40
0.75
100
AcDbArc
 50
210.2250299999999
 51
266.100636
  0
ARC
  5
C4
330
1E
100
AcDbEntity
  8
MO_001_VIEW_PV
  6
C_SOLID_M
100
AcDbCircle
 10
72.303627
 20
-8.51688
 30
0.0
 40
1.8
100
AcDbArc
 50
30.225038
 51
79.370452
  0
ARC
  5
C5
330
1E
100
AcDbEntity
  8
MO_001_VIEW_PV
  6
C_SOLID_M
100
AcDbCircle
 10
72.303627
 20
-8.51688
 30
0.0
 40
2.049999999999999
100
AcDbArc
 50
30.225038
 51
46.315762
  0
LINE
  5
C6
330
1E
100
AcDbEntity
  8
MO_001_VIEW_PV
  6
C_SOLID_M
100
AcDbLine
 10
70.424837
 20
-5.494588999999999
 30
0.0
 11
70.566578
 21
-5.324362999999999
 31
0.0
  0
ARC
  5
C7
330
1E
100
AcDbEntity
  8
MO_001_VIEW_PV
  6
C_SOLID_M
100
AcDbCircle
 10
75.0
 20
0.125
 30
0.0
 40
7.025
100
AcDbArc
 50
90.000002
 51
270.000001
  0
ARC
  5
C8
330
1E
100
AcDbEntity
  8
MO_001_VIEW_PV
  6
C_SOLID_M
100
AcDbCircle
 10
75.0
 20
0.125
 30
0.0
 40
6.775
100
AcDbArc
 50
90.000002
 51
270.000001
  0
ARC
  5
C9
330
1E
100
AcDbEntity
  8
MO_001_VIEW_PV
  6
C_SOLID_M
100
AcDbCircle
 10
75.0
 20
0.0
 30
0.0
 40
6.65
100
AcDbArc
 50
269.999998
 51
90.000002
  0
ARC
  5
CA
330
1E
100
AcDbEntity
  8
MO_001_VIEW_PV
  6
C_SOLID_M
100
AcDbCircle
 10
75.0
 20
0.0
 30
0.0
 40
2.379999999999999
100
AcDbArc
 50
269.999998
 51
38.63913099999999
  0
ARC
  5
CB
330
1E
100
AcDbEntity
  8
MO_001_VIEW_PV
  6
C_SOLID_M
100
AcDbCircle
 10
75.0
 20
0.0
 30
0.0
 40
2.629999999999999
100
AcDbArc
 50
269.999998
 51
90.000002
  0
LINE
  5
CC
330
1E
100
AcDbEntity
  8
MO_001_VIEW_PV
  6
C_SOLID_M
100
AcDbLine
 10
76.521675
 20
1.83
 30
0.0
 11
76.66373399999999
 21
1.83
 31
0.0
  0
ARC
  5
CD
330
1E
100
AcDbEntity
  8
MO_001_VIEW_PV
  6
C_SOLID_M
100
AcDbCircle
 10
76.66373399999999
 20
1.33
 30
0.0
 40
0.5
100
AcDbArc
 50
38.63912799999999
 51
89.99998900000001
  0
ARC
  5
CE
330
1E
100
AcDbEntity
  8
MO_001_VIEW_PV
  6
C_SOLID_M
100
AcDbCircle
 10
75.0
 20
0.125
 30
0.0
 40
2.504999999999999
100
AcDbArc
 50
90.000002
 51
270.000001
  0
ARC
  5
CF
330
1E
100
AcDbEntity
  8
MO_001_VIEW_PV
  6
C_SOLID_M
100
AcDbCircle
 10
75.0
 20
0.125
 30
0.0
 40
2.754999999999999
100
AcDbArc
 50
90.000002
 51
270.000001
  0
ARC
  5
D0
330
1E
100
AcDbEntity
  8
MO_001_VIEW_PV
  6
C_SOLID_M
100
AcDbCircle
 10
75.0
 20
0.0
 30
0.0
 40
2.879999999999999
100
AcDbArc
 50
269.999998
 51
90.000002
  0
LINE
  5
D1
330
1E
100
AcDbEntity
  8
MO_001_VIEW_PV
  6
C_CENTER_L
100
AcDbLine
 10
-16.727631
 20
0.0
 30
0.0
 11
30.81663499999999
 21
0.0
 31
0.0
  0
LINE
  5
D2
330
1E
100
AcDbEntity
  8
MO_001_VIEW_PV
  6
C_SOLID_M
100
AcDbLine
 10
0.0
 20
13.75
 30
0.0
 11
0.0
 21
-13.75
 31
0.0
  0
LINE
  5
D3
330
1E
100
AcDbEntity
  8
MO_001_VIEW_PV
  6
C_SOLID_M
100
AcDbLine
 10
15.7
 20
16.650002
 30
0.0
 11
15.7
 21
-16.650002
 31
0.0
  0
LINE
  5
D4
330
1E
100
AcDbEntity
  8
MO_001_VIEW_PV
  6
C_SOLID_M
100
AcDbLine
 10
2.9
 20
16.650002
 30
0.0
 11
15.7
 21
16.650002
 31
0.0
  0
LINE
  5
D5
330
1E
100
AcDbEntity
  8
MO_001_VIEW_PV
  6
C_SOLID_M
100
AcDbLine
 10
3.000738999999999
 20
-16.650002
 30
0.0
 11
15.7
 21
-16.650002
 31
0.0
  0
ARC
  5
D6
330
1E
100
AcDbEntity
  8
MO_001_VIEW_PV
  6
C_SOLID_M
100
AcDbCircle
 10
2.9
 20
13.75
 30
0.0
 40
2.9
100
AcDbArc
 50
90.000002
 51
180.000005
  0
ARC
  5
D7
330
1E
100
AcDbEntity
  8
MO_001_VIEW_PV
  6
C_SOLID_M
100
AcDbCircle
 10
2.9
 20
-13.75
 30
0.0
 40
2.9
100
AcDbArc
 50
180.000009
 51
228.8393039999999
  0
LINE
  5
D8
330
1E
100
AcDbEntity
  8
MO_001_VIEW_PV
  6
C_SOLID_M
100
AcDbLine
 10
16.049999
 20
14.815002
 30
0.0
 11
16.049999
 21
-14.815002
 31
0.0
  0
LINE
  5
D9
330
1E
100
AcDbEntity
  8
MO_001_VIEW_PV
  6
C_SOLID_M
100
AcDbLine
 10
15.7
 20
15.01499899999999
 30
0.0
 11
15.84999899999999
 21
15.01499899999999
 31
0.0
  0
LINE
  5
DA
330
1E
100
AcDbEntity
  8
MO_001_VIEW_PV
  6
C_SOLID_M
100
AcDbLine
 10
15.7
 20
-15.01499899999999
 30
0.0
 11
15.84999899999999
 21
-15.01499899999999
 31
0.0
  0
LINE
  5
DB
330
1E
100
AcDbEntity
  8
MO_001_VIEW_PV
  6
C_SOLID_M
100
AcDbLine
 10
15.849995
 20
15.014997
 30
0.0
 11
16.049997
 21
14.814996
 31
0.0
  0
LINE
  5
DC
330
1E
100
AcDbEntity
  8
MO_001_VIEW_PV
  6
C_SOLID_M
100
AcDbLine
 10
15.849997
 20
-15.015004
 30
0.0
 11
16.049998
 21
-14.81500299999999
 31
0.0
  0
LINE
  5
DD
330
1E
100
AcDbEntity
  8
MO_001_VIEW_PV
  6
C_SOLID_M
100
AcDbLine
 10
15.84999899999999
 20
15.01499899999999
 30
0.0
 11
15.84999899999999
 21
-15.01499899999999
 31
0.0
  0
LINE
  5
DE
330
1E
100
AcDbEntity
  8
MO_001_VIEW_PV
  6
C_CENTER_L
100
AcDbLine
 10
14.138107
 20
11.09999799999999
 30
0.0
 11
33.720512
 21
11.09999799999999
 31
0.0
  0
LINE
  5
DF
330
1E
100
AcDbEntity
  8
MO_001_VIEW_PV
  6
C_SOLID_M
100
AcDbLine
 10
32.75
 20
12.099998
 30
0.0
 11
32.75
 21
10.09999799999999
 31
0.0
  0
LINE
  5
E0
330
1E
100
AcDbEntity
  8
MO_001_VIEW_PV
  6
C_SOLID_M
100
AcDbLine
 10
16.449999
 20
12.599998
 30
0.0
 11
32.25
 21
12.599998
 31
0.0
  0
LINE
  5
E1
330
1E
100
AcDbEntity
  8
MO_001_VIEW_PV
  6
C_SOLID_M
100
AcDbLine
 10
16.449999
 20
9.599997999999999
 30
0.0
 11
32.25
 21
9.599997999999999
 31
0.0
  0
LINE
  5
E2
330
1E
100
AcDbEntity
  8
MO_001_VIEW_PV
  6
C_SOLID_M
100
AcDbLine
 10
16.449999
 20
12.099998
 30
0.0
 11
32.75
 21
12.099998
 31
0.0
  0
LINE
  5
E3
330
1E
100
AcDbEntity
  8
MO_001_VIEW_PV
  6
C_SOLID_M
100
AcDbLine
 10
16.449999
 20
10.09999799999999
 30
0.0
 11
32.75
 21
10.09999799999999
 31
0.0
  0
LINE
  5
E4
330
1E
100
AcDbEntity
  8
MO_001_VIEW_PV
  6
C_SOLID_M
100
AcDbLine
 10
32.25
 20
12.599998
 30
0.0
 11
32.25
 21
9.599997999999999
 31
0.0
  0
LINE
  5
E5
330
1E
100
AcDbEntity
  8
MO_001_VIEW_PV
  6
C_SOLID_M
100
AcDbLine
 10
32.249996
 20
12.599998
 30
0.0
 11
32.749996
 21
12.099998
 31
0.0
  0
LINE
  5
E6
330
1E
100
AcDbEntity
  8
MO_001_VIEW_PV
  6
C_SOLID_M
100
AcDbLine
 10
32.749997
 20
10.09999499999999
 30
0.0
 11
32.249996
 21
9.599994999999999
 31
0.0
  0
ARC
  5
E7
330
1E
100
AcDbEntity
  8
MO_001_VIEW_PV
  6
C_SOLID_M
100
AcDbCircle
 10
-0.5190500000000001
 20
-11.09999799999999
 30
0.0
 40
1.389
100
AcDbArc
 50
68.056872
 51
111.943133
  0
ARC
  5
E8
330
1E
100
AcDbEntity
  8
MO_001_VIEW_PV
  6
C_SOLID_M
100
AcDbCircle
 10
-2.447127
 20
-11.09999799999999
 30
0.0
 40
1.389008
100
AcDbArc
 50
97.902784
 51
262.097199
  0
LINE
  5
E9
330
1E
100
AcDbEntity
  8
MO_001_VIEW_PV
  6
C_SOLID_M
100
AcDbLine
 10
-2.638106
 20
15.0
 30
0.0
 11
-2.638106
 21
-15.0
 31
0.0
  0
LINE
  5
EA
330
1E
100
AcDbEntity
  8
MO_001_VIEW_PV
  6
C_SOLID_M
100
AcDbLine
 10
-2.638106
 20
15.0
 30
0.0
 11
-1.0381
 21
15.0
 31
0.0
  0
LINE
  5
EB
330
1E
100
AcDbEntity
  8
MO_001_VIEW_PV
  6
C_SOLID_M
100
AcDbLine
 10
-2.638106
 20
-15.0
 30
0.0
 11
-1.0381
 21
-15.0
 31
0.0
  0
LINE
  5
EC
330
1E
100
AcDbEntity
  8
MO_001_VIEW_PV
  6
C_SOLID_M
100
AcDbLine
 10
-1.0381
 20
15.0
 30
0.0
 11
-1.0381
 21
-15.0
 31
0.0
  0
ARC
  5
ED
330
1E
100
AcDbEntity
  8
MO_001_VIEW_PV
  6
C_SOLID_M
100
AcDbCircle
 10
-2.976134
 20
3.0
 30
0.0
 40
0.6
100
AcDbArc
 50
179.999978
 51
270.0000279999999
  0
ARC
  5
EE
330
1E
100
AcDbEntity
  8
MO_001_VIEW_PV
  6
C_SOLID_M
100
AcDbCircle
 10
-2.836135
 20
8.5
 30
0.0
 40
1.0
100
AcDbArc
 50
89.99998199999998
 51
179.9999639999999
  0
LINE
  5
EF
330
1E
100
AcDbEntity
  8
MO_001_VIEW_PV
  6
C_SOLID_M
100
AcDbLine
 10
-3.83501
 20
8.452707
 30
0.0
 11
-3.575457
 21
2.971627
 31
0.0
  0
LINE
  5
F0
330
1E
100
AcDbEntity
  8
MO_001_VIEW_PV
  6
C_SOLID_M
100
AcDbLine
 10
-1.0381
 20
7.5
 30
0.0
 11
0.0
 21
7.5
 31
0.0
  0
LINE
  5
F1
330
1E
100
AcDbEntity
  8
MO_001_VIEW_PV
  6
C_SOLID_M
100
AcDbLine
 10
-1.0381
 20
-7.5
 30
0.0
 11
0.0
 21
-7.5
 31
0.0
  0
LINE
  5
F2
330
1E
100
AcDbEntity
  8
MO_001_VIEW_PV
  6
C_SOLID_M
100
AcDbLine
 10
-3.338102999999999
 20
-5.510002
 30
0.0
 11
-2.638106
 21
-5.510002
 31
0.0
  0
LINE
  5
F3
330
1E
100
AcDbEntity
  8
MO_001_VIEW_PV
  6
C_SOLID_M
100
AcDbLine
 10
-3.338102999999999
 20
2.521484
 30
0.0
 11
-3.338102999999999
 21
-5.510002
 31
0.0
  0
LINE
  5
F4
330
1E
100
AcDbEntity
  8
MO_001_VIEW_PV
  6
C_SOLID_M
100
AcDbLine
 10
-15.438103
 20
2.272818999999999
 30
0.0
 11
-15.438103
 21
-2.27282
 31
0.0
  0
LINE
  5
F5
330
1E
100
AcDbEntity
  8
MO_001_VIEW_PV
  6
C_SOLID_M
100
AcDbLine
 10
-15.038101
 20
2.379996999999999
 30
0.0
 11
-15.038101
 21
-2.379996999999999
 31
0.0
  0
LINE
  5
F6
330
1E
100
AcDbEntity
  8
MO_001_VIEW_PV
  6
C_SOLID_M
100
AcDbLine
 10
-3.338102999999999
 20
-2.379996999999999
 30
0.0
 11
-15.038101
 21
-2.379996999999999
 31
0.0
  0
LINE
  5
F7
330
1E
100
AcDbEntity
  8
MO_001_VIEW_PV
  6
C_SOLID_M
100
AcDbLine
 10
-15.038101
 20
2.379996999999999
 30
0.0
 11
-3.338102999999999
 21
2.379996999999999
 31
0.0
  0
LINE
  5
F8
330
1E
100
AcDbEntity
  8
MO_001_VIEW_PV
  6
C_SOLID_M
100
AcDbLine
 10
-15.038095
 20
2.379993999999999
 30
0.0
 11
-15.438097
 21
2.272813999999999
 31
0.0
  0
LINE
  5
F9
330
1E
100
AcDbEntity
  8
MO_001_VIEW_PV
  6
C_SOLID_M
100
AcDbLine
 10
-15.038097
 20
-2.379999999999999
 30
0.0
 11
-15.438098
 21
-2.27282
 31
0.0
  0
LINE
  5
FA
330
1E
100
AcDbEntity
  8
MO_001_VIEW_PV
  6
C_SOLID_M
100
AcDbLine
 10
19.6619
 20
1.580002
 30
0.0
 11
20.361902
 21
1.580002
 31
0.0
  0
LINE
  5
FB
330
1E
100
AcDbEntity
  8
MO_001_VIEW_PV
  6
C_SOLID_M
100
AcDbLine
 10
28.96189899999999
 20
2.080001999999999
 30
0.0
 11
28.96189899999999
 21
-2.080001999999999
 31
0.0
  0
LINE
  5
FC
330
1E
100
AcDbEntity
  8
MO_001_VIEW_PV
  6
C_SOLID_M
100
AcDbLine
 10
20.361902
 20
2.379996999999999
 30
0.0
 11
20.361902
 21
1.580002
 31
0.0
  0
LINE
  5
FD
330
1E
100
AcDbEntity
  8
MO_001_VIEW_PV
  6
C_SOLID_M
100
AcDbLine
 10
19.6619
 20
-2.379996999999999
 30
0.0
 11
28.661896
 21
-2.379996999999999
 31
0.0
  0
LINE
  5
FE
330
1E
100
AcDbEntity
  8
MO_001_VIEW_PV
  6
C_SOLID_M
100
AcDbLine
 10
20.361902
 20
2.379996999999999
 30
0.0
 11
28.661896
 21
2.379998
 31
0.0
  0
LINE
  5
FF
330
1E
100
AcDbEntity
  8
MO_001_VIEW_PV
  6
C_SOLID_M
100
AcDbLine
 10
28.661893
 20
2.379993999999999
 30
0.0
 11
28.961892
 21
2.079993999999999
 31
0.0
  0
LINE
  5
100
330
1E
100
AcDbEntity
  8
MO_001_VIEW_PV
  6
C_SOLID_M
100
AcDbLine
 10
28.96189
 20
-2.080008999999999
 30
0.0
 11
28.66189
 21
-2.380008
 31
0.0
  0
LINE
  5
101
330
1E
100
AcDbEntity
  8
MO_001_VIEW_PV
  6
C_SOLID_M
100
AcDbLine
 10
28.661896
 20
2.379996999999999
 30
0.0
 11
28.661896
 21
-2.379996999999999
 31
0.0
  0
LINE
  5
102
330
1E
100
AcDbEntity
  8
MO_001_VIEW_PV
  6
C_SOLID_M
100
AcDbLine
 10
-2.836135
 20
9.5
 30
0.0
 11
-2.638106
 21
9.5
 31
0.0
  0
LINE
  5
103
330
1E
100
AcDbEntity
  8
MO_001_VIEW_PV
  6
C_SOLID_M
100
AcDbLine
 10
-2.976134
 20
2.400002
 30
0.0
 11
-2.638106
 21
2.400002
 31
0.0
  0
ARC
  5
104
330
1E
100
AcDbEntity
  8
MO_001_VIEW_PV
  6
C_SOLID_M
100
AcDbCircle
 10
-0.5190500000000001
 20
-11.09999799999999
 30
0.0
 40
1.389
100
AcDbArc
 50
248.0568669999999
 51
291.9431279999999
  0
LINE
  5
105
330
1E
100
AcDbEntity
  8
MO_001_VIEW_PV
  6
C_SOLID_M
100
AcDbLine
 10
-3.338102999999999
 20
-5.368308999999999
 30
0.0
 11
-2.638106
 21
-5.368308999999999
 31
0.0
  0
LINE
  5
106
330
1E
100
AcDbEntity
  8
MO_001_VIEW_PV
  6
C_SOLID_M
100
AcDbLine
 10
-2.938102999999999
 20
-4.185355999999999
 30
0.0
 11
-2.638106
 21
-4.185355999999999
 31
0.0
  0
LINE
  5
107
330
1E
100
AcDbEntity
  8
MO_001_VIEW_PV
  6
C_SOLID_M
100
AcDbLine
 10
-3.338102999999999
 20
-3.903914999999999
 30
0.0
 11
-2.938102999999999
 21
-3.903914999999999
 31
0.0
  0
LINE
  5
108
330
1E
100
AcDbEntity
  8
MO_001_VIEW_PV
  6
C_SOLID_M
100
AcDbLine
 10
-2.938102999999999
 20
1.063895999999999
 30
0.0
 11
-2.638106
 21
1.063895999999999
 31
0.0
  0
LINE
  5
109
330
1E
100
AcDbEntity
  8
MO_001_VIEW_PV
  6
C_SOLID_M
100
AcDbLine
 10
-3.338102999999999
 20
1.464401
 30
0.0
 11
-2.938102999999999
 21
1.464401
 31
0.0
  0
LINE
  5
10A
330
1E
100
AcDbEntity
  8
MO_001_VIEW_PV
  6
C_SOLID_M
100
AcDbLine
 10
-2.938102999999999
 20
-1.063895999999999
 30
0.0
 11
-2.638106
 21
-1.063895999999999
 31
0.0
  0
LINE
  5
10B
330
1E
100
AcDbEntity
  8
MO_001_VIEW_PV
  6
C_SOLID_M
100
AcDbLine
 10
-3.338102999999999
 20
-1.464401
 30
0.0
 11
-2.938102999999999
 21
-1.464401
 31
0.0
  0
LINE
  5
10C
330
1E
100
AcDbEntity
  8
MO_001_VIEW_PV
  6
C_SOLID_M
100
AcDbLine
 10
-2.938102999999999
 20
-3.903914999999999
 30
0.0
 11
-2.938102999999999
 21
-5.368308999999999
 31
0.0
  0
LINE
  5
10D
330
1E
100
AcDbEntity
  8
MO_001_VIEW_PV
  6
C_SOLID_M
100
AcDbLine
 10
-2.938102999999999
 20
1.464401
 30
0.0
 11
-2.938102999999999
 21
-1.464401
 31
0.0
  0
LINE
  5
10E
330
1E
100
AcDbEntity
  8
MO_001_VIEW_PV
  6
C_CENTER_L
100
AcDbLine
 10
14.138107
 20
-11.09999799999999
 30
0.0
 11
33.720512
 21
-11.09999799999999
 31
0.0
  0
LINE
  5
10F
330
1E
100
AcDbEntity
  8
MO_001_VIEW_PV
  6
C_SOLID_M
100
AcDbLine
 10
32.75
 20
-12.099998
 30
0.0
 11
32.75
 21
-10.09999799999999
 31
0.0
  0
LINE
  5
110
330
1E
100
AcDbEntity
  8
MO_001_VIEW_PV
  6
C_SOLID_M
100
AcDbLine
 10
16.449999
 20
-12.599998
 30
0.0
 11
32.25
 21
-12.599998
 31
0.0
  0
LINE
  5
111
330
1E
100
AcDbEntity
  8
MO_001_VIEW_PV
  6
C_SOLID_M
100
AcDbLine
 10
16.449999
 20
-9.599997999999999
 30
0.0
 11
32.25
 21
-9.599997999999999
 31
0.0
  0
LINE
  5
112
330
1E
100
AcDbEntity
  8
MO_001_VIEW_PV
  6
C_SOLID_M
100
AcDbLine
 10
16.449999
 20
-12.099998
 30
0.0
 11
32.75
 21
-12.099998
 31
0.0
  0
LINE
  5
113
330
1E
100
AcDbEntity
  8
MO_001_VIEW_PV
  6
C_SOLID_M
100
AcDbLine
 10
16.449999
 20
-10.09999799999999
 30
0.0
 11
32.75
 21
-10.09999799999999
 31
0.0
  0
LINE
  5
114
330
1E
100
AcDbEntity
  8
MO_001_VIEW_PV
  6
C_SOLID_M
100
AcDbLine
 10
32.25
 20
-12.599998
 30
0.0
 11
32.25
 21
-9.599997999999999
 31
0.0
  0
LINE
  5
115
330
1E
100
AcDbEntity
  8
MO_001_VIEW_PV
  6
C_SOLID_M
100
AcDbLine
 10
32.249995
 20
-12.600002
 30
0.0
 11
32.749996
 21
-12.100001
 31
0.0
  0
LINE
  5
116
330
1E
100
AcDbEntity
  8
MO_001_VIEW_PV
  6
C_SOLID_M
100
AcDbLine
 10
32.749996
 20
-10.099999
 30
0.0
 11
32.249995
 21
-9.599999
 31
0.0
  0
LINE
  5
117
330
1E
100
AcDbEntity
  8
MO_001_VIEW_PV
  6
C_SOLID_M
100
AcDbLine
 10
16.049999
 20
14.300003
 30
0.0
 11
16.049999
 21
-14.300003
 31
0.0
  0
LINE
  5
118
330
1E
100
AcDbEntity
  8
MO_001_VIEW_PV
  6
C_SOLID_M
100
AcDbLine
 10
16.449999
 20
14.300003
 30
0.0
 11
16.449999
 21
-14.300003
 31
0.0
  0
LINE
  5
119
330
1E
100
AcDbEntity
  8
MO_001_VIEW_PV
  6
C_SOLID_M
100
AcDbLine
 10
16.84999799999999
 20
-7.090569
 30
0.0
 11
18.349998
 21
-7.090569
 31
0.0
  0
LINE
  5
11A
330
1E
100
AcDbEntity
  8
MO_001_VIEW_PV
  6
C_SOLID_M
100
AcDbLine
 10
16.84999799999999
 20
-7.493744
 30
0.0
 11
18.349998
 21
-7.493744
 31
0.0
  0
LINE
  5
11B
330
1E
100
AcDbEntity
  8
MO_001_VIEW_PV
  6
C_SOLID_M
100
AcDbLine
 10
16.84999799999999
 20
-7.550003
 30
0.0
 11
18.349998
 21
-7.550003
 31
0.0
  0
LINE
  5
11C
330
1E
100
AcDbEntity
  8
MO_001_VIEW_PV
  6
C_SOLID_M
100
AcDbLine
 10
16.84999799999999
 20
-6.331870999999999
 30
0.0
 11
17.950872
 21
-6.331870999999999
 31
0.0
  0
LINE
  5
11D
330
1E
100
AcDbEntity
  8
MO_001_VIEW_PV
  6
C_SOLID_M
100
AcDbLine
 10
16.84999799999999
 20
-5.149216
 30
0.0
 11
17.94999899999999
 21
-5.149216
 31
0.0
  0
LINE
  5
11E
330
1E
100
AcDbEntity
  8
MO_001_VIEW_PV
  6
C_SOLID_M
100
AcDbLine
 10
16.84999799999999
 20
-4.84037
 30
0.0
 11
17.950872
 21
-4.84037
 31
0.0
  0
LINE
  5
11F
330
1E
100
AcDbEntity
  8
MO_001_VIEW_PV
  6
C_SOLID_M
100
AcDbLine
 10
17.44999899999999
 20
-2.207237
 30
0.0
 11
17.94999899999999
 21
-2.207237
 31
0.0
  0
LINE
  5
120
330
1E
100
AcDbEntity
  8
MO_001_VIEW_PV
  6
C_SOLID_M
100
AcDbLine
 10
17.44999899999999
 20
-0.395309
 30
0.0
 11
17.94999899999999
 21
-0.395309
 31
0.0
  0
LINE
  5
121
330
1E
100
AcDbEntity
  8
MO_001_VIEW_PV
  6
C_SOLID_M
100
AcDbLine
 10
17.44999899999999
 20
-0.325302
 30
0.0
 11
17.94999899999999
 21
-0.325302
 31
0.0
  0
LINE
  5
122
330
1E
100
AcDbEntity
  8
MO_001_VIEW_PV
  6
C_SOLID_M
100
AcDbLine
 10
17.04999899999999
 20
2.748596
 30
0.0
 11
17.94999899999999
 21
2.748596
 31
0.0
  0
LINE
  5
123
330
1E
100
AcDbEntity
  8
MO_001_VIEW_PV
  6
C_SOLID_M
100
AcDbLine
 10
17.04999899999999
 20
2.950179999999999
 30
0.0
 11
17.94999899999999
 21
2.950179999999999
 31
0.0
  0
LINE
  5
124
330
1E
100
AcDbEntity
  8
MO_001_VIEW_PV
  6
C_SOLID_M
100
AcDbLine
 10
17.04999899999999
 20
4.543563999999999
 30
0.0
 11
17.94999899999999
 21
4.543563999999999
 31
0.0
  0
LINE
  5
125
330
1E
100
AcDbEntity
  8
MO_001_VIEW_PV
  6
C_SOLID_M
100
AcDbLine
 10
16.84999799999999
 20
6.348319999999999
 30
0.0
 11
17.951235
 21
6.348319999999999
 31
0.0
  0
LINE
  5
126
330
1E
100
AcDbEntity
  8
MO_001_VIEW_PV
  6
C_SOLID_M
100
AcDbLine
 10
16.84999799999999
 20
6.72718
 30
0.0
 11
17.94999899999999
 21
6.72718
 31
0.0
  0
LINE
  5
127
330
1E
100
AcDbEntity
  8
MO_001_VIEW_PV
  6
C_SOLID_M
100
AcDbLine
 10
16.84999799999999
 20
7.356453
 30
0.0
 11
17.94999899999999
 21
7.356453
 31
0.0
  0
LINE
  5
128
330
1E
100
AcDbEntity
  8
MO_001_VIEW_PV
  6
C_SOLID_M
100
AcDbLine
 10
18.349998
 20
-7.090569
 30
0.0
 11
18.349998
 21
-7.550003
 31
0.0
  0
LINE
  5
129
330
1E
100
AcDbEntity
  8
MO_001_VIEW_PV
  6
C_SOLID_M
100
AcDbLine
 10
18.349998
 20
7.256453999999999
 30
0.0
 11
18.349998
 21
6.448318
 31
0.0
  0
LINE
  5
12A
330
1E
100
AcDbEntity
  8
MO_001_VIEW_PV
  6
C_SOLID_M
100
AcDbLine
 10
18.349998
 20
4.243567999999999
 30
0.0
 11
18.349998
 21
3.048591999999999
 31
0.0
  0
LINE
  5
12B
330
1E
100
AcDbEntity
  8
MO_001_VIEW_PV
  6
C_SOLID_M
100
AcDbLine
 10
18.349998
 20
-0.7252960000000001
 30
0.0
 11
18.349998
 21
-1.807235999999999
 31
0.0
  0
LINE
  5
12C
330
1E
100
AcDbEntity
  8
MO_001_VIEW_PV
  6
C_SOLID_M
100
AcDbLine
 10
18.349998
 20
-5.040366999999999
 30
0.0
 11
18.349998
 21
-6.131866
 31
0.0
  0
LINE
  5
12D
330
1E
100
AcDbEntity
  8
MO_001_VIEW_PV
  6
C_SOLID_M
100
AcDbLine
 10
16.049999
 20
14.300003
 30
0.0
 11
16.449999
 21
14.300003
 31
0.0
  0
LINE
  5
12E
330
1E
100
AcDbEntity
  8
MO_001_VIEW_PV
  6
C_SOLID_M
100
AcDbLine
 10
16.049999
 20
-14.300003
 30
0.0
 11
16.449999
 21
-14.300003
 31
0.0
  0
ARC
  5
12F
330
1E
100
AcDbEntity
  8
MO_001_VIEW_PV
  6
C_SOLID_M
100
AcDbCircle
 10
16.84999799999999
 20
-7.949996999999999
 30
0.0
 40
0.4
100
AcDbArc
 50
90.000002
 51
180.000005
  0
ARC
  5
130
330
1E
100
AcDbEntity
  8
MO_001_VIEW_PV
  6
C_SOLID_M
100
AcDbCircle
 10
16.84999799999999
 20
-7.893745
 30
0.0
 40
0.4
100
AcDbArc
 50
90.000002
 51
180.000005
  0
ARC
  5
131
330
1E
100
AcDbEntity
  8
MO_001_VIEW_PV
  6
C_SOLID_M
100
AcDbCircle
 10
16.84999799999999
 20
-7.890571999999999
 30
0.0
 40
0.8
100
AcDbArc
 50
90.000002
 51
119.999962
  0
ARC
  5
132
330
1E
100
AcDbEntity
  8
MO_001_VIEW_PV
  6
C_SOLID_M
100
AcDbCircle
 10
17.94999899999999
 20
-0.795311
 30
0.0
 40
0.4
100
AcDbArc
 50
0.0
 51
90.000002
  0
ARC
  5
133
330
1E
100
AcDbEntity
  8
MO_001_VIEW_PV
  6
C_SOLID_M
100
AcDbCircle
 10
17.94999899999999
 20
-0.7252960000000001
 30
0.0
 40
0.4
100
AcDbArc
 50
0.0
 51
90.000002
  0
ARC
  5
134
330
1E
100
AcDbEntity
  8
MO_001_VIEW_PV
  6
C_SOLID_M
100
AcDbCircle
 10
17.94999899999999
 20
-1.807235999999999
 30
0.0
 40
0.4
100
AcDbArc
 50
269.999998
 51
0.0
  0
ARC
  5
135
330
1E
100
AcDbEntity
  8
MO_001_VIEW_PV
  6
C_SOLID_M
100
AcDbCircle
 10
17.44999899999999
 20
-3.207237
 30
0.0
 40
1.0
100
AcDbArc
 50
90.000002
 51
180.000005
  0
ARC
  5
136
330
1E
100
AcDbEntity
  8
MO_001_VIEW_PV
  6
C_SOLID_M
100
AcDbCircle
 10
17.44999899999999
 20
0.604691
 30
0.0
 40
1.0
100
AcDbArc
 50
180.000009
 51
269.999998
  0
ARC
  5
137
330
1E
100
AcDbEntity
  8
MO_001_VIEW_PV
  6
C_SOLID_M
100
AcDbCircle
 10
17.44999899999999
 20
0.6746979999999999
 30
0.0
 40
1.0
100
AcDbArc
 50
180.000009
 51
269.999998
  0
ARC
  5
138
330
1E
100
AcDbEntity
  8
MO_001_VIEW_PV
  6
C_SOLID_M
100
AcDbCircle
 10
17.04999899999999
 20
2.148597999999999
 30
0.0
 40
0.6
100
AcDbArc
 50
90.000002
 51
180.000005
  0
ARC
  5
139
330
1E
100
AcDbEntity
  8
MO_001_VIEW_PV
  6
C_SOLID_M
100
AcDbCircle
 10
17.04999899999999
 20
2.350181999999999
 30
0.0
 40
0.6
100
AcDbArc
 50
90.000002
 51
180.000005
  0
ARC
  5
13A
330
1E
100
AcDbEntity
  8
MO_001_VIEW_PV
  6
C_SOLID_M
100
AcDbCircle
 10
16.84999799999999
 20
7.756453999999999
 30
0.0
 40
0.4
100
AcDbArc
 50
180.000009
 51
269.999998
  0
ARC
  5
13B
330
1E
100
AcDbEntity
  8
MO_001_VIEW_PV
  6
C_SOLID_M
100
AcDbCircle
 10
16.84999799999999
 20
6.327179
 30
0.0
 40
0.4
100
AcDbArc
 50
90.000002
 51
180.000005
  0
ARC
  5
13C
330
1E
100
AcDbEntity
  8
MO_001_VIEW_PV
  6
C_SOLID_M
100
AcDbCircle
 10
16.84999799999999
 20
5.948318
 30
0.0
 40
0.4
100
AcDbArc
 50
90.000002
 51
180.000005
  0
POLYLINE
  5
13D
330
1E
100
AcDbEntity
  8
MO_001_VIEW_PV
  6
C_SOLID_M
100
AcDb2dPolyline
 66
     1
 10
0.0
 20
0.0
 30
0.0
  0
VERTEX
  5
28F
330
13D
100
AcDbEntity
  8
MO_001_VIEW_PV
  6
C_SOLID_M
100
AcDbVertex
100
AcDb2dVertex
 10
17.94999899999999
 20
6.72718
 30
0.0
  0
VERTEX
  5
290
330
13D
100
AcDbEntity
  8
MO_001_VIEW_PV
  6
C_SOLID_M
100
AcDbVertex
100
AcDb2dVertex
 10
18.103072
 20
6.734791999999999
 30
0.0
  0
VERTEX
  5
291
330
13D
100
AcDbEntity
  8
MO_001_VIEW_PV
  6
C_SOLID_M
100
AcDbVertex
100
AcDb2dVertex
 10
18.232841
 20
6.756469
 30
0.0
  0
VERTEX
  5
292
330
13D
100
AcDbEntity
  8
MO_001_VIEW_PV
  6
C_SOLID_M
100
AcDbVertex
100
AcDb2dVertex
 10
18.28258599999999
 20
6.771622999999999
 30
0.0
  0
VERTEX
  5
293
330
13D
100
AcDbEntity
  8
MO_001_VIEW_PV
  6
C_SOLID_M
100
AcDbVertex
100
AcDb2dVertex
 10
18.332775
 20
6.798150999999999
 30
0.0
  0
VERTEX
  5
294
330
13D
100
AcDbEntity
  8
MO_001_VIEW_PV
  6
C_SOLID_M
100
AcDbVertex
100
AcDb2dVertex
 10
18.349998
 20
6.827178999999999
 30
0.0
  0
SEQEND
  5
295
330
13D
100
AcDbEntity
  8
MO_001_VIEW_PV
  6
C_SOLID_M
  0
POLYLINE
  5
145
330
1E
100
AcDbEntity
  8
MO_001_VIEW_PV
  6
C_SOLID_M
100
AcDb2dPolyline
 66
     1
 10
0.0
 20
0.0
 30
0.0
  0
VERTEX
  5
296
330
145
100
AcDbEntity
  8
MO_001_VIEW_PV
  6
C_SOLID_M
100
AcDbVertex
100
AcDb2dVertex
 10
18.349998
 20
7.256453999999999
 30
0.0
  0
VERTEX
  5
297
330
145
100
AcDbEntity
  8
MO_001_VIEW_PV
  6
C_SOLID_M
100
AcDbVertex
100
AcDb2dVertex
 10
18.342313
 20
7.275963
 30
0.0
  0
VERTEX
  5
298
330
145
100
AcDbEntity
  8
MO_001_VIEW_PV
  6
C_SOLID_M
100
AcDbVertex
100
AcDb2dVertex
 10
18.302767
 20
7.303592999999999
 30
0.0
  0
VERTEX
  5
299
330
145
100
AcDbEntity
  8
MO_001_VIEW_PV
  6
C_SOLID_M
100
AcDbVertex
100
AcDb2dVertex
 10
18.232841
 20
7.327163999999999
 30
0.0
  0
VERTEX
  5
29A
330
145
100
AcDbEntity
  8
MO_001_VIEW_PV
  6
C_SOLID_M
100
AcDbVertex
100
AcDb2dVertex
 10
18.103072
 20
7.348841
 30
0.0
  0
VERTEX
  5
29B
330
145
100
AcDbEntity
  8
MO_001_VIEW_PV
  6
C_SOLID_M
100
AcDbVertex
100
AcDb2dVertex
 10
17.94999899999999
 20
7.356453
 30
0.0
  0
SEQEND
  5
29C
330
145
100
AcDbEntity
  8
MO_001_VIEW_PV
  6
C_SOLID_M
  0
POLYLINE
  5
14D
330
1E
100
AcDbEntity
  8
MO_001_VIEW_PV
  6
C_SOLID_M
100
AcDb2dPolyline
 66
     1
 10
0.0
 20
0.0
 30
0.0
  0
VERTEX
  5
29D
330
14D
100
AcDbEntity
  8
MO_001_VIEW_PV
  6
C_SOLID_M
100
AcDbVertex
100
AcDb2dVertex
 10
17.94999899999999
 20
6.348319999999999
 30
0.0
  0
VERTEX
  5
29E
330
14D
100
AcDbEntity
  8
MO_001_VIEW_PV
  6
C_SOLID_M
100
AcDbVertex
100
AcDb2dVertex
 10
18.103072
 20
6.355932
 30
0.0
  0
VERTEX
  5
29F
330
14D
100
AcDbEntity
  8
MO_001_VIEW_PV
  6
C_SOLID_M
100
AcDbVertex
100
AcDb2dVertex
 10
18.232841
 20
6.377608999999999
 30
0.0
  0
VERTEX
  5
2A0
330
14D
100
AcDbEntity
  8
MO_001_VIEW_PV
  6
C_SOLID_M
100
AcDbVertex
100
AcDb2dVertex
 10
18.28258599999999
 20
6.392762
 30
0.0
  0
VERTEX
  5
2A1
330
14D
100
AcDbEntity
  8
MO_001_VIEW_PV
  6
C_SOLID_M
100
AcDbVertex
100
AcDb2dVertex
 10
18.332775
 20
6.41929
 30
0.0
  0
VERTEX
  5
2A2
330
14D
100
AcDbEntity
  8
MO_001_VIEW_PV
  6
C_SOLID_M
100
AcDbVertex
100
AcDb2dVertex
 10
18.349998
 20
6.448318
 30
0.0
  0
SEQEND
  5
2A3
330
14D
100
AcDbEntity
  8
MO_001_VIEW_PV
  6
C_SOLID_M
  0
POLYLINE
  5
155
330
1E
100
AcDbEntity
  8
MO_001_VIEW_PV
  6
C_SOLID_M
100
AcDb2dPolyline
 66
     1
 10
0.0
 20
0.0
 30
0.0
  0
VERTEX
  5
2A4
330
155
100
AcDbEntity
  8
MO_001_VIEW_PV
  6
C_SOLID_M
100
AcDbVertex
100
AcDb2dVertex
 10
17.94999899999999
 20
2.950188
 30
0.0
  0
VERTEX
  5
2A5
330
155
100
AcDbEntity
  8
MO_001_VIEW_PV
  6
C_SOLID_M
100
AcDbVertex
100
AcDb2dVertex
 10
18.02803499999999
 20
2.955951999999999
 30
0.0
  0
VERTEX
  5
2A6
330
155
100
AcDbEntity
  8
MO_001_VIEW_PV
  6
C_SOLID_M
100
AcDbVertex
100
AcDb2dVertex
 10
18.138557
 20
2.985611
 30
0.0
  0
VERTEX
  5
2A7
330
155
100
AcDbEntity
  8
MO_001_VIEW_PV
  6
C_SOLID_M
100
AcDbVertex
100
AcDb2dVertex
 10
18.232841
 20
3.038054
 30
0.0
  0
VERTEX
  5
2A8
330
155
100
AcDbEntity
  8
MO_001_VIEW_PV
  6
C_SOLID_M
100
AcDbVertex
100
AcDb2dVertex
 10
18.28258599999999
 20
3.083515
 30
0.0
  0
VERTEX
  5
2A9
330
155
100
AcDbEntity
  8
MO_001_VIEW_PV
  6
C_SOLID_M
100
AcDbVertex
100
AcDb2dVertex
 10
18.332775
 20
3.163099
 30
0.0
  0
VERTEX
  5
2AA
330
155
100
AcDbEntity
  8
MO_001_VIEW_PV
  6
C_SOLID_M
100
AcDbVertex
100
AcDb2dVertex
 10
18.349998
 20
3.250183
 30
0.0
  0
SEQEND
  5
2AB
330
155
100
AcDbEntity
  8
MO_001_VIEW_PV
  6
C_SOLID_M
  0
POLYLINE
  5
15E
330
1E
100
AcDbEntity
  8
MO_001_VIEW_PV
  6
C_SOLID_M
100
AcDb2dPolyline
 66
     1
 10
0.0
 20
0.0
 30
0.0
  0
VERTEX
  5
2AC
330
15E
100
AcDbEntity
  8
MO_001_VIEW_PV
  6
C_SOLID_M
100
AcDbVertex
100
AcDb2dVertex
 10
18.349998
 20
4.243567999999999
 30
0.0
  0
VERTEX
  5
2AD
330
15E
100
AcDbEntity
  8
MO_001_VIEW_PV
  6
C_SOLID_M
100
AcDbVertex
100
AcDb2dVertex
 10
18.342313
 20
4.302095999999999
 30
0.0
  0
VERTEX
  5
2AE
330
15E
100
AcDbEntity
  8
MO_001_VIEW_PV
  6
C_SOLID_M
100
AcDbVertex
100
AcDb2dVertex
 10
18.302767
 20
4.384989
 30
0.0
  0
VERTEX
  5
2AF
330
15E
100
AcDbEntity
  8
MO_001_VIEW_PV
  6
C_SOLID_M
100
AcDbVertex
100
AcDb2dVertex
 10
18.232841
 20
4.455702999999999
 30
0.0
  0
VERTEX
  5
2B0
330
15E
100
AcDbEntity
  8
MO_001_VIEW_PV
  6
C_SOLID_M
100
AcDbVertex
100
AcDb2dVertex
 10
18.172227
 20
4.493012
 30
0.0
  0
VERTEX
  5
2B1
330
15E
100
AcDbEntity
  8
MO_001_VIEW_PV
  6
C_SOLID_M
100
AcDbVertex
100
AcDb2dVertex
 10
18.066113
 20
4.530653
 30
0.0
  0
VERTEX
  5
2B2
330
15E
100
AcDbEntity
  8
MO_001_VIEW_PV
  6
C_SOLID_M
100
AcDbVertex
100
AcDb2dVertex
 10
17.94999899999999
 20
4.543571
 30
0.0
  0
SEQEND
  5
2B3
330
15E
100
AcDbEntity
  8
MO_001_VIEW_PV
  6
C_SOLID_M
  0
POLYLINE
  5
167
330
1E
100
AcDbEntity
  8
MO_001_VIEW_PV
  6
C_SOLID_M
100
AcDb2dPolyline
 66
     1
 10
0.0
 20
0.0
 30
0.0
  0
VERTEX
  5
2B4
330
167
100
AcDbEntity
  8
MO_001_VIEW_PV
  6
C_SOLID_M
100
AcDbVertex
100
AcDb2dVertex
 10
17.94999899999999
 20
2.748588999999999
 30
0.0
  0
VERTEX
  5
2B5
330
167
100
AcDbEntity
  8
MO_001_VIEW_PV
  6
C_SOLID_M
100
AcDbVertex
100
AcDb2dVertex
 10
18.02803499999999
 20
2.754353
 30
0.0
  0
VERTEX
  5
2B6
330
167
100
AcDbEntity
  8
MO_001_VIEW_PV
  6
C_SOLID_M
100
AcDbVertex
100
AcDb2dVertex
 10
18.138557
 20
2.784013
 30
0.0
  0
VERTEX
  5
2B7
330
167
100
AcDbEntity
  8
MO_001_VIEW_PV
  6
C_SOLID_M
100
AcDbVertex
100
AcDb2dVertex
 10
18.232841
 20
2.836456999999999
 30
0.0
  0
VERTEX
  5
2B8
330
167
100
AcDbEntity
  8
MO_001_VIEW_PV
  6
C_SOLID_M
100
AcDbVertex
100
AcDb2dVertex
 10
18.28258599999999
 20
2.881918999999999
 30
0.0
  0
VERTEX
  5
2B9
330
167
100
AcDbEntity
  8
MO_001_VIEW_PV
  6
C_SOLID_M
100
AcDbVertex
100
AcDb2dVertex
 10
18.332775
 20
2.961504999999999
 30
0.0
  0
VERTEX
  5
2BA
330
167
100
AcDbEntity
  8
MO_001_VIEW_PV
  6
C_SOLID_M
100
AcDbVertex
100
AcDb2dVertex
 10
18.349998
 20
3.048591999999999
 30
0.0
  0
SEQEND
  5
2BB
330
167
100
AcDbEntity
  8
MO_001_VIEW_PV
  6
C_SOLID_M
  0
POLYLINE
  5
170
330
1E
100
AcDbEntity
  8
MO_001_VIEW_PV
  6
C_SOLID_M
100
AcDb2dPolyline
 66
     1
 10
0.0
 20
0.0
 30
0.0
  0
VERTEX
  5
2BC
330
170
100
AcDbEntity
  8
MO_001_VIEW_PV
  6
C_SOLID_M
100
AcDbVertex
100
AcDb2dVertex
 10
18.349998
 20
-5.349212999999999
 30
0.0
  0
VERTEX
  5
2BD
330
170
100
AcDbEntity
  8
MO_001_VIEW_PV
  6
C_SOLID_M
100
AcDbVertex
100
AcDb2dVertex
 10
18.342313
 20
-5.310194999999999
 30
0.0
  0
VERTEX
  5
2BE
330
170
100
AcDbEntity
  8
MO_001_VIEW_PV
  6
C_SOLID_M
100
AcDbVertex
100
AcDb2dVertex
 10
18.302767
 20
-5.254934999999999
 30
0.0
  0
VERTEX
  5
2BF
330
170
100
AcDbEntity
  8
MO_001_VIEW_PV
  6
C_SOLID_M
100
AcDbVertex
100
AcDb2dVertex
 10
18.232841
 20
-5.207792999999999
 30
0.0
  0
VERTEX
  5
2C0
330
170
100
AcDbEntity
  8
MO_001_VIEW_PV
  6
C_SOLID_M
100
AcDbVertex
100
AcDb2dVertex
 10
18.172227
 20
-5.182921
 30
0.0
  0
VERTEX
  5
2C1
330
170
100
AcDbEntity
  8
MO_001_VIEW_PV
  6
C_SOLID_M
100
AcDbVertex
100
AcDb2dVertex
 10
18.066113
 20
-5.157826999999999
 30
0.0
  0
VERTEX
  5
2C2
330
170
100
AcDbEntity
  8
MO_001_VIEW_PV
  6
C_SOLID_M
100
AcDbVertex
100
AcDb2dVertex
 10
17.94999899999999
 20
-5.149216
 30
0.0
  0
SEQEND
  5
2C3
330
170
100
AcDbEntity
  8
MO_001_VIEW_PV
  6
C_SOLID_M
  0
POLYLINE
  5
179
330
1E
100
AcDbEntity
  8
MO_001_VIEW_PV
  6
C_SOLID_M
100
AcDb2dPolyline
 66
     1
 10
0.0
 20
0.0
 30
0.0
  0
VERTEX
  5
2C4
330
179
100
AcDbEntity
  8
MO_001_VIEW_PV
  6
C_SOLID_M
100
AcDbVertex
100
AcDb2dVertex
 10
17.94999899999999
 20
-6.331870999999999
 30
0.0
  0
VERTEX
  5
2C5
330
179
100
AcDbEntity
  8
MO_001_VIEW_PV
  6
C_SOLID_M
100
AcDbVertex
100
AcDb2dVertex
 10
18.103072
 20
-6.316646999999999
 30
0.0
  0
VERTEX
  5
2C6
330
179
100
AcDbEntity
  8
MO_001_VIEW_PV
  6
C_SOLID_M
100
AcDbVertex
100
AcDb2dVertex
 10
18.172227
 20
-6.298163999999999
 30
0.0
  0
VERTEX
  5
2C7
330
179
100
AcDbEntity
  8
MO_001_VIEW_PV
  6
C_SOLID_M
100
AcDbVertex
100
AcDb2dVertex
 10
18.232841
 20
-6.273291
 30
0.0
  0
VERTEX
  5
2C8
330
179
100
AcDbEntity
  8
MO_001_VIEW_PV
  6
C_SOLID_M
100
AcDbVertex
100
AcDb2dVertex
 10
18.28258599999999
 20
-6.242983
 30
0.0
  0
VERTEX
  5
2C9
330
179
100
AcDbEntity
  8
MO_001_VIEW_PV
  6
C_SOLID_M
100
AcDbVertex
100
AcDb2dVertex
 10
18.332775
 20
-6.189924999999999
 30
0.0
  0
VERTEX
  5
2CA
330
179
100
AcDbEntity
  8
MO_001_VIEW_PV
  6
C_SOLID_M
100
AcDbVertex
100
AcDb2dVertex
 10
18.349998
 20
-6.131866
 30
0.0
  0
SEQEND
  5
2CB
330
179
100
AcDbEntity
  8
MO_001_VIEW_PV
  6
C_SOLID_M
  0
POLYLINE
  5
182
330
1E
100
AcDbEntity
  8
MO_001_VIEW_PV
  6
C_SOLID_M
100
AcDb2dPolyline
 66
     1
 10
0.0
 20
0.0
 30
0.0
  0
VERTEX
  5
2CC
330
182
100
AcDbEntity
  8
MO_001_VIEW_PV
  6
C_SOLID_M
100
AcDbVertex
100
AcDb2dVertex
 10
18.349998
 20
-5.040366999999999
 30
0.0
  0
VERTEX
  5
2CD
330
182
100
AcDbEntity
  8
MO_001_VIEW_PV
  6
C_SOLID_M
100
AcDbVertex
100
AcDb2dVertex
 10
18.342313
 20
-5.001348
 30
0.0
  0
VERTEX
  5
2CE
330
182
100
AcDbEntity
  8
MO_001_VIEW_PV
  6
C_SOLID_M
100
AcDbVertex
100
AcDb2dVertex
 10
18.302767
 20
-4.946086
 30
0.0
  0
VERTEX
  5
2CF
330
182
100
AcDbEntity
  8
MO_001_VIEW_PV
  6
C_SOLID_M
100
AcDbVertex
100
AcDb2dVertex
 10
18.232841
 20
-4.898943
 30
0.0
  0
VERTEX
  5
2D0
330
182
100
AcDbEntity
  8
MO_001_VIEW_PV
  6
C_SOLID_M
100
AcDbVertex
100
AcDb2dVertex
 10
18.172227
 20
-4.874069
 30
0.0
  0
VERTEX
  5
2D1
330
182
100
AcDbEntity
  8
MO_001_VIEW_PV
  6
C_SOLID_M
100
AcDbVertex
100
AcDb2dVertex
 10
18.066113
 20
-4.848975
 30
0.0
  0
VERTEX
  5
2D2
330
182
100
AcDbEntity
  8
MO_001_VIEW_PV
  6
C_SOLID_M
100
AcDbVertex
100
AcDb2dVertex
 10
17.94999899999999
 20
-4.840362999999999
 30
0.0
  0
SEQEND
  5
2D3
330
182
100
AcDbEntity
  8
MO_001_VIEW_PV
  6
C_SOLID_M
  0
ARC
  5
18B
330
1E
100
AcDbEntity
  8
MO_001_VIEW_PV
  6
C_SOLID_M
100
AcDbCircle
 10
16.84999799999999
 20
-6.731864999999999
 30
0.0
 40
0.4
100
AcDbArc
 50
90.000002
 51
180.000005
  0
ARC
  5
18C
330
1E
100
AcDbEntity
  8
MO_001_VIEW_PV
  6
C_SOLID_M
100
AcDbCircle
 10
16.84999799999999
 20
-5.549216999999999
 30
0.0
 40
0.4
100
AcDbArc
 50
90.000002
 51
180.000005
  0
ARC
  5
18D
330
1E
100
AcDbEntity
  8
MO_001_VIEW_PV
  6
C_SOLID_M
100
AcDbCircle
 10
16.84999799999999
 20
-5.640366
 30
0.0
 40
0.8
100
AcDbArc
 50
90.000002
 51
119.999962
  0
ARC
  5
18E
330
1E
100
AcDbEntity
  8
MO_001_VIEW_PV
  6
C_SOLID_M
100
AcDbCircle
 10
17.04999899999999
 20
5.143562
 30
0.0
 40
0.6
100
AcDbArc
 50
180.000009
 51
269.999998
  0
LINE
  5
18F
330
1E
100
AcDbEntity
  8
MO_001_VIEW_PV
  6
C_SOLID_M
100
AcDbLine
 10
19.6619
 20
2.879996999999999
 30
0.0
 11
19.6619
 21
-2.879996999999999
 31
0.0
  0
LINE
  5
190
330
1E
100
AcDbEntity
  8
MO_001_VIEW_PV
  6
C_SOLID_M
100
AcDbLine
 10
19.28092
 20
2.879996999999999
 30
0.0
 11
19.6619
 21
2.879996999999999
 31
0.0
  0
LINE
  5
191
330
1E
100
AcDbEntity
  8
MO_001_VIEW_PV
  6
C_SOLID_M
100
AcDbLine
 10
19.49024999999999
 20
-2.879996999999999
 30
0.0
 11
19.6619
 21
-2.879996999999999
 31
0.0
  0
LINE
  5
192
330
1E
100
AcDbEntity
  8
MO_001_VIEW_PV
  6
C_SOLID_M
100
AcDbLine
 10
18.349998
 20
-5.770004
 30
0.0
 11
18.40819899999999
 21
-5.770004
 31
0.0
  0
LINE
  5
193
330
1E
100
AcDbEntity
  8
MO_001_VIEW_PV
  6
C_SOLID_M
100
AcDbLine
 10
18.422319
 20
-4.889998999999999
 30
0.0
 11
18.766401
 21
-4.889998999999999
 31
0.0
  0
LINE
  5
194
330
1E
100
AcDbEntity
  8
MO_001_VIEW_PV
  6
C_SOLID_M
100
AcDbLine
 10
18.782942
 20
-4.010002
 30
0.0
 11
19.12459899999999
 21
-4.010002
 31
0.0
  0
LINE
  5
195
330
1E
100
AcDbEntity
  8
MO_001_VIEW_PV
  6
C_SOLID_M
100
AcDbLine
 10
18.049999
 20
6.145996
 30
0.0
 11
18.22909899999999
 21
6.145996
 31
0.0
  0
LINE
  5
196
330
1E
100
AcDbEntity
  8
MO_001_VIEW_PV
  6
C_SOLID_M
100
AcDbLine
 10
18.21854599999999
 20
5.391998
 30
0.0
 11
18.58729899999999
 21
5.391998
 31
0.0
  0
LINE
  5
197
330
1E
100
AcDbEntity
  8
MO_001_VIEW_PV
  6
C_SOLID_M
100
AcDbLine
 10
18.575203
 20
4.637999999999999
 30
0.0
 11
18.945501
 21
4.637999999999999
 31
0.0
  0
LINE
  5
198
330
1E
100
AcDbEntity
  8
MO_001_VIEW_PV
  6
C_SOLID_M
100
AcDbLine
 10
18.931326
 20
3.884002999999999
 30
0.0
 11
19.30369899999999
 21
3.884002999999999
 31
0.0
  0
LINE
  5
199
330
1E
100
AcDbEntity
  8
MO_001_VIEW_PV
  6
C_SOLID_M
100
AcDbLine
 10
19.144566
 20
-3.129996999999999
 30
0.0
 11
19.4828
 21
-3.129996999999999
 31
0.0
  0
LINE
  5
19A
330
1E
100
AcDbEntity
  8
MO_001_VIEW_PV
  6
C_SOLID_M
100
AcDbLine
 10
18.4082
 20
-5.770004
 30
0.0
 11
18.587301
 21
5.392004
 31
0.0
  0
LINE
  5
19B
330
1E
100
AcDbEntity
  8
MO_001_VIEW_PV
  6
C_SOLID_M
100
AcDbLine
 10
18.945501
 20
4.638001
 30
0.0
 11
18.766401
 21
-4.890001999999999
 31
0.0
  0
LINE
  5
19C
330
1E
100
AcDbEntity
  8
MO_001_VIEW_PV
  6
C_SOLID_M
100
AcDbLine
 10
19.12460199999999
 20
-4.009999999999999
 30
0.0
 11
19.303704
 21
3.884002999999999
 31
0.0
  0
LINE
  5
19D
330
1E
100
AcDbEntity
  8
MO_001_VIEW_PV
  6
C_SOLID_M
100
AcDbLine
 10
19.482798
 20
-3.130005
 30
0.0
 11
19.661898
 21
2.879999999999999
 31
0.0
  0
LINE
  5
19E
330
1E
100
AcDbEntity
  8
MO_001_VIEW_PV
  6
C_SOLID_M
100
AcDbLine
 10
18.049999
 20
-6.325516
 30
0.0
 11
18.049999
 21
-7.090569
 31
0.0
  0
LINE
  5
19F
330
1E
100
AcDbEntity
  8
MO_001_VIEW_PV
  6
C_SOLID_M
100
AcDbLine
 10
18.205701
 20
4.474267
 30
0.0
 11
18.2291
 21
6.146001
 31
0.0
  0
LINE
  5
1A0
330
1E
100
AcDbEntity
  8
MO_001_VIEW_PV
  6
C_SOLID_M
100
AcDbLine
 10
18.049999
 20
6.351494
 30
0.0
 11
18.049999
 21
4.534041999999999
 31
0.0
  0
LINE
  5
1A1
330
1E
100
AcDbEntity
  8
MO_001_VIEW_PV
  6
C_SOLID_M
100
AcDbLine
 10
18.049999
 20
2.758118
 30
0.0
 11
18.049999
 21
-0.338005
 31
0.0
  0
LINE
  5
1A2
330
1E
100
AcDbEntity
  8
MO_001_VIEW_PV
  6
C_SOLID_M
100
AcDbLine
 10
18.075158
 20
-4.852578
 30
0.0
 11
18.112667
 21
-2.172665
 31
0.0
  0
LINE
  5
1A3
330
1E
100
AcDbEntity
  8
MO_001_VIEW_PV
  6
C_SOLID_M
100
AcDbLine
 10
18.137868
 20
-0.372159
 30
0.0
 11
18.18232899999999
 21
2.804386999999999
 31
0.0
  0
LINE
  5
1A4
330
1E
100
AcDbEntity
  8
MO_001_VIEW_PV
  6
C_SOLID_M
100
AcDbLine
 10
18.05
 20
-6.649997999999999
 30
0.0
 11
18.056815
 21
-6.324607
 31
0.0
  0
LINE
  5
1A5
330
1E
100
AcDbEntity
  8
MO_001_VIEW_PV
  6
C_SOLID_M
100
AcDbLine
 10
18.049999
 20
-2.194533999999999
 30
0.0
 11
18.049999
 21
-4.846718
 31
0.0
  0
LINE
  5
1A6
330
1E
100
AcDbEntity
  8
MO_001_VIEW_PV
  6
C_SOLID_M
100
AcDbLine
 10
-7.305480999999999
 20
-26.24107199999999
 30
0.0
 11
-4.09154
 21
-22.410847
 31
0.0
  0
LINE
  5
1A7
330
1E
100
AcDbEntity
  8
MO_001_VIEW_PV
  6
C_SOLID_M
100
AcDbLine
 10
-6.187056
 20
-27.179541
 30
0.0
 11
-2.973116
 21
-23.349316
 31
0.0
  0
LINE
  5
1A8
330
1E
100
AcDbEntity
  8
MO_001_VIEW_PV
  6
C_SOLID_M
100
AcDbLine
 10
-4.298372
 20
-22.23729399999999
 30
0.0
 11
1.549537999999999
 21
-15.268025
 31
0.0
  0
LINE
  5
1A9
330
1E
100
AcDbEntity
  8
MO_001_VIEW_PV
  6
C_SOLID_M
100
AcDbLine
 10
-2.766283
 20
-23.522869
 30
0.0
 11
3.409254
 21
-16.16315
 31
0.0
  0
LINE
  5
1AA
330
1E
100
AcDbEntity
  8
MO_001_VIEW_PV
  6
C_SOLID_M
100
AcDbLine
 10
-2.766283
 20
-23.522869
 30
0.0
 11
-4.298372
 21
-22.23729399999999
 31
0.0
  0
ARC
  5
1AB
330
1E
100
AcDbEntity
  8
MO_001_VIEW_PV
  6
C_SOLID_M
100
AcDbCircle
 10
-7.205896
 20
-26.690231
 30
0.0
 40
0.4600680000000001
100
AcDbArc
 50
357.49937
 51
102.500567
  0
ARC
  5
1AC
330
1E
100
AcDbEntity
  8
MO_001_VIEW_PV
  6
C_SOLID_M
100
AcDbCircle
 10
-6.845849
 20
-26.261147
 30
0.0
 40
0.4600680000000001
100
AcDbArc
 50
177.499432
 51
282.5006129999999
  0
ARC
  5
1AD
330
1E
100
AcDbEntity
  8
MO_001_VIEW_PV
  6
C_SOLID_M
100
AcDbCircle
 10
-6.286637
 20
-26.730377
 30
0.0
 40
0.4600680000000001
100
AcDbArc
 50
177.4995679999999
 51
282.5011589999999
  0
ARC
  5
1AE
330
1E
100
AcDbEntity
  8
MO_001_VIEW_PV
  6
C_SOLID_M
100
AcDbCircle
 10
1.275975
 20
-18.155098
 30
0.0
 40
2.9
100
AcDbArc
 50
49.525193
 51
105.718426
  0
LINE
  5
1AF
330
1E
100
AcDbEntity
  8
MO_001_VIEW_PV
  6
C_SOLID_M
100
AcDbLine
 10
3.158405
 20
-15.949094
 30
0.0
 11
3.979794
 21
-16.650002
 31
0.0
  0
LINE
  5
1B0
330
1E
100
AcDbEntity
  8
MO_001_VIEW_PV
  6
C_SOLID_M
100
AcDbLine
 10
79.82000699999999
 20
-30.856337
 30
0.0
 11
79.82000699999999
 21
-25.856337
 31
0.0
  0
LINE
  5
1B1
330
1E
100
AcDbEntity
  8
MO_001_VIEW_PV
  6
C_SOLID_M
100
AcDbLine
 10
81.279999
 20
-30.856337
 30
0.0
 11
81.279999
 21
-25.856337
 31
0.0
  0
LINE
  5
1B2
330
1E
100
AcDbEntity
  8
MO_001_VIEW_PV
  6
C_SOLID_M
100
AcDbLine
 10
79.550003
 20
-25.856337
 30
0.0
 11
79.550003
 21
-16.016241
 31
0.0
  0
LINE
  5
1B3
330
1E
100
AcDbEntity
  8
MO_001_VIEW_PV
  6
C_SOLID_M
100
AcDbLine
 10
81.55000300000001
 20
-25.856337
 30
0.0
 11
81.55000300000001
 21
-15.307513
 31
0.0
  0
LINE
  5
1B4
330
1E
100
AcDbEntity
  8
MO_001_VIEW_PV
  6
C_SOLID_M
100
AcDbLine
 10
81.55000300000001
 20
-25.856337
 30
0.0
 11
79.550003
 21
-25.856337
 31
0.0
  0
ARC
  5
1B5
330
1E
100
AcDbEntity
  8
MO_001_VIEW_PV
  6
C_SOLID_M
100
AcDbCircle
 10
80.18499799999998
 20
-31.13640399999999
 30
0.0
 40
0.4600680000000001
100
AcDbArc
 50
37.49937399999999
 51
142.500573
  0
ARC
  5
1B6
330
1E
100
AcDbEntity
  8
MO_001_VIEW_PV
  6
C_SOLID_M
100
AcDbCircle
 10
80.18499799999998
 20
-30.576269
 30
0.0
 40
0.4600680000000001
100
AcDbArc
 50
217.499441
 51
322.500598
  0
ARC
  5
1B7
330
1E
100
AcDbEntity
  8
MO_001_VIEW_PV
  6
C_SOLID_M
100
AcDbCircle
 10
80.91500100000001
 20
-30.576269
 30
0.0
 40
0.4600680000000001
100
AcDbArc
 50
217.4995779999999
 51
322.501145
  0
LINE
  5
1B8
330
1E
100
AcDbEntity
  8
MO_001_VIEW_PV
  6
C_SOLID_M
100
AcDbLine
 10
68.720001
 20
-30.856337
 30
0.0
 11
68.720001
 21
-25.856337
 31
0.0
  0
LINE
  5
1B9
330
1E
100
AcDbEntity
  8
MO_001_VIEW_PV
  6
C_SOLID_M
100
AcDbLine
 10
70.17999300000001
 20
-30.856337
 30
0.0
 11
70.17999300000001
 21
-25.856337
 31
0.0
  0
LINE
  5
1BA
330
1E
100
AcDbEntity
  8
MO_001_VIEW_PV
  6
C_SOLID_M
100
AcDbLine
 10
70.44999699999999
 20
-25.856337
 30
0.0
 11
70.44999699999999
 21
-16.016241
 31
0.0
  0
LINE
  5
1BB
330
1E
100
AcDbEntity
  8
MO_001_VIEW_PV
  6
C_SOLID_M
100
AcDbLine
 10
68.44999699999999
 20
-25.856337
 30
0.0
 11
68.44999699999999
 21
-15.307513
 31
0.0
  0
LINE
  5
1BC
330
1E
100
AcDbEntity
  8
MO_001_VIEW_PV
  6
C_SOLID_M
100
AcDbLine
 10
68.44999699999999
 20
-25.856337
 30
0.0
 11
70.44999699999999
 21
-25.856337
 31
0.0
  0
ARC
  5
1BD
330
1E
100
AcDbEntity
  8
MO_001_VIEW_PV
  6
C_SOLID_M
100
AcDbCircle
 10
69.084991
 20
-31.13640399999999
 30
0.0
 40
0.4600680000000001
100
AcDbArc
 50
37.49937399999999
 51
142.500573
  0
ARC
  5
1BE
330
1E
100
AcDbEntity
  8
MO_001_VIEW_PV
  6
C_SOLID_M
100
AcDbCircle
 10
69.084991
 20
-30.576269
 30
0.0
 40
0.4600680000000001
100
AcDbArc
 50
217.499441
 51
322.500598
  0
ARC
  5
1BF
330
1E
100
AcDbEntity
  8
MO_001_VIEW_PV
  6
C_SOLID_M
100
AcDbCircle
 10
69.81499499999999
 20
-30.576269
 30
0.0
 40
0.4600680000000001
100
AcDbArc
 50
217.4995779999999
 51
322.501145
  0
LINE
  5
1C0
330
1E
100
AcDbEntity
  8
MO_001_VIEW_PV
  6
C_SOLID_M
100
AcDbLine
 10
81.279999
 20
-35.356339
 30
0.0
 11
81.279999
 21
-31.856339
 31
0.0
  0
LINE
  5
1C1
330
1E
100
AcDbEntity
  8
MO_001_VIEW_PV
  6
C_SOLID_M
100
AcDbLine
 10
79.82000699999999
 20
-35.356339
 30
0.0
 11
79.82000699999999
 21
-31.856339
 31
0.0
  0
ARC
  5
1C2
330
1E
100
AcDbEntity
  8
MO_001_VIEW_PV
  6
C_SOLID_M
100
AcDbCircle
 10
80.91500899999999
 20
-32.136406
 30
0.0
 40
0.4600680000000001
100
AcDbArc
 50
37.499429
 51
142.500627
  0
ARC
  5
1C3
330
1E
100
AcDbEntity
  8
MO_001_VIEW_PV
  6
C_SOLID_M
100
AcDbCircle
 10
80.91500899999999
 20
-31.576271
 30
0.0
 40
0.4600680000000001
100
AcDbArc
 50
217.4994
 51
322.5005569999999
  0
ARC
  5
1C4
330
1E
100
AcDbEntity
  8
MO_001_VIEW_PV
  6
C_SOLID_M
100
AcDbCircle
 10
80.185005
 20
-32.136406
 30
0.0
 40
0.4600680000000001
100
AcDbArc
 50
37.499579
 51
142.501146
  0
LINE
  5
1C5
330
1E
100
AcDbEntity
  8
MO_001_VIEW_PV
  6
C_SOLID_M
100
AcDbLine
 10
70.17999300000001
 20
-35.356339
 30
0.0
 11
70.17999300000001
 21
-31.85633499999999
 31
0.0
  0
LINE
  5
1C6
330
1E
100
AcDbEntity
  8
MO_001_VIEW_PV
  6
C_SOLID_M
100
AcDbLine
 10
68.720001
 20
-35.356339
 30
0.0
 11
68.720001
 21
-31.85633499999999
 31
0.0
  0
ARC
  5
1C7
330
1E
100
AcDbEntity
  8
MO_001_VIEW_PV
  6
C_SOLID_M
100
AcDbCircle
 10
69.81500200000001
 20
-32.136406
 30
0.0
 40
0.4600680000000001
100
AcDbArc
 50
37.499429
 51
142.500627
  0
ARC
  5
1C8
330
1E
100
AcDbEntity
  8
MO_001_VIEW_PV
  6
C_SOLID_M
100
AcDbCircle
 10
69.81500200000001
 20
-31.576271
 30
0.0
 40
0.4600680000000001
100
AcDbArc
 50
217.4994
 51
322.5005569999999
  0
ARC
  5
1C9
330
1E
100
AcDbEntity
  8
MO_001_VIEW_PV
  6
C_SOLID_M
100
AcDbCircle
 10
69.08499899999999
 20
-32.136406
 30
0.0
 40
0.4600680000000001
100
AcDbArc
 50
37.499579
 51
142.501146
  0
LINE
  5
1CA
330
1E
100
AcDbEntity
  8
MO_001_VIEW_PV
  6
C_SOLID_M
100
AcDbLine
 10
81.279999
 20
-35.356339
 30
0.0
 11
79.82000699999999
 21
-35.356339
 31
0.0
  0
LINE
  5
1CB
330
1E
100
AcDbEntity
  8
MO_001_VIEW_PV
  6
C_SOLID_M
100
AcDbLine
 10
68.720001
 20
-35.356339
 30
0.0
 11
70.17999300000001
 21
-35.356339
 31
0.0
  0
LINE
  5
1CC
330
1E
100
AcDbEntity
  8
MO_001_VIEW_PV
  6
C_SOLID_M
100
AcDbLine
 10
69.69999699999999
 20
-35.356339
 30
0.0
 11
69.69999699999999
 21
-40.35633899999999
 31
0.0
  0
LINE
  5
1CD
330
1E
100
AcDbEntity
  8
MO_001_VIEW_PV
  6
C_SOLID_M
100
AcDbLine
 10
69.19999699999999
 20
-35.356339
 30
0.0
 11
69.19999699999999
 21
-40.35633899999999
 31
0.0
  0
LINE
  5
1CE
330
1E
100
AcDbEntity
  8
MO_001_VIEW_PV
  6
C_SOLID_M
100
AcDbLine
 10
69.19999699999999
 20
-40.35633899999999
 30
0.0
 11
69.69999699999999
 21
-40.35633899999999
 31
0.0
  0
LINE
  5
1CF
330
1E
100
AcDbEntity
  8
MO_001_VIEW_PV
  6
C_SOLID_M
100
AcDbLine
 10
80.30000300000001
 20
-35.356339
 30
0.0
 11
80.30000300000001
 21
-40.35633899999999
 31
0.0
  0
LINE
  5
1D0
330
1E
100
AcDbEntity
  8
MO_001_VIEW_PV
  6
C_SOLID_M
100
AcDbLine
 10
80.800003
 20
-35.356339
 30
0.0
 11
80.800003
 21
-40.35633899999999
 31
0.0
  0
LINE
  5
1D1
330
1E
100
AcDbEntity
  8
MO_001_VIEW_PV
  6
C_SOLID_M
100
AcDbLine
 10
80.800003
 20
-40.35633899999999
 30
0.0
 11
80.30000300000001
 21
-40.35633899999999
 31
0.0
  0
LINE
  5
1D2
330
1E
100
AcDbEntity
  8
MO_001_VIEW_PV
  6
C_SOLID_M
100
AcDbLine
 10
4.949997999999999
 20
-32.0
 30
0.0
 11
40.0
 21
-32.0
 31
0.0
  0
ARC
  5
1D3
330
1E
100
AcDbEntity
  8
MO_001_VIEW_PV
  6
C_SOLID_M
100
AcDbCircle
 10
75.0
 20
0.125
 30
0.0
 40
6.525
100
AcDbArc
 50
90.000002
 51
270.000001
  0
ARC
  5
1D4
330
1E
100
AcDbEntity
  8
MO_001_VIEW_PV
  6
C_SOLID_M
100
AcDbCircle
 10
75.0
 20
-0.4712500000000001
 30
0.0
 40
6.178749999999999
100
AcDbArc
 50
269.999998
 51
90.000002
  0
ARC
  5
1D5
330
1E
100
AcDbEntity
  8
MO_001_VIEW_PV
  6
C_SOLID_M
100
AcDbCircle
 10
75.0
 20
-0.4712500000000001
 30
0.0
 40
5.928749999999999
100
AcDbArc
 50
269.999998
 51
90.000002
  0
ARC
  5
1D6
330
1E
100
AcDbEntity
  8
MO_001_VIEW_PV
  6
C_SOLID_M
100
AcDbCircle
 10
75.0
 20
0.157084
 30
0.0
 40
5.550416
100
AcDbArc
 50
90.000002
 51
270.000001
  0
ARC
  5
1D7
330
1E
100
AcDbEntity
  8
MO_001_VIEW_PV
  6
C_SOLID_M
100
AcDbCircle
 10
75.0
 20
-0.314166
 30
0.0
 40
5.079166
100
AcDbArc
 50
269.999998
 51
90.000002
  0
ARC
  5
1D8
330
1E
100
AcDbEntity
  8
MO_001_VIEW_PV
  6
C_SOLID_M
100
AcDbCircle
 10
75.0
 20
0.314167
 30
0.0
 40
4.450833
100
AcDbArc
 50
90.000002
 51
270.000001
  0
ARC
  5
1D9
330
1E
100
AcDbEntity
  8
MO_001_VIEW_PV
  6
C_SOLID_M
100
AcDbCircle
 10
75.0
 20
-0.157083
 30
0.0
 40
3.979583999999999
100
AcDbArc
 50
269.999998
 51
90.000002
  0
ARC
  5
1DA
330
1E
100
AcDbEntity
  8
MO_001_VIEW_PV
  6
C_SOLID_M
100
AcDbCircle
 10
75.0
 20
0.4712500000000001
 30
0.0
 40
3.351249999999999
100
AcDbArc
 50
90.000002
 51
270.000001
  0
ARC
  5
1DB
330
1E
100
AcDbEntity
  8
MO_001_VIEW_PV
  6
C_SOLID_M
100
AcDbCircle
 10
75.0
 20
0.157084
 30
0.0
 40
5.300416999999999
100
AcDbArc
 50
90.000002
 51
270.000001
  0
ARC
  5
1DC
330
1E
100
AcDbEntity
  8
MO_001_VIEW_PV
  6
C_SOLID_M
100
AcDbCircle
 10
75.0
 20
-0.314166
 30
0.0
 40
4.829166999999999
100
AcDbArc
 50
269.999998
 51
90.000002
  0
ARC
  5
1DD
330
1E
100
AcDbEntity
  8
MO_001_VIEW_PV
  6
C_SOLID_M
100
AcDbCircle
 10
75.0
 20
0.314167
 30
0.0
 40
4.200833999999999
100
AcDbArc
 50
90.000002
 51
270.000001
  0
ARC
  5
1DE
330
1E
100
AcDbEntity
  8
MO_001_VIEW_PV
  6
C_SOLID_M
100
AcDbCircle
 10
75.0
 20
-0.157083
 30
0.0
 40
3.729583999999999
100
AcDbArc
 50
269.999998
 51
90.000002
  0
ARC
  5
1DF
330
1E
100
AcDbEntity
  8
MO_001_VIEW_PV
  6
C_SOLID_M
100
AcDbCircle
 10
75.0
 20
0.4712500000000001
 30
0.0
 40
3.101250999999999
100
AcDbArc
 50
90.000002
 51
270.000001
  0
TEXT
  5
1E0
330
1E
100
AcDbEntity
  8
MO_001_VIEW_PV
  6
C_SOLID_L
100
AcDbText
 10
-11.61677599999999
 20
-61.017676
 30
0.0
 40
4.167187
  1
3E X3・X4・X9付
100
AcDbText
  0
TEXT
  5
1E1
330
1E
100
AcDbEntity
  8
MO_001_VIEW_PV
  6
C_SOLID_L
100
AcDbText
 10
12.104124
 20
-30.895439
 30
0.0
 40
3.0
  1
2-M3 P0.5
100
AcDbText
  0
TEXT
  5
1E2
330
1E
100
AcDbEntity
  8
MO_001_VIEW_PV
  6
C_SOLID_L
100
AcDbText
 10
103.4999999999999
 20
-15.071429
 30
0.0
 40
3.0
  1
(UL1430 AWG24)
 50
90.0
100
AcDbText
  0
TEXT
  5
1E3
330
1E
100
AcDbEntity
  8
MO_001_VIEW_PV
  6
C_SOLID_L
100
AcDbText
 10
78.383224
 20
-67.017676
 30
0.0
 40
4.167187
  1
単位：mm
100
AcDbText
  0
TEXT
  5
1E4
330
1E
100
AcDbEntity
  8
MO_001_VIEW_PV
  6
C_SOLID_L
100
AcDbText
 10
78.383224
 20
-73.26845699999999
 30
0.0
 40
4.167187
  1
無励磁時
100
AcDbText
  0
DIMENSION
  5
1E6
330
1E
100
AcDbEntity
  8
MO_001_VIEW_PV
  6
C_SOLID_M
100
AcDbDimension
  2
*D0
 10
9.877711999999998
 20
24.0
 30
0.0
 11
9.877711999999998
 21
24.0
 31
0.0
  3
STANDARD
100
AcDbAlignedDimension
 13
-1.0381
 23
15.0
 33
0.0
 14
-2.638106
 24
15.0
 34
0.0
100
AcDbRotatedDimension
  0
DIMENSION
  5
1E8
330
1E
100
AcDbEntity
  8
MO_001_VIEW_PV
  6
C_SOLID_M
100
AcDbDimension
  2
*D1
 10
-13.033091
 20
24.0
 30
0.0
 11
-13.033091
 21
24.0
 31
0.0
  3
STANDARD
100
AcDbAlignedDimension
 13
-2.638106
 23
15.0
 33
0.0
 14
-3.836135
 24
8.5
 34
0.0
100
AcDbRotatedDimension
  0
DIMENSION
  5
1EA
330
1E
100
AcDbEntity
  8
MO_001_VIEW_PV
  6
C_SOLID_M
100
AcDbDimension
  2
*D2
 10
6.306931999999999
 20
30.0
 30
0.0
 11
6.306931999999999
 21
30.0
 31
0.0
  1
21以下
  3
STANDARD
100
AcDbAlignedDimension
 13
16.449999
 23
14.300003
 33
0.0
 14
-3.836135
 24
8.5
 34
0.0
 50
179.97571
100
AcDbRotatedDimension
  0
DIMENSION
  5
1EC
330
1E
100
AcDbEntity
  8
MO_001_VIEW_PV
  6
C_SOLID_M
100
AcDbDimension
  2
*D3
 10
42.076683
 20
30.0
 30
0.0
 11
42.076683
 21
30.0
 31
0.0
  3
STANDARD
100
AcDbAlignedDimension
 13
16.449999
 23
14.300003
 33
0.0
 14
32.75
 24
12.099998
 34
0.0
100
AcDbRotatedDimension
  0
DIMENSION
  5
1EE
330
1E
100
AcDbEntity
  8
MO_001_VIEW_PV
  6
C_SOLID_M
100
AcDbDimension
  2
*D4
 10
0.505948
 20
36.0
 30
0.0
 11
0.505948
 21
36.0
 31
0.0
  3
STANDARD
100
AcDbAlignedDimension
 13
-15.438103
 23
2.272818999999999
 33
0.0
 14
16.449999
 24
14.300003
 34
0.0
100
AcDbRotatedDimension
  0
DIMENSION
  5
1F0
330
1E
100
AcDbEntity
  8
MO_001_VIEW_PV
  6
C_SOLID_M
100
AcDbDimension
  2
*D5
 10
41.333626
 20
-24.0
 30
0.0
 11
41.333626
 21
-24.0
 31
0.0
  1
8.6以上
  3
STANDARD
100
AcDbAlignedDimension
 13
28.96189899999999
 23
-2.080001999999999
 33
0.0
 14
20.361902
 24
1.580002
 34
0.0
100
AcDbRotatedDimension
  0
DIMENSION
  5
1F2
330
1E
100
AcDbEntity
  8
MO_001_VIEW_PV
  6
C_SOLID_M
100
AcDbDimension
  2
*D6
 10
45.0
 20
17.25199899999999
 30
0.0
 11
45.0
 21
17.25199899999999
 31
0.0
  3
STANDARD
100
AcDbAlignedDimension
 13
28.661896
 23
2.379996999999999
 33
0.0
 14
28.661896
 24
-2.379996999999999
 34
0.0
 50
89.999523
100
AcDbRotatedDimension
  0
DIMENSION
  5
1F4
330
1E
100
AcDbEntity
  8
MO_001_VIEW_PV
  6
C_SOLID_M
100
AcDbDimension
  2
*D7
 10
75.0
 20
36.0
 30
0.0
 11
75.0
 21
36.0
 31
0.0
  1
%%C34以下
  3
STANDARD
100
AcDbAlignedDimension
 13
91.65000199999999
 23
0.0
 33
0.0
 14
58.349998
 24
0.0
 34
0.0
100
AcDbRotatedDimension
  0
DIMENSION
  5
1F6
330
1E
100
AcDbEntity
  8
MO_001_VIEW_PV
  6
C_SOLID_M
100
AcDbDimension
  2
*D8
 10
75.0
 20
30.0
 30
0.0
 11
75.0
 21
30.0
 31
0.0
  1
%%C17以下
  3
STANDARD
100
AcDbAlignedDimension
 13
82.550003
 23
0.0
 33
0.0
 14
67.449997
 24
0.0
 34
0.0
100
AcDbRotatedDimension
  0
DIMENSION
  5
1F8
330
1E
100
AcDbEntity
  8
MO_001_VIEW_PV
  6
C_SOLID_M
100
AcDbDimension
  2
*D9
 10
54.0
 20
0.0
 30
0.0
 11
54.0
 21
0.0
 31
0.0
  3
STANDARD
100
AcDbAlignedDimension
 13
72.0
 23
-11.1
 33
0.0
 14
72.0
 24
11.1
 34
0.0
 50
89.999523
100
AcDbRotatedDimension
  0
DIMENSION
  5
1FA
330
1E
100
AcDbEntity
  8
MO_001_VIEW_PV
  6
C_SOLID_M
100
AcDbDimension
  2
*D10
 10
99.0
 20
12.0
 30
0.0
 11
99.0
 21
12.0
 31
0.0
  1
長さ250以上
  3
STANDARD
100
AcDbAlignedDimension
 13
81.55000300000001
 23
-15.307513
 33
0.0
 14
80.800003
 24
-40.35633899999999
 34
0.0
 50
89.999523
100
AcDbRotatedDimension
  0
DIMENSION
  5
1FC
330
1E
100
AcDbEntity
  8
MO_001_VIEW_PV
  6
C_SOLID_M
100
AcDbDimension
  2
*D11
 10
42.0
 20
36.0
 30
0.0
 11
42.0
 21
36.0
 31
0.0
  3
STANDARD
100
AcDbAlignedDimension
 13
28.96189899999999
 23
2.080001999999999
 33
0.0
 14
16.449999
 24
28.860634
 34
0.0
100
AcDbRotatedDimension
  0
LINE
  5
1FD
330
1E
100
AcDbEntity
  8
MO_001_VIEW_PV
  6
C_SOLID_L
100
AcDbLine
 10
24.35
 20
-12.599999
 30
0.0
 11
4.949997999999999
 21
-32.000001
 31
0.0
  0
POLYLINE
  5
1FE
330
1E
100
AcDbEntity
  8
MO_001_VIEW_PV
  6
C_SOLID_L
100
AcDb2dPolyline
 66
     1
 10
0.0
 20
0.0
 30
0.0
 70
     1
  0
VERTEX
  5
2D4
330
1FE
100
AcDbEntity
  8
MO_001_VIEW_PV
  6
C_SOLID_L
100
AcDbVertex
100
AcDb2dVertex
 10
22.416241
 20
-15.35896799999999
 30
0.0
  0
VERTEX
  5
2D5
330
1FE
100
AcDbEntity
  8
MO_001_VIEW_PV
  6
C_SOLID_L
100
AcDbVertex
100
AcDb2dVertex
 10
23.990789
 20
-12.959209
 30
0.0
  0
VERTEX
  5
2D6
330
1FE
100
AcDbEntity
  8
MO_001_VIEW_PV
  6
C_SOLID_L
100
AcDbVertex
100
AcDb2dVertex
 10
21.59102999999999
 20
-14.53375799999999
 30
0.0
  0
SEQEND
  5
2D7
330
1FE
100
AcDbEntity
  8
MO_001_VIEW_PV
  6
C_SOLID_L
  0
ENDSEC
  0
SECTION
  2
OBJECTS
  0
DICTIONARY
  5
1A
330
0
100
AcDbDictionary
  3
ACAD_GROUP
350
1B
  3
ACAD_MLINESTYLE
350
1C
  3
ACAD_LAYOUT
350
285
  3
ACAD_PLOTSETTINGS
350
286
1001
ACAD
1000
TREAT_AS_HARD
1070
     0
  0
DICTIONARY
  5
28B
330
1E
100
AcDbDictionary
  3
ACAD_LAYOUTSELFREF
350
28C
  0
DICTIONARY
  5
28D
330
1F
100
AcDbDictionary
  3
ACAD_LAYOUTSELFREF
350
28E
  0
DICTIONARY
  5
1B
102
{ACAD_REACTORS
330
1A
102
}
330
1A
100
AcDbDictionary
1001
ACAD
1000
TREAT_AS_HARD
1070
     0
  0
DICTIONARY
  5
1C
102
{ACAD_REACTORS
330
1A
102
}
330
1A
100
AcDbDictionary
  3
STANDARD
350
1D
1001
ACAD
1000
TREAT_AS_HARD
1070
     0
  0
DICTIONARY
  5
285
102
{ACAD_REACTORS
330
1A
102
}
330
1A
100
AcDbDictionary
1001
ACAD
1000
TREAT_AS_HARD
1070
     0
  0
DICTIONARY
  5
286
102
{ACAD_REACTORS
330
1A
102
}
330
1A
100
AcDbDictionary
1001
ACAD
1000
TREAT_AS_HARD
1070
     0
  0
XRECORD
  5
28C
102
{ACAD_REACTORS
330
28B
102
}
330
28B
100
AcDbXrecord
340
1E
  0
XRECORD
  5
28E
102
{ACAD_REACTORS
330
28D
102
}
330
28D
100
AcDbXrecord
340
1F
  0
MLINESTYLE
  5
1D
102
{ACAD_REACTORS
330
1C
102
}
330
1C
100
AcDbMlineStyle
  2
STANDARD
 70
     0
  3

 62
     0
 51
90.0
 52
90.0
 71
     2
 49
0.5
 62
   256
  6
BYLAYER
 49
-0.5
 62
   256
  6
BYLAYER
  0
ENDSEC
  0
EOF
