  0
SECTION
  2
HEADER
  9
$ACADVER
  1
AC1014
  9
$ACADMAINTVER
 70
     9
  9
$DWGCODEPAGE
  3
ANSI_932
  9
$INSBASE
 10
0.0
 20
0.0
 30
0.0
  9
$EXTMIN
 10
-48.363823
 20
-75.91787588333334
 30
0.0
  9
$EXTMAX
 10
364.7683703333331
 20
38.8785967942805
 30
0.0
  9
$LIMMIN
 10
-48.786125
 20
-79.112717
  9
$LIMMAX
 10
89.63215600000002
 20
39.26495399999996
  9
$ORTHOMODE
 70
     0
  9
$REGENMODE
 70
     1
  9
$FILLMODE
 70
     1
  9
$QTEXTMODE
 70
     0
  9
$MIRRTEXT
 70
     1
  9
$DRAGMODE
 70
     2
  9
$LTSCALE
 40
1.0
  9
$OSMODE
 70
   511
  9
$ATTMODE
 70
     1
  9
$TEXTSIZE
 40
4.1672
  9
$TRACEWID
 40
0.05
  9
$TEXTSTYLE
  7
STANDARD
  9
$CLAYER
  8
1
  9
$CELTYPE
  6
CONTINUOUS
  9
$CECOLOR
 62
   256
  9
$CELTSCALE
 40
1.0
  9
$DELOBJ
 70
     1
  9
$DISPSILH
 70
     0
  9
$DIMSCALE
 40
1.0
  9
$DIMASZ
 40
2.0
  9
$DIMEXO
 40
0.0625
  9
$DIMDLI
 40
0.38
  9
$DIMRND
 40
0.0
  9
$DIMDLE
 40
0.0
  9
$DIMEXE
 40
0.18
  9
$DIMTP
 40
0.1
  9
$DIMTM
 40
0.1
  9
$DIMTXT
 40
0.18
  9
$DIMCEN
 40
0.09
  9
$DIMTSZ
 40
0.0
  9
$DIMTOL
 70
     1
  9
$DIMLIM
 70
     0
  9
$DIMTIH
 70
     0
  9
$DIMTOH
 70
     0
  9
$DIMSE1
 70
     0
  9
$DIMSE2
 70
     0
  9
$DIMTAD
 70
     1
  9
$DIMZIN
 70
     0
  9
$DIMBLK
  1

  9
$DIMASO
 70
     1
  9
$DIMSHO
 70
     1
  9
$DIMPOST
  1

  9
$DIMAPOST
  1

  9
$DIMALT
 70
     0
  9
$DIMALTD
 70
     2
  9
$DIMALTF
 40
25.4
  9
$DIMLFAC
 40
1.0
  9
$DIMTOFL
 70
     0
  9
$DIMTVP
 40
0.0
  9
$DIMTIX
 70
     0
  9
$DIMSOXD
 70
     0
  9
$DIMSAH
 70
     0
  9
$DIMBLK1
  1

  9
$DIMBLK2
  1

  9
$DIMSTYLE
  2
STANDARD
  9
$DIMCLRD
 70
     0
  9
$DIMCLRE
 70
     0
  9
$DIMCLRT
 70
     0
  9
$DIMTFAC
 40
0.5
  9
$DIMGAP
 40
0.09
  9
$DIMJUST
 70
     0
  9
$DIMSD1
 70
     0
  9
$DIMSD2
 70
     0
  9
$DIMTOLJ
 70
     2
  9
$DIMTZIN
 70
     0
  9
$DIMALTZ
 70
     0
  9
$DIMALTTZ
 70
     0
  9
$DIMFIT
 70
     5
  9
$DIMUPT
 70
     0
  9
$DIMUNIT
 70
     2
  9
$DIMDEC
 70
     1
  9
$DIMTDEC
 70
     1
  9
$DIMALTU
 70
     2
  9
$DIMALTTD
 70
     2
  9
$DIMTXSTY
  7
STANDARD
  9
$DIMAUNIT
 70
     0
  9
$LUNITS
 70
     2
  9
$LUPREC
 70
     6
  9
$SKETCHINC
 40
0.1
  9
$FILLETRAD
 40
0.0
  9
$AUNITS
 70
     0
  9
$AUPREC
 70
     4
  9
$MENU
  1
acad
  9
$ELEVATION
 40
0.0
  9
$PELEVATION
 40
0.0
  9
$THICKNESS
 40
0.0
  9
$LIMCHECK
 70
     0
  9
$CHAMFERA
 40
0.0
  9
$CHAMFERB
 40
0.0
  9
$CHAMFERC
 40
0.0
  9
$CHAMFERD
 40
0.0
  9
$SKPOLY
 70
     0
  9
$TDCREATE
 40
2305814.569090069
  9
$TDUPDATE
 40
2457319.808704364
  9
$TDINDWG
 40
0.012047963
  9
$TDUSRTIMER
 40
2457319.433662292
  9
$USRTIMER
 70
     1
  9
$ANGBASE
 50
0.0
  9
$ANGDIR
 70
     0
  9
$PDMODE
 70
     0
  9
$PDSIZE
 40
0.0
  9
$PLINEWID
 40
0.0
  9
$COORDS
 70
     1
  9
$SPLFRAME
 70
     0
  9
$SPLINETYPE
 70
     6
  9
$SPLINESEGS
 70
     8
  9
$ATTDIA
 70
     0
  9
$ATTREQ
 70
     1
  9
$HANDLING
 70
     1
  9
$HANDSEED
  5
493
  9
$SURFTAB1
 70
     6
  9
$SURFTAB2
 70
     6
  9
$SURFTYPE
 70
     6
  9
$SURFU
 70
     6
  9
$SURFV
 70
     6
  9
$UCSNAME
  2

  9
$UCSORG
 10
0.0
 20
0.0
 30
0.0
  9
$UCSXDIR
 10
1.0
 20
0.0
 30
0.0
  9
$UCSYDIR
 10
0.0
 20
1.0
 30
0.0
  9
$PUCSNAME
  2

  9
$PUCSORG
 10
0.0
 20
0.0
 30
0.0
  9
$PUCSXDIR
 10
1.0
 20
0.0
 30
0.0
  9
$PUCSYDIR
 10
0.0
 20
1.0
 30
0.0
  9
$USERI1
 70
     0
  9
$USERI2
 70
     0
  9
$USERI3
 70
     0
  9
$USERI4
 70
     0
  9
$USERI5
 70
     0
  9
$USERR1
 40
0.0
  9
$USERR2
 40
0.0
  9
$USERR3
 40
0.0
  9
$USERR4
 40
0.0
  9
$USERR5
 40
0.0
  9
$WORLDVIEW
 70
     1
  9
$SHADEDGE
 70
     3
  9
$SHADEDIF
 70
    70
  9
$TILEMODE
 70
     1
  9
$MAXACTVP
 70
    16
  9
$PINSBASE
 10
0.0
 20
0.0
 30
0.0
  9
$PLIMCHECK
 70
     0
  9
$PEXTMIN
 10
-48.786125
 20
-79.112717
 30
1.000000000000000E+20
  9
$PEXTMAX
 10
89.63215600000002
 20
39.26495399999996
 30
-1.000000000000000E+20
  9
$PLIMMIN
 10
0.0
 20
0.0
  9
$PLIMMAX
 10
0.0
 20
0.0
  9
$UNITMODE
 70
     0
  9
$VISRETAIN
 70
     0
  9
$PLINEGEN
 70
     0
  9
$PSLTSCALE
 70
     1
  9
$TREEDEPTH
 70
  3020
  9
$PICKSTYLE
 70
     1
  9
$CMLSTYLE
  2
STANDARD
  9
$CMLJUST
 70
     0
  9
$CMLSCALE
 40
1.0
  9
$PROXYGRAPHICS
 70
     1
  9
$MEASUREMENT
 70
     0
  0
ENDSEC
  0
SECTION
  2
CLASSES
  0
CLASS
  1
ACDBDICTIONARYWDFLT
  2
AcDbDictionaryWithDefault
  3
ObjectDBX Classes
 90
        0
280
     0
281
     0
  0
CLASS
  1
ACDBPLACEHOLDER
  2
AcDbPlaceHolder
  3
ObjectDBX Classes
 90
        0
280
     0
281
     0
  0
CLASS
  1
LAYOUT
  2
AcDbLayout
  3
ObjectDBX Classes
 90
        0
280
     0
281
     0
  0
CLASS
  1
LONG_TRANSACTION
  2
AcDbLongTransaction
  3
ObjectDBX Classes
 90
        0
280
     0
281
     0
  0
CLASS
  1
LWPOLYLINE
  2
AcDbPolyline
  3
ObjectDBX Classes
 90
        0
280
     0
281
     1
  0
CLASS
  1
HATCH
  2
AcDbHatch
  3
ObjectDBX Classes
 90
        0
280
     0
281
     1
  0
CLASS
  1
XRECORD
  2
AcDbXrecord
  3
ObjectDBX Classes
 90
        0
280
     0
281
     0
  0
CLASS
  1
LONG_TRANSACTION
  2
AcDbLongTransaction
  3
ObjectDBX Classes
 90
        0
280
     0
281
     0
  0
CLASS
  1
LWPOLYLINE
  2
AcDbPolyline
  3
ObjectDBX Classes
 90
        0
280
     0
281
     1
  0
CLASS
  1
HATCH
  2
AcDbHatch
  3
ObjectDBX Classes
 90
        0
280
     0
281
     1
  0
CLASS
  1
XRECORD
  2
AcDbXrecord
  3
ObjectDBX Classes
 90
        0
280
     0
281
     0
  0
CLASS
  1
LONG_TRANSACTION
  2
AcDbLongTransaction
  3
ObjectDBX Classes
 90
        0
280
     0
281
     0
  0
CLASS
  1
LWPOLYLINE
  2
AcDbPolyline
  3
ObjectDBX Classes
 90
        0
280
     0
281
     1
  0
CLASS
  1
HATCH
  2
AcDbHatch
  3
ObjectDBX Classes
 90
        0
280
     0
281
     1
  0
CLASS
  1
XRECORD
  2
AcDbXrecord
  3
ObjectDBX Classes
 90
        0
280
     0
281
     0
  0
CLASS
  1
LONG_TRANSACTION
  2
AcDbLongTransaction
  3
ObjectDBX Classes
 90
        0
280
     0
281
     0
  0
CLASS
  1
LWPOLYLINE
  2
AcDbPolyline
  3
ObjectDBX Classes
 90
        0
280
     0
281
     1
  0
CLASS
  1
HATCH
  2
AcDbHatch
  3
ObjectDBX Classes
 90
        0
280
     0
281
     1
  0
CLASS
  1
XRECORD
  2
AcDbXrecord
  3
ObjectDBX Classes
 90
        0
280
     0
281
     0
  0
CLASS
  1
LONG_TRANSACTION
  2
AcDbLongTransaction
  3
ObjectDBX Classes
 90
        0
280
     0
281
     0
  0
CLASS
  1
LWPOLYLINE
  2
AcDbPolyline
  3
ObjectDBX Classes
 90
        0
280
     0
281
     1
  0
CLASS
  1
HATCH
  2
AcDbHatch
  3
ObjectDBX Classes
 90
        0
280
     0
281
     1
  0
CLASS
  1
XRECORD
  2
AcDbXrecord
  3
ObjectDBX Classes
 90
        0
280
     0
281
     0
  0
CLASS
  1
LONG_TRANSACTION
  2
AcDbLongTransaction
  3
ObjectDBX Classes
 90
        0
280
     0
281
     0
  0
CLASS
  1
LWPOLYLINE
  2
AcDbPolyline
  3
ObjectDBX Classes
 90
        0
280
     0
281
     1
  0
CLASS
  1
HATCH
  2
AcDbHatch
  3
ObjectDBX Classes
 90
        0
280
     0
281
     1
  0
CLASS
  1
XRECORD
  2
AcDbXrecord
  3
ObjectDBX Classes
 90
        0
280
     0
281
     0
  0
CLASS
  1
LONG_TRANSACTION
  2
AcDbLongTransaction
  3
ObjectDBX Classes
 90
        0
280
     0
281
     0
  0
CLASS
  1
LWPOLYLINE
  2
AcDbPolyline
  3
ObjectDBX Classes
 90
        0
280
     0
281
     1
  0
CLASS
  1
HATCH
  2
AcDbHatch
  3
ObjectDBX Classes
 90
        0
280
     0
281
     1
  0
CLASS
  1
XRECORD
  2
AcDbXrecord
  3
ObjectDBX Classes
 90
        0
280
     0
281
     0
  0
CLASS
  1
LONG_TRANSACTION
  2
AcDbLongTransaction
  3
ObjectDBX Classes
 90
        0
280
     0
281
     0
  0
CLASS
  1
LWPOLYLINE
  2
AcDbPolyline
  3
ObjectDBX Classes
 90
        0
280
     0
281
     1
  0
CLASS
  1
HATCH
  2
AcDbHatch
  3
ObjectDBX Classes
 90
        0
280
     0
281
     1
  0
CLASS
  1
XRECORD
  2
AcDbXrecord
  3
ObjectDBX Classes
 90
        0
280
     0
281
     0
  0
CLASS
  1
LONG_TRANSACTION
  2
AcDbLongTransaction
  3
ObjectDBX Classes
 90
        0
280
     0
281
     0
  0
CLASS
  1
LWPOLYLINE
  2
AcDbPolyline
  3
ObjectDBX Classes
 90
        0
280
     0
281
     1
  0
CLASS
  1
HATCH
  2
AcDbHatch
  3
ObjectDBX Classes
 90
        0
280
     0
281
     1
  0
CLASS
  1
XRECORD
  2
AcDbXrecord
  3
ObjectDBX Classes
 90
        0
280
     0
281
     0
  0
CLASS
  1
SCALE
  2
AcDbScale
  3
ObjectDBX Classes
 90
     1153
280
     0
281
     0
  0
CLASS
  1
VISUALSTYLE
  2
AcDbVisualStyle
  3
ObjectDBX Classes
 90
     4095
280
     0
281
     0
  0
CLASS
  1
MATERIAL
  2
AcDbMaterial
  3
ObjectDBX Classes
 90
     1153
280
     0
281
     0
  0
CLASS
  1
TABLESTYLE
  2
AcDbTableStyle
  3
ObjectDBX Classes
 90
     4095
280
     0
281
     0
  0
CLASS
  1
MLEADERSTYLE
  2
AcDbMLeaderStyle
  3
ACDB_MLEADERSTYLE_CLASS
 90
     4095
280
     0
281
     0
  0
CLASS
  1
SUN
  2
AcDbSun
  3
SCENEOE
 90
     1153
280
     0
281
     0
  0
CLASS
  1
RASTERVARIABLES
  2
AcDbRasterVariables
  3
ISM
 90
        0
280
     0
281
     0
  0
CLASS
  1
DICTIONARYVAR
  2
AcDbDictionaryVar
  3
ObjectDBX Classes
 90
        0
280
     0
281
     0
  0
CLASS
  1
DIMASSOC
  2
AcDbDimAssoc
  3
"AcDbDimAssoc|Product Desc:     AcDim ARX App For Dimension|Company:          Autodesk, Inc.|WEB Address:      www.autodesk.com"
 90
        0
280
     0
281
     0
  0
ENDSEC
  0
SECTION
  2
TABLES
  0
TABLE
  2
VPORT
  5
7
330
0
100
AcDbSymbolTable
 70
     1
  0
VPORT
  5
3A5
330
7
100
AcDbSymbolTableRecord
100
AcDbViewportTableRecord
  2
*ACTIVE
 70
     0
 10
0.0
 20
0.0
 11
1.0
 21
1.0
 12
2.71465244989497
 22
-16.02038677857969
 13
0.0
 23
0.0
 14
6.349999999999997
 24
6.349999999999997
 15
6.349999999999997
 25
6.349999999999997
 16
0.0
 26
0.0
 36
1.0
 17
0.0
 27
0.0
 37
0.0
 40
196.946194940465
 41
1.248717948717949
 42
50.0
 43
0.0
 44
0.0
 50
0.0
 51
0.0
 71
    16
 72
   100
 73
     1
 74
     2
 75
     0
 76
     0
 77
     0
 78
     0
  0
ENDTAB
  0
TABLE
  2
LTYPE
  5
4
330
0
100
AcDbSymbolTable
 70
    37
  0
LTYPE
  5
12
330
4
100
AcDbSymbolTableRecord
100
AcDbLinetypeTableRecord
  2
BYBLOCK
 70
     0
  3

 72
    65
 73
     0
 40
0.0
  0
LTYPE
  5
13
330
4
100
AcDbSymbolTableRecord
100
AcDbLinetypeTableRecord
  2
BYLAYER
 70
     0
  3

 72
    65
 73
     0
 40
0.0
  0
LTYPE
  5
14
330
4
100
AcDbSymbolTableRecord
100
AcDbLinetypeTableRecord
  2
CONTINUOUS
 70
     0
  3
DXF Default line type
 72
    65
 73
     0
 40
0.0
  0
LTYPE
  5
20
330
4
100
AcDbSymbolTableRecord
100
AcDbLinetypeTableRecord
  2
DASHED
 70
     0
  3
DXF Dashed
 72
    65
 73
     2
 40
0.75
 49
0.5
 74
     0
 49
-0.25
 74
     0
  0
LTYPE
  5
21
330
4
100
AcDbSymbolTableRecord
100
AcDbLinetypeTableRecord
  2
HIDDEN
 70
     0
  3
DXF Hidden
 72
    65
 73
     2
 40
0.375
 49
0.25
 74
     0
 49
-0.125
 74
     0
  0
LTYPE
  5
22
330
4
100
AcDbSymbolTableRecord
100
AcDbLinetypeTableRecord
  2
CENTER
 70
     0
  3
DXF Center
 72
    65
 73
     4
 40
2.0
 49
1.25
 74
     0
 49
-0.25
 74
     0
 49
0.25
 74
     0
 49
-0.25
 74
     0
  0
LTYPE
  5
23
330
4
100
AcDbSymbolTableRecord
100
AcDbLinetypeTableRecord
  2
PHANTOM
 70
     0
  3
DXF Phantom
 72
    65
 73
     6
 40
2.5
 49
1.25
 74
     0
 49
-0.25
 74
     0
 49
0.25
 74
     0
 49
-0.25
 74
     0
 49
0.25
 74
     0
 49
-0.25
 74
     0
  0
LTYPE
  5
24
330
4
100
AcDbSymbolTableRecord
100
AcDbLinetypeTableRecord
  2
DOT
 70
     0
  3
DXF DOT
 72
    65
 73
     2
 40
0.25
 49
0.0
 74
     0
 49
-0.25
 74
     0
  0
LTYPE
  5
25
330
4
100
AcDbSymbolTableRecord
100
AcDbLinetypeTableRecord
  2
DASHDOT
 70
     0
  3
DXF Dash Dot
 72
    65
 73
     4
 40
1.0
 49
0.5
 74
     0
 49
-0.25
 74
     0
 49
0.0
 74
     0
 49
-0.25
 74
     0
  0
LTYPE
  5
26
330
4
100
AcDbSymbolTableRecord
100
AcDbLinetypeTableRecord
  2
BORDER
 70
     0
  3
DXF Border
 72
    65
 73
     6
 40
1.75
 49
0.5
 74
     0
 49
-0.25
 74
     0
 49
0.5
 74
     0
 49
-0.25
 74
     0
 49
0.0
 74
     0
 49
-0.25
 74
     0
  0
LTYPE
  5
27
330
4
100
AcDbSymbolTableRecord
100
AcDbLinetypeTableRecord
  2
DIVIDE
 70
     0
  3
DXF Divide
 72
    65
 73
     6
 40
1.25
 49
0.5
 74
     0
 49
-0.25
 74
     0
 49
0.0
 74
     0
 49
-0.25
 74
     0
 49
0.0
 74
     0
 49
-0.25
 74
     0
  0
LTYPE
  5
28
330
4
100
AcDbSymbolTableRecord
100
AcDbLinetypeTableRecord
  2
C_SOLID_L
 70
     0
  3
CADAM Solid Light
 72
    65
 73
     0
 40
0.0
  0
LTYPE
  5
29
330
4
100
AcDbSymbolTableRecord
100
AcDbLinetypeTableRecord
  2
C_SOLID_M
 70
     0
  3
CADAM Solid Medium
 72
    65
 73
     0
 40
0.0
  0
LTYPE
  5
2A
330
4
100
AcDbSymbolTableRecord
100
AcDbLinetypeTableRecord
  2
C_SOLID_H
 70
     0
  3
CADAM Solid Heavy
 72
    65
 73
     0
 40
0.0
  0
LTYPE
  5
2B
330
4
100
AcDbSymbolTableRecord
100
AcDbLinetypeTableRecord
  2
C_DASHED_L
 70
     0
  3
CADAM Dashed Light
 72
    65
 73
     2
 40
0.375
 49
0.25
 74
     0
 49
-0.125
 74
     0
  0
LTYPE
  5
2C
330
4
100
AcDbSymbolTableRecord
100
AcDbLinetypeTableRecord
  2
C_DASHED_M
 70
     0
  3
CADAM Dashed Medium
 72
    65
 73
     2
 40
0.5
 49
0.375
 74
     0
 49
-0.125
 74
     0
  0
LTYPE
  5
2D
330
4
100
AcDbSymbolTableRecord
100
AcDbLinetypeTableRecord
  2
C_CENTER_L
 70
     0
  3
CADAM Center Light
 72
    65
 73
     4
 40
2.0
 49
1.25
 74
     0
 49
-0.25
 74
     0
 49
0.25
 74
     0
 49
-0.25
 74
     0
  0
LTYPE
  5
2E
330
4
100
AcDbSymbolTableRecord
100
AcDbLinetypeTableRecord
  2
C_PHANTOM_L
 70
     0
  3
CADAM Phantom Light
 72
    65
 73
     6
 40
2.5
 49
1.25
 74
     0
 49
-0.25
 74
     0
 49
0.25
 74
     0
 49
-0.25
 74
     0
 49
0.25
 74
     0
 49
-0.25
 74
     0
  0
LTYPE
  5
2F
330
4
100
AcDbSymbolTableRecord
100
AcDbLinetypeTableRecord
  2
C_BREAK_M
 70
     0
  3
CADAM Break Medium
 72
    65
 73
     4
 40
1.0
 49
0.5
 74
     0
 49
-0.25
 74
     0
 49
0.0
 74
     0
 49
-0.25
 74
     0
  0
LTYPE
  5
30
330
4
100
AcDbSymbolTableRecord
100
AcDbLinetypeTableRecord
  2
C_NC
 70
     0
  3
CADAM NC
 72
    65
 73
     0
 40
0.0
  0
LTYPE
  5
31
330
4
100
AcDbSymbolTableRecord
100
AcDbLinetypeTableRecord
  2
DSH1
 70
     0
  3
CADAM Style2 Type 1 Dashed Line
 72
    65
 73
     2
 40
0.075
 49
0.04
 74
     0
 49
-0.035
 74
     0
  0
LTYPE
  5
32
330
4
100
AcDbSymbolTableRecord
100
AcDbLinetypeTableRecord
  2
DSH2
 70
     0
  3
CADAM Style2 Type 2 Dashed Line
 72
    65
 73
     2
 40
0.15
 49
0.11
 74
     0
 49
-0.04
 74
     0
  0
LTYPE
  5
33
330
4
100
AcDbSymbolTableRecord
100
AcDbLinetypeTableRecord
  2
DSH3
 70
     0
  3
CADAM Style2 Type 3 Dashed Line
 72
    65
 73
     2
 40
0.2
 49
0.15
 74
     0
 49
-0.05
 74
     0
  0
LTYPE
  5
34
330
4
100
AcDbSymbolTableRecord
100
AcDbLinetypeTableRecord
  2
DSH4
 70
     0
  3
CADAM Style2 Type 4 Dashed Line
 72
    65
 73
     2
 40
0.36
 49
0.28
 74
     0
 49
-0.08
 74
     0
  0
LTYPE
  5
35
330
4
100
AcDbSymbolTableRecord
100
AcDbLinetypeTableRecord
  2
DSH5
 70
     0
  3
CADAM Style2 Type 5 Dashed Line
 72
    65
 73
     2
 40
0.47
 49
0.39
 74
     0
 49
-0.08
 74
     0
  0
LTYPE
  5
36
330
4
100
AcDbSymbolTableRecord
100
AcDbLinetypeTableRecord
  2
DSH6
 70
     0
  3
CADAM Style2 Type 6 Dashed Line
 72
    65
 73
     2
 40
0.9
 49
0.81
 74
     0
 49
-0.09
 74
     0
  0
LTYPE
  5
37
330
4
100
AcDbSymbolTableRecord
100
AcDbLinetypeTableRecord
  2
PL1
 70
     0
  3
Style 2 Type 1 Phantom Line
 72
    65
 73
     6
 40
1.0
 49
0.6
 74
     0
 49
-0.08
 74
     0
 49
0.08
 74
     0
 49
-0.08
 74
     0
 49
0.08
 74
     0
 49
-0.08
 74
     0
  0
LTYPE
  5
38
330
4
100
AcDbSymbolTableRecord
100
AcDbLinetypeTableRecord
  2
PL2
 70
     0
  3
Style 2 Type 2 Phantom Line
 72
    65
 73
     6
 40
1.08
 49
0.6
 74
     0
 49
-0.08
 74
     0
 49
0.12
 74
     0
 49
-0.08
 74
     0
 49
0.12
 74
     0
 49
-0.08
 74
     0
  0
LTYPE
  5
39
330
4
100
AcDbSymbolTableRecord
100
AcDbLinetypeTableRecord
  2
PL3
 70
     0
  3
Style 2 Type 3 Phantom Line
 72
    65
 73
     6
 40
2.0
 49
1.439999999999999
 74
     0
 49
-0.08
 74
     0
 49
0.16
 74
     0
 49
-0.08
 74
     0
 49
0.16
 74
     0
 49
-0.08
 74
     0
  0
LTYPE
  5
3A
330
4
100
AcDbSymbolTableRecord
100
AcDbLinetypeTableRecord
  2
CL1
 70
     0
  3
CADAM Style 2 Type 1 Center Line
 72
    65
 73
     4
 40
0.7
 49
0.45
 74
     0
 49
-0.06
 74
     0
 49
0.13
 74
     0
 49
-0.06
 74
     0
  0
LTYPE
  5
3B
330
4
100
AcDbSymbolTableRecord
100
AcDbLinetypeTableRecord
  2
CL2
 70
     0
  3
CADAM Style 2 Type 2 Center Line
 72
    65
 73
     4
 40
1.199999999999999
 49
1.01
 74
     0
 49
-0.06
 74
     0
 49
0.11
 74
     0
 49
-0.06
 74
     0
  0
LTYPE
  5
3C
330
4
100
AcDbSymbolTableRecord
100
AcDbLinetypeTableRecord
  2
CL3
 70
     0
  3
CADAM Style 2 Type 3 Center Line
 72
    65
 73
     4
 40
1.199999999999999
 49
0.98
 74
     0
 49
-0.06
 74
     0
 49
0.1
 74
     0
 49
-0.06
 74
     0
  0
LTYPE
  5
3D
330
4
100
AcDbSymbolTableRecord
100
AcDbLinetypeTableRecord
  2
CL4
 70
     0
  3
CADAM Style 2 Type 4 Center Line
 72
    65
 73
     4
 40
2.2
 49
1.929999999999999
 74
     0
 49
-0.07
 74
     0
 49
0.13
 74
     0
 49
-0.07
 74
     0
  0
LTYPE
  5
3E
330
4
100
AcDbSymbolTableRecord
100
AcDbLinetypeTableRecord
  2
CL5
 70
     0
  3
CADAM Style 2 Type 5 Center Line
 72
    65
 73
     4
 40
2.2
 49
1.879999999999999
 74
     0
 49
-0.07
 74
     0
 49
0.18
 74
     0
 49
-0.07
 74
     0
  0
LTYPE
  5
3F
330
4
100
AcDbSymbolTableRecord
100
AcDbLinetypeTableRecord
  2
SBK1
 70
     0
  3
CADAM Style 2 Type 1 SetBack Line
 72
    65
 73
     8
 40
2.7
 49
0.1
 74
     0
 49
-0.08
 74
     0
 49
0.1
 74
     0
 49
-0.8
 74
     0
 49
0.0
 74
     0
 49
0.0
 74
     0
 49
0.0
 74
     0
 49
0.0
 74
     0
  0
LTYPE
  5
40
330
4
100
AcDbSymbolTableRecord
100
AcDbLinetypeTableRecord
  2
SBK2
 70
     0
  3
CADAM Style 2 Type 2 SetBack Line
 72
    65
 73
     8
 40
3.709999999999998
 49
0.13
 74
     0
 49
-0.08
 74
     0
 49
0.13
 74
     0
 49
-0.8
 74
     0
 49
0.0
 74
     0
 49
0.0
 74
     0
 49
0.0
 74
     0
 49
0.0
 74
     0
  0
LTYPE
  5
41
330
4
100
AcDbSymbolTableRecord
100
AcDbLinetypeTableRecord
  2
STCH
 70
     0
  3
CADAM Style2 Stitch Line
 72
    65
 73
     2
 40
0.25
 49
0.0
 74
     0
 49
-0.25
 74
     0
  0
LTYPE
  5
42
330
4
100
AcDbSymbolTableRecord
100
AcDbLinetypeTableRecord
  2
MTCH
 70
     0
  3
CADAM Style2 Match Line
 72
    65
 73
     6
 40
2.0
 49
1.439999999999999
 74
     0
 49
-0.8
 74
     0
 49
0.16
 74
     0
 49
-0.08
 74
     0
 49
0.16
 74
     0
 49
-0.08
 74
     0
  0
LTYPE
  5
43
330
4
100
AcDbSymbolTableRecord
100
AcDbLinetypeTableRecord
  2
SLD
 70
     0
  3
CADAM Solid_EXT2
 72
    65
 73
     0
 40
0.0
  0
ENDTAB
  0
TABLE
  2
LAYER
  5
2
102
{ACAD_XDICTIONARY
360
421
102
}
330
0
100
AcDbSymbolTable
 70
     9
  0
LAYER
  5
15
330
2
100
AcDbSymbolTableRecord
100
AcDbLayerTableRecord
  2
0
 70
     0
 62
     7
  6
CONTINUOUS
  0
LAYER
  5
44
330
2
100
AcDbSymbolTableRecord
100
AcDbLayerTableRecord
  2
MO_001_NOSHOW
 70
     1
 62
     7
  6
CONTINUOUS
  0
LAYER
  5
45
330
2
100
AcDbSymbolTableRecord
100
AcDbLayerTableRecord
  2
MO_001_VIEW_PV
 70
     0
 62
     7
  6
CONTINUOUS
  0
LAYER
  5
46
330
2
100
AcDbSymbolTableRecord
100
AcDbLayerTableRecord
  2
OVERLAY_MAP
 70
     1
 62
     7
  6
CONTINUOUS
  0
LAYER
  5
47
330
2
100
AcDbSymbolTableRecord
100
AcDbLayerTableRecord
  2
DITTOS
 70
     0
 62
     7
  6
CONTINUOUS
  0
LAYER
  5
48
330
2
100
AcDbSymbolTableRecord
100
AcDbLayerTableRecord
  2
SYMBOLS
 70
     0
 62
     7
  6
CONTINUOUS
  0
LAYER
  5
49
330
2
100
AcDbSymbolTableRecord
100
AcDbLayerTableRecord
  2
SETS
 70
     0
 62
     7
  6
CONTINUOUS
  0
LAYER
  5
10D
330
2
100
AcDbSymbolTableRecord
100
AcDbLayerTableRecord
  2
DEFPOINTS
 70
     0
 62
     7
  6
CONTINUOUS
  0
LAYER
  5
424
330
2
100
AcDbSymbolTableRecord
100
AcDbLayerTableRecord
  2
1
 70
     0
 62
     7
  6
CONTINUOUS
1001
ACAECLAYERSTANDARD
1000

1000

  0
ENDTAB
  0
TABLE
  2
STYLE
  5
3
330
0
100
AcDbSymbolTable
 70
     1
  0
STYLE
  5
18
330
3
100
AcDbSymbolTableRecord
100
AcDbTextStyleTableRecord
  2
STANDARD
 70
     0
 40
3.0
 41
1.0
 50
0.0
 71
     0
 42
4.1672
  3
monotxt.shx
  4
BIGFONT.shx
  0
ENDTAB
  0
TABLE
  2
VIEW
  5
5
330
0
100
AcDbSymbolTable
 70
     0
  0
ENDTAB
  0
TABLE
  2
UCS
  5
6
330
0
100
AcDbSymbolTable
 70
     0
  0
ENDTAB
  0
TABLE
  2
APPID
  5
8
330
0
100
AcDbSymbolTable
 70
     2
  0
APPID
  5
17
330
8
100
AcDbSymbolTableRecord
100
AcDbRegAppTableRecord
  2
ACAD
 70
     0
  0
APPID
  5
425
330
8
100
AcDbSymbolTableRecord
100
AcDbRegAppTableRecord
  2
ACAECLAYERSTANDARD
 70
     0
  0
ENDTAB
  0
TABLE
  2
DIMSTYLE
  5
9
330
0
100
AcDbSymbolTable
 70
     1
  0
DIMSTYLE
105
19
102
{ACAD_REACTORS
330
118
330
436
102
}
330
9
100
AcDbSymbolTableRecord
100
AcDbDimStyleTableRecord
  2
STANDARD
 70
     0
  3

  4

  5

  6

  7

 40
1.0
 41
2.0
 42
0.0625
 43
0.38
 44
0.18
 45
0.0
 46
0.0
 47
0.1
 48
0.1
140
0.18
141
0.09
142
0.0
143
25.4
144
1.0
145
0.0
146
0.5
147
0.09
 71
     1
 72
     0
 73
     0
 74
     0
 75
     0
 76
     0
 77
     1
 78
     0
170
     0
171
     2
172
     0
173
     0
174
     0
175
     0
176
     0
177
     0
178
     0
270
     2
271
     1
272
     1
273
     2
274
     2
340
18
275
     0
280
     0
281
     0
282
     0
283
     2
284
     0
285
     0
286
     0
287
     3
288
     0
  0
ENDTAB
  0
TABLE
  2
BLOCK_RECORD
  5
C
330
0
100
AcDbSymbolTable
 70
     3
  0
BLOCK_RECORD
  5
1E
330
C
100
AcDbSymbolTableRecord
100
AcDbBlockTableRecord
  2
*MODEL_SPACE
  0
BLOCK_RECORD
  5
1F
330
C
100
AcDbSymbolTableRecord
100
AcDbBlockTableRecord
  2
*PAPER_SPACE
  0
BLOCK_RECORD
  5
119
330
C
100
AcDbSymbolTableRecord
100
AcDbBlockTableRecord
  2
*D0
  0
BLOCK_RECORD
  5
124
330
C
100
AcDbSymbolTableRecord
100
AcDbBlockTableRecord
  2
*D1
  0
BLOCK_RECORD
  5
439
330
C
100
AcDbSymbolTableRecord
100
AcDbBlockTableRecord
  2
*D2
  0
ENDTAB
  0
ENDSEC
  0
SECTION
  2
BLOCKS
  0
BLOCK
  5
E
330
1E
100
AcDbEntity
  8
0
100
AcDbBlockBegin
  2
*MODEL_SPACE
 70
     0
 10
0.0
 20
0.0
 30
0.0
  3
*MODEL_SPACE
  1

  0
ENDBLK
  5
F
330
1E
100
AcDbEntity
  8
0
100
AcDbBlockEnd
  0
BLOCK
  5
10
330
1F
100
AcDbEntity
 67
     1
  8
0
100
AcDbBlockBegin
  2
*PAPER_SPACE
 70
     0
 10
0.0
 20
0.0
 30
0.0
  3
*PAPER_SPACE
  1

  0
ENDBLK
  5
11
330
1F
100
AcDbEntity
 67
     1
  8
0
100
AcDbBlockEnd
  0
BLOCK
  5
121
330
119
100
AcDbEntity
  8
0
100
AcDbBlockBegin
  2
*D0
 70
     1
 10
0.0
 20
0.0
 30
0.0
  3
*D0
  1
*D2
  0
LINE
  5
39E
330
119
100
AcDbEntity
  8
0
  6
CONTINUOUS
 62
     0
100
AcDbLine
 10
-10.29649092080449
 20
11.55138409043537
 30
0.0
 11
-24.94888431663279
 21
28.07385725502854
 31
0.0
  0
MTEXT
  5
39F
330
119
100
AcDbEntity
  8
0
  6
CONTINUOUS
 62
     0
100
AcDbMText
 10
-17.3342115004725
 20
23.25524084024416
 30
0.0
 40
3.0
 41
0.0
 71
     5
 72
     1
  1
\A2;R13.5{\H0.090000;%%p0.1}
 11
0.6634970280655892
 21
-0.7481789182729828
 31
0.0
  0
SOLID
  5
3A0
330
119
100
AcDbEntity
  8
0
 62
     0
100
AcDbTrace
 10
-10.54588389356215
 20
11.33021841441351
 30
0.0
 11
-10.04709794804683
 21
11.77254976645723
 31
0.0
 12
-8.969496864673314
 22
10.05502625388941
 32
0.0
 13
-8.969496864673314
 23
10.05502625388941
 33
0.0
  0
LINE
  5
3A1
330
119
100
AcDbEntity
  8
0
  6
CONTINUOUS
 62
     0
100
AcDbLine
 10
-0.1022849952967827
 20
-0.0453913873326087
 30
0.0
 11
0.0777150047032173
 21
-0.0453913873326087
 31
0.0
  0
LINE
  5
3A2
330
119
100
AcDbEntity
  8
0
  6
CONTINUOUS
 62
     0
100
AcDbLine
 10
-0.0122849952967827
 20
-0.1353913873326087
 30
0.0
 11
-0.0122849952967827
 21
0.0446086126673913
 31
0.0
  0
POINT
  5
3A3
330
119
100
AcDbEntity
  8
DEFPOINTS
 62
     0
100
AcDbPoint
 10
-8.969496864673314
 20
10.05502625388941
 30
0.0
  0
POINT
  5
3A4
330
119
100
AcDbEntity
  8
DEFPOINTS
 62
     0
100
AcDbPoint
 10
-0.0122849952967827
 20
-0.0453913873326087
 30
0.0
  0
ENDBLK
  5
122
330
119
100
AcDbEntity
  8
0
100
AcDbBlockEnd
  0
BLOCK
  5
130
330
124
100
AcDbEntity
  8
0
100
AcDbBlockBegin
  2
*D1
 70
     1
 10
0.0
 20
0.0
 30
0.0
  3
*D1
  1
*D3
  0
LINE
  5
3C8
330
124
100
AcDbEntity
  8
0
  6
CONTINUOUS
 62
     0
100
AcDbLine
 10
-0.0000000000000018
 20
22.6625
 30
0.0
 11
0.0000000000000036
 21
32.56838085739427
 31
0.0
  0
LINE
  5
3C9
330
124
100
AcDbEntity
  8
0
  6
CONTINUOUS
 62
     0
100
AcDbLine
 10
-11.84252383883207
 20
10.85166338221229
 30
0.0
 11
-24.01193750635396
 21
22.00287369502684
 31
0.0
  0
ARC
  5
3CA
330
124
100
AcDbEntity
  8
0
  6
CONTINUOUS
 62
     0
100
AcDbCircle
 10
0.0000000000000001
 20
-0.0000076653237772
 30
0.0
 40
32.38838852271805
100
AcDbArc
 50
93.53860684060676
 51
133.961400325966
  0
SOLID
  5
3CB
330
124
100
AcDbEntity
  8
0
  6
CONTINUOUS
 62
     0
100
AcDbTrace
 10
-2.009338245057504
 20
32.65980474738985
 30
0.0
 11
-1.988754736674581
 21
31.99345591710117
 31
0.0
 12
0.0000000000000036
 22
32.38838085739427
 32
0.0
 13
0.0000000000000036
 23
32.38838085739427
 33
0.0
  0
SOLID
  5
3CC
330
124
100
AcDbEntity
  8
0
  6
CONTINUOUS
 62
     0
100
AcDbTrace
 10
-22.24447528688015
 20
23.08072405214946
 30
0.0
 11
-22.72185321936672
 21
23.54607849128084
 31
0.0
 12
-23.87922757051759
 22
21.88126747425541
 32
0.0
 13
-23.87922757051759
 23
21.88126747425541
 33
0.0
  0
POINT
  5
3CD
330
124
100
AcDbEntity
  8
DEFPOINTS
  6
CONTINUOUS
 62
     0
100
AcDbPoint
 10
-17.00314774787058
 20
27.56628838188971
 30
0.0
  0
POINT
  5
3CE
330
124
100
AcDbEntity
  8
DEFPOINTS
  6
CONTINUOUS
 62
     0
100
AcDbPoint
 10
-0.0000000000000018
 20
22.6
 30
0.0
  0
POINT
  5
3CF
330
124
100
AcDbEntity
  8
DEFPOINTS
  6
CONTINUOUS
 62
     0
100
AcDbPoint
 10
-0.000004
 20
-0.000004
 30
0.0
  0
POINT
  5
3D0
330
124
100
AcDbEntity
  8
DEFPOINTS
  6
CONTINUOUS
 62
     0
100
AcDbPoint
 10
-11.79644399999999
 20
10.80943899999999
 30
0.0
  0
POINT
  5
3D1
330
124
100
AcDbEntity
  8
DEFPOINTS
  6
CONTINUOUS
 62
     0
100
AcDbPoint
 10
0.0000000000000018
 20
-22.6
 30
0.0
  0
ENDBLK
  5
131
330
124
100
AcDbEntity
  8
0
100
AcDbBlockEnd
  0
BLOCK
  5
43A
330
439
100
AcDbEntity
  8
0
100
AcDbBlockBegin
  2
*D2
 70
     1
 10
0.0
 20
0.0
 30
0.0
  3
*D2
  1
*D4
  0
LINE
  5
43C
330
439
100
AcDbEntity
  8
1
  6
CONTINUOUS
 62
     0
100
AcDbLine
 10
0.0
 20
22.6625
 30
0.0
 11
0.0000000000000005
 21
31.34720136866873
 31
0.0
  0
LINE
  5
43D
330
439
100
AcDbEntity
  8
1
  6
CONTINUOUS
 62
     0
100
AcDbLine
 10
-3.476553463220416
 20
15.68175850324958
 30
0.0
 11
-6.784764655782056
 21
30.60414950254619
 31
0.0
  0
ARC
  5
43E
330
439
100
AcDbEntity
  8
1
  6
CONTINUOUS
 62
     0
100
AcDbCircle
 10
0.0000000000000004
 20
0.000023847136875
 30
0.0
 40
31.16717752153186
100
AcDbArc
 50
93.67730536709486
 51
98.82268275400659
  0
SOLID
  5
43F
330
439
100
AcDbEntity
  8
1
 62
     0
100
AcDbTrace
 10
-1.988275273550054
 20
30.76986958325437
 30
0.0
 11
-2.009665297276332
 21
31.43619301172544
 31
0.0
 12
0.0000000000000004
 22
31.16720136866874
 32
0.0
 13
0.0000000000000004
 23
31.16720136866874
 33
0.0
  0
SOLID
  5
440
330
439
100
AcDbEntity
  8
1
 62
     0
100
AcDbTrace
 10
-4.841997659076916
 20
31.12600246663089
 30
0.0
 11
-4.718662004048224
 21
30.470843889916
 31
0.0
 12
-6.745805561707257
 22
30.42841621318737
 32
0.0
 13
-6.745805561707257
 23
30.42841621318737
 33
0.0
  0
MTEXT
  5
441
330
439
100
AcDbEntity
  8
1
  6
CONTINUOUS
 62
     0
100
AcDbMText
 10
-3.566168170217593
 20
32.56250415436899
 30
0.0
 40
3.0
 41
0.0
 71
     5
 72
     1
  1
 
 11
0.9940563495077751
 21
0.1088667718051559
 31
0.0
  0
POINT
  5
442
330
439
100
AcDbEntity
  8
DEFPOINTS
 62
     0
100
AcDbPoint
 10
-2.264541723637906
 20
31.08482407877073
 30
0.0
  0
POINT
  5
443
330
439
100
AcDbEntity
  8
DEFPOINTS
 62
     0
100
AcDbPoint
 10
0.0000052867777778
 20
0.0000000000000018
 30
0.0
  0
POINT
  5
444
330
439
100
AcDbEntity
  8
DEFPOINTS
 62
     0
100
AcDbPoint
 10
0.0
 20
22.6
 30
0.0
  0
POINT
  5
445
330
439
100
AcDbEntity
  8
DEFPOINTS
 62
     0
100
AcDbPoint
 10
0.0
 20
-22.6
 30
0.0
  0
POINT
  5
446
330
439
100
AcDbEntity
  8
DEFPOINTS
 62
     0
100
AcDbPoint
 10
-3.463026
 20
15.62073999999999
 30
0.0
  0
ENDBLK
  5
43B
330
439
100
AcDbEntity
  8
0
100
AcDbBlockEnd
  0
ENDSEC
  0
SECTION
  2
ENTITIES
  0
TEXT
  5
4B
330
1E
100
AcDbEntity
  8
OVERLAY_MAP
  6
C_SOLID_L
100
AcDbText
 10
0.0
 20
6.349999999999997
 30
0.0
 40
4.1672
  1
Model Overlay Name
100
AcDbText
  0
TEXT
  5
4C
330
1E
100
AcDbEntity
  8
OVERLAY_MAP
  6
C_SOLID_L
100
AcDbText
 10
126.999998
 20
0.0
 30
0.0
 40
4.1672
  1
Number
100
AcDbText
  0
TEXT
  5
4D
330
1E
100
AcDbEntity
  8
OVERLAY_MAP
  6
C_SOLID_L
100
AcDbText
 10
177.7999969999999
 20
0.0
 30
0.0
 40
4.1672
  1
File Text
100
AcDbText
  0
TEXT
  5
4E
330
1E
100
AcDbEntity
  8
OVERLAY_MAP
  6
C_SOLID_L
100
AcDbText
 10
0.0
 20
-6.349999999999997
 30
0.0
 40
4.1672
  1
rs 4e6 
100
AcDbText
  0
TEXT
  5
4F
330
1E
100
AcDbEntity
  8
OVERLAY_MAP
  6
C_SOLID_L
100
AcDbText
 10
126.999998
 20
-6.349999999999997
 30
0.0
 40
4.1672
  1
001
100
AcDbText
  0
TEXT
  5
50
330
1E
100
AcDbEntity
  8
OVERLAY_MAP
  6
C_SOLID_L
100
AcDbText
 10
177.7999969999999
 20
-6.349999999999997
 30
0.0
 40
4.1672
  1
                                                                   00139
100
AcDbText
  0
CIRCLE
  5
51
330
1E
100
AcDbEntity
  8
MO_001_VIEW_PV
  6
C_SOLID_M
100
AcDbCircle
 10
0.0
 20
0.0
 30
0.0
 40
17.449997
  0
LINE
  5
52
330
1E
100
AcDbEntity
  8
1
  6
C_CENTER_L
100
AcDbLine
 10
-22.600006
 20
0.0
 30
0.0
 11
22.599998
 21
0.0
 31
0.0
  0
ARC
  5
53
330
1E
100
AcDbEntity
  8
1
  6
C_SOLID_M
100
AcDbCircle
 10
0.0
 20
0.0
 30
0.0
 40
11.912498
100
AcDbArc
 50
150.991973
 51
174.0079620000001
  0
ARC
  5
54
330
1E
100
AcDbEntity
  8
1
  6
C_SOLID_M
100
AcDbCircle
 10
0.0
 20
0.0
 30
0.0
 40
15.08750199999998
100
AcDbArc
 50
150.9999510000001
 51
173.999984
  0
ARC
  5
55
330
1E
100
AcDbEntity
  8
1
  6
C_SOLID_M
100
AcDbCircle
 10
-11.807373
 20
6.544927999999997
 30
0.0
 40
1.587499999999999
100
AcDbArc
 50
331.059823
 51
151.0000050000001
  0
ARC
  5
56
330
1E
100
AcDbEntity
  8
1
  6
C_SOLID_M
100
AcDbCircle
 10
-13.42604099999999
 20
1.411130999999999
 30
0.0
 40
1.587499999999999
100
AcDbArc
 50
173.9999330000001
 51
353.940209
  0
ARC
  5
57
330
1E
100
AcDbEntity
  8
1
  6
C_SOLID_M
100
AcDbCircle
 10
0.0
 20
0.0
 30
0.0
 40
11.912498
100
AcDbArc
 50
30.99198700000001
 51
54.00797600000001
  0
ARC
  5
58
330
1E
100
AcDbEntity
  8
1
  6
C_SOLID_M
100
AcDbCircle
 10
0.0
 20
0.0
 30
0.0
 40
15.08750199999998
100
AcDbArc
 50
30.99996400000008
 51
53.99999800000009
  0
ARC
  5
59
330
1E
100
AcDbEntity
  8
1
  6
C_SOLID_M
100
AcDbCircle
 10
11.57175399999998
 20
6.953011999999997
 30
0.0
 40
1.587499999999999
100
AcDbArc
 50
211.0597750000001
 51
31.00001900000018
  0
ARC
  5
5A
330
1E
100
AcDbEntity
  8
1
  6
C_SOLID_M
100
AcDbCircle
 10
7.935096999999997
 20
10.92172799999999
 30
0.0
 40
1.587499999999999
100
AcDbArc
 50
53.99995700000002
 51
233.9401980000001
  0
ARC
  5
5B
330
1E
100
AcDbEntity
  8
1
  6
C_SOLID_M
100
AcDbCircle
 10
0.0
 20
0.0
 30
0.0
 40
11.912498
100
AcDbArc
 50
270.9919870000001
 51
294.007976
  0
ARC
  5
5C
330
1E
100
AcDbEntity
  8
1
  6
C_SOLID_M
100
AcDbCircle
 10
0.0
 20
0.0
 30
0.0
 40
15.08750199999998
100
AcDbArc
 50
270.999965
 51
293.999998
  0
ARC
  5
5D
330
1E
100
AcDbEntity
  8
1
  6
C_SOLID_M
100
AcDbCircle
 10
0.235611
 20
-13.49794
 30
0.0
 40
1.587499999999999
100
AcDbArc
 50
91.05979899999998
 51
271.0000190000001
  0
ARC
  5
5E
330
1E
100
AcDbEntity
  8
1
  6
C_SOLID_M
100
AcDbCircle
 10
5.490943999999998
 20
-12.33286199999999
 30
0.0
 40
1.587499999999999
100
AcDbArc
 50
293.999964
 51
113.9402120000001
  0
CIRCLE
  5
5F
330
1E
100
AcDbEntity
  8
1
  6
C_SOLID_M
100
AcDbCircle
 10
12.875183
 20
-4.059529
 30
0.0
 40
1.3
  0
CIRCLE
  5
60
330
1E
100
AcDbEntity
  8
1
  6
C_SOLID_M
100
AcDbCircle
 10
-9.953247
 20
-9.120467999999997
 30
0.0
 40
1.3
  0
CIRCLE
  5
61
330
1E
100
AcDbEntity
  8
1
  6
C_SOLID_M
100
AcDbCircle
 10
-2.921936
 20
13.179997
 30
0.0
 40
1.3
  0
LINE
  5
62
330
1E
100
AcDbEntity
  8
1
  6
C_CENTER_L
100
AcDbLine
 10
0.0
 20
22.6
 30
0.0
 11
0.0
 21
-22.6
 31
0.0
  0
ARC
  5
63
330
1E
100
AcDbEntity
  8
MO_001_VIEW_PV
  6
C_SOLID_M
100
AcDbCircle
 10
5.857772999999999
 20
-1.298637999999997
 30
0.0
 40
1.7
100
AcDbArc
 50
294.343543
 51
40.65638299999998
  0
ARC
  5
64
330
1E
100
AcDbEntity
  8
MO_001_VIEW_PV
  6
C_SOLID_M
100
AcDbCircle
 10
4.053543
 20
4.423663999999996
 30
0.0
 40
1.7
100
AcDbArc
 50
354.343585
 51
100.656416
  0
ARC
  5
65
330
1E
100
AcDbEntity
  8
MO_001_VIEW_PV
  6
C_SOLID_M
100
AcDbCircle
 10
-1.804236999999999
 20
5.722300999999997
 30
0.0
 40
1.7
100
AcDbArc
 50
54.34358699999999
 51
160.656404
  0
ARC
  5
66
330
1E
100
AcDbEntity
  8
MO_001_VIEW_PV
  6
C_SOLID_M
100
AcDbCircle
 10
-5.857772999999999
 20
1.298637999999997
 30
0.0
 40
1.7
100
AcDbArc
 50
114.343562
 51
220.656392
  0
ARC
  5
67
330
1E
100
AcDbEntity
  8
MO_001_VIEW_PV
  6
C_SOLID_M
100
AcDbCircle
 10
-4.053543
 20
-4.423663999999996
 30
0.0
 40
1.7
100
AcDbArc
 50
174.343557
 51
280.6563799999996
  0
ARC
  5
68
330
1E
100
AcDbEntity
  8
MO_001_VIEW_PV
  6
C_SOLID_M
100
AcDbCircle
 10
1.804236999999999
 20
-5.722301999999999
 30
0.0
 40
1.7
100
AcDbArc
 50
234.343562
 51
340.656382
  0
ARC
  5
69
330
1E
100
AcDbEntity
  8
MO_001_VIEW_PV
  6
C_SOLID_M
100
AcDbCircle
 10
0.0
 20
0.0
 30
0.0
 40
7.15
100
AcDbArc
 50
58.468851
 51
96.531152
  0
ARC
  5
6A
330
1E
100
AcDbEntity
  8
MO_001_VIEW_PV
  6
C_SOLID_M
100
AcDbCircle
 10
5.472281999999997
 20
5.971950999999998
 30
0.0
 40
2.0
100
AcDbArc
 50
172.2921639999999
 51
282.707841
  0
ARC
  5
6B
330
1E
100
AcDbEntity
  8
MO_001_VIEW_PV
  6
C_SOLID_M
100
AcDbCircle
 10
-2.435715
 20
7.725108999999998
 30
0.0
 40
2.0
100
AcDbArc
 50
232.292169
 51
342.707822
  0
ARC
  5
6C
330
1E
100
AcDbEntity
  8
MO_001_VIEW_PV
  6
C_SOLID_M
100
AcDbCircle
 10
-7.907989999999997
 20
1.753170999999999
 30
0.0
 40
2.0
100
AcDbArc
 50
292.292164
 51
42.70782000000001
  0
ARC
  5
6D
330
1E
100
AcDbEntity
  8
MO_001_VIEW_PV
  6
C_SOLID_M
100
AcDbCircle
 10
-5.47229
 20
-5.971948
 30
0.0
 40
2.0
100
AcDbArc
 50
352.2921680000001
 51
102.7078219999999
  0
ARC
  5
6E
330
1E
100
AcDbEntity
  8
MO_001_VIEW_PV
  6
C_SOLID_M
100
AcDbCircle
 10
2.435715
 20
-7.725107
 30
0.0
 40
2.0
100
AcDbArc
 50
52.292167
 51
162.707824
  0
ARC
  5
6F
330
1E
100
AcDbEntity
  8
MO_001_VIEW_PV
  6
C_SOLID_M
100
AcDbCircle
 10
7.907989999999997
 20
-1.75317
 30
0.0
 40
2.0
100
AcDbArc
 50
112.292169
 51
222.707825
  0
ARC
  5
70
330
1E
100
AcDbEntity
  8
MO_001_VIEW_PV
  6
C_SOLID_M
100
AcDbCircle
 10
0.0
 20
0.0
 30
0.0
 40
7.15
100
AcDbArc
 50
118.4688519999999
 51
156.531161
  0
ARC
  5
71
330
1E
100
AcDbEntity
  8
MO_001_VIEW_PV
  6
C_SOLID_M
100
AcDbCircle
 10
0.0
 20
0.0
 30
0.0
 40
7.15
100
AcDbArc
 50
178.4688539999999
 51
216.531162
  0
ARC
  5
72
330
1E
100
AcDbEntity
  8
MO_001_VIEW_PV
  6
C_SOLID_M
100
AcDbCircle
 10
0.0
 20
0.0
 30
0.0
 40
7.15
100
AcDbArc
 50
238.46886
 51
276.531147
  0
ARC
  5
73
330
1E
100
AcDbEntity
  8
MO_001_VIEW_PV
  6
C_SOLID_M
100
AcDbCircle
 10
0.0
 20
0.0
 30
0.0
 40
7.15
100
AcDbArc
 50
298.4688479999998
 51
336.531152
  0
ARC
  5
74
330
1E
100
AcDbEntity
  8
MO_001_VIEW_PV
  6
C_SOLID_M
100
AcDbCircle
 10
0.0
 20
0.0
 30
0.0
 40
7.15
100
AcDbArc
 50
358.468848
 51
36.531151
  0
CIRCLE
  5
75
330
1E
100
AcDbEntity
  8
MO_001_VIEW_PV
  6
C_SOLID_M
100
AcDbCircle
 10
0.0
 20
0.0
 30
0.0
 40
2.779999999999998
  0
ARC
  5
76
330
1E
100
AcDbEntity
  8
MO_001_VIEW_PV
  6
C_SOLID_M
100
AcDbCircle
 10
0.0
 20
0.0
 30
0.0
 40
19.6
100
AcDbArc
 50
293.2914339999998
 51
246.708536
  0
CIRCLE
  5
77
330
1E
100
AcDbEntity
  8
MO_001_VIEW_PV
  6
C_SOLID_M
100
AcDbCircle
 10
0.0
 20
0.0
 30
0.0
 40
2.634411
  0
LWPOLYLINE
  5
78
330
1E
100
AcDbEntity
  8
MO_001_VIEW_PV
  6
C_SOLID_M
100
AcDbPolyline
 90
       24
 70
     0
 43
0.0
 10
8.488167999999998
 20
-17.66666299999998
 10
8.437447999999998
 20
-17.613934
 10
8.377323999999996
 20
-17.57035499999999
 10
8.310297
 20
-17.534931
 10
8.158364999999998
 20
-17.483446
 10
7.999597999999997
 20
-17.455109
 10
7.843113999999999
 20
-17.443522
 10
7.694416999999997
 20
-17.443629
 10
7.412439999999999
 20
-17.466779
 10
7.187180999999998
 20
-17.502941
 10
6.836441
 20
-17.58588
 10
6.482362
 20
-17.70031099999998
 10
6.165364
 20
-17.829645
 10
5.903345999999999
 20
-17.958312
 10
5.691281
 20
-18.08012
 10
5.522274999999997
 20
-18.19183999999999
 10
5.389130999999999
 20
-18.292176
 10
5.285158
 20
-18.38101599999999
 10
5.204521999999998
 20
-18.458918
 10
5.088256999999996
 20
-18.59401799999998
 10
5.022992999999996
 20
-18.692931
 10
4.986905999999998
 20
-18.764996
 10
4.953991
 20
-18.86858499999998
 10
4.946926999999996
 20
-18.965444
  0
LWPOLYLINE
  5
92
330
1E
100
AcDbEntity
  8
MO_001_VIEW_PV
  6
C_SOLID_M
100
AcDbPolyline
 90
       24
 70
     0
 43
0.0
 10
-4.946926999999996
 20
-18.965444
 10
-4.949851999999999
 20
-18.893041
 10
-4.966001
 20
-18.821488
 10
-4.99282
 20
-18.751645
 10
-5.072919999999998
 20
-18.61506099999997
 10
-5.173683
 20
-18.491538
 10
-5.283948
 20
-18.382119
 10
-5.396175
 20
-18.28653
 10
-5.624369999999997
 20
-18.12256999999998
 10
-5.818501999999997
 20
-18.004916
 10
-6.138621999999998
 20
-17.841812
 10
-6.482362
 20
-17.70031099999998
 10
-6.808117999999997
 20
-17.593909
 10
-7.09196
 20
-17.522378
 10
-7.333527
 20
-17.477811
 10
-7.535858999999997
 20
-17.45334
 10
-7.703514
 20
-17.443356
 10
-7.841460999999998
 20
-17.443469
 10
-7.95448
 20
-17.450346
 10
-8.132697
 20
-17.477443
 10
-8.248198
 20
-17.51005799999999
 10
-8.323704
 20
-17.541196
 10
-8.417939999999996
 20
-17.598151
 10
-8.488167999999998
 20
-17.66666199999998
  0
LINE
  5
AC
330
1E
100
AcDbEntity
  8
MO_001_VIEW_PV
  6
C_SOLID_M
100
AcDbLine
 10
5.75
 20
-28.806343
 30
0.0
 11
5.75
 21
-18.04456099999998
 31
0.0
  0
LINE
  5
AD
330
1E
100
AcDbEntity
  8
MO_001_VIEW_PV
  6
C_SOLID_M
100
AcDbLine
 10
7.75
 20
-28.806343
 30
0.0
 11
7.75
 21
-17.442478
 31
0.0
  0
LINE
  5
AE
330
1E
100
AcDbEntity
  8
MO_001_VIEW_PV
  6
C_SOLID_M
100
AcDbLine
 10
7.75
 20
-28.806343
 30
0.0
 11
5.75
 21
-28.806343
 31
0.0
  0
LINE
  5
AF
330
1E
100
AcDbEntity
  8
MO_001_VIEW_PV
  6
C_SOLID_M
100
AcDbLine
 10
-7.550003
 20
-33.806343
 30
0.0
 11
-7.550003
 21
-28.806343
 31
0.0
  0
LINE
  5
B0
330
1E
100
AcDbEntity
  8
MO_001_VIEW_PV
  6
C_SOLID_M
100
AcDbLine
 10
-5.950012
 20
-33.806343
 30
0.0
 11
-5.950012
 21
-28.806343
 31
0.0
  0
LINE
  5
B1
330
1E
100
AcDbEntity
  8
MO_001_VIEW_PV
  6
C_SOLID_M
100
AcDbLine
 10
-5.75
 20
-28.806343
 30
0.0
 11
-5.75
 21
-18.04456099999998
 31
0.0
  0
LINE
  5
B2
330
1E
100
AcDbEntity
  8
MO_001_VIEW_PV
  6
C_SOLID_M
100
AcDbLine
 10
-7.75
 20
-28.806343
 30
0.0
 11
-7.75
 21
-17.442478
 31
0.0
  0
LINE
  5
B3
330
1E
100
AcDbEntity
  8
MO_001_VIEW_PV
  6
C_SOLID_M
100
AcDbLine
 10
-7.75
 20
-28.806343
 30
0.0
 11
-5.75
 21
-28.806343
 31
0.0
  0
LINE
  5
B4
330
1E
100
AcDbEntity
  8
MO_001_VIEW_PV
  6
C_SOLID_M
100
AcDbLine
 10
-5.950012
 20
-38.30634299999999
 30
0.0
 11
-5.950012
 21
-34.806343
 31
0.0
  0
LINE
  5
B5
330
1E
100
AcDbEntity
  8
MO_001_VIEW_PV
  6
C_SOLID_M
100
AcDbLine
 10
-7.550003
 20
-38.30634299999999
 30
0.0
 11
-7.550003
 21
-34.806343
 31
0.0
  0
LINE
  5
B6
330
1E
100
AcDbEntity
  8
MO_001_VIEW_PV
  6
C_SOLID_M
100
AcDbLine
 10
-7.550003
 20
-38.30634299999999
 30
0.0
 11
-5.950012
 21
-38.30634299999999
 31
0.0
  0
LINE
  5
B7
330
1E
100
AcDbEntity
  8
MO_001_VIEW_PV
  6
C_SOLID_M
100
AcDbLine
 10
-6.476043999999999
 20
-38.30634299999999
 30
0.0
 11
-6.476043999999999
 21
-43.30634299999998
 31
0.0
  0
LINE
  5
B8
330
1E
100
AcDbEntity
  8
MO_001_VIEW_PV
  6
C_SOLID_M
100
AcDbLine
 10
-7.023986999999999
 20
-38.30634299999999
 30
0.0
 11
-7.023986999999999
 21
-43.30634299999998
 31
0.0
  0
LINE
  5
B9
330
1E
100
AcDbEntity
  8
MO_001_VIEW_PV
  6
C_SOLID_M
100
AcDbLine
 10
-7.023986999999999
 20
-43.30634299999998
 30
0.0
 11
-6.476043999999999
 21
-43.30634299999998
 31
0.0
  0
ARC
  5
BA
330
1E
100
AcDbEntity
  8
MO_001_VIEW_PV
  6
C_SOLID_M
100
AcDbCircle
 10
-7.149994
 20
-34.106339
 30
0.0
 40
0.499994
100
AcDbArc
 50
36.869634
 51
143.1303709999999
  0
ARC
  5
BB
330
1E
100
AcDbEntity
  8
MO_001_VIEW_PV
  6
C_SOLID_M
100
AcDbCircle
 10
-7.149994
 20
-33.50634799999999
 30
0.0
 40
0.499994
100
AcDbArc
 50
216.869629
 51
323.1303759999998
  0
ARC
  5
BC
330
1E
100
AcDbEntity
  8
MO_001_VIEW_PV
  6
C_SOLID_M
100
AcDbCircle
 10
-6.350005999999997
 20
-33.50634799999999
 30
0.0
 40
0.499994
100
AcDbArc
 50
216.869629
 51
323.1303689999998
  0
ARC
  5
BD
330
1E
100
AcDbEntity
  8
MO_001_VIEW_PV
  6
C_SOLID_M
100
AcDbCircle
 10
-6.350005999999997
 20
-34.50634799999999
 30
0.0
 40
0.499994
100
AcDbArc
 50
216.869643
 51
323.1303759999998
  0
ARC
  5
BE
330
1E
100
AcDbEntity
  8
MO_001_VIEW_PV
  6
C_SOLID_M
100
AcDbCircle
 10
-6.350005999999997
 20
-35.106339
 30
0.0
 40
0.499994
100
AcDbArc
 50
36.86963099999999
 51
143.1303709999999
  0
ARC
  5
BF
330
1E
100
AcDbEntity
  8
MO_001_VIEW_PV
  6
C_SOLID_M
100
AcDbCircle
 10
-7.149994
 20
-35.106339
 30
0.0
 40
0.499994
100
AcDbArc
 50
36.86963099999999
 51
143.1303709999999
  0
LINE
  5
C0
330
1E
100
AcDbEntity
  8
MO_001_VIEW_PV
  6
C_SOLID_M
100
AcDbLine
 10
5.949996999999997
 20
-33.806343
 30
0.0
 11
5.949996999999997
 21
-28.806343
 31
0.0
  0
LINE
  5
C1
330
1E
100
AcDbEntity
  8
MO_001_VIEW_PV
  6
C_SOLID_M
100
AcDbLine
 10
7.549988
 20
-33.806343
 30
0.0
 11
7.549988
 21
-28.806343
 31
0.0
  0
LINE
  5
C2
330
1E
100
AcDbEntity
  8
MO_001_VIEW_PV
  6
C_SOLID_M
100
AcDbLine
 10
7.549988
 20
-38.30634299999999
 30
0.0
 11
7.549988
 21
-34.806343
 31
0.0
  0
LINE
  5
C3
330
1E
100
AcDbEntity
  8
MO_001_VIEW_PV
  6
C_SOLID_M
100
AcDbLine
 10
5.949996999999997
 20
-38.30634299999999
 30
0.0
 11
5.949996999999997
 21
-34.806343
 31
0.0
  0
LINE
  5
C4
330
1E
100
AcDbEntity
  8
MO_001_VIEW_PV
  6
C_SOLID_M
100
AcDbLine
 10
5.949996999999997
 20
-38.30634299999999
 30
0.0
 11
7.549988
 21
-38.30634299999999
 31
0.0
  0
LINE
  5
C5
330
1E
100
AcDbEntity
  8
MO_001_VIEW_PV
  6
C_SOLID_M
100
AcDbLine
 10
7.023972
 20
-38.30634299999999
 30
0.0
 11
7.023972
 21
-43.30634299999998
 31
0.0
  0
LINE
  5
C6
330
1E
100
AcDbEntity
  8
MO_001_VIEW_PV
  6
C_SOLID_M
100
AcDbLine
 10
6.476013
 20
-38.30634299999999
 30
0.0
 11
6.476013
 21
-43.30634299999998
 31
0.0
  0
LINE
  5
C7
330
1E
100
AcDbEntity
  8
MO_001_VIEW_PV
  6
C_SOLID_M
100
AcDbLine
 10
6.476013
 20
-43.30634299999998
 30
0.0
 11
7.023972
 21
-43.30634299999998
 31
0.0
  0
ARC
  5
C8
330
1E
100
AcDbEntity
  8
MO_001_VIEW_PV
  6
C_SOLID_M
100
AcDbCircle
 10
6.349991
 20
-34.106339
 30
0.0
 40
0.499994
100
AcDbArc
 50
36.869634
 51
143.1303709999999
  0
ARC
  5
C9
330
1E
100
AcDbEntity
  8
MO_001_VIEW_PV
  6
C_SOLID_M
100
AcDbCircle
 10
6.349991
 20
-33.50634799999999
 30
0.0
 40
0.499994
100
AcDbArc
 50
216.869629
 51
323.1303759999998
  0
ARC
  5
CA
330
1E
100
AcDbEntity
  8
MO_001_VIEW_PV
  6
C_SOLID_M
100
AcDbCircle
 10
7.149994
 20
-33.50634799999999
 30
0.0
 40
0.499994
100
AcDbArc
 50
216.869629
 51
323.1303689999998
  0
ARC
  5
CB
330
1E
100
AcDbEntity
  8
MO_001_VIEW_PV
  6
C_SOLID_M
100
AcDbCircle
 10
7.149994
 20
-34.50634799999999
 30
0.0
 40
0.499994
100
AcDbArc
 50
216.869643
 51
323.1303759999998
  0
ARC
  5
CC
330
1E
100
AcDbEntity
  8
MO_001_VIEW_PV
  6
C_SOLID_M
100
AcDbCircle
 10
7.149994
 20
-35.106339
 30
0.0
 40
0.499994
100
AcDbArc
 50
36.86963099999999
 51
143.1303709999999
  0
ARC
  5
CD
330
1E
100
AcDbEntity
  8
MO_001_VIEW_PV
  6
C_SOLID_M
100
AcDbCircle
 10
6.349991
 20
-35.106339
 30
0.0
 40
0.499994
100
AcDbArc
 50
36.86963099999999
 51
143.1303709999999
  0
ARC
  5
CE
330
1E
100
AcDbEntity
  8
MO_001_VIEW_PV
  6
C_SOLID_M
100
AcDbCircle
 10
0.0
 20
0.0
 30
0.0
 40
19.6
100
AcDbArc
 50
252.940316
 51
287.059659
  0
CIRCLE
  5
CF
330
1E
100
AcDbEntity
  8
1
  6
C_SOLID_L
100
AcDbCircle
 10
-9.953247
 20
-9.120467999999997
 30
0.0
 40
1.5
  0
CIRCLE
  5
D0
330
1E
100
AcDbEntity
  8
1
  6
C_SOLID_L
100
AcDbCircle
 10
12.875183
 20
-4.059529
 30
0.0
 40
1.5
  0
CIRCLE
  5
D1
330
1E
100
AcDbEntity
  8
1
  6
C_SOLID_L
100
AcDbCircle
 10
-2.921936
 20
13.179997
 30
0.0
 40
1.5
  0
LINE
  5
D4
330
1E
100
AcDbEntity
  8
1
  6
C_CENTER_L
100
AcDbLine
 10
0.0000052867777778
 20
0.0000000000000018
 30
0.0
 11
-3.463026
 21
15.62073999999999
 31
0.0
  0
ARC
  5
D5
330
1E
100
AcDbEntity
  8
1
  6
C_CENTER_L
100
AcDbCircle
 10
0.0
 20
0.0
 30
0.0
 40
13.500003
100
AcDbArc
 50
91.87445900000016
 51
137.5000311521516
  0
LINE
  5
D6
330
1E
100
AcDbEntity
  8
1
  6
C_CENTER_L
100
AcDbLine
 10
10.490888
 20
-3.307771999999998
 30
0.0
 11
15.259472
 21
-4.811301999999998
 31
0.0
  0
ARC
  5
D7
330
1E
100
AcDbEntity
  8
1
  6
C_CENTER_L
100
AcDbCircle
 10
0.0
 20
0.0
 30
0.0
 40
13.500003
100
AcDbArc
 50
331.874458
 51
353.12555
  0
LINE
  5
D8
330
1E
100
AcDbEntity
  8
MO_001_VIEW_PV
  6
C_SOLID_L
100
AcDbLine
 10
-48.363823
 20
-23.068441
 30
0.0
 11
-20.049223
 21
-23.068441
 31
0.0
  0
TEXT
  5
DD
330
1E
100
AcDbEntity
  8
MO_001_VIEW_PV
  6
C_SOLID_L
100
AcDbText
 10
-12.690109
 20
-63.736548
 30
0.0
 40
4.167187
  1
4E X6付
100
AcDbText
  0
TEXT
  5
DE
330
1E
100
AcDbEntity
  8
MO_001_VIEW_PV
  6
C_SOLID_L
100
AcDbText
 10
-33.3285267880907
 20
35.8785967942805
 30
0.0
 40
3.0
  1
※1/2回転角度(%%P3%%D)
100
AcDbText
  0
TEXT
  5
DF
330
1E
100
AcDbEntity
  8
MO_001_VIEW_PV
  6
C_SOLID_L
100
AcDbText
 10
17.82858
 20
34.01495399999999
 30
0.0
 40
3.0
  1
※図は右回転を示し，
100
AcDbText
  0
TEXT
  5
E0
330
1E
100
AcDbEntity
  8
MO_001_VIEW_PV
  6
C_SOLID_L
100
AcDbText
 10
17.82858
 20
29.514954
 30
0.0
 40
3.0
  1
　左回転の場合は反対
100
AcDbText
  0
TEXT
  5
E1
330
1E
100
AcDbEntity
  8
MO_001_VIEW_PV
  6
C_SOLID_L
100
AcDbText
 10
17.82858
 20
25.014954
 30
0.0
 40
3.0
  1
　になります。
100
AcDbText
  0
TEXT
  5
E2
330
1E
100
AcDbEntity
  8
MO_001_VIEW_PV
  6
C_SOLID_L
100
AcDbText
 10
-47.821841
 20
-22.203489
 30
0.0
 40
3.0
  1
3-M3 P0.5
100
AcDbText
  0
TEXT
  5
E5
330
1E
100
AcDbEntity
  8
MO_001_VIEW_PV
  6
C_SOLID_L
100
AcDbText
 10
35.309891
 20
-69.736548
 30
0.0
 40
4.167187
  1
単位：mm
100
AcDbText
  0
TEXT
  5
E6
330
1E
100
AcDbEntity
  8
MO_001_VIEW_PV
  6
C_SOLID_L
100
AcDbText
 10
35.309891
 20
-75.987329
 30
0.0
 40
4.167187
  1
図は右回転、無励磁時を示す
100
AcDbText
  0
LINE
  5
E9
330
1E
100
AcDbEntity
  8
MO_001_VIEW_PV
  6
C_SOLID_L
100
AcDbLine
 10
-4.220974
 20
-13.929997
 30
0.0
 11
-20.04922399999998
 21
-23.068441
 31
0.0
  0
LWPOLYLINE
  5
EA
330
1E
100
AcDbEntity
  8
MO_001_VIEW_PV
  6
C_SOLID_L
100
AcDbPolyline
 90
        3
 70
     1
 43
0.0
 10
-6.802916
 20
-16.094463
 10
-4.660915
 20
-14.183997
 10
-7.386427
 20
-15.08379099999999
  0
DIMENSION
  5
118
330
1E
100
AcDbEntity
  8
0
  6
CONTINUOUS
100
AcDbDimension
  2
*D0
 10
-0.0122849952967827
 20
-0.0453913873326087
 30
0.0
 11
-19.20465879615496
 21
21.59649827008019
 31
0.0
 70
   164
  3
STANDARD
100
AcDbRadialDimension
 15
-8.969496864673314
 25
10.05502625388941
 35
0.0
 40
0.0
1001
ACAD
1000
DSTYLE
1002
{
1070
   147
1040
1.0
1070
   288
1070
     1
1002
}
  0
LINE
  5
432
330
1E
100
AcDbEntity
  8
1
  6
C_CENTER_L
100
AcDbLine
 10
-8.110058581926863
 20
-7.431489516257318
 30
0.0
 11
-11.79644575727888
 21
-10.80943940033733
 31
0.0
  0
ARC
  5
433
330
1E
100
AcDbEntity
  8
1
  6
C_CENTER_L
100
AcDbCircle
 10
0.0
 20
0.0
 30
0.0
 40
13.500003
100
AcDbArc
 50
211.8744579999999
 51
233.12555
  0
DIMENSION
  5
436
330
1E
100
AcDbEntity
  8
1
  6
CONTINUOUS
100
AcDbDimension
  2
*D2
 10
-3.463026
 20
15.62073999999999
 30
0.0
 11
-3.566168170217593
 21
32.56250415436899
 31
0.0
 70
    34
  1
 
  3
STANDARD
100
AcDb2LineAngularDimension
 13
0.0
 23
22.6
 33
0.0
 14
0.0
 24
-22.6
 34
0.0
 15
0.0000052867777778
 25
0.0000000000000018
 35
0.0
 16
-2.264541723637906
 26
31.08482407877073
 36
0.0
1001
ACAD
1000
DSTYLE
1002
{
1070
   287
1070
     5
1070
   279
1070
     2
1002
}
  0
ENDSEC
  0
SECTION
  2
OBJECTS
  0
DICTIONARY
  5
1A
330
0
100
AcDbDictionary
  3
ACAD_DETAILVIEWSTYLE
350
41F
  3
ACAD_GROUP
350
1B
  3
ACAD_IMAGE_VARS
350
419
  3
ACAD_MLINESTYLE
350
1C
  3
ACAD_SCALELIST
350
448
  3
ACAD_SECTIONVIEWSTYLE
350
420
  3
ACDBVARIABLEDICTIONARY
350
41A
  3
APPDATA
350
417
  3
DWGPROPS
350
492
1001
ACAD
1000
TREAT_AS_HARD
1070
     0
1000
TREAT_AS_HARD
1070
     0
1000
TREAT_AS_HARD
1070
     0
1000
TREAT_AS_HARD
1070
     0
1000
TREAT_AS_HARD
1070
     0
1000
TREAT_AS_HARD
1070
     0
1000
TREAT_AS_HARD
1070
     0
1000
TREAT_AS_HARD
1070
     0
  0
DICTIONARY
  5
421
330
2
100
AcDbDictionary
280
     1
  3
ACAD_LAYERSTATES
360
422
  3
ACLYDICTIONARY
360
426
  0
DICTIONARY
  5
41F
102
{ACAD_REACTORS
330
1A
102
}
330
1A
100
AcDbDictionary
  0
DICTIONARY
  5
1B
102
{ACAD_REACTORS
330
1A
102
}
330
1A
100
AcDbDictionary
1001
ACAD
1000
TREAT_AS_HARD
1070
     0
1000
TREAT_AS_HARD
1070
     0
1000
TREAT_AS_HARD
1070
     0
1000
TREAT_AS_HARD
1070
     0
1000
TREAT_AS_HARD
1070
     0
1000
TREAT_AS_HARD
1070
     0
1000
TREAT_AS_HARD
1070
     0
1000
TREAT_AS_HARD
1070
     0
  0
RASTERVARIABLES
  5
419
102
{ACAD_REACTORS
330
1A
102
}
330
1A
100
AcDbRasterVariables
 90
        0
 70
     1
 71
     1
 72
     0
  0
DICTIONARY
  5
1C
102
{ACAD_REACTORS
330
1A
102
}
330
1A
100
AcDbDictionary
  3
STANDARD
350
1D
1001
ACAD
1000
TREAT_AS_HARD
1070
     0
1000
TREAT_AS_HARD
1070
     0
1000
TREAT_AS_HARD
1070
     0
1000
TREAT_AS_HARD
1070
     0
1000
TREAT_AS_HARD
1070
     0
1000
TREAT_AS_HARD
1070
     0
1000
TREAT_AS_HARD
1070
     0
1000
TREAT_AS_HARD
1070
     0
  0
DICTIONARY
  5
448
102
{ACAD_REACTORS
330
1A
102
}
330
1A
100
AcDbDictionary
  0
DICTIONARY
  5
420
102
{ACAD_REACTORS
330
1A
102
}
330
1A
100
AcDbDictionary
  0
DICTIONARY
  5
41A
102
{ACAD_REACTORS
330
1A
102
}
330
1A
100
AcDbDictionary
  0
DICTIONARY
  5
417
102
{ACAD_REACTORS
330
1A
102
}
330
1A
100
AcDbDictionary
  0
XRECORD
  5
492
102
{ACAD_REACTORS
330
1A
102
}
330
1A
100
AcDbXrecord
  1
DWGPROPS COOKIE
  2

  3

  4

  6

  7

  8
SMT204
  9

300
=
301
=
302
=
303
=
304
=
305
=
306
=
307
=
308
=
309
=
 40
0.0
 41
2305814.194090069
 42
2457319.433704364
  1

 90
        0
  0
DICTIONARY
  5
422
102
{ACAD_REACTORS
330
421
102
}
330
421
100
AcDbDictionary
  0
DICTIONARY
  5
426
102
{ACAD_REACTORS
330
421
102
}
330
421
100
AcDbDictionary
1001
ACAD
1000
<All
  0
MLINESTYLE
  5
1D
102
{ACAD_REACTORS
330
1C
102
}
330
1C
100
AcDbMlineStyle
  2
STANDARD
 70
     0
  3

 62
     0
 51
90.0
 52
90.0
 71
     2
 49
0.5
 62
   256
  6
BYLAYER
 49
-0.5
 62
   256
  6
BYLAYER
  0
ENDSEC
  0
EOF
