  0
SECTION
  2
HEADER
  9
$ACADVER
  1
AC1012
  9
$DWGCODEPAGE
  3
dos932
  9
$INSBASE
 10
0.0
 20
0.0
 30
0.0
  9
$EXTMIN
 10
-49.66570740442699
 20
-71.34295844055677
 30
-0.0015258207003583
  9
$EXTMAX
 10
103.5019291492053
 20
46.12580682760449
 30
0.0000000349246037
  9
$LIMMIN
 10
-49.660965
 20
-74.45976299999999
  9
$LIMMAX
 10
105.75
 20
48.0
  9
$ORTHOMODE
 70
     0
  9
$REGENMODE
 70
     1
  9
$FILLMODE
 70
     1
  9
$QTEXTMODE
 70
     0
  9
$MIRRTEXT
 70
     1
  9
$DRAGMODE
 70
     2
  9
$LTSCALE
 40
1.0
  9
$OSMODE
 70
    37
  9
$ATTMODE
 70
     1
  9
$TEXTSIZE
 40
4.1672
  9
$TRACEWID
 40
0.05
  9
$TEXTSTYLE
  7
STANDARD
  9
$CLAYER
  8
0
  9
$CELTYPE
  6
CONTINUOUS
  9
$CECOLOR
 62
   256
  9
$CELTSCALE
 40
1.0
  9
$DELOBJ
 70
     1
  9
$DISPSILH
 70
     0
  9
$DIMSCALE
 40
1.0
  9
$DIMASZ
 40
0.18
  9
$DIMEXO
 40
0.0625
  9
$DIMDLI
 40
0.38
  9
$DIMRND
 40
0.0
  9
$DIMDLE
 40
0.0
  9
$DIMEXE
 40
0.18
  9
$DIMTP
 40
0.0
  9
$DIMTM
 40
0.0
  9
$DIMTXT
 40
0.18
  9
$DIMCEN
 40
0.09
  9
$DIMTSZ
 40
0.0
  9
$DIMTOL
 70
     0
  9
$DIMLIM
 70
     0
  9
$DIMTIH
 70
     1
  9
$DIMTOH
 70
     1
  9
$DIMSE1
 70
     0
  9
$DIMSE2
 70
     0
  9
$DIMTAD
 70
     0
  9
$DIMZIN
 70
     0
  9
$DIMBLK
  1

  9
$DIMASO
 70
     1
  9
$DIMSHO
 70
     1
  9
$DIMPOST
  1

  9
$DIMAPOST
  1

  9
$DIMALT
 70
     0
  9
$DIMALTD
 70
     2
  9
$DIMALTF
 40
25.4
  9
$DIMLFAC
 40
1.0
  9
$DIMTOFL
 70
     0
  9
$DIMTVP
 40
0.0
  9
$DIMTIX
 70
     0
  9
$DIMSOXD
 70
     0
  9
$DIMSAH
 70
     0
  9
$DIMBLK1
  1

  9
$DIMBLK2
  1

  9
$DIMSTYLE
  2
STANDARD
  9
$DIMCLRD
 70
     0
  9
$DIMCLRE
 70
     0
  9
$DIMCLRT
 70
     0
  9
$DIMTFAC
 40
1.0
  9
$DIMGAP
 40
0.09
  9
$DIMJUST
 70
     0
  9
$DIMSD1
 70
     0
  9
$DIMSD2
 70
     0
  9
$DIMTOLJ
 70
     1
  9
$DIMTZIN
 70
     0
  9
$DIMALTZ
 70
     0
  9
$DIMALTTZ
 70
     0
  9
$DIMFIT
 70
     3
  9
$DIMUPT
 70
     0
  9
$DIMUNIT
 70
     2
  9
$DIMDEC
 70
     4
  9
$DIMTDEC
 70
     4
  9
$DIMALTU
 70
     2
  9
$DIMALTTD
 70
     2
  9
$DIMTXSTY
  7
STANDARD
  9
$DIMAUNIT
 70
     0
  9
$LUNITS
 70
     2
  9
$LUPREC
 70
     6
  9
$SKETCHINC
 40
0.1
  9
$FILLETRAD
 40
0.0
  9
$AUNITS
 70
     0
  9
$AUPREC
 70
     4
  9
$MENU
  1
acad
  9
$ELEVATION
 40
0.0
  9
$PELEVATION
 40
0.0
  9
$THICKNESS
 40
0.0
  9
$LIMCHECK
 70
     0
  9
$BLIPMODE
 70
     0
  9
$CHAMFERA
 40
0.0
  9
$CHAMFERB
 40
0.0
  9
$CHAMFERC
 40
0.0
  9
$CHAMFERD
 40
0.0
  9
$SKPOLY
 70
     0
  9
$TDCREATE
 40
2376123.569089965
  9
$TDUPDATE
 40
2451687.694378935
  9
$TDINDWG
 40
0.0007310185
  9
$TDUSRTIMER
 40
0.0007304398
  9
$USRTIMER
 70
     1
  9
$ANGBASE
 50
0.0
  9
$ANGDIR
 70
     0
  9
$PDMODE
 70
     0
  9
$PDSIZE
 40
0.0
  9
$PLINEWID
 40
0.0
  9
$COORDS
 70
     1
  9
$SPLFRAME
 70
     0
  9
$SPLINETYPE
 70
     6
  9
$SPLINESEGS
 70
     8
  9
$ATTDIA
 70
     0
  9
$ATTREQ
 70
     1
  9
$HANDLING
 70
 10241
  9
$HANDSEED
  5
218
  9
$SURFTAB1
 70
     6
  9
$SURFTAB2
 70
     6
  9
$SURFTYPE
 70
     6
  9
$SURFU
 70
     6
  9
$SURFV
 70
     6
  9
$UCSNAME
  2

  9
$UCSORG
 10
0.0
 20
0.0031468002445549
 30
0.0
  9
$UCSXDIR
 10
1.0
 20
0.0
 30
0.0
  9
$UCSYDIR
 10
0.0
 20
1.0
 30
0.0
  9
$PUCSNAME
  2

  9
$PUCSORG
 10
0.0
 20
0.0
 30
0.0
  9
$PUCSXDIR
 10
1.0
 20
0.0
 30
0.0
  9
$PUCSYDIR
 10
0.0
 20
1.0
 30
0.0
  9
$USERI1
 70
     0
  9
$USERI2
 70
     0
  9
$USERI3
 70
     0
  9
$USERI4
 70
     0
  9
$USERI5
 70
     0
  9
$USERR1
 40
0.0
  9
$USERR2
 40
0.0
  9
$USERR3
 40
0.0
  9
$USERR4
 40
0.0
  9
$USERR5
 40
0.0
  9
$WORLDVIEW
 70
     1
  9
$SHADEDGE
 70
     3
  9
$SHADEDIF
 70
    70
  9
$TILEMODE
 70
     1
  9
$MAXACTVP
 70
    16
  9
$PINSBASE
 10
0.0
 20
0.0
 30
0.0
  9
$PLIMCHECK
 70
     0
  9
$PEXTMIN
 10
-49.660965
 20
-74.45976299999999
 30
1.000000000000000E+20
  9
$PEXTMAX
 10
105.75
 20
48.0
 30
-1.000000000000000E+20
  9
$PLIMMIN
 10
0.0
 20
0.0
  9
$PLIMMAX
 10
12.0
 20
9.0
  9
$UNITMODE
 70
     0
  9
$VISRETAIN
 70
     0
  9
$PLINEGEN
 70
     0
  9
$PSLTSCALE
 70
     1
  9
$TREEDEPTH
 70
  3020
  9
$PICKSTYLE
 70
     1
  9
$CMLSTYLE
  2
STANDARD
  9
$CMLJUST
 70
     0
  9
$CMLSCALE
 40
1.0
  9
$SAVEIMAGES
 70
     1
  0
ENDSEC
  0
SECTION
  2
CLASSES
  0
CLASS
  1
ACDBDICTIONARYWDFLT
  2
AcDbDictionaryWithDefault
  3
AutoCAD 2000
 90
    32768
280
     0
281
     0
  0
CLASS
  1
ACDBPLACEHOLDER
  2
AcDbPlaceHolder
  3
AutoCAD 2000
 90
    32768
280
     0
281
     0
  0
CLASS
  1
LAYOUT
  2
AcDbLayout
  3
AutoCAD 2000
 90
    32768
280
     0
281
     0
  0
CLASS
  1
LONG_TRANSACTION
  2
AcDbLongTransaction
  3
AutoCAD 2000
 90
    32768
280
     0
281
     0
  0
CLASS
  1
LWPOLYLINE
  2
AcDbPolyline
  3
AutoCAD 2000
 90
    32768
280
     0
281
     1
  0
CLASS
  1
HATCH
  2
AcDbHatch
  3
AutoCAD 2000
 90
    32768
280
     0
281
     1
  0
CLASS
  1
XRECORD
  2
AcDbXrecord
  3
AutoCAD 2000
 90
    32768
280
     0
281
     0
  0
ENDSEC
  0
SECTION
  2
TABLES
  0
TABLE
  2
VPORT
  5
7
330
0
100
AcDbSymbolTable
 70
     2
  0
VPORT
  5
20F
330
7
100
AcDbSymbolTableRecord
100
AcDbViewportTableRecord
  2
*ACTIVE
 70
     0
 10
0.0
 20
0.0
 11
1.0
 21
1.0
 12
28.0421462977865
 22
-13.22988149999999
 13
0.0
 23
0.0
 14
6.349999999999999
 24
6.349999999999999
 15
6.349999999999999
 25
6.349999999999999
 16
0.0
 26
0.0
 36
1.0
 17
0.0
 27
0.0
 37
0.0
 40
123.7265881344827
 41
1.644214162348877
 42
50.0
 43
0.0
 44
0.0
 50
0.0
 51
0.0
 71
     0
 72
   100
 73
     1
 74
     1
 75
     0
 76
     0
 77
     0
 78
     0
  0
ENDTAB
  0
TABLE
  2
LTYPE
  5
4
330
0
100
AcDbSymbolTable
 70
    37
  0
LTYPE
  5
12
330
4
100
AcDbSymbolTableRecord
100
AcDbLinetypeTableRecord
  2
BYBLOCK
 70
     0
  3

 72
    65
 73
     0
 40
0.0
  0
LTYPE
  5
13
330
4
100
AcDbSymbolTableRecord
100
AcDbLinetypeTableRecord
  2
BYLAYER
 70
     0
  3

 72
    65
 73
     0
 40
0.0
  0
LTYPE
  5
14
330
4
100
AcDbSymbolTableRecord
100
AcDbLinetypeTableRecord
  2
CONTINUOUS
 70
     0
  3
DXF Default line type
 72
    65
 73
     0
 40
0.0
  0
LTYPE
  5
20
330
4
100
AcDbSymbolTableRecord
100
AcDbLinetypeTableRecord
  2
DASHED
 70
     0
  3
DXF Dashed
 72
    65
 73
     2
 40
0.75
 49
0.5
 74
     0
 49
-0.25
 74
     0
  0
LTYPE
  5
21
330
4
100
AcDbSymbolTableRecord
100
AcDbLinetypeTableRecord
  2
HIDDEN
 70
     0
  3
DXF Hidden
 72
    65
 73
     2
 40
0.375
 49
0.25
 74
     0
 49
-0.125
 74
     0
  0
LTYPE
  5
22
330
4
100
AcDbSymbolTableRecord
100
AcDbLinetypeTableRecord
  2
CENTER
 70
     0
  3
DXF Center
 72
    65
 73
     4
 40
2.0
 49
1.25
 74
     0
 49
-0.25
 74
     0
 49
0.25
 74
     0
 49
-0.25
 74
     0
  0
LTYPE
  5
23
330
4
100
AcDbSymbolTableRecord
100
AcDbLinetypeTableRecord
  2
PHANTOM
 70
     0
  3
DXF Phantom
 72
    65
 73
     6
 40
2.5
 49
1.25
 74
     0
 49
-0.25
 74
     0
 49
0.25
 74
     0
 49
-0.25
 74
     0
 49
0.25
 74
     0
 49
-0.25
 74
     0
  0
LTYPE
  5
24
330
4
100
AcDbSymbolTableRecord
100
AcDbLinetypeTableRecord
  2
DOT
 70
     0
  3
DXF DOT
 72
    65
 73
     2
 40
0.25
 49
0.0
 74
     0
 49
-0.25
 74
     0
  0
LTYPE
  5
25
330
4
100
AcDbSymbolTableRecord
100
AcDbLinetypeTableRecord
  2
DASHDOT
 70
     0
  3
DXF Dash Dot
 72
    65
 73
     4
 40
1.0
 49
0.5
 74
     0
 49
-0.25
 74
     0
 49
0.0
 74
     0
 49
-0.25
 74
     0
  0
LTYPE
  5
26
330
4
100
AcDbSymbolTableRecord
100
AcDbLinetypeTableRecord
  2
BORDER
 70
     0
  3
DXF Border
 72
    65
 73
     6
 40
1.75
 49
0.5
 74
     0
 49
-0.25
 74
     0
 49
0.5
 74
     0
 49
-0.25
 74
     0
 49
0.0
 74
     0
 49
-0.25
 74
     0
  0
LTYPE
  5
27
330
4
100
AcDbSymbolTableRecord
100
AcDbLinetypeTableRecord
  2
DIVIDE
 70
     0
  3
DXF Divide
 72
    65
 73
     6
 40
1.25
 49
0.5
 74
     0
 49
-0.25
 74
     0
 49
0.0
 74
     0
 49
-0.25
 74
     0
 49
0.0
 74
     0
 49
-0.25
 74
     0
  0
LTYPE
  5
28
330
4
100
AcDbSymbolTableRecord
100
AcDbLinetypeTableRecord
  2
C_SOLID_L
 70
     0
  3
CADAM Solid Light
 72
    65
 73
     0
 40
0.0
  0
LTYPE
  5
29
330
4
100
AcDbSymbolTableRecord
100
AcDbLinetypeTableRecord
  2
C_SOLID_M
 70
     0
  3
CADAM Solid Medium
 72
    65
 73
     0
 40
0.0
  0
LTYPE
  5
2A
330
4
100
AcDbSymbolTableRecord
100
AcDbLinetypeTableRecord
  2
C_SOLID_H
 70
     0
  3
CADAM Solid Heavy
 72
    65
 73
     0
 40
0.0
  0
LTYPE
  5
2B
330
4
100
AcDbSymbolTableRecord
100
AcDbLinetypeTableRecord
  2
C_DASHED_L
 70
     0
  3
CADAM Dashed Light
 72
    65
 73
     2
 40
0.375
 49
0.25
 74
     0
 49
-0.125
 74
     0
  0
LTYPE
  5
2C
330
4
100
AcDbSymbolTableRecord
100
AcDbLinetypeTableRecord
  2
C_DASHED_M
 70
     0
  3
CADAM Dashed Medium
 72
    65
 73
     2
 40
0.5
 49
0.375
 74
     0
 49
-0.125
 74
     0
  0
LTYPE
  5
2D
330
4
100
AcDbSymbolTableRecord
100
AcDbLinetypeTableRecord
  2
C_CENTER_L
 70
     0
  3
CADAM Center Light
 72
    65
 73
     4
 40
2.0
 49
1.25
 74
     0
 49
-0.25
 74
     0
 49
0.25
 74
     0
 49
-0.25
 74
     0
  0
LTYPE
  5
2E
330
4
100
AcDbSymbolTableRecord
100
AcDbLinetypeTableRecord
  2
C_PHANTOM_L
 70
     0
  3
CADAM Phantom Light
 72
    65
 73
     6
 40
2.5
 49
1.25
 74
     0
 49
-0.25
 74
     0
 49
0.25
 74
     0
 49
-0.25
 74
     0
 49
0.25
 74
     0
 49
-0.25
 74
     0
  0
LTYPE
  5
2F
330
4
100
AcDbSymbolTableRecord
100
AcDbLinetypeTableRecord
  2
C_BREAK_M
 70
     0
  3
CADAM Break Medium
 72
    65
 73
     4
 40
1.0
 49
0.5
 74
     0
 49
-0.25
 74
     0
 49
0.0
 74
     0
 49
-0.25
 74
     0
  0
LTYPE
  5
30
330
4
100
AcDbSymbolTableRecord
100
AcDbLinetypeTableRecord
  2
C_NC
 70
     0
  3
CADAM NC
 72
    65
 73
     0
 40
0.0
  0
LTYPE
  5
31
330
4
100
AcDbSymbolTableRecord
100
AcDbLinetypeTableRecord
  2
DSH1
 70
     0
  3
CADAM Style2 Type 1 Dashed Line
 72
    65
 73
     2
 40
0.075
 49
0.04
 74
     0
 49
-0.035
 74
     0
  0
LTYPE
  5
32
330
4
100
AcDbSymbolTableRecord
100
AcDbLinetypeTableRecord
  2
DSH2
 70
     0
  3
CADAM Style2 Type 2 Dashed Line
 72
    65
 73
     2
 40
0.15
 49
0.11
 74
     0
 49
-0.04
 74
     0
  0
LTYPE
  5
33
330
4
100
AcDbSymbolTableRecord
100
AcDbLinetypeTableRecord
  2
DSH3
 70
     0
  3
CADAM Style2 Type 3 Dashed Line
 72
    65
 73
     2
 40
0.2
 49
0.15
 74
     0
 49
-0.05
 74
     0
  0
LTYPE
  5
34
330
4
100
AcDbSymbolTableRecord
100
AcDbLinetypeTableRecord
  2
DSH4
 70
     0
  3
CADAM Style2 Type 4 Dashed Line
 72
    65
 73
     2
 40
0.36
 49
0.28
 74
     0
 49
-0.08
 74
     0
  0
LTYPE
  5
35
330
4
100
AcDbSymbolTableRecord
100
AcDbLinetypeTableRecord
  2
DSH5
 70
     0
  3
CADAM Style2 Type 5 Dashed Line
 72
    65
 73
     2
 40
0.47
 49
0.39
 74
     0
 49
-0.08
 74
     0
  0
LTYPE
  5
36
330
4
100
AcDbSymbolTableRecord
100
AcDbLinetypeTableRecord
  2
DSH6
 70
     0
  3
CADAM Style2 Type 6 Dashed Line
 72
    65
 73
     2
 40
0.9
 49
0.8100000000000001
 74
     0
 49
-0.09
 74
     0
  0
LTYPE
  5
37
330
4
100
AcDbSymbolTableRecord
100
AcDbLinetypeTableRecord
  2
PL1
 70
     0
  3
Style 2 Type 1 Phantom Line
 72
    65
 73
     6
 40
1.0
 49
0.6
 74
     0
 49
-0.08
 74
     0
 49
0.08
 74
     0
 49
-0.08
 74
     0
 49
0.08
 74
     0
 49
-0.08
 74
     0
  0
LTYPE
  5
38
330
4
100
AcDbSymbolTableRecord
100
AcDbLinetypeTableRecord
  2
PL2
 70
     0
  3
Style 2 Type 2 Phantom Line
 72
    65
 73
     6
 40
1.08
 49
0.6
 74
     0
 49
-0.08
 74
     0
 49
0.12
 74
     0
 49
-0.08
 74
     0
 49
0.12
 74
     0
 49
-0.08
 74
     0
  0
LTYPE
  5
39
330
4
100
AcDbSymbolTableRecord
100
AcDbLinetypeTableRecord
  2
PL3
 70
     0
  3
Style 2 Type 3 Phantom Line
 72
    65
 73
     6
 40
2.0
 49
1.439999999999999
 74
     0
 49
-0.08
 74
     0
 49
0.16
 74
     0
 49
-0.08
 74
     0
 49
0.16
 74
     0
 49
-0.08
 74
     0
  0
LTYPE
  5
3A
330
4
100
AcDbSymbolTableRecord
100
AcDbLinetypeTableRecord
  2
CL1
 70
     0
  3
CADAM Style 2 Type 1 Center Line
 72
    65
 73
     4
 40
0.7
 49
0.45
 74
     0
 49
-0.06
 74
     0
 49
0.13
 74
     0
 49
-0.06
 74
     0
  0
LTYPE
  5
3B
330
4
100
AcDbSymbolTableRecord
100
AcDbLinetypeTableRecord
  2
CL2
 70
     0
  3
CADAM Style 2 Type 2 Center Line
 72
    65
 73
     4
 40
1.199999999999999
 49
1.01
 74
     0
 49
-0.06
 74
     0
 49
0.11
 74
     0
 49
-0.06
 74
     0
  0
LTYPE
  5
3C
330
4
100
AcDbSymbolTableRecord
100
AcDbLinetypeTableRecord
  2
CL3
 70
     0
  3
CADAM Style 2 Type 3 Center Line
 72
    65
 73
     4
 40
1.199999999999999
 49
0.98
 74
     0
 49
-0.06
 74
     0
 49
0.1
 74
     0
 49
-0.06
 74
     0
  0
LTYPE
  5
3D
330
4
100
AcDbSymbolTableRecord
100
AcDbLinetypeTableRecord
  2
CL4
 70
     0
  3
CADAM Style 2 Type 4 Center Line
 72
    65
 73
     4
 40
2.2
 49
1.929999999999999
 74
     0
 49
-0.07
 74
     0
 49
0.13
 74
     0
 49
-0.07
 74
     0
  0
LTYPE
  5
3E
330
4
100
AcDbSymbolTableRecord
100
AcDbLinetypeTableRecord
  2
CL5
 70
     0
  3
CADAM Style 2 Type 5 Center Line
 72
    65
 73
     4
 40
2.2
 49
1.879999999999999
 74
     0
 49
-0.07
 74
     0
 49
0.18
 74
     0
 49
-0.07
 74
     0
  0
LTYPE
  5
3F
330
4
100
AcDbSymbolTableRecord
100
AcDbLinetypeTableRecord
  2
SBK1
 70
     0
  3
CADAM Style 2 Type 1 SetBack Line
 72
    65
 73
     8
 40
2.7
 49
0.1
 74
     0
 49
-0.08
 74
     0
 49
0.1
 74
     0
 49
-0.8
 74
     0
 49
0.0
 74
     0
 49
0.0
 74
     0
 49
0.0
 74
     0
 49
0.0
 74
     0
  0
LTYPE
  5
40
330
4
100
AcDbSymbolTableRecord
100
AcDbLinetypeTableRecord
  2
SBK2
 70
     0
  3
CADAM Style 2 Type 2 SetBack Line
 72
    65
 73
     8
 40
3.709999999999999
 49
0.13
 74
     0
 49
-0.08
 74
     0
 49
0.13
 74
     0
 49
-0.8
 74
     0
 49
0.0
 74
     0
 49
0.0
 74
     0
 49
0.0
 74
     0
 49
0.0
 74
     0
  0
LTYPE
  5
41
330
4
100
AcDbSymbolTableRecord
100
AcDbLinetypeTableRecord
  2
STCH
 70
     0
  3
CADAM Style2 Stitch Line
 72
    65
 73
     2
 40
0.25
 49
0.0
 74
     0
 49
-0.25
 74
     0
  0
LTYPE
  5
42
330
4
100
AcDbSymbolTableRecord
100
AcDbLinetypeTableRecord
  2
MTCH
 70
     0
  3
CADAM Style2 Match Line
 72
    65
 73
     6
 40
2.0
 49
1.439999999999999
 74
     0
 49
-0.8
 74
     0
 49
0.16
 74
     0
 49
-0.08
 74
     0
 49
0.16
 74
     0
 49
-0.08
 74
     0
  0
LTYPE
  5
43
330
4
100
AcDbSymbolTableRecord
100
AcDbLinetypeTableRecord
  2
SLD
 70
     0
  3
CADAM Solid_EXT2
 72
    65
 73
     0
 40
0.0
  0
ENDTAB
  0
TABLE
  2
LAYER
  5
2
330
0
100
AcDbSymbolTable
 70
     7
  0
LAYER
  5
15
330
2
100
AcDbSymbolTableRecord
100
AcDbLayerTableRecord
  2
0
 70
     0
 62
     7
  6
CONTINUOUS
  0
LAYER
  5
44
330
2
100
AcDbSymbolTableRecord
100
AcDbLayerTableRecord
  2
MO_001_NOSHOW
 70
     1
 62
     7
  6
CONTINUOUS
  0
LAYER
  5
45
330
2
100
AcDbSymbolTableRecord
100
AcDbLayerTableRecord
  2
MO_001_VIEW_PV
 70
     0
 62
     7
  6
CONTINUOUS
  0
LAYER
  5
46
330
2
100
AcDbSymbolTableRecord
100
AcDbLayerTableRecord
  2
OVERLAY_MAP
 70
     1
 62
     7
  6
CONTINUOUS
  0
LAYER
  5
47
330
2
100
AcDbSymbolTableRecord
100
AcDbLayerTableRecord
  2
DITTOS
 70
     0
 62
     7
  6
CONTINUOUS
  0
LAYER
  5
48
330
2
100
AcDbSymbolTableRecord
100
AcDbLayerTableRecord
  2
SYMBOLS
 70
     0
 62
     7
  6
CONTINUOUS
  0
LAYER
  5
49
330
2
100
AcDbSymbolTableRecord
100
AcDbLayerTableRecord
  2
SETS
 70
     0
 62
     7
  6
CONTINUOUS
  0
ENDTAB
  0
TABLE
  2
STYLE
  5
3
330
0
100
AcDbSymbolTable
 70
     1
  0
STYLE
  5
18
330
3
100
AcDbSymbolTableRecord
100
AcDbTextStyleTableRecord
  2
STANDARD
 70
     0
 40
4.1672
 41
1.0
 50
0.0
 71
     0
 42
4.1672
  3
monotxt
  4
BIGFONT
  0
ENDTAB
  0
TABLE
  2
VIEW
  5
5
330
0
100
AcDbSymbolTable
 70
     0
  0
ENDTAB
  0
TABLE
  2
UCS
  5
6
330
0
100
AcDbSymbolTable
 70
     1
  0
UCS
  5
4A
330
6
100
AcDbSymbolTableRecord
100
AcDbUCSTableRecord
  2
MO_001_VIEW_PV_P
 70
     0
 10
0.0
 20
0.0
 30
0.0
 11
1.0
 21
0.0
 31
0.0
 12
-0.0000000002051034
 22
1.0
 32
0.0
  0
ENDTAB
  0
TABLE
  2
APPID
  5
8
330
0
100
AcDbSymbolTable
 70
     1
  0
APPID
  5
17
330
8
100
AcDbSymbolTableRecord
100
AcDbRegAppTableRecord
  2
ACAD
 70
     0
  0
ENDTAB
  0
TABLE
  2
DIMSTYLE
  5
9
330
0
100
AcDbSymbolTable
 70
     1
  0
DIMSTYLE
105
19
102
{ACAD_REACTORS
330
16E
330
170
330
172
330
174
330
176
330
178
330
17A
330
17C
330
17E
330
180
330
182
330
184
102
}
330
9
100
AcDbSymbolTableRecord
100
AcDbDimStyleTableRecord
  2
STANDARD
 70
     0
  3

  4

  5

  6

  7

 40
1.0
 41
0.18
 42
0.0625
 43
0.38
 44
0.18
 45
0.0
 46
0.0
 47
0.0
 48
0.0
140
0.18
141
0.09
142
0.0
143
25.4
144
1.0
145
0.0
146
1.0
147
0.09
 71
     0
 72
     0
 73
     1
 74
     1
 75
     0
 76
     0
 77
     0
 78
     0
170
     0
171
     2
172
     0
173
     0
174
     0
175
     0
176
     0
177
     0
178
     0
270
     2
271
     4
272
     4
273
     2
274
     2
340
18
275
     0
280
     0
281
     0
282
     0
283
     1
284
     0
285
     0
286
     0
287
     3
288
     0
  0
ENDTAB
  0
TABLE
  2
BLOCK_RECORD
  5
C
330
0
100
AcDbSymbolTable
 70
    12
  0
BLOCK_RECORD
  5
1E
102
{ACAD_XDICTIONARY
360
210
102
}
330
C
100
AcDbSymbolTableRecord
100
AcDbBlockTableRecord
  2
*MODEL_SPACE
  0
BLOCK_RECORD
  5
1F
102
{ACAD_XDICTIONARY
360
212
102
}
330
C
100
AcDbSymbolTableRecord
100
AcDbBlockTableRecord
  2
*PAPER_SPACE
  0
BLOCK_RECORD
  5
16D
330
C
100
AcDbSymbolTableRecord
100
AcDbBlockTableRecord
  2
*D0
  0
BLOCK_RECORD
  5
16F
330
C
100
AcDbSymbolTableRecord
100
AcDbBlockTableRecord
  2
*D1
  0
BLOCK_RECORD
  5
171
330
C
100
AcDbSymbolTableRecord
100
AcDbBlockTableRecord
  2
*D2
  0
BLOCK_RECORD
  5
173
330
C
100
AcDbSymbolTableRecord
100
AcDbBlockTableRecord
  2
*D3
  0
BLOCK_RECORD
  5
175
330
C
100
AcDbSymbolTableRecord
100
AcDbBlockTableRecord
  2
*D4
  0
BLOCK_RECORD
  5
177
330
C
100
AcDbSymbolTableRecord
100
AcDbBlockTableRecord
  2
*D5
  0
BLOCK_RECORD
  5
179
330
C
100
AcDbSymbolTableRecord
100
AcDbBlockTableRecord
  2
*D6
  0
BLOCK_RECORD
  5
17B
330
C
100
AcDbSymbolTableRecord
100
AcDbBlockTableRecord
  2
*D7
  0
BLOCK_RECORD
  5
17D
330
C
100
AcDbSymbolTableRecord
100
AcDbBlockTableRecord
  2
*D8
  0
BLOCK_RECORD
  5
17F
330
C
100
AcDbSymbolTableRecord
100
AcDbBlockTableRecord
  2
*D9
  0
BLOCK_RECORD
  5
181
330
C
100
AcDbSymbolTableRecord
100
AcDbBlockTableRecord
  2
*D10
  0
BLOCK_RECORD
  5
183
330
C
100
AcDbSymbolTableRecord
100
AcDbBlockTableRecord
  2
*D11
  0
ENDTAB
  0
ENDSEC
  0
SECTION
  2
BLOCKS
  0
BLOCK
  5
E
330
1E
100
AcDbEntity
  8
0
100
AcDbBlockBegin
  2
*MODEL_SPACE
 70
     0
 10
0.0
 20
0.0
 30
0.0
  3
*MODEL_SPACE
  1

  0
ENDBLK
  5
F
330
1E
100
AcDbEntity
  8
0
100
AcDbBlockEnd
  0
BLOCK
  5
10
330
1F
100
AcDbEntity
 67
     1
  8
0
100
AcDbBlockBegin
  2
*PAPER_SPACE
 70
     0
 10
0.0
 20
0.0
 30
0.0
  3
*PAPER_SPACE
  1

  0
ENDBLK
  5
11
330
1F
100
AcDbEntity
 67
     1
  8
0
100
AcDbBlockEnd
  0
BLOCK
  5
18B
330
16D
100
AcDbEntity
  8
0
100
AcDbBlockBegin
  2
*D0
 70
     1
 10
0.0
 20
0.0
 30
0.0
  3
*D0
  1

  0
LINE
  5
18C
330
16D
100
AcDbEntity
  8
MO_001_VIEW_PV
  6
BYBLOCK
100
AcDbLine
 10
-42.14599999999999
 20
3.029411
 30
0.0
 11
-42.14599999999999
 21
29.405222
 31
0.0
  0
TEXT
  5
18D
330
16D
100
AcDbEntity
  8
MO_001_VIEW_PV
  6
BYBLOCK
100
AcDbText
 10
-17.858714
 20
44.625
 30
0.0
 40
1.5
  1
%%P1.0
100
AcDbText
  0
TEXT
  5
18E
330
16D
100
AcDbEntity
  8
MO_001_VIEW_PV
  6
BYBLOCK
100
AcDbText
 10
-29.64442899999999
 20
42.75
 30
0.0
 40
3.0
  1
42.1
100
AcDbText
  0
LINE
  5
18F
330
16D
100
AcDbEntity
  8
MO_001_VIEW_PV
  6
BYBLOCK
100
AcDbLine
 10
-42.14599999999999
 20
42.0
 30
0.0
 11
0.0
 21
42.0
 31
0.0
  0
SOLID
  5
190
330
16D
100
AcDbEntity
  8
MO_001_VIEW_PV
  6
BYBLOCK
100
AcDbTrace
 10
-38.82774
 20
42.58351199999999
 30
0.0
 11
-41.63800000000001
 21
42.0
 31
0.0
 12
-38.82774
 22
41.416488
 32
0.0
 13
-38.82774
 23
41.416488
 33
0.0
  0
SOLID
  5
191
330
16D
100
AcDbEntity
  8
MO_001_VIEW_PV
  6
BYBLOCK
100
AcDbTrace
 10
-3.318259999999999
 20
41.416488
 30
0.0
 11
-0.508
 21
42.0
 31
0.0
 12
-3.318259999999999
 22
42.58351199999999
 32
0.0
 13
-3.318259999999999
 23
42.58351199999999
 33
0.0
  0
LINE
  5
192
330
16D
100
AcDbEntity
  8
MO_001_VIEW_PV
  6
BYBLOCK
100
AcDbLine
 10
-42.14599999999999
 20
34.65938599999999
 30
0.0
 11
-42.14599999999999
 21
44.285999
 31
0.0
  0
LINE
  5
193
330
16D
100
AcDbEntity
  8
MO_001_VIEW_PV
  6
BYBLOCK
100
AcDbLine
 10
0.0
 20
20.650002
 30
0.0
 11
0.0
 21
44.285999
 31
0.0
  0
ENDBLK
  5
194
330
16D
100
AcDbEntity
  8
0
100
AcDbBlockEnd
  0
BLOCK
  5
195
330
16F
100
AcDbEntity
  8
0
100
AcDbBlockBegin
  2
*D1
 70
     1
 10
0.0
 20
0.0
 30
0.0
  3
*D1
  1

  0
TEXT
  5
196
330
16F
100
AcDbEntity
  8
MO_001_VIEW_PV
  6
BYBLOCK
100
AcDbText
 10
-23.89442999999999
 20
36.75
 30
0.0
 40
3.0
  1
31.5以下
100
AcDbText
  0
LINE
  5
197
330
16F
100
AcDbEntity
  8
MO_001_VIEW_PV
  6
BYBLOCK
100
AcDbLine
 10
0.0
 20
36.0
 30
0.0
 11
-30.646002
 21
36.0
 31
0.0
  0
SOLID
  5
198
330
16F
100
AcDbEntity
  8
MO_001_VIEW_PV
  6
BYBLOCK
100
AcDbTrace
 10
-3.318259999999999
 20
35.416488
 30
0.0
 11
-0.508
 21
36.0
 31
0.0
 12
-3.318259999999999
 22
36.583512
 32
0.0
 13
-3.318259999999999
 23
36.583512
 33
0.0
  0
SOLID
  5
199
330
16F
100
AcDbEntity
  8
MO_001_VIEW_PV
  6
BYBLOCK
100
AcDbTrace
 10
-27.32774199999999
 20
36.583512
 30
0.0
 11
-30.138002
 21
36.0
 31
0.0
 12
-27.32774199999999
 22
35.416488
 32
0.0
 13
-27.32774199999999
 23
35.416488
 33
0.0
  0
LINE
  5
19A
330
16F
100
AcDbEntity
  8
MO_001_VIEW_PV
  6
BYBLOCK
100
AcDbLine
 10
0.0
 20
20.650002
 30
0.0
 11
0.0
 21
38.285999
 31
0.0
  0
LINE
  5
19B
330
16F
100
AcDbEntity
  8
MO_001_VIEW_PV
  6
BYBLOCK
100
AcDbLine
 10
-30.646002
 20
10.741814
 30
0.0
 11
-30.646002
 21
38.285999
 31
0.0
  0
ENDBLK
  5
19C
330
16F
100
AcDbEntity
  8
0
100
AcDbBlockEnd
  0
BLOCK
  5
19D
330
171
100
AcDbEntity
  8
0
100
AcDbBlockBegin
  2
*D2
 70
     1
 10
0.0
 20
0.0
 30
0.0
  3
*D2
  1

  0
TEXT
  5
19E
330
171
100
AcDbEntity
  8
MO_001_VIEW_PV
  6
BYBLOCK
100
AcDbText
 10
-39.91096599999999
 20
32.625
 30
0.0
 40
1.5
  1
%%P0.3
100
AcDbText
  0
TEXT
  5
19F
330
171
100
AcDbEntity
  8
MO_001_VIEW_PV
  6
BYBLOCK
100
AcDbText
 10
-48.69668
 20
30.75
 30
0.0
 40
3.0
  1
1.8
100
AcDbText
  0
LINE
  5
1A0
330
171
100
AcDbEntity
  8
MO_001_VIEW_PV
  6
BYBLOCK
100
AcDbLine
 10
-28.84599899999999
 20
30.0
 30
0.0
 11
-30.646002
 21
30.0
 31
0.0
  0
LINE
  5
1A1
330
171
100
AcDbEntity
  8
MO_001_VIEW_PV
  6
BYBLOCK
100
AcDbLine
 10
-30.646002
 20
30.0
 30
0.0
 11
-36.996002
 21
30.0
 31
0.0
  0
SOLID
  5
1A2
330
171
100
AcDbEntity
  8
MO_001_VIEW_PV
  6
BYBLOCK
100
AcDbTrace
 10
-33.964262
 20
29.416488
 30
0.0
 11
-31.154002
 21
30.0
 31
0.0
 12
-33.964262
 22
30.583512
 32
0.0
 13
-33.964262
 23
30.583512
 33
0.0
  0
LINE
  5
1A3
330
171
100
AcDbEntity
  8
MO_001_VIEW_PV
  6
BYBLOCK
100
AcDbLine
 10
-28.84599899999999
 20
20.650002
 30
0.0
 11
-28.84599899999999
 21
32.28599899999999
 31
0.0
  0
LINE
  5
1A4
330
171
100
AcDbEntity
  8
MO_001_VIEW_PV
  6
BYBLOCK
100
AcDbLine
 10
-30.646002
 20
10.741814
 30
0.0
 11
-30.646002
 21
32.28599899999999
 31
0.0
  0
LINE
  5
1A5
330
171
100
AcDbEntity
  8
MO_001_VIEW_PV
  6
BYBLOCK
100
AcDbLine
 10
-30.646002
 20
30.0
 30
0.0
 11
-49.660965
 21
30.0
 31
0.0
  0
ENDBLK
  5
1A6
330
171
100
AcDbEntity
  8
0
100
AcDbBlockEnd
  0
BLOCK
  5
1A7
330
173
100
AcDbEntity
  8
0
100
AcDbBlockBegin
  2
*D3
 70
     1
 10
0.0
 20
0.0
 30
0.0
  3
*D3
  1

  0
TEXT
  5
1A8
330
173
100
AcDbEntity
  8
MO_001_VIEW_PV
  6
BYBLOCK
100
AcDbText
 10
-12.983358
 20
32.625
 30
0.0
 40
1.5
  1
%%P0.1
100
AcDbText
  0
TEXT
  5
1A9
330
173
100
AcDbEntity
  8
MO_001_VIEW_PV
  6
BYBLOCK
100
AcDbText
 10
-21.769072
 20
30.75
 30
0.0
 40
3.0
  1
2.0
100
AcDbText
  0
LINE
  5
1AA
330
173
100
AcDbEntity
  8
MO_001_VIEW_PV
  6
BYBLOCK
100
AcDbLine
 10
-28.84599899999999
 20
30.0
 30
0.0
 11
-26.845999
 21
30.0
 31
0.0
  0
LINE
  5
1AB
330
173
100
AcDbEntity
  8
MO_001_VIEW_PV
  6
BYBLOCK
100
AcDbLine
 10
-26.845999
 20
30.0
 30
0.0
 11
-20.495999
 21
30.0
 31
0.0
  0
SOLID
  5
1AC
330
173
100
AcDbEntity
  8
MO_001_VIEW_PV
  6
BYBLOCK
100
AcDbTrace
 10
-28.84599899999999
 20
30.635
 30
0.0
 11
-28.84599899999999
 21
29.365
 31
0.0
 12
-28.84599899999999
 22
30.635
 32
0.0
 13
-28.84599899999999
 23
30.635
 33
0.0
  0
SOLID
  5
1AD
330
173
100
AcDbEntity
  8
MO_001_VIEW_PV
  6
BYBLOCK
100
AcDbTrace
 10
-23.527739
 20
30.583512
 30
0.0
 11
-26.337999
 21
30.0
 31
0.0
 12
-23.527739
 22
29.416488
 32
0.0
 13
-23.527739
 23
29.416488
 33
0.0
  0
LINE
  5
1AE
330
173
100
AcDbEntity
  8
MO_001_VIEW_PV
  6
BYBLOCK
100
AcDbLine
 10
-28.84599899999999
 20
20.650002
 30
0.0
 11
-28.84599899999999
 21
32.28599899999999
 31
0.0
  0
LINE
  5
1AF
330
173
100
AcDbEntity
  8
MO_001_VIEW_PV
  6
BYBLOCK
100
AcDbLine
 10
-26.845999
 20
20.650002
 30
0.0
 11
-26.845999
 21
32.28599899999999
 31
0.0
  0
LINE
  5
1B0
330
173
100
AcDbEntity
  8
MO_001_VIEW_PV
  6
BYBLOCK
100
AcDbLine
 10
-26.845999
 20
30.0
 30
0.0
 11
-6.661928999999999
 21
30.0
 31
0.0
  0
ENDBLK
  5
1B1
330
173
100
AcDbEntity
  8
0
100
AcDbBlockEnd
  0
BLOCK
  5
1B2
330
175
100
AcDbEntity
  8
0
100
AcDbBlockBegin
  2
*D4
 70
     1
 10
0.0
 20
0.0
 30
0.0
  3
*D4
  1

  0
TEXT
  5
1B3
330
175
100
AcDbEntity
  8
MO_001_VIEW_PV
  6
BYBLOCK
100
AcDbText
 10
32.990634
 20
38.625
 30
0.0
 40
1.5
  1
%%P0.5
100
AcDbText
  0
TEXT
  5
1B4
330
175
100
AcDbEntity
  8
MO_001_VIEW_PV
  6
BYBLOCK
100
AcDbText
 10
21.204919
 20
36.75
 30
0.0
 40
3.0
  1
17.7
100
AcDbText
  0
LINE
  5
1B5
330
175
100
AcDbEntity
  8
MO_001_VIEW_PV
  6
BYBLOCK
100
AcDbLine
 10
0.0
 20
36.0
 30
0.0
 11
17.700001
 21
36.0
 31
0.0
  0
LINE
  5
1B6
330
175
100
AcDbEntity
  8
MO_001_VIEW_PV
  6
BYBLOCK
100
AcDbLine
 10
0.0
 20
36.0
 30
0.0
 11
-6.349999999999999
 21
36.0
 31
0.0
  0
LINE
  5
1B7
330
175
100
AcDbEntity
  8
MO_001_VIEW_PV
  6
BYBLOCK
100
AcDbLine
 10
17.700001
 20
36.0
 30
0.0
 11
24.050001
 21
36.0
 31
0.0
  0
SOLID
  5
1B8
330
175
100
AcDbEntity
  8
MO_001_VIEW_PV
  6
BYBLOCK
100
AcDbTrace
 10
-3.318259999999999
 20
35.416488
 30
0.0
 11
-0.508
 21
36.0
 31
0.0
 12
-3.318259999999999
 22
36.583512
 32
0.0
 13
-3.318259999999999
 23
36.583512
 33
0.0
  0
SOLID
  5
1B9
330
175
100
AcDbEntity
  8
MO_001_VIEW_PV
  6
BYBLOCK
100
AcDbTrace
 10
21.01826099999999
 20
36.583512
 30
0.0
 11
18.20800099999999
 21
36.0
 31
0.0
 12
21.01826099999999
 22
35.416488
 32
0.0
 13
21.01826099999999
 23
35.416488
 33
0.0
  0
LINE
  5
1BA
330
175
100
AcDbEntity
  8
MO_001_VIEW_PV
  6
BYBLOCK
100
AcDbLine
 10
0.0
 20
20.650002
 30
0.0
 11
0.0
 21
38.285999
 31
0.0
  0
LINE
  5
1BB
330
175
100
AcDbEntity
  8
MO_001_VIEW_PV
  6
BYBLOCK
100
AcDbLine
 10
17.700001
 20
17.19999699999999
 30
0.0
 11
17.700001
 21
38.285999
 31
0.0
  0
LINE
  5
1BC
330
175
100
AcDbEntity
  8
MO_001_VIEW_PV
  6
BYBLOCK
100
AcDbLine
 10
17.700001
 20
36.0
 30
0.0
 11
39.312061
 21
36.0
 31
0.0
  0
ENDBLK
  5
1BD
330
175
100
AcDbEntity
  8
0
100
AcDbBlockEnd
  0
BLOCK
  5
1BE
330
177
100
AcDbEntity
  8
0
100
AcDbBlockBegin
  2
*D5
 70
     1
 10
0.0
 20
0.0
 30
0.0
  3
*D5
  1

  0
TEXT
  5
1BF
330
177
100
AcDbEntity
  8
MO_001_VIEW_PV
  6
BYBLOCK
100
AcDbText
 10
29.342372
 20
44.625
 30
0.0
 40
1.5
  1
%%P0.5
100
AcDbText
  0
TEXT
  5
1C0
330
177
100
AcDbEntity
  8
MO_001_VIEW_PV
  6
BYBLOCK
100
AcDbText
 10
17.556657
 20
42.75
 30
0.0
 40
3.0
  1
13.2
100
AcDbText
  0
LINE
  5
1C1
330
177
100
AcDbEntity
  8
MO_001_VIEW_PV
  6
BYBLOCK
100
AcDbLine
 10
0.0
 20
42.0
 30
0.0
 11
13.354
 21
42.0
 31
0.0
  0
LINE
  5
1C2
330
177
100
AcDbEntity
  8
MO_001_VIEW_PV
  6
BYBLOCK
100
AcDbLine
 10
0.0
 20
42.0
 30
0.0
 11
-6.349999999999999
 21
42.0
 31
0.0
  0
LINE
  5
1C3
330
177
100
AcDbEntity
  8
MO_001_VIEW_PV
  6
BYBLOCK
100
AcDbLine
 10
13.354
 20
42.0
 30
0.0
 11
19.704
 21
42.0
 31
0.0
  0
SOLID
  5
1C4
330
177
100
AcDbEntity
  8
MO_001_VIEW_PV
  6
BYBLOCK
100
AcDbTrace
 10
-3.318259999999999
 20
41.416488
 30
0.0
 11
-0.508
 21
42.0
 31
0.0
 12
-3.318259999999999
 22
42.58351199999999
 32
0.0
 13
-3.318259999999999
 23
42.58351199999999
 33
0.0
  0
SOLID
  5
1C5
330
177
100
AcDbEntity
  8
MO_001_VIEW_PV
  6
BYBLOCK
100
AcDbTrace
 10
16.67226
 20
42.58351199999999
 30
0.0
 11
13.862
 21
42.0
 31
0.0
 12
16.67226
 22
41.416488
 32
0.0
 13
16.67226
 23
41.416488
 33
0.0
  0
LINE
  5
1C6
330
177
100
AcDbEntity
  8
MO_001_VIEW_PV
  6
BYBLOCK
100
AcDbLine
 10
0.0
 20
20.650002
 30
0.0
 11
0.0
 21
44.285999
 31
0.0
  0
LINE
  5
1C7
330
177
100
AcDbEntity
  8
MO_001_VIEW_PV
  6
BYBLOCK
100
AcDbLine
 10
13.354
 20
2.875
 30
0.0
 11
13.354
 21
44.285999
 31
0.0
  0
LINE
  5
1C8
330
177
100
AcDbEntity
  8
MO_001_VIEW_PV
  6
BYBLOCK
100
AcDbLine
 10
13.354
 20
42.0
 30
0.0
 11
35.66379899999999
 21
42.0
 31
0.0
  0
ENDBLK
  5
1C9
330
177
100
AcDbEntity
  8
0
100
AcDbBlockEnd
  0
BLOCK
  5
1CA
330
179
100
AcDbEntity
  8
0
100
AcDbBlockBegin
  2
*D6
 70
     1
 10
0.0
 20
0.0
 30
0.0
  3
*D6
  1

  0
TEXT
  5
1CB
330
179
100
AcDbEntity
  8
MO_001_VIEW_PV
  6
BYBLOCK
100
AcDbText
 10
18.188028
 20
-31.25
 30
0.0
 40
3.0
  1
8.3以上
100
AcDbText
  0
LINE
  5
1CC
330
179
100
AcDbEntity
  8
MO_001_VIEW_PV
  6
BYBLOCK
100
AcDbLine
 10
13.354
 20
-32.0
 30
0.0
 11
4.754001
 21
-32.0
 31
0.0
  0
LINE
  5
1CD
330
179
100
AcDbEntity
  8
MO_001_VIEW_PV
  6
BYBLOCK
100
AcDbLine
 10
13.354
 20
-32.0
 30
0.0
 11
19.704
 21
-32.0
 31
0.0
  0
LINE
  5
1CE
330
179
100
AcDbEntity
  8
MO_001_VIEW_PV
  6
BYBLOCK
100
AcDbLine
 10
4.754001
 20
-32.0
 30
0.0
 11
-1.595998999999999
 21
-32.0
 31
0.0
  0
SOLID
  5
1CF
330
179
100
AcDbEntity
  8
MO_001_VIEW_PV
  6
BYBLOCK
100
AcDbTrace
 10
16.67226
 20
-31.416488
 30
0.0
 11
13.862
 21
-32.0
 31
0.0
 12
16.67226
 22
-32.58351199999999
 32
0.0
 13
16.67226
 23
-32.58351199999999
 33
0.0
  0
SOLID
  5
1D0
330
179
100
AcDbEntity
  8
MO_001_VIEW_PV
  6
BYBLOCK
100
AcDbTrace
 10
1.435740999999999
 20
-32.58351199999999
 30
0.0
 11
4.246001
 21
-32.0
 31
0.0
 12
1.435740999999999
 22
-31.416488
 32
0.0
 13
1.435740999999999
 23
-31.416488
 33
0.0
  0
LINE
  5
1D1
330
179
100
AcDbEntity
  8
MO_001_VIEW_PV
  6
BYBLOCK
100
AcDbLine
 10
13.354
 20
-2.875
 30
0.0
 11
13.354
 21
-34.285999
 31
0.0
  0
LINE
  5
1D2
330
179
100
AcDbEntity
  8
MO_001_VIEW_PV
  6
BYBLOCK
100
AcDbLine
 10
4.754001
 20
1.974998
 30
0.0
 11
4.754001
 21
-34.285999
 31
0.0
  0
LINE
  5
1D3
330
179
100
AcDbEntity
  8
MO_001_VIEW_PV
  6
BYBLOCK
100
AcDbLine
 10
33.29517
 20
-32.0
 30
0.0
 11
13.354
 21
-32.0
 31
0.0
  0
ENDBLK
  5
1D4
330
179
100
AcDbEntity
  8
0
100
AcDbBlockEnd
  0
BLOCK
  5
1D5
330
17B
100
AcDbEntity
  8
0
100
AcDbBlockBegin
  2
*D7
 70
     1
 10
0.0
 20
0.0
 30
0.0
  3
*D7
  1

  0
TEXT
  5
1D6
330
17B
100
AcDbEntity
  8
MO_001_VIEW_PV
  6
BYBLOCK
100
AcDbText
 10
24.375
 20
21.96428599999999
 30
0.0
 40
1.5
  1
%%P0.03
 50
90.0
100
AcDbText
  0
TEXT
  5
1D7
330
17B
100
AcDbEntity
  8
MO_001_VIEW_PV
  6
BYBLOCK
100
AcDbText
 10
26.25
 20
7.178571
 30
0.0
 40
3.0
  1
%%C6.35
 50
90.0
100
AcDbText
  0
LINE
  5
1D8
330
17B
100
AcDbEntity
  8
MO_001_VIEW_PV
  6
BYBLOCK
100
AcDbLine
 10
27.0
 20
-3.175002999999999
 30
0.0
 11
27.0
 21
3.175002999999999
 31
0.0
  0
LINE
  5
1D9
330
17B
100
AcDbEntity
  8
MO_001_VIEW_PV
  6
BYBLOCK
100
AcDbLine
 10
27.0
 20
-3.175002999999999
 30
0.0
 11
27.0
 21
-9.525002999999999
 31
0.0
  0
LINE
  5
1DA
330
17B
100
AcDbEntity
  8
MO_001_VIEW_PV
  6
BYBLOCK
100
AcDbLine
 10
27.0
 20
3.175002999999999
 30
0.0
 11
27.0
 21
9.525002999999999
 31
0.0
  0
SOLID
  5
1DB
330
17B
100
AcDbEntity
  8
MO_001_VIEW_PV
  6
BYBLOCK
100
AcDbTrace
 10
27.58351199999999
 20
-6.493262999999999
 30
0.0
 11
27.0
 21
-3.683002999999999
 31
0.0
 12
26.416488
 22
-6.493262999999999
 32
0.0
 13
26.416488
 23
-6.493262999999999
 33
0.0
  0
SOLID
  5
1DC
330
17B
100
AcDbEntity
  8
MO_001_VIEW_PV
  6
BYBLOCK
100
AcDbTrace
 10
26.416488
 20
6.493262999999999
 30
0.0
 11
27.0
 21
3.683002999999999
 31
0.0
 12
27.58351199999999
 22
6.493262999999999
 32
0.0
 13
27.58351199999999
 23
6.493262999999999
 33
0.0
  0
LINE
  5
1DD
330
17B
100
AcDbEntity
  8
MO_001_VIEW_PV
  6
BYBLOCK
100
AcDbLine
 10
13.05399799999999
 20
-3.175002999999999
 30
0.0
 11
29.285999
 21
-3.175002999999999
 31
0.0
  0
LINE
  5
1DE
330
17B
100
AcDbEntity
  8
MO_001_VIEW_PV
  6
BYBLOCK
100
AcDbLine
 10
13.054
 20
3.175002999999999
 30
0.0
 11
29.285999
 21
3.175002999999999
 31
0.0
  0
LINE
  5
1DF
330
17B
100
AcDbEntity
  8
MO_001_VIEW_PV
  6
BYBLOCK
100
AcDbLine
 10
27.0
 20
3.175002999999999
 30
0.0
 11
27.0
 21
29.785713
 31
0.0
  0
ENDBLK
  5
1E0
330
17B
100
AcDbEntity
  8
0
100
AcDbBlockEnd
  0
BLOCK
  5
1E1
330
17D
100
AcDbEntity
  8
0
100
AcDbBlockBegin
  2
*D8
 70
     1
 10
0.0
 20
0.0
 30
0.0
  3
*D8
  1

  0
TEXT
  5
1E2
330
17D
100
AcDbEntity
  8
MO_001_VIEW_PV
  6
BYBLOCK
100
AcDbText
 10
58.928571
 20
42.75
 30
0.0
 40
3.0
  1
%%C49以下
100
AcDbText
  0
LINE
  5
1E3
330
17D
100
AcDbEntity
  8
MO_001_VIEW_PV
  6
BYBLOCK
100
AcDbLine
 10
41.94999699999999
 20
42.0
 30
0.0
 11
90.049995
 21
42.0
 31
0.0
  0
SOLID
  5
1E4
330
17D
100
AcDbEntity
  8
MO_001_VIEW_PV
  6
BYBLOCK
100
AcDbTrace
 10
45.26825699999999
 20
42.58351199999999
 30
0.0
 11
42.457997
 21
42.0
 31
0.0
 12
45.26825699999999
 22
41.416488
 32
0.0
 13
45.26825699999999
 23
41.416488
 33
0.0
  0
SOLID
  5
1E5
330
17D
100
AcDbEntity
  8
MO_001_VIEW_PV
  6
BYBLOCK
100
AcDbTrace
 10
86.731735
 20
41.416488
 30
0.0
 11
89.54199499999999
 21
42.0
 31
0.0
 12
86.731735
 22
42.58351199999999
 32
0.0
 13
86.731735
 23
42.58351199999999
 33
0.0
  0
LINE
  5
1E6
330
17D
100
AcDbEntity
  8
MO_001_VIEW_PV
  6
BYBLOCK
100
AcDbLine
 10
41.94999699999999
 20
0.0
 30
0.0
 11
41.94999699999999
 21
44.285999
 31
0.0
  0
LINE
  5
1E7
330
17D
100
AcDbEntity
  8
MO_001_VIEW_PV
  6
BYBLOCK
100
AcDbLine
 10
90.049995
 20
0.0
 30
0.0
 11
90.049995
 21
44.285999
 31
0.0
  0
ENDBLK
  5
1E8
330
17D
100
AcDbEntity
  8
0
100
AcDbBlockEnd
  0
BLOCK
  5
1E9
330
17F
100
AcDbEntity
  8
0
100
AcDbBlockBegin
  2
*D9
 70
     1
 10
0.0
 20
0.0
 30
0.0
  3
*D9
  1

  0
TEXT
  5
1EA
330
17F
100
AcDbEntity
  8
MO_001_VIEW_PV
  6
BYBLOCK
100
AcDbText
 10
58.928571
 20
36.75
 30
0.0
 40
3.0
  1
%%C22以下
100
AcDbText
  0
LINE
  5
1EB
330
17F
100
AcDbEntity
  8
MO_001_VIEW_PV
  6
BYBLOCK
100
AcDbLine
 10
55.94999699999999
 20
36.0
 30
0.0
 11
76.050003
 21
36.0
 31
0.0
  0
SOLID
  5
1EC
330
17F
100
AcDbEntity
  8
MO_001_VIEW_PV
  6
BYBLOCK
100
AcDbTrace
 10
59.268257
 20
36.583512
 30
0.0
 11
56.457997
 21
36.0
 31
0.0
 12
59.268257
 22
35.416488
 32
0.0
 13
59.268257
 23
35.416488
 33
0.0
  0
SOLID
  5
1ED
330
17F
100
AcDbEntity
  8
MO_001_VIEW_PV
  6
BYBLOCK
100
AcDbTrace
 10
72.731743
 20
35.416488
 30
0.0
 11
75.54200300000001
 21
36.0
 31
0.0
 12
72.731743
 22
36.583512
 32
0.0
 13
72.731743
 23
36.583512
 33
0.0
  0
LINE
  5
1EE
330
17F
100
AcDbEntity
  8
MO_001_VIEW_PV
  6
BYBLOCK
100
AcDbLine
 10
55.94999699999999
 20
0.0
 30
0.0
 11
55.94999699999999
 21
38.285999
 31
0.0
  0
LINE
  5
1EF
330
17F
100
AcDbEntity
  8
MO_001_VIEW_PV
  6
BYBLOCK
100
AcDbLine
 10
76.050003
 20
0.0
 30
0.0
 11
76.050003
 21
38.285999
 31
0.0
  0
ENDBLK
  5
1F0
330
17F
100
AcDbEntity
  8
0
100
AcDbBlockEnd
  0
BLOCK
  5
1F1
330
181
100
AcDbEntity
  8
0
100
AcDbBlockBegin
  2
*D10
 70
     1
 10
0.0
 20
0.0
 30
0.0
  3
*D10
  1

  0
TEXT
  5
1F2
330
181
100
AcDbEntity
  8
MO_001_VIEW_PV
  6
BYBLOCK
100
AcDbText
 10
33.375
 20
3.214285999999999
 30
0.0
 40
1.5
  1
%%P0.3
 50
90.0
100
AcDbText
  0
TEXT
  5
1F3
330
181
100
AcDbEntity
  8
MO_001_VIEW_PV
  6
BYBLOCK
100
AcDbText
 10
35.25
 20
-8.571429
 30
0.0
 40
3.0
  1
31.8
 50
90.0
100
AcDbText
  0
LINE
  5
1F4
330
181
100
AcDbEntity
  8
MO_001_VIEW_PV
  6
BYBLOCK
100
AcDbLine
 10
36.0
 20
15.90000199999999
 30
0.0
 11
36.0
 21
-15.90000199999999
 31
0.0
  0
SOLID
  5
1F5
330
181
100
AcDbEntity
  8
MO_001_VIEW_PV
  6
BYBLOCK
100
AcDbTrace
 10
36.583512
 20
12.581741
 30
0.0
 11
36.0
 21
15.39200199999999
 31
0.0
 12
35.416488
 22
12.581741
 32
0.0
 13
35.416488
 23
12.581741
 33
0.0
  0
SOLID
  5
1F6
330
181
100
AcDbEntity
  8
MO_001_VIEW_PV
  6
BYBLOCK
100
AcDbTrace
 10
35.416488
 20
-12.581741
 30
0.0
 11
36.0
 21
-15.39200199999999
 31
0.0
 12
36.583512
 22
-12.581741
 32
0.0
 13
36.583512
 23
-12.581741
 33
0.0
  0
LINE
  5
1F7
330
181
100
AcDbEntity
  8
MO_001_VIEW_PV
  6
BYBLOCK
100
AcDbLine
 10
62.0
 20
15.90000199999999
 30
0.0
 11
33.714001
 21
15.90000199999999
 31
0.0
  0
LINE
  5
1F8
330
181
100
AcDbEntity
  8
MO_001_VIEW_PV
  6
BYBLOCK
100
AcDbLine
 10
62.0
 20
-15.90000199999999
 30
0.0
 11
33.714001
 21
-15.90000199999999
 31
0.0
  0
ENDBLK
  5
1F9
330
181
100
AcDbEntity
  8
0
100
AcDbBlockEnd
  0
BLOCK
  5
1FA
330
183
100
AcDbEntity
  8
0
100
AcDbBlockBegin
  2
*D11
 70
     1
 10
0.0
 20
0.0
 30
0.0
  3
*D11
  1

  0
LINE
  5
1FB
330
183
100
AcDbEntity
  8
MO_001_VIEW_PV
  6
BYBLOCK
100
AcDbLine
 10
74.949997
 20
-22.322639
 30
0.0
 11
101.286003
 21
-22.322639
 31
0.0
  0
TEXT
  5
1FC
330
183
100
AcDbEntity
  8
MO_001_VIEW_PV
  6
BYBLOCK
100
AcDbText
 10
98.25000000000001
 20
-3.169814
 30
0.0
 40
3.0
  1
長さ250以上
 50
90.0
100
AcDbText
  0
LINE
  5
1FD
330
183
100
AcDbEntity
  8
MO_001_VIEW_PV
  6
BYBLOCK
100
AcDbLine
 10
99.0
 20
-46.946335
 30
0.0
 11
99.0
 21
-22.322639
 31
0.0
  0
SOLID
  5
1FE
330
183
100
AcDbEntity
  8
MO_001_VIEW_PV
  6
BYBLOCK
100
AcDbTrace
 10
98.41648800000001
 20
-43.628075
 30
0.0
 11
99.0
 21
-46.43833499999999
 31
0.0
 12
99.583512
 22
-43.628075
 32
0.0
 13
99.583512
 23
-43.628075
 33
0.0
  0
SOLID
  5
1FF
330
183
100
AcDbEntity
  8
MO_001_VIEW_PV
  6
BYBLOCK
100
AcDbTrace
 10
99.583512
 20
-25.6409
 30
0.0
 11
99.0
 21
-22.830639
 31
0.0
 12
98.41648800000001
 22
-25.6409
 32
0.0
 13
98.41648800000001
 23
-25.6409
 33
0.0
  0
LINE
  5
200
330
183
100
AcDbEntity
  8
MO_001_VIEW_PV
  6
BYBLOCK
100
AcDbLine
 10
74.22396899999999
 20
-46.946335
 30
0.0
 11
101.286003
 21
-46.946335
 31
0.0
  0
LINE
  5
201
330
183
100
AcDbEntity
  8
MO_001_VIEW_PV
  6
BYBLOCK
100
AcDbLine
 10
99.0
 20
-22.322639
 30
0.0
 11
99.0
 21
17.937328
 31
0.0
  0
ENDBLK
  5
202
330
183
100
AcDbEntity
  8
0
100
AcDbBlockEnd
  0
ENDSEC
  0
SECTION
  2
ENTITIES
  0
TEXT
  5
4B
330
1E
100
AcDbEntity
  8
OVERLAY_MAP
  6
C_SOLID_L
100
AcDbText
 10
0.0
 20
6.349999999999999
 30
0.0
 40
4.1672
  1
Model Overlay Name
100
AcDbText
  0
TEXT
  5
4C
330
1E
100
AcDbEntity
  8
OVERLAY_MAP
  6
C_SOLID_L
100
AcDbText
 10
126.999998
 20
0.0
 30
0.0
 40
4.1672
  1
Number
100
AcDbText
  0
TEXT
  5
4D
330
1E
100
AcDbEntity
  8
OVERLAY_MAP
  6
C_SOLID_L
100
AcDbText
 10
177.7999969999999
 20
0.0
 30
0.0
 40
4.1672
  1
File Text
100
AcDbText
  0
TEXT
  5
4E
330
1E
100
AcDbEntity
  8
OVERLAY_MAP
  6
C_SOLID_L
100
AcDbText
 10
0.0
 20
-6.349999999999999
 30
0.0
 40
4.1672
  1
ro 5e349 
100
AcDbText
  0
TEXT
  5
4F
330
1E
100
AcDbEntity
  8
OVERLAY_MAP
  6
C_SOLID_L
100
AcDbText
 10
126.999998
 20
-6.349999999999999
 30
0.0
 40
4.1672
  1
001
100
AcDbText
  0
TEXT
  5
50
330
1E
100
AcDbEntity
  8
OVERLAY_MAP
  6
C_SOLID_L
100
AcDbText
 10
177.7999969999999
 20
-6.349999999999999
 30
0.0
 40
4.1672
  1
                                                                   00139
100
AcDbText
  0
LINE
  5
51
330
1E
100
AcDbEntity
  8
MO_001_VIEW_PV
  6
C_CENTER_L
100
AcDbLine
 10
38.94999699999999
 20
0.0
 30
0.0
 11
93.05000300000001
 21
0.0
 31
0.0
  0
LINE
  5
52
330
1E
100
AcDbEntity
  8
MO_001_VIEW_PV
  6
C_CENTER_L
100
AcDbLine
 10
66.0
 20
27.050003
 30
0.0
 11
66.0
 21
-27.050003
 31
0.0
  0
CIRCLE
  5
53
330
1E
100
AcDbEntity
  8
MO_001_VIEW_PV
  6
C_SOLID_M
100
AcDbCircle
 10
66.0
 20
0.0
 30
0.0
 40
24.04999899999999
  0
CIRCLE
  5
54
330
1E
100
AcDbEntity
  8
MO_001_VIEW_PV
  6
C_SOLID_M
100
AcDbCircle
 10
66.0
 20
0.0
 30
0.0
 40
20.64999999999999
  0
CIRCLE
  5
55
330
1E
100
AcDbEntity
  8
MO_001_VIEW_PV
  6
C_SOLID_M
100
AcDbCircle
 10
66.0
 20
15.90000199999999
 30
0.0
 40
2.2
  0
CIRCLE
  5
56
330
1E
100
AcDbEntity
  8
MO_001_VIEW_PV
  6
C_SOLID_M
100
AcDbCircle
 10
50.099998
 20
0.0
 30
0.0
 40
2.2
  0
CIRCLE
  5
57
330
1E
100
AcDbEntity
  8
MO_001_VIEW_PV
  6
C_SOLID_M
100
AcDbCircle
 10
66.0
 20
-15.90000199999999
 30
0.0
 40
2.2
  0
CIRCLE
  5
58
330
1E
100
AcDbEntity
  8
MO_001_VIEW_PV
  6
C_SOLID_M
100
AcDbCircle
 10
81.900002
 20
0.0
 30
0.0
 40
2.2
  0
ARC
  5
59
330
1E
100
AcDbEntity
  8
MO_001_VIEW_PV
  6
C_SOLID_M
100
AcDbCircle
 10
69.214989
 20
-8.833114999999999
 30
0.0
 40
1.85
100
AcDbArc
 50
211.626612
 51
356.176029
  0
ARC
  5
5A
330
1E
100
AcDbEntity
  8
MO_001_VIEW_PV
  6
C_SOLID_M
100
AcDbCircle
 10
66.0
 20
0.0
 30
0.0
 40
9.55
100
AcDbArc
 50
260.504272
 51
279.495723
  0
ARC
  5
5B
330
1E
100
AcDbEntity
  8
MO_001_VIEW_PV
  6
C_SOLID_M
100
AcDbCircle
 10
66.0
 20
0.0
 30
0.0
 40
10.05
100
AcDbArc
 50
260.504272
 51
279.495723
  0
LINE
  5
5C
330
1E
100
AcDbEntity
  8
MO_001_VIEW_PV
  6
C_SOLID_M
100
AcDbLine
 10
67.57550400000001
 20
-9.419143
 30
0.0
 11
67.65799100000001
 21
-9.912291999999998
 31
0.0
  0
LINE
  5
5D
330
1E
100
AcDbEntity
  8
MO_001_VIEW_PV
  6
C_SOLID_M
100
AcDbLine
 10
64.4245
 20
-9.419149
 30
0.0
 11
64.34201299999999
 21
-9.912297999999999
 31
0.0
  0
ARC
  5
5E
330
1E
100
AcDbEntity
  8
MO_001_VIEW_PV
  6
C_SOLID_M
100
AcDbCircle
 10
74.14064
 20
-4.700004999999999
 30
0.0
 40
1.85
100
AcDbArc
 50
251.6266109999999
 51
48.37359199999999
  0
ARC
  5
5F
330
1E
100
AcDbEntity
  8
MO_001_VIEW_PV
  6
C_SOLID_M
100
AcDbCircle
 10
66.0
 20
0.0
 30
0.0
 40
9.55
100
AcDbArc
 50
300.504271
 51
319.495721
  0
ARC
  5
60
330
1E
100
AcDbEntity
  8
MO_001_VIEW_PV
  6
C_SOLID_M
100
AcDbCircle
 10
66.0
 20
0.0
 30
0.0
 40
10.05
100
AcDbArc
 50
300.504271
 51
319.495721
  0
LINE
  5
61
330
1E
100
AcDbEntity
  8
MO_001_VIEW_PV
  6
C_SOLID_M
100
AcDbLine
 10
73.261391
 20
-6.20277
 30
0.0
 11
73.64157
 21
-6.527522
 31
0.0
  0
LINE
  5
62
330
1E
100
AcDbEntity
  8
MO_001_VIEW_PV
  6
C_SOLID_M
100
AcDbLine
 10
70.847589
 20
-8.228194999999999
 30
0.0
 11
71.10139000000001
 21
-8.658991
 31
0.0
  0
ARC
  5
63
330
1E
100
AcDbEntity
  8
MO_001_VIEW_PV
  6
C_SOLID_M
100
AcDbCircle
 10
75.257195
 20
1.632294
 30
0.0
 40
1.85
100
AcDbArc
 50
291.6266100000001
 51
88.373591
  0
ARC
  5
64
330
1E
100
AcDbEntity
  8
MO_001_VIEW_PV
  6
C_SOLID_M
100
AcDbCircle
 10
66.0
 20
0.0
 30
0.0
 40
9.55
100
AcDbArc
 50
340.504272
 51
359.495721
  0
ARC
  5
65
330
1E
100
AcDbEntity
  8
MO_001_VIEW_PV
  6
C_SOLID_M
100
AcDbCircle
 10
66.0
 20
0.0
 30
0.0
 40
10.05
100
AcDbArc
 50
340.504272
 51
359.495721
  0
LINE
  5
66
330
1E
100
AcDbEntity
  8
MO_001_VIEW_PV
  6
C_SOLID_M
100
AcDbLine
 10
75.54961
 20
-0.084052
 30
0.0
 11
76.04959
 21
-0.088453
 31
0.0
  0
LINE
  5
67
330
1E
100
AcDbEntity
  8
MO_001_VIEW_PV
  6
C_SOLID_M
100
AcDbLine
 10
75.002484
 20
-3.187181999999999
 30
0.0
 11
75.47381700000001
 21
-3.354049999999999
 31
0.0
  0
ARC
  5
68
330
1E
100
AcDbEntity
  8
MO_001_VIEW_PV
  6
C_SOLID_M
100
AcDbCircle
 10
72.04220600000001
 20
7.200821
 30
0.0
 40
1.85
100
AcDbArc
 50
331.62661
 51
128.373597
  0
ARC
  5
69
330
1E
100
AcDbEntity
  8
MO_001_VIEW_PV
  6
C_SOLID_M
100
AcDbCircle
 10
66.0
 20
0.0
 30
0.0
 40
9.55
100
AcDbArc
 50
20.504272
 51
39.49572299999999
  0
ARC
  5
6A
330
1E
100
AcDbEntity
  8
MO_001_VIEW_PV
  6
C_SOLID_M
100
AcDbCircle
 10
66.0
 20
0.0
 30
0.0
 40
10.05
100
AcDbArc
 50
20.504272
 51
39.49572299999999
  0
LINE
  5
6B
330
1E
100
AcDbEntity
  8
MO_001_VIEW_PV
  6
C_SOLID_M
100
AcDbLine
 10
73.369502
 20
6.074012
 30
0.0
 11
73.75533799999999
 21
6.392021999999999
 31
0.0
  0
LINE
  5
6C
330
1E
100
AcDbEntity
  8
MO_001_VIEW_PV
  6
C_SOLID_M
100
AcDbLine
 10
74.944952
 20
3.345143
 30
0.0
 11
75.413275
 21
3.520280999999999
 31
0.0
  0
ARC
  5
6D
330
1E
100
AcDbEntity
  8
MO_001_VIEW_PV
  6
C_SOLID_M
100
AcDbCircle
 10
66.0
 20
9.400002
 30
0.0
 40
1.85
100
AcDbArc
 50
11.62661
 51
168.3736019999999
  0
ARC
  5
6E
330
1E
100
AcDbEntity
  8
MO_001_VIEW_PV
  6
C_SOLID_M
100
AcDbCircle
 10
66.0
 20
0.0
 30
0.0
 40
9.55
100
AcDbArc
 50
60.504275
 51
79.49572499999999
  0
ARC
  5
6F
330
1E
100
AcDbEntity
  8
MO_001_VIEW_PV
  6
C_SOLID_M
100
AcDbCircle
 10
66.0
 20
0.0
 30
0.0
 40
10.05
100
AcDbArc
 50
60.504275
 51
79.49572499999999
  0
LINE
  5
70
330
1E
100
AcDbEntity
  8
MO_001_VIEW_PV
  6
C_SOLID_M
100
AcDbLine
 10
67.741062
 20
9.389958999999999
 30
0.0
 11
67.832216
 21
9.881579999999999
 31
0.0
  0
LINE
  5
71
330
1E
100
AcDbEntity
  8
MO_001_VIEW_PV
  6
C_SOLID_M
100
AcDbLine
 10
70.702017
 20
8.312253999999999
 30
0.0
 11
70.94819699999999
 21
8.74745
 31
0.0
  0
ARC
  5
72
330
1E
100
AcDbEntity
  8
MO_001_VIEW_PV
  6
C_SOLID_M
100
AcDbCircle
 10
59.95779399999999
 20
7.200821
 30
0.0
 40
1.85
100
AcDbArc
 50
51.62660999999999
 51
208.373608
  0
ARC
  5
73
330
1E
100
AcDbEntity
  8
MO_001_VIEW_PV
  6
C_SOLID_M
100
AcDbCircle
 10
66.0
 20
0.0
 30
0.0
 40
9.55
100
AcDbArc
 50
100.5042729999999
 51
119.49573
  0
ARC
  5
74
330
1E
100
AcDbEntity
  8
MO_001_VIEW_PV
  6
C_SOLID_M
100
AcDbCircle
 10
66.0
 20
0.0
 30
0.0
 40
10.05
100
AcDbArc
 50
100.5042729999999
 51
119.49573
  0
LINE
  5
75
330
1E
100
AcDbEntity
  8
MO_001_VIEW_PV
  6
C_SOLID_M
100
AcDbLine
 10
61.297983
 20
8.312249000000001
 30
0.0
 11
61.051804
 21
8.747446
 31
0.0
  0
LINE
  5
76
330
1E
100
AcDbEntity
  8
MO_001_VIEW_PV
  6
C_SOLID_M
100
AcDbLine
 10
64.25896800000001
 20
9.389958
 30
0.0
 11
64.16781400000001
 21
9.881578999999998
 31
0.0
  0
ARC
  5
77
330
1E
100
AcDbEntity
  8
MO_001_VIEW_PV
  6
C_SOLID_M
100
AcDbCircle
 10
56.742805
 20
1.632294
 30
0.0
 40
1.85
100
AcDbArc
 50
91.626612
 51
248.3735999999999
  0
ARC
  5
78
330
1E
100
AcDbEntity
  8
MO_001_VIEW_PV
  6
C_SOLID_M
100
AcDbCircle
 10
66.0
 20
0.0
 30
0.0
 40
9.55
100
AcDbArc
 50
140.5042719999999
 51
159.495736
  0
ARC
  5
79
330
1E
100
AcDbEntity
  8
MO_001_VIEW_PV
  6
C_SOLID_M
100
AcDbCircle
 10
66.0
 20
0.0
 30
0.0
 40
10.05
100
AcDbArc
 50
140.5042719999999
 51
159.495736
  0
LINE
  5
7A
330
1E
100
AcDbEntity
  8
MO_001_VIEW_PV
  6
C_SOLID_M
100
AcDbLine
 10
57.05502199999999
 20
3.345141999999999
 30
0.0
 11
56.58669899999999
 21
3.52028
 31
0.0
  0
LINE
  5
7B
330
1E
100
AcDbEntity
  8
MO_001_VIEW_PV
  6
C_SOLID_M
100
AcDbLine
 10
58.630526
 20
6.073991
 30
0.0
 11
58.24469
 21
6.392001999999999
 31
0.0
  0
ARC
  5
7C
330
1E
100
AcDbEntity
  8
MO_001_VIEW_PV
  6
C_SOLID_M
100
AcDbCircle
 10
57.85935999999999
 20
-4.699996999999999
 30
0.0
 40
1.85
100
AcDbArc
 50
131.6266109999999
 51
288.3735919999999
  0
ARC
  5
7D
330
1E
100
AcDbEntity
  8
MO_001_VIEW_PV
  6
C_SOLID_M
100
AcDbCircle
 10
66.0
 20
0.0
 30
0.0
 40
9.55
100
AcDbArc
 50
180.504282
 51
199.495745
  0
ARC
  5
7E
330
1E
100
AcDbEntity
  8
MO_001_VIEW_PV
  6
C_SOLID_M
100
AcDbCircle
 10
66.0
 20
0.0
 30
0.0
 40
10.05
100
AcDbArc
 50
180.504282
 51
199.495745
  0
LINE
  5
7F
330
1E
100
AcDbEntity
  8
MO_001_VIEW_PV
  6
C_SOLID_M
100
AcDbLine
 10
56.99754
 20
-3.187184999999999
 30
0.0
 11
56.52620600000001
 21
-3.354052999999999
 31
0.0
  0
LINE
  5
80
330
1E
100
AcDbEntity
  8
MO_001_VIEW_PV
  6
C_SOLID_M
100
AcDbLine
 10
56.45035899999999
 20
-0.084054
 30
0.0
 11
55.950378
 21
-0.088455
 31
0.0
  0
ARC
  5
81
330
1E
100
AcDbEntity
  8
MO_001_VIEW_PV
  6
C_SOLID_M
100
AcDbCircle
 10
62.785004
 20
-8.833114999999999
 30
0.0
 40
1.85
100
AcDbArc
 50
171.6266169999999
 51
328.3735839999999
  0
ARC
  5
82
330
1E
100
AcDbEntity
  8
MO_001_VIEW_PV
  6
C_SOLID_M
100
AcDbCircle
 10
66.0
 20
0.0
 30
0.0
 40
9.55
100
AcDbArc
 50
220.504287
 51
239.4957509999999
  0
ARC
  5
83
330
1E
100
AcDbEntity
  8
MO_001_VIEW_PV
  6
C_SOLID_M
100
AcDbCircle
 10
66.0
 20
0.0
 30
0.0
 40
10.05
100
AcDbArc
 50
220.504287
 51
239.4957509999999
  0
LINE
  5
84
330
1E
100
AcDbEntity
  8
MO_001_VIEW_PV
  6
C_SOLID_M
100
AcDbLine
 10
61.15240400000001
 20
-8.228205
 30
0.0
 11
60.898603
 21
-8.659000999999999
 31
0.0
  0
LINE
  5
85
330
1E
100
AcDbEntity
  8
MO_001_VIEW_PV
  6
C_SOLID_M
100
AcDbLine
 10
58.73860999999999
 20
-6.202771
 30
0.0
 11
58.358431
 21
-6.527523999999999
 31
0.0
  0
LINE
  5
86
330
1E
100
AcDbEntity
  8
MO_001_VIEW_PV
  6
C_CENTER_L
100
AcDbLine
 10
62.0
 20
-15.90000199999999
 30
0.0
 11
70.0
 21
-15.90000199999999
 31
0.0
  0
LINE
  5
87
330
1E
100
AcDbEntity
  8
MO_001_VIEW_PV
  6
C_CENTER_L
100
AcDbLine
 10
62.0
 20
15.90000199999999
 30
0.0
 11
70.0
 21
15.90000199999999
 31
0.0
  0
CIRCLE
  5
88
330
1E
100
AcDbEntity
  8
MO_001_VIEW_PV
  6
C_SOLID_M
100
AcDbCircle
 10
66.0
 20
15.90000199999999
 30
0.0
 40
2.0
  0
CIRCLE
  5
89
330
1E
100
AcDbEntity
  8
MO_001_VIEW_PV
  6
C_SOLID_M
100
AcDbCircle
 10
66.0
 20
15.90000199999999
 30
0.0
 40
1.3
  0
CIRCLE
  5
8A
330
1E
100
AcDbEntity
  8
MO_001_VIEW_PV
  6
C_SOLID_M
100
AcDbCircle
 10
66.0
 20
-15.90000199999999
 30
0.0
 40
1.3
  0
CIRCLE
  5
8B
330
1E
100
AcDbEntity
  8
MO_001_VIEW_PV
  6
C_SOLID_M
100
AcDbCircle
 10
66.0
 20
-15.90000199999999
 30
0.0
 40
2.0
  0
CIRCLE
  5
8C
330
1E
100
AcDbEntity
  8
MO_001_VIEW_PV
  6
C_SOLID_M
100
AcDbCircle
 10
66.0
 20
0.0
 30
0.0
 40
21.1
  0
CIRCLE
  5
8D
330
1E
100
AcDbEntity
  8
MO_001_VIEW_PV
  6
C_SOLID_M
100
AcDbCircle
 10
66.0
 20
0.0
 30
0.0
 40
20.700001
  0
ARC
  5
8E
330
1E
100
AcDbEntity
  8
MO_001_VIEW_PV
  6
C_SOLID_M
100
AcDbCircle
 10
66.0
 20
0.0
 30
0.0
 40
9.55
100
AcDbArc
 50
268.243758
 51
90.000002
  0
ARC
  5
8F
330
1E
100
AcDbEntity
  8
MO_001_VIEW_PV
  6
C_SOLID_M
100
AcDbCircle
 10
66.0
 20
0.0
 30
0.0
 40
3.174999999999999
100
AcDbArc
 50
269.999998
 51
35.634234
  0
ARC
  5
90
330
1E
100
AcDbEntity
  8
MO_001_VIEW_PV
  6
C_SOLID_M
100
AcDbCircle
 10
66.0
 20
0.0
 30
0.0
 40
9.25
100
AcDbArc
 50
269.999998
 51
90.000002
  0
ARC
  5
91
330
1E
100
AcDbEntity
  8
MO_001_VIEW_PV
  6
C_SOLID_M
100
AcDbCircle
 10
66.0
 20
0.0
 30
0.0
 40
3.475
100
AcDbArc
 50
269.999998
 51
90.000002
  0
ARC
  5
92
330
1E
100
AcDbEntity
  8
MO_001_VIEW_PV
  6
C_SOLID_M
100
AcDbCircle
 10
66.0
 20
0.0
 30
0.0
 40
10.25
100
AcDbArc
 50
302.9047959999999
 51
311.627849
  0
ARC
  5
93
330
1E
100
AcDbEntity
  8
MO_001_VIEW_PV
  6
C_SOLID_M
100
AcDbCircle
 10
66.0
 20
0.0
 30
0.0
 40
10.55
100
AcDbArc
 50
302.9047959999999
 51
311.627849
  0
LINE
  5
94
330
1E
100
AcDbEntity
  8
MO_001_VIEW_PV
  6
C_SOLID_M
100
AcDbLine
 10
73.008242
 20
-7.885863999999999
 30
0.0
 11
72.80895799999999
 21
-7.661624
 31
0.0
  0
LINE
  5
95
330
1E
100
AcDbEntity
  8
MO_001_VIEW_PV
  6
C_SOLID_M
100
AcDbLine
 10
65.707307
 20
-9.545510999999999
 30
0.0
 11
65.716499
 21
-9.245725
 31
0.0
  0
ARC
  5
96
330
1E
100
AcDbEntity
  8
MO_001_VIEW_PV
  6
C_SOLID_M
100
AcDbCircle
 10
71.296638
 20
-8.185852
 30
0.0
 40
0.5
100
AcDbArc
 50
259.92663
 51
302.9047959999999
  0
ARC
  5
97
330
1E
100
AcDbEntity
  8
MO_001_VIEW_PV
  6
C_SOLID_M
100
AcDbCircle
 10
71.296638
 20
-8.185852
 30
0.0
 40
0.8
100
AcDbArc
 50
259.92663
 51
302.9047959999999
  0
ARC
  5
98
330
1E
100
AcDbEntity
  8
MO_001_VIEW_PV
  6
C_SOLID_M
100
AcDbCircle
 10
70.045952
 20
-10.604378
 30
0.0
 40
1.8
100
AcDbArc
 50
79.926635
 51
110.883647
  0
ARC
  5
99
330
1E
100
AcDbEntity
  8
MO_001_VIEW_PV
  6
C_SOLID_M
100
AcDbCircle
 10
70.045952
 20
-10.604378
 30
0.0
 40
2.1
100
AcDbArc
 50
79.926635
 51
82.730147
  0
LINE
  5
9A
330
1E
100
AcDbEntity
  8
MO_001_VIEW_PV
  6
C_SOLID_M
100
AcDbLine
 10
70.413246
 20
-8.536747
 30
0.0
 11
71.209164
 21
-8.678139999999999
 31
0.0
  0
LINE
  5
9B
330
1E
100
AcDbEntity
  8
MO_001_VIEW_PV
  6
C_SOLID_M
100
AcDbLine
 10
70.360772
 20
-8.832124999999999
 30
0.0
 11
71.15669100000001
 21
-8.973517999999998
 31
0.0
  0
ARC
  5
9C
330
1E
100
AcDbEntity
  8
MO_001_VIEW_PV
  6
C_SOLID_M
100
AcDbCircle
 10
66.0
 20
0.150002
 30
0.0
 40
9.4
100
AcDbArc
 50
90.000002
 51
270.000001
  0
LINE
  5
9D
330
1E
100
AcDbEntity
  8
MO_001_VIEW_PV
  6
C_SOLID_M
100
AcDbLine
 10
68.21472199999999
 20
2.275002
 30
0.0
 11
68.33667
 21
2.275002
 31
0.0
  0
ARC
  5
9E
330
1E
100
AcDbEntity
  8
MO_001_VIEW_PV
  6
C_SOLID_M
100
AcDbCircle
 10
68.33667
 20
1.675002999999999
 30
0.0
 40
0.6
100
AcDbArc
 50
35.634234
 51
90.000002
  0
ARC
  5
9F
330
1E
100
AcDbEntity
  8
MO_001_VIEW_PV
  6
C_SOLID_M
100
AcDbCircle
 10
66.0
 20
0.150002
 30
0.0
 40
3.325
100
AcDbArc
 50
90.000002
 51
270.000001
  0
ARC
  5
A0
330
1E
100
AcDbEntity
  8
MO_001_VIEW_PV
  6
C_SOLID_M
100
AcDbCircle
 10
66.0
 20
0.150002
 30
0.0
 40
3.625
100
AcDbArc
 50
90.000002
 51
270.000001
  0
ARC
  5
A1
330
1E
100
AcDbEntity
  8
MO_001_VIEW_PV
  6
C_SOLID_M
100
AcDbCircle
 10
66.0
 20
0.0
 30
0.0
 40
3.774999999999999
100
AcDbArc
 50
269.999998
 51
90.000002
  0
ARC
  5
A2
330
1E
100
AcDbEntity
  8
MO_001_VIEW_PV
  6
C_SOLID_M
100
AcDbCircle
 10
66.0
 20
0.150002
 30
0.0
 40
3.924999999999999
100
AcDbArc
 50
90.000002
 51
270.000001
  0
ARC
  5
A3
330
1E
100
AcDbEntity
  8
MO_001_VIEW_PV
  6
C_SOLID_M
100
AcDbCircle
 10
66.0
 20
0.0
 30
0.0
 40
4.075
100
AcDbArc
 50
269.999998
 51
90.000002
  0
ARC
  5
A4
330
1E
100
AcDbEntity
  8
MO_001_VIEW_PV
  6
C_SOLID_M
100
AcDbCircle
 10
66.0
 20
0.150002
 30
0.0
 40
9.099999999999999
100
AcDbArc
 50
90.000002
 51
270.000001
  0
ARC
  5
A5
330
1E
100
AcDbEntity
  8
MO_001_VIEW_PV
  6
C_SOLID_M
100
AcDbCircle
 10
66.0
 20
0.0
 30
0.0
 40
8.950001
100
AcDbArc
 50
269.999998
 51
90.000002
  0
ARC
  5
A6
330
1E
100
AcDbEntity
  8
MO_001_VIEW_PV
  6
C_SOLID_M
100
AcDbCircle
 10
66.0
 20
0.150002
 30
0.0
 40
8.800000999999999
100
AcDbArc
 50
90.000002
 51
270.000001
  0
ARC
  5
A7
330
1E
100
AcDbEntity
  8
MO_001_VIEW_PV
  6
C_SOLID_M
100
AcDbCircle
 10
66.0
 20
-0.3675
 30
0.0
 40
8.282500999999999
100
AcDbArc
 50
269.999998
 51
90.000002
  0
ARC
  5
A8
330
1E
100
AcDbEntity
  8
MO_001_VIEW_PV
  6
C_SOLID_M
100
AcDbCircle
 10
66.0
 20
0.241875
 30
0.0
 40
7.673125999999999
100
AcDbArc
 50
90.000002
 51
270.000001
  0
ARC
  5
A9
330
1E
100
AcDbEntity
  8
MO_001_VIEW_PV
  6
C_SOLID_M
100
AcDbCircle
 10
66.0
 20
-0.275627
 30
0.0
 40
7.155625999999999
100
AcDbArc
 50
269.999998
 51
90.000002
  0
ARC
  5
AA
330
1E
100
AcDbEntity
  8
MO_001_VIEW_PV
  6
C_SOLID_M
100
AcDbCircle
 10
66.0
 20
0.333748
 30
0.0
 40
6.546249999999999
100
AcDbArc
 50
90.000002
 51
270.000001
  0
ARC
  5
AB
330
1E
100
AcDbEntity
  8
MO_001_VIEW_PV
  6
C_SOLID_M
100
AcDbCircle
 10
66.0
 20
-0.183746
 30
0.0
 40
6.028749999999999
100
AcDbArc
 50
269.999998
 51
90.000002
  0
ARC
  5
AC
330
1E
100
AcDbEntity
  8
MO_001_VIEW_PV
  6
C_SOLID_M
100
AcDbCircle
 10
66.0
 20
0.425629
 30
0.0
 40
5.419374999999999
100
AcDbArc
 50
90.000002
 51
270.000001
  0
ARC
  5
AD
330
1E
100
AcDbEntity
  8
MO_001_VIEW_PV
  6
C_SOLID_M
100
AcDbCircle
 10
66.0
 20
-0.091873
 30
0.0
 40
4.901875
100
AcDbArc
 50
269.999998
 51
90.000002
  0
ARC
  5
AE
330
1E
100
AcDbEntity
  8
MO_001_VIEW_PV
  6
C_SOLID_M
100
AcDbCircle
 10
66.0
 20
0.517502
 30
0.0
 40
4.2925
100
AcDbArc
 50
90.000002
 51
270.000001
  0
ARC
  5
AF
330
1E
100
AcDbEntity
  8
MO_001_VIEW_PV
  6
C_SOLID_M
100
AcDbCircle
 10
66.0
 20
-0.3675
 30
0.0
 40
8.582500999999998
100
AcDbArc
 50
269.999998
 51
90.000002
  0
ARC
  5
B0
330
1E
100
AcDbEntity
  8
MO_001_VIEW_PV
  6
C_SOLID_M
100
AcDbCircle
 10
66.0
 20
0.241875
 30
0.0
 40
7.973125999999999
100
AcDbArc
 50
90.000002
 51
270.000001
  0
ARC
  5
B1
330
1E
100
AcDbEntity
  8
MO_001_VIEW_PV
  6
C_SOLID_M
100
AcDbCircle
 10
66.0
 20
-0.275627
 30
0.0
 40
7.455625999999999
100
AcDbArc
 50
269.999998
 51
90.000002
  0
ARC
  5
B2
330
1E
100
AcDbEntity
  8
MO_001_VIEW_PV
  6
C_SOLID_M
100
AcDbCircle
 10
66.0
 20
0.333748
 30
0.0
 40
6.846250999999999
100
AcDbArc
 50
90.000002
 51
270.000001
  0
ARC
  5
B3
330
1E
100
AcDbEntity
  8
MO_001_VIEW_PV
  6
C_SOLID_M
100
AcDbCircle
 10
66.0
 20
-0.183746
 30
0.0
 40
6.328751
100
AcDbArc
 50
269.999998
 51
90.000002
  0
ARC
  5
B4
330
1E
100
AcDbEntity
  8
MO_001_VIEW_PV
  6
C_SOLID_M
100
AcDbCircle
 10
66.0
 20
-0.091873
 30
0.0
 40
5.201876
100
AcDbArc
 50
269.999998
 51
90.000002
  0
ARC
  5
B5
330
1E
100
AcDbEntity
  8
MO_001_VIEW_PV
  6
C_SOLID_M
100
AcDbCircle
 10
66.0
 20
0.425629
 30
0.0
 40
5.719376
100
AcDbArc
 50
90.000002
 51
270.000001
  0
ARC
  5
B6
330
1E
100
AcDbEntity
  8
MO_001_VIEW_PV
  6
C_SOLID_M
100
AcDbCircle
 10
66.0
 20
0.517502
 30
0.0
 40
4.592501
100
AcDbArc
 50
90.000002
 51
270.000001
  0
ARC
  5
B7
330
1E
100
AcDbEntity
  8
MO_001_VIEW_PV
  6
C_SOLID_M
100
AcDbCircle
 10
69.214989
 20
-8.833114999999999
 30
0.0
 40
1.85
100
AcDbArc
 50
5.651524
 51
8.373592999999999
  0
CIRCLE
  5
B8
330
1E
100
AcDbEntity
  8
MO_001_VIEW_PV
  6
C_SOLID_M
100
AcDbCircle
 10
66.0
 20
0.0
 30
0.0
 40
2.875
  0
CIRCLE
  5
B9
330
1E
100
AcDbEntity
  8
MO_001_VIEW_PV
  6
C_SOLID_M
100
AcDbCircle
 10
66.0
 20
0.0
 30
0.0
 40
3.174999999999999
  0
LINE
  5
BA
330
1E
100
AcDbEntity
  8
MO_001_VIEW_PV
  6
C_SOLID_M
100
AcDbLine
 10
-0.5
 20
20.69999699999999
 30
0.0
 11
-0.5
 21
-20.69999699999999
 31
0.0
  0
LINE
  5
BB
330
1E
100
AcDbEntity
  8
MO_001_VIEW_PV
  6
C_SOLID_M
100
AcDbLine
 10
-0.899999
 20
21.099996
 30
0.0
 11
-0.5000010000000001
 21
20.699999
 31
0.0
  0
LINE
  5
BC
330
1E
100
AcDbEntity
  8
MO_001_VIEW_PV
  6
C_SOLID_M
100
AcDbLine
 10
-0.899999
 20
-21.099999
 30
0.0
 11
-0.499999
 21
-20.69999999999999
 31
0.0
  0
LINE
  5
BD
330
1E
100
AcDbEntity
  8
MO_001_VIEW_PV
  6
C_SOLID_M
100
AcDbLine
 10
-0.9
 20
24.050003
 30
0.0
 11
-0.9
 21
-24.050003
 31
0.0
  0
LINE
  5
BE
330
1E
100
AcDbEntity
  8
MO_001_VIEW_PV
  6
C_SOLID_M
100
AcDbLine
 10
-25.29999899999999
 20
19.84999799999999
 30
0.0
 11
-25.29999899999999
 21
-19.84999799999999
 31
0.0
  0
LINE
  5
BF
330
1E
100
AcDbEntity
  8
MO_001_VIEW_PV
  6
C_SOLID_M
100
AcDbLine
 10
-21.099998
 20
24.050003
 30
0.0
 11
-0.9
 21
24.050003
 31
0.0
  0
LINE
  5
C0
330
1E
100
AcDbEntity
  8
MO_001_VIEW_PV
  6
C_SOLID_M
100
AcDbLine
 10
-21.099998
 20
-24.050003
 30
0.0
 11
-0.9
 21
-24.050003
 31
0.0
  0
ARC
  5
C1
330
1E
100
AcDbEntity
  8
MO_001_VIEW_PV
  6
C_SOLID_M
100
AcDbCircle
 10
-21.099998
 20
19.84999799999999
 30
0.0
 40
4.2
100
AcDbArc
 50
90.000002
 51
180.000005
  0
ARC
  5
C2
330
1E
100
AcDbEntity
  8
MO_001_VIEW_PV
  6
C_SOLID_M
100
AcDbCircle
 10
-26.073
 20
-15.70000499999999
 30
0.0
 40
1.984499999999999
100
AcDbArc
 50
67.075422
 51
112.924522
  0
LINE
  5
C3
330
1E
100
AcDbEntity
  8
MO_001_VIEW_PV
  6
C_SOLID_M
100
AcDbLine
 10
-26.845999
 20
-20.650002
 30
0.0
 11
-26.845999
 21
20.650002
 31
0.0
  0
LINE
  5
C4
330
1E
100
AcDbEntity
  8
MO_001_VIEW_PV
  6
C_SOLID_M
100
AcDbLine
 10
-28.84599899999999
 20
-20.650002
 30
0.0
 11
-28.84599899999999
 21
20.650002
 31
0.0
  0
LINE
  5
C5
330
1E
100
AcDbEntity
  8
MO_001_VIEW_PV
  6
C_SOLID_M
100
AcDbLine
 10
-28.84599899999999
 20
20.650002
 30
0.0
 11
-26.845999
 21
20.650002
 31
0.0
  0
LINE
  5
C6
330
1E
100
AcDbEntity
  8
MO_001_VIEW_PV
  6
C_SOLID_M
100
AcDbLine
 10
-28.84599899999999
 20
-20.650002
 30
0.0
 11
-26.845999
 21
-20.650002
 31
0.0
  0
ARC
  5
C7
330
1E
100
AcDbEntity
  8
MO_001_VIEW_PV
  6
C_SOLID_M
100
AcDbCircle
 10
-28.661503
 20
10.741814
 30
0.0
 40
1.984499999999999
100
AcDbArc
 50
95.33440799999999
 51
187.660267
  0
ARC
  5
C8
330
1E
100
AcDbEntity
  8
MO_001_VIEW_PV
  6
C_SOLID_M
100
AcDbCircle
 10
-28.546001
 20
3.997772
 30
0.0
 40
1.199999999999999
100
AcDbArc
 50
187.66023
 51
255.5226189999999
  0
LINE
  5
C9
330
1E
100
AcDbEntity
  8
MO_001_VIEW_PV
  6
C_SOLID_M
100
AcDbLine
 10
-30.628296
 20
10.477281
 30
0.0
 11
-29.735296
 21
3.837816
 31
0.0
  0
ARC
  5
CA
330
1E
100
AcDbEntity
  8
MO_001_VIEW_PV
  6
C_SOLID_M
100
AcDbCircle
 10
-28.406208
 20
-15.70000499999999
 30
0.0
 40
2.239792
100
AcDbArc
 50
101.323794
 51
258.676203
  0
ARC
  5
CB
330
1E
100
AcDbEntity
  8
MO_001_VIEW_PV
  6
C_SOLID_M
100
AcDbCircle
 10
-26.073
 20
-15.70000499999999
 30
0.0
 40
1.984499999999999
100
AcDbArc
 50
247.0754779999999
 51
292.924578
  0
LINE
  5
CC
330
1E
100
AcDbEntity
  8
MO_001_VIEW_PV
  6
C_CENTER_L
100
AcDbLine
 10
-44.58673499999999
 20
0.0
 30
0.0
 11
17.999037
 21
0.0
 31
0.0
  0
LINE
  5
CD
330
1E
100
AcDbEntity
  8
MO_001_VIEW_PV
  6
C_SOLID_M
100
AcDbLine
 10
-26.845999
 20
11.0
 30
0.0
 11
-25.29999899999999
 21
11.0
 31
0.0
  0
LINE
  5
CE
330
1E
100
AcDbEntity
  8
MO_001_VIEW_PV
  6
C_SOLID_M
100
AcDbLine
 10
-26.845999
 20
-11.0
 30
0.0
 11
-25.29999899999999
 21
-11.0
 31
0.0
  0
LINE
  5
CF
330
1E
100
AcDbEntity
  8
MO_001_VIEW_PV
  6
C_SOLID_M
100
AcDbLine
 10
13.354
 20
-2.875
 30
0.0
 11
13.354
 21
2.875
 31
0.0
  0
LINE
  5
D0
330
1E
100
AcDbEntity
  8
MO_001_VIEW_PV
  6
C_SOLID_M
100
AcDbLine
 10
4.754001
 20
3.175002999999999
 30
0.0
 11
13.054
 21
3.175002999999999
 31
0.0
  0
LINE
  5
D1
330
1E
100
AcDbEntity
  8
MO_001_VIEW_PV
  6
C_SOLID_M
100
AcDbLine
 10
13.054005
 20
3.175011
 30
0.0
 11
13.354004
 21
2.875011999999999
 31
0.0
  0
LINE
  5
D2
330
1E
100
AcDbEntity
  8
MO_001_VIEW_PV
  6
C_SOLID_M
100
AcDbLine
 10
13.054006
 20
-3.174993
 30
0.0
 11
13.35400499999999
 21
-2.874994
 31
0.0
  0
LINE
  5
D3
330
1E
100
AcDbEntity
  8
MO_001_VIEW_PV
  6
C_SOLID_M
100
AcDbLine
 10
-42.14599999999999
 20
-3.029411
 30
0.0
 11
-42.14599999999999
 21
3.029411
 31
0.0
  0
LINE
  5
D4
330
1E
100
AcDbEntity
  8
MO_001_VIEW_PV
  6
C_SOLID_M
100
AcDbLine
 10
-41.746004
 20
3.175005
 30
0.0
 11
-42.14600299999999
 21
3.029415999999999
 31
0.0
  0
LINE
  5
D5
330
1E
100
AcDbEntity
  8
MO_001_VIEW_PV
  6
C_SOLID_M
100
AcDbLine
 10
-41.746002
 20
-3.174999999999999
 30
0.0
 11
-42.146005
 21
-3.029409999999999
 31
0.0
  0
LINE
  5
D6
330
1E
100
AcDbEntity
  8
MO_001_VIEW_PV
  6
C_SOLID_M
100
AcDbLine
 10
-41.745998
 20
-3.175002999999999
 30
0.0
 11
-41.745998
 21
3.175002999999999
 31
0.0
  0
LINE
  5
D7
330
1E
100
AcDbEntity
  8
MO_001_VIEW_PV
  6
C_SOLID_M
100
AcDbLine
 10
13.054
 20
-3.175002999999999
 30
0.0
 11
13.054
 21
3.175002999999999
 31
0.0
  0
LINE
  5
D8
330
1E
100
AcDbEntity
  8
MO_001_VIEW_PV
  6
C_SOLID_M
100
AcDbLine
 10
-41.745998
 20
3.175002999999999
 30
0.0
 11
-29.745998
 21
3.175002999999999
 31
0.0
  0
LINE
  5
D9
330
1E
100
AcDbEntity
  8
MO_001_VIEW_PV
  6
C_SOLID_M
100
AcDbLine
 10
-41.745998
 20
-3.175002999999999
 30
0.0
 11
-29.745998
 21
-3.175002999999999
 31
0.0
  0
LINE
  5
DA
330
1E
100
AcDbEntity
  8
MO_001_VIEW_PV
  6
C_SOLID_M
100
AcDbLine
 10
4.754001
 20
1.974998
 30
0.0
 11
4.754001
 21
3.175002999999999
 31
0.0
  0
LINE
  5
DB
330
1E
100
AcDbEntity
  8
MO_001_VIEW_PV
  6
C_SOLID_M
100
AcDbLine
 10
-29.745998
 20
-9.074996999999999
 30
0.0
 11
-29.745998
 21
3.997772
 31
0.0
  0
LINE
  5
DC
330
1E
100
AcDbEntity
  8
MO_001_VIEW_PV
  6
C_SOLID_M
100
AcDbLine
 10
-29.745998
 20
-9.074996999999999
 30
0.0
 11
-28.84599899999999
 21
-9.074996999999999
 31
0.0
  0
LINE
  5
DD
330
1E
100
AcDbEntity
  8
MO_001_VIEW_PV
  6
C_SOLID_M
100
AcDbLine
 10
-29.24599799999999
 20
-2.239997999999999
 30
0.0
 11
-29.24599799999999
 21
2.239997999999999
 31
0.0
  0
LINE
  5
DE
330
1E
100
AcDbEntity
  8
MO_001_VIEW_PV
  6
C_SOLID_M
100
AcDbLine
 10
-29.745998
 20
-8.758338999999999
 30
0.0
 11
-29.24599799999999
 21
-8.758338999999999
 31
0.0
  0
LINE
  5
DF
330
1E
100
AcDbEntity
  8
MO_001_VIEW_PV
  6
C_SOLID_M
100
AcDbLine
 10
-29.24599799999999
 20
-8.645186999999999
 30
0.0
 11
-28.84599899999999
 21
-8.645186999999999
 31
0.0
  0
LINE
  5
E0
330
1E
100
AcDbEntity
  8
MO_001_VIEW_PV
  6
C_SOLID_M
100
AcDbLine
 10
-29.24599799999999
 20
-6.973778
 30
0.0
 11
-28.84599899999999
 21
-6.973778
 31
0.0
  0
LINE
  5
E1
330
1E
100
AcDbEntity
  8
MO_001_VIEW_PV
  6
C_SOLID_M
100
AcDbLine
 10
-29.745998
 20
-6.518341
 30
0.0
 11
-29.24599799999999
 21
-6.518341
 31
0.0
  0
LINE
  5
E2
330
1E
100
AcDbEntity
  8
MO_001_VIEW_PV
  6
C_SOLID_M
100
AcDbLine
 10
-29.745998
 20
-2.239997999999999
 30
0.0
 11
-29.24599799999999
 21
-2.239997999999999
 31
0.0
  0
LINE
  5
E3
330
1E
100
AcDbEntity
  8
MO_001_VIEW_PV
  6
C_SOLID_M
100
AcDbLine
 10
-29.24599799999999
 20
-1.575943
 30
0.0
 11
-28.84599899999999
 21
-1.575943
 31
0.0
  0
LINE
  5
E4
330
1E
100
AcDbEntity
  8
MO_001_VIEW_PV
  6
C_SOLID_M
100
AcDbLine
 10
-29.24599799999999
 20
1.575943
 30
0.0
 11
-28.84599899999999
 21
1.575943
 31
0.0
  0
LINE
  5
E5
330
1E
100
AcDbEntity
  8
MO_001_VIEW_PV
  6
C_SOLID_M
100
AcDbLine
 10
-29.745998
 20
2.239997999999999
 30
0.0
 11
-29.24599799999999
 21
2.239997999999999
 31
0.0
  0
LINE
  5
E6
330
1E
100
AcDbEntity
  8
MO_001_VIEW_PV
  6
C_SOLID_M
100
AcDbLine
 10
-29.24599799999999
 20
-8.758338999999999
 30
0.0
 11
-29.24599799999999
 21
-6.518341
 31
0.0
  0
LINE
  5
E7
330
1E
100
AcDbEntity
  8
MO_001_VIEW_PV
  6
C_CENTER_L
100
AcDbLine
 10
-4.252627999999999
 20
15.89999399999999
 30
0.0
 11
18.379303
 21
15.89999399999999
 31
0.0
  0
LINE
  5
E8
330
1E
100
AcDbEntity
  8
MO_001_VIEW_PV
  6
C_SOLID_M
100
AcDbLine
 10
0.0
 20
17.899994
 30
0.0
 11
17.0
 21
17.899994
 31
0.0
  0
LINE
  5
E9
330
1E
100
AcDbEntity
  8
MO_001_VIEW_PV
  6
C_SOLID_M
100
AcDbLine
 10
0.0
 20
13.89999399999999
 30
0.0
 11
17.0
 21
13.89999399999999
 31
0.0
  0
LINE
  5
EA
330
1E
100
AcDbEntity
  8
MO_001_VIEW_PV
  6
C_SOLID_M
100
AcDbLine
 10
17.700001
 20
17.19999699999999
 30
0.0
 11
17.700001
 21
14.600006
 31
0.0
  0
LINE
  5
EB
330
1E
100
AcDbEntity
  8
MO_001_VIEW_PV
  6
C_SOLID_M
100
AcDbLine
 10
17.0
 20
17.899994
 30
0.0
 11
17.0
 21
13.89999399999999
 31
0.0
  0
LINE
  5
EC
330
1E
100
AcDbEntity
  8
MO_001_VIEW_PV
  6
C_SOLID_M
100
AcDbLine
 10
0.0
 20
17.19999699999999
 30
0.0
 11
17.700001
 21
17.19999699999999
 31
0.0
  0
LINE
  5
ED
330
1E
100
AcDbEntity
  8
MO_001_VIEW_PV
  6
C_SOLID_M
100
AcDbLine
 10
0.0
 20
14.600006
 30
0.0
 11
17.700001
 21
14.600006
 31
0.0
  0
LINE
  5
EE
330
1E
100
AcDbEntity
  8
MO_001_VIEW_PV
  6
C_SOLID_M
100
AcDbLine
 10
16.99999599999999
 20
17.899997
 30
0.0
 11
17.699998
 21
17.199995
 31
0.0
  0
LINE
  5
EF
330
1E
100
AcDbEntity
  8
MO_001_VIEW_PV
  6
C_SOLID_M
100
AcDbLine
 10
17.699994
 20
14.59999899999999
 30
0.0
 11
16.999998
 21
13.900003
 31
0.0
  0
LINE
  5
F0
330
1E
100
AcDbEntity
  8
MO_001_VIEW_PV
  6
C_CENTER_L
100
AcDbLine
 10
-4.252627999999999
 20
-15.89999399999999
 30
0.0
 11
18.379303
 21
-15.89999399999999
 31
0.0
  0
LINE
  5
F1
330
1E
100
AcDbEntity
  8
MO_001_VIEW_PV
  6
C_SOLID_M
100
AcDbLine
 10
0.0
 20
-17.899994
 30
0.0
 11
17.0
 21
-17.899994
 31
0.0
  0
LINE
  5
F2
330
1E
100
AcDbEntity
  8
MO_001_VIEW_PV
  6
C_SOLID_M
100
AcDbLine
 10
0.0
 20
-13.89999399999999
 30
0.0
 11
17.0
 21
-13.89999399999999
 31
0.0
  0
LINE
  5
F3
330
1E
100
AcDbEntity
  8
MO_001_VIEW_PV
  6
C_SOLID_M
100
AcDbLine
 10
17.700001
 20
-17.19999699999999
 30
0.0
 11
17.700001
 21
-14.600006
 31
0.0
  0
LINE
  5
F4
330
1E
100
AcDbEntity
  8
MO_001_VIEW_PV
  6
C_SOLID_M
100
AcDbLine
 10
17.0
 20
-17.899994
 30
0.0
 11
17.0
 21
-13.89999399999999
 31
0.0
  0
LINE
  5
F5
330
1E
100
AcDbEntity
  8
MO_001_VIEW_PV
  6
C_SOLID_M
100
AcDbLine
 10
0.0
 20
-17.19999699999999
 30
0.0
 11
17.700001
 21
-17.19999699999999
 31
0.0
  0
LINE
  5
F6
330
1E
100
AcDbEntity
  8
MO_001_VIEW_PV
  6
C_SOLID_M
100
AcDbLine
 10
0.0
 20
-14.600006
 30
0.0
 11
17.700001
 21
-14.600006
 31
0.0
  0
LINE
  5
F7
330
1E
100
AcDbEntity
  8
MO_001_VIEW_PV
  6
C_SOLID_M
100
AcDbLine
 10
16.99999
 20
-17.899995
 30
0.0
 11
17.699987
 21
-17.199998
 31
0.0
  0
LINE
  5
F8
330
1E
100
AcDbEntity
  8
MO_001_VIEW_PV
  6
C_SOLID_M
100
AcDbLine
 10
17.7
 20
-14.599991
 30
0.0
 11
16.999992
 21
-13.899984
 31
0.0
  0
LINE
  5
F9
330
1E
100
AcDbEntity
  8
MO_001_VIEW_PV
  6
C_SOLID_M
100
AcDbLine
 10
4.354
 20
-3.175002999999999
 30
0.0
 11
13.05399799999999
 21
-3.175002999999999
 31
0.0
  0
LINE
  5
FA
330
1E
100
AcDbEntity
  8
MO_001_VIEW_PV
  6
C_SOLID_M
100
AcDbLine
 10
4.354
 20
1.974998
 30
0.0
 11
4.753998999999999
 21
1.974998
 31
0.0
  0
LINE
  5
FB
330
1E
100
AcDbEntity
  8
MO_001_VIEW_PV
  6
C_SOLID_M
100
AcDbLine
 10
0.0
 20
20.650002
 30
0.0
 11
0.0
 21
-20.650002
 31
0.0
  0
LINE
  5
FC
330
1E
100
AcDbEntity
  8
MO_001_VIEW_PV
  6
C_SOLID_M
100
AcDbLine
 10
2.599997999999999
 20
-9.419144000000001
 30
0.0
 11
2.599997999999999
 21
-10.050003
 31
0.0
  0
LINE
  5
FD
330
1E
100
AcDbEntity
  8
MO_001_VIEW_PV
  6
C_SOLID_M
100
AcDbLine
 10
0.4
 20
-9.419144000000001
 30
0.0
 11
2.599997999999999
 21
-9.419144000000001
 31
0.0
  0
LINE
  5
FE
330
1E
100
AcDbEntity
  8
MO_001_VIEW_PV
  6
C_SOLID_M
100
AcDbLine
 10
0.4
 20
-9.925735000000001
 30
0.0
 11
2.599997999999999
 21
-9.925735000000001
 31
0.0
  0
LINE
  5
FF
330
1E
100
AcDbEntity
  8
MO_001_VIEW_PV
  6
C_SOLID_M
100
AcDbLine
 10
0.4
 20
-10.050003
 30
0.0
 11
2.599997999999999
 21
-10.050003
 31
0.0
  0
ARC
  5
100
330
1E
100
AcDbEntity
  8
MO_001_VIEW_PV
  6
C_SOLID_M
100
AcDbCircle
 10
0.4
 20
-10.44999699999999
 30
0.0
 40
0.4
100
AcDbArc
 50
90.000002
 51
180.000005
  0
LINE
  5
101
330
1E
100
AcDbEntity
  8
MO_001_VIEW_PV
  6
C_SOLID_M
100
AcDbLine
 10
2.599997999999999
 20
4.151496999999999
 30
0.0
 11
2.599997999999999
 21
3.945144999999999
 31
0.0
  0
LINE
  5
102
330
1E
100
AcDbEntity
  8
MO_001_VIEW_PV
  6
C_SOLID_M
100
AcDbLine
 10
2.599997999999999
 20
9.565993999999999
 30
0.0
 11
2.599997999999999
 21
8.612250999999998
 31
0.0
  0
ARC
  5
103
330
1E
100
AcDbEntity
  8
MO_001_VIEW_PV
  6
C_SOLID_M
100
AcDbCircle
 10
0.4
 20
-10.325737
 30
0.0
 40
0.4
100
AcDbArc
 50
90.000002
 51
180.000005
  0
LINE
  5
104
330
1E
100
AcDbEntity
  8
MO_001_VIEW_PV
  6
C_SOLID_M
100
AcDbLine
 10
2.599997999999999
 20
-6.602767999999999
 30
0.0
 11
2.599997999999999
 21
-8.258995
 31
0.0
  0
ARC
  5
105
330
1E
100
AcDbEntity
  8
MO_001_VIEW_PV
  6
C_SOLID_M
100
AcDbCircle
 10
0.4
 20
-10.31914499999999
 30
0.0
 40
0.9
100
AcDbArc
 50
90.000002
 51
116.387776
  0
ARC
  5
106
330
1E
100
AcDbEntity
  8
MO_001_VIEW_PV
  6
C_SOLID_M
100
AcDbCircle
 10
2.0
 20
-0.772018
 30
0.0
 40
0.6
100
AcDbArc
 50
352.7935419999999
 51
113.924946
  0
ARC
  5
107
330
1E
100
AcDbEntity
  8
MO_001_VIEW_PV
  6
C_SOLID_M
100
AcDbCircle
 10
2.0
 20
-2.754051
 30
0.0
 40
0.6
100
AcDbArc
 50
246.0750539999999
 51
7.206458
  0
ARC
  5
108
330
1E
100
AcDbEntity
  8
MO_001_VIEW_PV
  6
C_SOLID_M
100
AcDbCircle
 10
2.0
 20
-0.684052
 30
0.0
 40
0.6
100
AcDbArc
 50
0.0
 51
113.924946
  0
ARC
  5
109
330
1E
100
AcDbEntity
  8
MO_001_VIEW_PV
  6
C_SOLID_M
100
AcDbCircle
 10
9.837593
 20
-1.763039
 30
0.0
 40
7.299999999999999
100
AcDbArc
 50
172.793541
 51
187.206456
  0
LINE
  5
10A
330
1E
100
AcDbEntity
  8
MO_001_VIEW_PV
  6
C_SOLID_M
100
AcDbLine
 10
2.599997999999999
 20
-0.684052
 30
0.0
 11
2.599997999999999
 21
-0.772018
 31
0.0
  0
ARC
  5
10B
330
1E
100
AcDbEntity
  8
MO_001_VIEW_PV
  6
C_SOLID_M
100
AcDbCircle
 10
2.0
 20
5.727294999999999
 30
0.0
 40
0.6
100
AcDbArc
 50
354.162398
 51
113.924946
  0
ARC
  5
10C
330
1E
100
AcDbEntity
  8
MO_001_VIEW_PV
  6
C_SOLID_M
100
AcDbCircle
 10
2.0
 20
4.120284999999999
 30
0.0
 40
0.6
100
AcDbArc
 50
246.0750539999999
 51
5.837601999999999
  0
ARC
  5
10D
330
1E
100
AcDbEntity
  8
MO_001_VIEW_PV
  6
C_SOLID_M
100
AcDbCircle
 10
2.0
 20
3.945144999999999
 30
0.0
 40
0.6
100
AcDbArc
 50
246.0750539999999
 51
0.0
  0
ARC
  5
10E
330
1E
100
AcDbEntity
  8
MO_001_VIEW_PV
  6
C_SOLID_M
100
AcDbCircle
 10
9.859032
 20
4.92379
 30
0.0
 40
7.299999999999999
100
AcDbArc
 50
174.1623929999999
 51
185.8376039999999
  0
ARC
  5
10F
330
1E
100
AcDbEntity
  8
MO_001_VIEW_PV
  6
C_SOLID_M
100
AcDbCircle
 10
1.006429999999999
 20
-4.993538
 30
0.0
 40
1.85
100
AcDbArc
 50
66.075052
 51
122.9574479999999
  0
ARC
  5
110
330
1E
100
AcDbEntity
  8
MO_001_VIEW_PV
  6
C_SOLID_M
100
AcDbCircle
 10
1.006429999999999
 20
1.467468
 30
0.0
 40
1.85
100
AcDbArc
 50
237.042552
 51
293.9249479999999
  0
ARC
  5
111
330
1E
100
AcDbEntity
  8
MO_001_VIEW_PV
  6
C_SOLID_M
100
AcDbCircle
 10
1.006429999999999
 20
7.966782000000001
 30
0.0
 40
1.85
100
AcDbArc
 50
237.042552
 51
293.9249479999999
  0
ARC
  5
112
330
1E
100
AcDbEntity
  8
MO_001_VIEW_PV
  6
C_SOLID_M
100
AcDbCircle
 10
1.006429999999999
 20
1.555435
 30
0.0
 40
1.85
100
AcDbArc
 50
237.042552
 51
293.9249479999999
  0
ARC
  5
113
330
1E
100
AcDbEntity
  8
MO_001_VIEW_PV
  6
C_SOLID_M
100
AcDbCircle
 10
1.006429999999999
 20
1.705665999999999
 30
0.0
 40
1.85
100
AcDbArc
 50
66.075052
 51
122.9574479999999
  0
ARC
  5
114
330
1E
100
AcDbEntity
  8
MO_001_VIEW_PV
  6
C_SOLID_M
100
AcDbCircle
 10
1.006429999999999
 20
1.880798
 30
0.0
 40
1.85
100
AcDbArc
 50
66.075052
 51
122.9574479999999
  0
ARC
  5
115
330
1E
100
AcDbEntity
  8
MO_001_VIEW_PV
  6
C_SOLID_M
100
AcDbCircle
 10
2.199997
 20
-8.258995
 30
0.0
 40
0.4
100
AcDbArc
 50
264.447662
 51
0.00001
  0
ARC
  5
116
330
1E
100
AcDbEntity
  8
MO_001_VIEW_PV
  6
C_SOLID_M
100
AcDbCircle
 10
2.199997
 20
-6.990844999999999
 30
0.0
 40
0.4
100
AcDbArc
 50
0.0
 51
95.55233800000001
  0
ARC
  5
117
330
1E
100
AcDbEntity
  8
MO_001_VIEW_PV
  6
C_SOLID_M
100
AcDbCircle
 10
2.199997
 20
-6.602767999999999
 30
0.0
 40
0.4
100
AcDbArc
 50
0.0
 51
95.55233800000001
  0
ARC
  5
118
330
1E
100
AcDbEntity
  8
MO_001_VIEW_PV
  6
C_SOLID_M
100
AcDbCircle
 10
1.006429999999999
 20
-11.55899
 30
0.0
 40
3.0
100
AcDbArc
 50
84.44765999999999
 51
109.6015179999999
  0
LINE
  5
119
330
1E
100
AcDbEntity
  8
MO_001_VIEW_PV
  6
C_SOLID_M
100
AcDbLine
 10
1.296691999999999
 20
-8.573071
 30
0.0
 11
2.161296
 21
-8.657119999999999
 31
0.0
  0
LINE
  5
11A
330
1E
100
AcDbEntity
  8
MO_001_VIEW_PV
  6
C_SOLID_M
100
AcDbLine
 10
1.296691999999999
 20
-6.676769999999999
 30
0.0
 11
2.161296
 21
-6.592721
 31
0.0
  0
ARC
  5
11B
330
1E
100
AcDbEntity
  8
MO_001_VIEW_PV
  6
C_SOLID_M
100
AcDbCircle
 10
1.006429999999999
 20
-3.302773
 30
0.0
 40
3.0
100
AcDbArc
 50
250.3984819999999
 51
275.55234
  0
LINE
  5
11C
330
1E
100
AcDbEntity
  8
MO_001_VIEW_PV
  6
C_SOLID_M
100
AcDbLine
 10
1.296691999999999
 20
-6.288695999999999
 30
0.0
 11
2.161294999999999
 21
-6.204647
 31
0.0
  0
ARC
  5
11D
330
1E
100
AcDbEntity
  8
MO_001_VIEW_PV
  6
C_SOLID_M
100
AcDbCircle
 10
1.006429999999999
 20
-3.690841999999999
 30
0.0
 40
3.0
100
AcDbArc
 50
250.3984819999999
 51
275.55234
  0
ARC
  5
11E
330
1E
100
AcDbEntity
  8
MO_001_VIEW_PV
  6
C_SOLID_M
100
AcDbCircle
 10
2.299999
 20
9.047447
 30
0.0
 40
0.3
100
AcDbArc
 50
269.999998
 51
0.0
  0
ARC
  5
11F
330
1E
100
AcDbEntity
  8
MO_001_VIEW_PV
  6
C_SOLID_M
100
AcDbCircle
 10
2.299999
 20
9.565993999999999
 30
0.0
 40
0.3
100
AcDbArc
 50
0.0
 51
92.377339
  0
ARC
  5
120
330
1E
100
AcDbEntity
  8
MO_001_VIEW_PV
  6
C_SOLID_M
100
AcDbCircle
 10
2.299999
 20
8.612250999999998
 30
0.0
 40
0.3
100
AcDbArc
 50
269.999998
 51
0.00001
  0
ARC
  5
121
330
1E
100
AcDbEntity
  8
MO_001_VIEW_PV
  6
C_SOLID_M
100
AcDbCircle
 10
1.006429999999999
 20
4.362251
 30
0.0
 40
4.0
100
AcDbArc
 50
87.62266000000002
 51
104.572648
  0
LINE
  5
122
330
1E
100
AcDbEntity
  8
MO_001_VIEW_PV
  6
C_SOLID_M
100
AcDbLine
 10
1.172352
 20
8.358807
 30
0.0
 11
2.287554999999999
 21
8.312507999999999
 31
0.0
  0
LINE
  5
123
330
1E
100
AcDbEntity
  8
MO_001_VIEW_PV
  6
C_SOLID_M
100
AcDbLine
 10
1.172352
 20
8.794003999999999
 30
0.0
 11
2.287555999999999
 21
8.747704999999999
 31
0.0
  0
ARC
  5
124
330
1E
100
AcDbEntity
  8
MO_001_VIEW_PV
  6
C_SOLID_M
100
AcDbCircle
 10
1.006429999999999
 20
4.797447
 30
0.0
 40
4.0
100
AcDbArc
 50
87.62266000000002
 51
104.572648
  0
LINE
  5
125
330
1E
100
AcDbEntity
  8
MO_001_VIEW_PV
  6
C_SOLID_M
100
AcDbLine
 10
1.172350999999999
 20
9.819437999999999
 30
0.0
 11
2.287554999999999
 21
9.865736999999999
 31
0.0
  0
ARC
  5
126
330
1E
100
AcDbEntity
  8
MO_001_VIEW_PV
  6
C_SOLID_M
100
AcDbCircle
 10
1.006429999999999
 20
13.815994
 30
0.0
 40
4.0
100
AcDbArc
 50
255.427352
 51
272.37734
  0
LINE
  5
127
330
1E
100
AcDbEntity
  8
MO_001_VIEW_PV
  6
C_SOLID_M
100
AcDbLine
 10
2.7
 20
9.550003
 30
0.0
 11
2.7
 21
-9.550003
 31
0.0
  0
LINE
  5
128
330
1E
100
AcDbEntity
  8
MO_001_VIEW_PV
  6
C_SOLID_M
100
AcDbLine
 10
2.599997999999999
 20
9.550003
 30
0.0
 11
2.7
 21
9.550003
 31
0.0
  0
LINE
  5
129
330
1E
100
AcDbEntity
  8
MO_001_VIEW_PV
  6
C_SOLID_M
100
AcDbLine
 10
2.599997999999999
 20
-9.550003
 30
0.0
 11
2.7
 21
-9.550003
 31
0.0
  0
LINE
  5
12A
330
1E
100
AcDbEntity
  8
MO_001_VIEW_PV
  6
C_SOLID_M
100
AcDbLine
 10
2.7
 20
-7.731256
 30
0.0
 11
3.067556
 21
-7.731281
 31
0.0
  0
LINE
  5
12B
330
1E
100
AcDbEntity
  8
MO_001_VIEW_PV
  6
C_SOLID_M
100
AcDbLine
 10
3.053509999999999
 20
-6.512519999999999
 30
0.0
 11
3.435112
 21
-6.512519999999999
 31
0.0
  0
LINE
  5
12C
330
1E
100
AcDbEntity
  8
MO_001_VIEW_PV
  6
C_SOLID_M
100
AcDbLine
 10
3.418754
 20
-5.293754999999999
 30
0.0
 11
3.802668
 21
-5.293754999999999
 31
0.0
  0
LINE
  5
12D
330
1E
100
AcDbEntity
  8
MO_001_VIEW_PV
  6
C_SOLID_M
100
AcDbLine
 10
3.783085999999999
 20
-4.075019999999999
 30
0.0
 11
4.354001
 21
-4.075019999999999
 31
0.0
  0
LINE
  5
12E
330
1E
100
AcDbEntity
  8
MO_001_VIEW_PV
  6
C_SOLID_M
100
AcDbLine
 10
2.7
 20
8.215005999999998
 30
0.0
 11
2.883777999999999
 21
8.21503
 31
0.0
  0
LINE
  5
12F
330
1E
100
AcDbEntity
  8
MO_001_VIEW_PV
  6
C_SOLID_M
100
AcDbLine
 10
2.895706
 20
7.180007999999999
 30
0.0
 11
3.251333
 21
7.180007999999999
 31
0.0
  0
LINE
  5
130
330
1E
100
AcDbEntity
  8
MO_001_VIEW_PV
  6
C_SOLID_M
100
AcDbLine
 10
3.265225
 20
6.145012
 30
0.0
 11
3.618888999999999
 21
6.145012
 31
0.0
  0
LINE
  5
131
330
1E
100
AcDbEntity
  8
MO_001_VIEW_PV
  6
C_SOLID_M
100
AcDbLine
 10
3.635518
 20
5.110016
 30
0.0
 11
3.986444999999999
 21
5.110016
 31
0.0
  0
LINE
  5
132
330
1E
100
AcDbEntity
  8
MO_001_VIEW_PV
  6
C_SOLID_M
100
AcDbLine
 10
4.007153999999999
 20
4.075019999999999
 30
0.0
 11
4.354001
 21
4.075019999999999
 31
0.0
  0
LINE
  5
133
330
1E
100
AcDbEntity
  8
MO_001_VIEW_PV
  6
C_SOLID_M
100
AcDbLine
 10
4.354001
 20
-4.075019999999999
 30
0.0
 11
4.354001
 21
4.075019999999999
 31
0.0
  0
LINE
  5
134
330
1E
100
AcDbEntity
  8
MO_001_VIEW_PV
  6
C_SOLID_M
100
AcDbLine
 10
4.170226
 20
-4.074991999999999
 30
0.0
 11
3.986447
 21
5.110036
 31
0.0
  0
LINE
  5
135
330
1E
100
AcDbEntity
  8
MO_001_VIEW_PV
  6
C_SOLID_M
100
AcDbLine
 10
3.618887999999999
 20
6.145001999999999
 30
0.0
 11
3.802666
 21
-5.293768
 31
0.0
  0
LINE
  5
136
330
1E
100
AcDbEntity
  8
MO_001_VIEW_PV
  6
C_SOLID_M
100
AcDbLine
 10
3.435109999999999
 20
-6.512538
 30
0.0
 11
3.251332
 21
7.179983999999999
 31
0.0
  0
LINE
  5
137
330
1E
100
AcDbEntity
  8
MO_001_VIEW_PV
  6
C_SOLID_M
100
AcDbLine
 10
2.883777
 20
8.215019999999999
 30
0.0
 11
3.067556
 21
-7.731271
 31
0.0
  0
LINE
  5
138
330
1E
100
AcDbEntity
  8
MO_001_VIEW_PV
  6
C_SOLID_M
100
AcDbLine
 10
-0.5
 20
-20.650002
 30
0.0
 11
0.0
 21
-20.650002
 31
0.0
  0
LINE
  5
139
330
1E
100
AcDbEntity
  8
MO_001_VIEW_PV
  6
C_SOLID_M
100
AcDbLine
 10
-0.5
 20
20.650002
 30
0.0
 11
0.0
 21
20.650002
 31
0.0
  0
ARC
  5
13A
330
1E
100
AcDbEntity
  8
MO_001_VIEW_PV
  6
C_SOLID_M
100
AcDbCircle
 10
-21.10000199999999
 20
-19.850006
 30
0.0
 40
4.2
100
AcDbArc
 50
180.000036
 51
211.225748
  0
LINE
  5
13B
330
1E
100
AcDbEntity
  8
MO_001_VIEW_PV
  6
C_SOLID_M
100
AcDbLine
 10
-31.188793
 20
-28.52457499999999
 30
0.0
 11
-24.219832
 21
-21.555615
 31
0.0
  0
LINE
  5
13C
330
1E
100
AcDbEntity
  8
MO_001_VIEW_PV
  6
C_SOLID_M
100
AcDbLine
 10
-29.774579
 20
-29.938789
 30
0.0
 11
-22.80562199999999
 21
-22.96983099999999
 31
0.0
  0
LINE
  5
13D
330
1E
100
AcDbEntity
  8
MO_001_VIEW_PV
  6
C_SOLID_M
100
AcDbLine
 10
-29.774579
 20
-29.938789
 30
0.0
 11
-31.188793
 21
-28.52457499999999
 31
0.0
  0
LINE
  5
13E
330
1E
100
AcDbEntity
  8
MO_001_VIEW_PV
  6
C_SOLID_M
100
AcDbLine
 10
-34.58290499999999
 20
-32.201526
 30
0.0
 11
-31.04737399999999
 21
-28.665994
 31
0.0
  0
LINE
  5
13F
330
1E
100
AcDbEntity
  8
MO_001_VIEW_PV
  6
C_SOLID_M
100
AcDbLine
 10
-33.451535
 20
-33.332895
 30
0.0
 11
-29.91600399999999
 21
-29.797364
 31
0.0
  0
ARC
  5
140
330
1E
100
AcDbEntity
  8
MO_001_VIEW_PV
  6
C_SOLID_M
100
AcDbCircle
 10
-34.512196
 20
-32.696503
 30
0.0
 40
0.499994
100
AcDbArc
 50
351.869635
 51
98.13037299999999
  0
ARC
  5
141
330
1E
100
AcDbEntity
  8
MO_001_VIEW_PV
  6
C_SOLID_M
100
AcDbCircle
 10
-34.08794
 20
-32.272247
 30
0.0
 40
0.499994
100
AcDbArc
 50
171.869621
 51
278.130385
  0
ARC
  5
142
330
1E
100
AcDbEntity
  8
MO_001_VIEW_PV
  6
C_SOLID_M
100
AcDbCircle
 10
-33.522259
 20
-32.837921
 30
0.0
 40
0.499994
100
AcDbArc
 50
171.869621
 51
278.1303569999999
  0
ARC
  5
143
330
1E
100
AcDbEntity
  8
MO_001_VIEW_PV
  6
C_SOLID_M
100
AcDbCircle
 10
-26.397175
 20
-25.14715799999999
 30
0.0
 40
4.2
100
AcDbArc
 50
18.103307
 51
71.896456
  0
ARC
  5
144
330
1E
100
AcDbEntity
  8
MO_001_VIEW_PV
  6
C_SOLID_M
100
AcDbCircle
 10
-21.10000199999999
 20
-19.850006
 30
0.0
 40
4.2
100
AcDbArc
 50
238.774046
 51
270.0000249999999
  0
LINE
  5
145
330
1E
100
AcDbEntity
  8
MO_001_VIEW_PV
  6
C_SOLID_M
100
AcDbLine
 10
72.94999699999999
 20
-32.44633499999999
 30
0.0
 11
72.94999699999999
 21
-23.023905
 31
0.0
  0
LINE
  5
146
330
1E
100
AcDbEntity
  8
MO_001_VIEW_PV
  6
C_SOLID_M
100
AcDbLine
 10
74.949997
 20
-32.44633499999999
 30
0.0
 11
74.949997
 21
-22.322639
 31
0.0
  0
LINE
  5
147
330
1E
100
AcDbEntity
  8
MO_001_VIEW_PV
  6
C_SOLID_M
100
AcDbLine
 10
74.949997
 20
-32.44633499999999
 30
0.0
 11
72.94999699999999
 21
-32.44633499999999
 31
0.0
  0
LINE
  5
148
330
1E
100
AcDbEntity
  8
MO_001_VIEW_PV
  6
C_SOLID_M
100
AcDbLine
 10
57.249992
 20
-37.44633499999999
 30
0.0
 11
57.249992
 21
-32.44633499999999
 31
0.0
  0
LINE
  5
149
330
1E
100
AcDbEntity
  8
MO_001_VIEW_PV
  6
C_SOLID_M
100
AcDbLine
 10
58.849998
 20
-37.44633499999999
 30
0.0
 11
58.849998
 21
-32.44633499999999
 31
0.0
  0
LINE
  5
14A
330
1E
100
AcDbEntity
  8
MO_001_VIEW_PV
  6
C_SOLID_M
100
AcDbLine
 10
59.04999499999999
 20
-32.44633499999999
 30
0.0
 11
59.04999499999999
 21
-23.023905
 31
0.0
  0
LINE
  5
14B
330
1E
100
AcDbEntity
  8
MO_001_VIEW_PV
  6
C_SOLID_M
100
AcDbLine
 10
57.04999499999999
 20
-32.44633499999999
 30
0.0
 11
57.04999499999999
 21
-22.322639
 31
0.0
  0
LINE
  5
14C
330
1E
100
AcDbEntity
  8
MO_001_VIEW_PV
  6
C_SOLID_M
100
AcDbLine
 10
57.04999499999999
 20
-32.44633499999999
 30
0.0
 11
59.04999499999999
 21
-32.44633499999999
 31
0.0
  0
LINE
  5
14D
330
1E
100
AcDbEntity
  8
MO_001_VIEW_PV
  6
C_SOLID_M
100
AcDbLine
 10
58.849998
 20
-41.946335
 30
0.0
 11
58.849998
 21
-38.446335
 31
0.0
  0
LINE
  5
14E
330
1E
100
AcDbEntity
  8
MO_001_VIEW_PV
  6
C_SOLID_M
100
AcDbLine
 10
57.249992
 20
-41.946335
 30
0.0
 11
57.249992
 21
-38.446335
 31
0.0
  0
LINE
  5
14F
330
1E
100
AcDbEntity
  8
MO_001_VIEW_PV
  6
C_SOLID_M
100
AcDbLine
 10
57.249992
 20
-41.946335
 30
0.0
 11
58.849998
 21
-41.946335
 31
0.0
  0
LINE
  5
150
330
1E
100
AcDbEntity
  8
MO_001_VIEW_PV
  6
C_SOLID_M
100
AcDbLine
 10
58.323967
 20
-41.946335
 30
0.0
 11
58.323967
 21
-46.946335
 31
0.0
  0
LINE
  5
151
330
1E
100
AcDbEntity
  8
MO_001_VIEW_PV
  6
C_SOLID_M
100
AcDbLine
 10
57.776024
 20
-41.946335
 30
0.0
 11
57.776024
 21
-46.946335
 31
0.0
  0
LINE
  5
152
330
1E
100
AcDbEntity
  8
MO_001_VIEW_PV
  6
C_SOLID_M
100
AcDbLine
 10
57.776024
 20
-46.946335
 30
0.0
 11
58.323967
 21
-46.946335
 31
0.0
  0
ARC
  5
153
330
1E
100
AcDbEntity
  8
MO_001_VIEW_PV
  6
C_SOLID_M
100
AcDbCircle
 10
57.649986
 20
-37.74633
 30
0.0
 40
0.499994
100
AcDbArc
 50
36.869634
 51
143.1303709999999
  0
ARC
  5
154
330
1E
100
AcDbEntity
  8
MO_001_VIEW_PV
  6
C_SOLID_M
100
AcDbCircle
 10
57.649986
 20
-37.146339
 30
0.0
 40
0.499994
100
AcDbArc
 50
216.869629
 51
323.1303759999999
  0
ARC
  5
155
330
1E
100
AcDbEntity
  8
MO_001_VIEW_PV
  6
C_SOLID_M
100
AcDbCircle
 10
58.449989
 20
-37.146339
 30
0.0
 40
0.499994
100
AcDbArc
 50
216.869629
 51
323.1303689999999
  0
ARC
  5
156
330
1E
100
AcDbEntity
  8
MO_001_VIEW_PV
  6
C_SOLID_M
100
AcDbCircle
 10
58.449989
 20
-38.146339
 30
0.0
 40
0.499994
100
AcDbArc
 50
216.869643
 51
323.1303759999999
  0
ARC
  5
157
330
1E
100
AcDbEntity
  8
MO_001_VIEW_PV
  6
C_SOLID_M
100
AcDbCircle
 10
58.449989
 20
-38.74633
 30
0.0
 40
0.499994
100
AcDbArc
 50
36.86963099999999
 51
143.1303709999999
  0
ARC
  5
158
330
1E
100
AcDbEntity
  8
MO_001_VIEW_PV
  6
C_SOLID_M
100
AcDbCircle
 10
57.649986
 20
-38.74633
 30
0.0
 40
0.499994
100
AcDbArc
 50
36.86963099999999
 51
143.1303709999999
  0
LINE
  5
159
330
1E
100
AcDbEntity
  8
MO_001_VIEW_PV
  6
C_SOLID_M
100
AcDbLine
 10
73.14999399999999
 20
-37.44633499999999
 30
0.0
 11
73.14999399999999
 21
-32.44633499999999
 31
0.0
  0
LINE
  5
15A
330
1E
100
AcDbEntity
  8
MO_001_VIEW_PV
  6
C_SOLID_M
100
AcDbLine
 10
74.74998499999999
 20
-37.44633499999999
 30
0.0
 11
74.74998499999999
 21
-32.44633499999999
 31
0.0
  0
LINE
  5
15B
330
1E
100
AcDbEntity
  8
MO_001_VIEW_PV
  6
C_SOLID_M
100
AcDbLine
 10
74.74998499999999
 20
-41.946335
 30
0.0
 11
74.74998499999999
 21
-38.446335
 31
0.0
  0
LINE
  5
15C
330
1E
100
AcDbEntity
  8
MO_001_VIEW_PV
  6
C_SOLID_M
100
AcDbLine
 10
73.14999399999999
 20
-41.946335
 30
0.0
 11
73.14999399999999
 21
-38.446335
 31
0.0
  0
LINE
  5
15D
330
1E
100
AcDbEntity
  8
MO_001_VIEW_PV
  6
C_SOLID_M
100
AcDbLine
 10
73.14999399999999
 20
-41.946335
 30
0.0
 11
74.74998499999999
 21
-41.946335
 31
0.0
  0
LINE
  5
15E
330
1E
100
AcDbEntity
  8
MO_001_VIEW_PV
  6
C_SOLID_M
100
AcDbLine
 10
74.22396899999999
 20
-41.946335
 30
0.0
 11
74.22396899999999
 21
-46.946335
 31
0.0
  0
LINE
  5
15F
330
1E
100
AcDbEntity
  8
MO_001_VIEW_PV
  6
C_SOLID_M
100
AcDbLine
 10
73.67600999999999
 20
-41.946335
 30
0.0
 11
73.67600999999999
 21
-46.946335
 31
0.0
  0
LINE
  5
160
330
1E
100
AcDbEntity
  8
MO_001_VIEW_PV
  6
C_SOLID_M
100
AcDbLine
 10
73.67600999999999
 20
-46.946335
 30
0.0
 11
74.22396899999999
 21
-46.946335
 31
0.0
  0
ARC
  5
161
330
1E
100
AcDbEntity
  8
MO_001_VIEW_PV
  6
C_SOLID_M
100
AcDbCircle
 10
73.549988
 20
-37.74633
 30
0.0
 40
0.499994
100
AcDbArc
 50
36.869634
 51
143.1303709999999
  0
ARC
  5
162
330
1E
100
AcDbEntity
  8
MO_001_VIEW_PV
  6
C_SOLID_M
100
AcDbCircle
 10
73.549988
 20
-37.146339
 30
0.0
 40
0.499994
100
AcDbArc
 50
216.869629
 51
323.1303759999999
  0
ARC
  5
163
330
1E
100
AcDbEntity
  8
MO_001_VIEW_PV
  6
C_SOLID_M
100
AcDbCircle
 10
74.349991
 20
-37.146339
 30
0.0
 40
0.499994
100
AcDbArc
 50
216.869629
 51
323.1303689999999
  0
ARC
  5
164
330
1E
100
AcDbEntity
  8
MO_001_VIEW_PV
  6
C_SOLID_M
100
AcDbCircle
 10
74.349991
 20
-38.146339
 30
0.0
 40
0.499994
100
AcDbArc
 50
216.869643
 51
323.1303759999999
  0
ARC
  5
165
330
1E
100
AcDbEntity
  8
MO_001_VIEW_PV
  6
C_SOLID_M
100
AcDbCircle
 10
74.349991
 20
-38.74633
 30
0.0
 40
0.499994
100
AcDbArc
 50
36.86963099999999
 51
143.1303709999999
  0
ARC
  5
166
330
1E
100
AcDbEntity
  8
MO_001_VIEW_PV
  6
C_SOLID_M
100
AcDbCircle
 10
73.549988
 20
-38.74633
 30
0.0
 40
0.499994
100
AcDbArc
 50
36.86963099999999
 51
143.1303709999999
  0
LINE
  5
167
330
1E
100
AcDbEntity
  8
MO_001_VIEW_PV
  6
C_SOLID_L
100
AcDbLine
 10
-13.600006
 20
-40.0
 30
0.0
 11
21.636139
 21
-40.0
 31
0.0
  0
TEXT
  5
168
330
1E
100
AcDbEntity
  8
MO_001_VIEW_PV
  6
C_SOLID_L
100
AcDbText
 10
-28.488281
 20
-59.083594
 30
0.0
 40
4.167187
  1
5E X3・X4・X9付
100
AcDbText
  0
TEXT
  5
169
330
1E
100
AcDbEntity
  8
MO_001_VIEW_PV
  6
C_SOLID_L
100
AcDbText
 10
103.4999999999999
 20
-22.071429
 30
0.0
 40
3.0
  1
(UL1430 AWG22)
 50
90.0
100
AcDbText
  0
TEXT
  5
16A
330
1E
100
AcDbEntity
  8
MO_001_VIEW_PV
  6
C_SOLID_L
100
AcDbText
 10
-7.208524999999999
 20
-39.01954299999999
 30
0.0
 40
3.0
  1
2-M4 P0.7
100
AcDbText
  0
TEXT
  5
16B
330
1E
100
AcDbEntity
  8
MO_001_VIEW_PV
  6
C_SOLID_L
100
AcDbText
 10
67.511719
 20
-65.08359399999999
 30
0.0
 40
4.167187
  1
単位：mm
100
AcDbText
  0
TEXT
  5
16C
330
1E
100
AcDbEntity
  8
MO_001_VIEW_PV
  6
C_SOLID_L
100
AcDbText
 10
67.511719
 20
-71.33437499999999
 30
0.0
 40
4.167187
  1
無励磁時
100
AcDbText
  0
DIMENSION
  5
16E
330
1E
100
AcDbEntity
  8
MO_001_VIEW_PV
  6
C_SOLID_M
100
AcDbDimension
  2
*D0
 10
-21.07299999999999
 20
42.0
 30
0.0
 11
-21.07299999999999
 21
42.0
 31
0.0
  3
STANDARD
100
AcDbAlignedDimension
 13
0.0
 23
20.650002
 33
0.0
 14
-42.14599999999999
 24
3.029411
 34
0.0
100
AcDbRotatedDimension
  0
DIMENSION
  5
170
330
1E
100
AcDbEntity
  8
MO_001_VIEW_PV
  6
C_SOLID_M
100
AcDbDimension
  2
*D1
 10
-15.323001
 20
36.0
 30
0.0
 11
-15.323001
 21
36.0
 31
0.0
  1
31.5以下
  3
STANDARD
100
AcDbAlignedDimension
 13
-30.646002
 23
10.741814
 33
0.0
 14
0.0
 24
20.650002
 34
0.0
100
AcDbRotatedDimension
  0
DIMENSION
  5
172
330
1E
100
AcDbEntity
  8
MO_001_VIEW_PV
  6
C_SOLID_M
100
AcDbDimension
  2
*D2
 10
-41.625252
 20
30.0
 30
0.0
 11
-41.625252
 21
30.0
 31
0.0
  3
STANDARD
100
AcDbAlignedDimension
 13
-30.646002
 23
10.741814
 33
0.0
 14
-28.84599899999999
 24
20.650002
 34
0.0
100
AcDbRotatedDimension
  0
DIMENSION
  5
174
330
1E
100
AcDbEntity
  8
MO_001_VIEW_PV
  6
C_SOLID_M
100
AcDbDimension
  2
*D3
 10
-14.697643
 20
30.0
 30
0.0
 11
-14.697643
 21
30.0
 31
0.0
  3
STANDARD
100
AcDbAlignedDimension
 13
-26.845999
 23
20.650002
 33
0.0
 14
-28.84599899999999
 24
20.650002
 34
0.0
100
AcDbRotatedDimension
  0
DIMENSION
  5
176
330
1E
100
AcDbEntity
  8
MO_001_VIEW_PV
  6
C_SOLID_M
100
AcDbDimension
  2
*D4
 10
29.776348
 20
36.0
 30
0.0
 11
29.776348
 21
36.0
 31
0.0
  3
STANDARD
100
AcDbAlignedDimension
 13
17.700001
 23
17.19999699999999
 33
0.0
 14
0.0
 24
20.650002
 34
0.0
100
AcDbRotatedDimension
  0
DIMENSION
  5
178
330
1E
100
AcDbEntity
  8
MO_001_VIEW_PV
  6
C_SOLID_M
100
AcDbDimension
  2
*D5
 10
26.128086
 20
42.0
 30
0.0
 11
26.128086
 21
42.0
 31
0.0
  3
STANDARD
100
AcDbAlignedDimension
 13
13.354
 23
2.875
 33
0.0
 14
0.0
 24
20.650002
 34
0.0
100
AcDbRotatedDimension
  0
DIMENSION
  5
17A
330
1E
100
AcDbEntity
  8
MO_001_VIEW_PV
  6
C_SOLID_M
100
AcDbDimension
  2
*D6
 10
25.259457
 20
-32.0
 30
0.0
 11
25.259457
 21
-32.0
 31
0.0
  1
8.6以上
  3
STANDARD
100
AcDbAlignedDimension
 13
4.754001
 23
1.974998
 33
0.0
 14
13.354
 24
-2.875
 34
0.0
100
AcDbRotatedDimension
  0
DIMENSION
  5
17C
330
1E
100
AcDbEntity
  8
MO_001_VIEW_PV
  6
C_SOLID_M
100
AcDbDimension
  2
*D7
 10
27.0
 20
18.0
 30
0.0
 11
27.0
 21
18.0
 31
0.0
  3
STANDARD
100
AcDbAlignedDimension
 13
13.054
 23
3.175002999999999
 33
0.0
 14
13.05399799999999
 24
-3.175002999999999
 34
0.0
 50
89.999523
100
AcDbRotatedDimension
  0
DIMENSION
  5
17E
330
1E
100
AcDbEntity
  8
MO_001_VIEW_PV
  6
C_SOLID_M
100
AcDbDimension
  2
*D8
 10
66.0
 20
42.0
 30
0.0
 11
66.0
 21
42.0
 31
0.0
  1
%%C49以下
  3
STANDARD
100
AcDbAlignedDimension
 13
90.049995
 23
0.0
 33
0.0
 14
41.94999699999999
 24
0.0
 34
0.0
100
AcDbRotatedDimension
  0
DIMENSION
  5
180
330
1E
100
AcDbEntity
  8
MO_001_VIEW_PV
  6
C_SOLID_M
100
AcDbDimension
  2
*D9
 10
66.0
 20
36.0
 30
0.0
 11
66.0
 21
36.0
 31
0.0
  1
%%C22以下
  3
STANDARD
100
AcDbAlignedDimension
 13
76.050003
 23
0.0
 33
0.0
 14
55.94999699999999
 24
0.0
 34
0.0
100
AcDbRotatedDimension
  0
DIMENSION
  5
182
330
1E
100
AcDbEntity
  8
MO_001_VIEW_PV
  6
C_SOLID_M
100
AcDbDimension
  2
*D10
 10
36.0
 20
0.0
 30
0.0
 11
36.0
 21
0.0
 31
0.0
  3
STANDARD
100
AcDbAlignedDimension
 13
62.0
 23
-15.90000199999999
 33
0.0
 14
62.0
 24
15.90000199999999
 34
0.0
 50
89.999523
100
AcDbRotatedDimension
  0
DIMENSION
  5
184
330
1E
100
AcDbEntity
  8
MO_001_VIEW_PV
  6
C_SOLID_M
100
AcDbDimension
  2
*D11
 10
99.0
 20
6.901614999999999
 30
0.0
 11
99.0
 21
6.901614999999999
 31
0.0
  1
長さ250以上
  3
STANDARD
100
AcDbAlignedDimension
 13
74.949997
 23
-22.322639
 33
0.0
 14
74.22396899999999
 24
-46.946335
 34
0.0
 50
89.999523
100
AcDbRotatedDimension
  0
LINE
  5
185
330
1E
100
AcDbEntity
  8
MO_001_VIEW_PV
  6
C_SOLID_L
100
AcDbLine
 10
8.499999
 20
-17.89999299999999
 30
0.0
 11
-13.600007
 21
-39.999999
 31
0.0
  0
POLYLINE
  5
186
330
1E
100
AcDbEntity
  8
MO_001_VIEW_PV
  6
C_SOLID_L
100
AcDb2dPolyline
 66
     1
 10
0.0
 20
0.0
 30
0.0
 70
     1
  0
VERTEX
  5
214
330
186
100
AcDbEntity
  8
MO_001_VIEW_PV
  6
C_SOLID_L
100
AcDbVertex
100
AcDb2dVertex
 10
6.566239999999999
 20
-20.658962
 30
0.0
  0
VERTEX
  5
215
330
186
100
AcDbEntity
  8
MO_001_VIEW_PV
  6
C_SOLID_L
100
AcDbVertex
100
AcDb2dVertex
 10
8.140788999999999
 20
-18.25920299999999
 30
0.0
  0
VERTEX
  5
216
330
186
100
AcDbEntity
  8
MO_001_VIEW_PV
  6
C_SOLID_L
100
AcDbVertex
100
AcDb2dVertex
 10
5.74103
 20
-19.833752
 30
0.0
  0
SEQEND
  5
217
330
186
100
AcDbEntity
  8
MO_001_VIEW_PV
  6
C_SOLID_L
  0
ENDSEC
  0
SECTION
  2
OBJECTS
  0
DICTIONARY
  5
1A
330
0
100
AcDbDictionary
  3
ACAD_GROUP
350
1B
  3
ACAD_MLINESTYLE
350
1C
  3
ACAD_LAYOUT
350
20A
  3
ACAD_PLOTSETTINGS
350
20B
1001
ACAD
1000
TREAT_AS_HARD
1070
     0
  0
DICTIONARY
  5
210
330
1E
100
AcDbDictionary
  3
ACAD_LAYOUTSELFREF
350
211
  0
DICTIONARY
  5
212
330
1F
100
AcDbDictionary
  3
ACAD_LAYOUTSELFREF
350
213
  0
DICTIONARY
  5
1B
102
{ACAD_REACTORS
330
1A
102
}
330
1A
100
AcDbDictionary
1001
ACAD
1000
TREAT_AS_HARD
1070
     0
  0
DICTIONARY
  5
1C
102
{ACAD_REACTORS
330
1A
102
}
330
1A
100
AcDbDictionary
  3
STANDARD
350
1D
1001
ACAD
1000
TREAT_AS_HARD
1070
     0
  0
DICTIONARY
  5
20A
102
{ACAD_REACTORS
330
1A
102
}
330
1A
100
AcDbDictionary
1001
ACAD
1000
TREAT_AS_HARD
1070
     0
  0
DICTIONARY
  5
20B
102
{ACAD_REACTORS
330
1A
102
}
330
1A
100
AcDbDictionary
1001
ACAD
1000
TREAT_AS_HARD
1070
     0
  0
XRECORD
  5
211
102
{ACAD_REACTORS
330
210
102
}
330
210
100
AcDbXrecord
340
1E
  0
XRECORD
  5
213
102
{ACAD_REACTORS
330
212
102
}
330
212
100
AcDbXrecord
340
1F
  0
MLINESTYLE
  5
1D
102
{ACAD_REACTORS
330
1C
102
}
330
1C
100
AcDbMlineStyle
  2
STANDARD
 70
     0
  3

 62
     0
 51
90.0
 52
90.0
 71
     2
 49
0.5
 62
   256
  6
BYLAYER
 49
-0.5
 62
   256
  6
BYLAYER
  0
ENDSEC
  0
EOF
