  0
SECTION
  2
HEADER
  9
$ACADVER
  1
AC1012
  9
$DWGCODEPAGE
  3
dos932
  9
$INSBASE
 10
0.0
 20
0.0
 30
0.0
  9
$EXTMIN
 10
-40.04830552081313
 20
-70.23949660653085
 30
-0.0015258207003583
  9
$EXTMAX
 10
45.79145970498808
 20
40.13578349884284
 30
0.0000000349246037
  9
$LIMMIN
 10
-97.80000300000001
 20
-123.546501
  9
$LIMMAX
 10
44.81870299999999
 20
42.0
  9
$ORTHOMODE
 70
     0
  9
$REGENMODE
 70
     1
  9
$FILLMODE
 70
     1
  9
$QTEXTMODE
 70
     0
  9
$MIRRTEXT
 70
     1
  9
$DRAGMODE
 70
     2
  9
$LTSCALE
 40
1.0
  9
$OSMODE
 70
    37
  9
$ATTMODE
 70
     1
  9
$TEXTSIZE
 40
4.1672
  9
$TRACEWID
 40
0.05
  9
$TEXTSTYLE
  7
STANDARD
  9
$CLAYER
  8
0
  9
$CELTYPE
  6
CONTINUOUS
  9
$CECOLOR
 62
   256
  9
$CELTSCALE
 40
1.0
  9
$DELOBJ
 70
     1
  9
$DISPSILH
 70
     0
  9
$DIMSCALE
 40
1.0
  9
$DIMASZ
 40
0.18
  9
$DIMEXO
 40
0.0625
  9
$DIMDLI
 40
0.38
  9
$DIMRND
 40
0.0
  9
$DIMDLE
 40
0.0
  9
$DIMEXE
 40
0.18
  9
$DIMTP
 40
0.0
  9
$DIMTM
 40
0.0
  9
$DIMTXT
 40
0.18
  9
$DIMCEN
 40
0.09
  9
$DIMTSZ
 40
0.0
  9
$DIMTOL
 70
     0
  9
$DIMLIM
 70
     0
  9
$DIMTIH
 70
     1
  9
$DIMTOH
 70
     1
  9
$DIMSE1
 70
     0
  9
$DIMSE2
 70
     0
  9
$DIMTAD
 70
     0
  9
$DIMZIN
 70
     0
  9
$DIMBLK
  1

  9
$DIMASO
 70
     1
  9
$DIMSHO
 70
     1
  9
$DIMPOST
  1

  9
$DIMAPOST
  1

  9
$DIMALT
 70
     0
  9
$DIMALTD
 70
     2
  9
$DIMALTF
 40
25.4
  9
$DIMLFAC
 40
1.0
  9
$DIMTOFL
 70
     0
  9
$DIMTVP
 40
0.0
  9
$DIMTIX
 70
     0
  9
$DIMSOXD
 70
     0
  9
$DIMSAH
 70
     0
  9
$DIMBLK1
  1

  9
$DIMBLK2
  1

  9
$DIMSTYLE
  2
STANDARD
  9
$DIMCLRD
 70
     0
  9
$DIMCLRE
 70
     0
  9
$DIMCLRT
 70
     0
  9
$DIMTFAC
 40
1.0
  9
$DIMGAP
 40
0.09
  9
$DIMJUST
 70
     0
  9
$DIMSD1
 70
     0
  9
$DIMSD2
 70
     0
  9
$DIMTOLJ
 70
     1
  9
$DIMTZIN
 70
     0
  9
$DIMALTZ
 70
     0
  9
$DIMALTTZ
 70
     0
  9
$DIMFIT
 70
     3
  9
$DIMUPT
 70
     0
  9
$DIMUNIT
 70
     2
  9
$DIMDEC
 70
     4
  9
$DIMTDEC
 70
     4
  9
$DIMALTU
 70
     2
  9
$DIMALTTD
 70
     2
  9
$DIMTXSTY
  7
STANDARD
  9
$DIMAUNIT
 70
     0
  9
$LUNITS
 70
     2
  9
$LUPREC
 70
     6
  9
$SKETCHINC
 40
0.1
  9
$FILLETRAD
 40
0.0
  9
$AUNITS
 70
     0
  9
$AUPREC
 70
     4
  9
$MENU
  1
acad
  9
$ELEVATION
 40
0.0
  9
$PELEVATION
 40
0.0
  9
$THICKNESS
 40
0.0
  9
$LIMCHECK
 70
     0
  9
$BLIPMODE
 70
     0
  9
$CHAMFERA
 40
0.0
  9
$CHAMFERB
 40
0.0
  9
$CHAMFERC
 40
0.0
  9
$CHAMFERD
 40
0.0
  9
$SKPOLY
 70
     0
  9
$TDCREATE
 40
2376123.569090127
  9
$TDUPDATE
 40
2451687.696263888
  9
$TDINDWG
 40
0.0009370370
  9
$TDUSRTIMER
 40
0.0009370370
  9
$USRTIMER
 70
     1
  9
$ANGBASE
 50
0.0
  9
$ANGDIR
 70
     0
  9
$PDMODE
 70
     0
  9
$PDSIZE
 40
0.0
  9
$PLINEWID
 40
0.0
  9
$COORDS
 70
     1
  9
$SPLFRAME
 70
     0
  9
$SPLINETYPE
 70
     6
  9
$SPLINESEGS
 70
     8
  9
$ATTDIA
 70
     0
  9
$ATTREQ
 70
     1
  9
$HANDLING
 70
 10241
  9
$HANDSEED
  5
14C
  9
$SURFTAB1
 70
     6
  9
$SURFTAB2
 70
     6
  9
$SURFTYPE
 70
     6
  9
$SURFU
 70
     6
  9
$SURFV
 70
     6
  9
$UCSNAME
  2

  9
$UCSORG
 10
0.007002
 20
0.0
 30
0.0
  9
$UCSXDIR
 10
1.0
 20
0.0
 30
0.0
  9
$UCSYDIR
 10
0.0
 20
1.0
 30
0.0
  9
$PUCSNAME
  2

  9
$PUCSORG
 10
0.0
 20
0.0
 30
0.0
  9
$PUCSXDIR
 10
1.0
 20
0.0
 30
0.0
  9
$PUCSYDIR
 10
0.0
 20
1.0
 30
0.0
  9
$USERI1
 70
     0
  9
$USERI2
 70
     0
  9
$USERI3
 70
     0
  9
$USERI4
 70
     0
  9
$USERI5
 70
     0
  9
$USERR1
 40
0.0
  9
$USERR2
 40
0.0
  9
$USERR3
 40
0.0
  9
$USERR4
 40
0.0
  9
$USERR5
 40
0.0
  9
$WORLDVIEW
 70
     1
  9
$SHADEDGE
 70
     3
  9
$SHADEDIF
 70
    70
  9
$TILEMODE
 70
     1
  9
$MAXACTVP
 70
    16
  9
$PINSBASE
 10
0.0
 20
0.0
 30
0.0
  9
$PLIMCHECK
 70
     0
  9
$PEXTMIN
 10
-97.80000300000001
 20
-123.546501
 30
1.000000000000000E+20
  9
$PEXTMAX
 10
44.81870299999999
 20
42.0
 30
-1.000000000000000E+20
  9
$PLIMMIN
 10
0.0
 20
0.0
  9
$PLIMMAX
 10
12.0
 20
9.0
  9
$UNITMODE
 70
     0
  9
$VISRETAIN
 70
     0
  9
$PLINEGEN
 70
     0
  9
$PSLTSCALE
 70
     1
  9
$TREEDEPTH
 70
  3020
  9
$PICKSTYLE
 70
     1
  9
$CMLSTYLE
  2
STANDARD
  9
$CMLJUST
 70
     0
  9
$CMLSCALE
 40
1.0
  9
$SAVEIMAGES
 70
     1
  0
ENDSEC
  0
SECTION
  2
CLASSES
  0
CLASS
  1
ACDBDICTIONARYWDFLT
  2
AcDbDictionaryWithDefault
  3
AutoCAD 2000
 90
    32768
280
     0
281
     0
  0
CLASS
  1
ACDBPLACEHOLDER
  2
AcDbPlaceHolder
  3
AutoCAD 2000
 90
    32768
280
     0
281
     0
  0
CLASS
  1
LAYOUT
  2
AcDbLayout
  3
AutoCAD 2000
 90
    32768
280
     0
281
     0
  0
CLASS
  1
LONG_TRANSACTION
  2
AcDbLongTransaction
  3
AutoCAD 2000
 90
    32768
280
     0
281
     0
  0
CLASS
  1
LWPOLYLINE
  2
AcDbPolyline
  3
AutoCAD 2000
 90
    32768
280
     0
281
     1
  0
CLASS
  1
HATCH
  2
AcDbHatch
  3
AutoCAD 2000
 90
    32768
280
     0
281
     1
  0
CLASS
  1
XRECORD
  2
AcDbXrecord
  3
AutoCAD 2000
 90
    32768
280
     0
281
     0
  0
ENDSEC
  0
SECTION
  2
TABLES
  0
TABLE
  2
VPORT
  5
7
330
0
100
AcDbSymbolTable
 70
     2
  0
VPORT
  5
128
330
7
100
AcDbSymbolTableRecord
100
AcDbViewportTableRecord
  2
*ACTIVE
 70
     0
 10
0.0
 20
0.0
 11
1.0
 21
1.0
 12
0.7305257725475585
 22
-13.76361822192855
 13
0.0
 23
0.0
 14
6.349999999999999
 24
6.349999999999999
 15
6.349999999999999
 25
6.349999999999999
 16
0.0
 26
0.0
 36
1.0
 17
0.0
 27
0.0
 37
0.0
 40
117.0813358917226
 41
1.644214162348877
 42
50.0
 43
0.0
 44
0.0
 50
0.0
 51
0.0
 71
     0
 72
   100
 73
     1
 74
     1
 75
     0
 76
     0
 77
     0
 78
     0
  0
ENDTAB
  0
TABLE
  2
LTYPE
  5
4
330
0
100
AcDbSymbolTable
 70
    37
  0
LTYPE
  5
12
330
4
100
AcDbSymbolTableRecord
100
AcDbLinetypeTableRecord
  2
BYBLOCK
 70
     0
  3

 72
    65
 73
     0
 40
0.0
  0
LTYPE
  5
13
330
4
100
AcDbSymbolTableRecord
100
AcDbLinetypeTableRecord
  2
BYLAYER
 70
     0
  3

 72
    65
 73
     0
 40
0.0
  0
LTYPE
  5
14
330
4
100
AcDbSymbolTableRecord
100
AcDbLinetypeTableRecord
  2
CONTINUOUS
 70
     0
  3
DXF Default line type
 72
    65
 73
     0
 40
0.0
  0
LTYPE
  5
20
330
4
100
AcDbSymbolTableRecord
100
AcDbLinetypeTableRecord
  2
DASHED
 70
     0
  3
DXF Dashed
 72
    65
 73
     2
 40
0.75
 49
0.5
 74
     0
 49
-0.25
 74
     0
  0
LTYPE
  5
21
330
4
100
AcDbSymbolTableRecord
100
AcDbLinetypeTableRecord
  2
HIDDEN
 70
     0
  3
DXF Hidden
 72
    65
 73
     2
 40
0.375
 49
0.25
 74
     0
 49
-0.125
 74
     0
  0
LTYPE
  5
22
330
4
100
AcDbSymbolTableRecord
100
AcDbLinetypeTableRecord
  2
CENTER
 70
     0
  3
DXF Center
 72
    65
 73
     4
 40
2.0
 49
1.25
 74
     0
 49
-0.25
 74
     0
 49
0.25
 74
     0
 49
-0.25
 74
     0
  0
LTYPE
  5
23
330
4
100
AcDbSymbolTableRecord
100
AcDbLinetypeTableRecord
  2
PHANTOM
 70
     0
  3
DXF Phantom
 72
    65
 73
     6
 40
2.5
 49
1.25
 74
     0
 49
-0.25
 74
     0
 49
0.25
 74
     0
 49
-0.25
 74
     0
 49
0.25
 74
     0
 49
-0.25
 74
     0
  0
LTYPE
  5
24
330
4
100
AcDbSymbolTableRecord
100
AcDbLinetypeTableRecord
  2
DOT
 70
     0
  3
DXF DOT
 72
    65
 73
     2
 40
0.25
 49
0.0
 74
     0
 49
-0.25
 74
     0
  0
LTYPE
  5
25
330
4
100
AcDbSymbolTableRecord
100
AcDbLinetypeTableRecord
  2
DASHDOT
 70
     0
  3
DXF Dash Dot
 72
    65
 73
     4
 40
1.0
 49
0.5
 74
     0
 49
-0.25
 74
     0
 49
0.0
 74
     0
 49
-0.25
 74
     0
  0
LTYPE
  5
26
330
4
100
AcDbSymbolTableRecord
100
AcDbLinetypeTableRecord
  2
BORDER
 70
     0
  3
DXF Border
 72
    65
 73
     6
 40
1.75
 49
0.5
 74
     0
 49
-0.25
 74
     0
 49
0.5
 74
     0
 49
-0.25
 74
     0
 49
0.0
 74
     0
 49
-0.25
 74
     0
  0
LTYPE
  5
27
330
4
100
AcDbSymbolTableRecord
100
AcDbLinetypeTableRecord
  2
DIVIDE
 70
     0
  3
DXF Divide
 72
    65
 73
     6
 40
1.25
 49
0.5
 74
     0
 49
-0.25
 74
     0
 49
0.0
 74
     0
 49
-0.25
 74
     0
 49
0.0
 74
     0
 49
-0.25
 74
     0
  0
LTYPE
  5
28
330
4
100
AcDbSymbolTableRecord
100
AcDbLinetypeTableRecord
  2
C_SOLID_L
 70
     0
  3
CADAM Solid Light
 72
    65
 73
     0
 40
0.0
  0
LTYPE
  5
29
330
4
100
AcDbSymbolTableRecord
100
AcDbLinetypeTableRecord
  2
C_SOLID_M
 70
     0
  3
CADAM Solid Medium
 72
    65
 73
     0
 40
0.0
  0
LTYPE
  5
2A
330
4
100
AcDbSymbolTableRecord
100
AcDbLinetypeTableRecord
  2
C_SOLID_H
 70
     0
  3
CADAM Solid Heavy
 72
    65
 73
     0
 40
0.0
  0
LTYPE
  5
2B
330
4
100
AcDbSymbolTableRecord
100
AcDbLinetypeTableRecord
  2
C_DASHED_L
 70
     0
  3
CADAM Dashed Light
 72
    65
 73
     2
 40
0.375
 49
0.25
 74
     0
 49
-0.125
 74
     0
  0
LTYPE
  5
2C
330
4
100
AcDbSymbolTableRecord
100
AcDbLinetypeTableRecord
  2
C_DASHED_M
 70
     0
  3
CADAM Dashed Medium
 72
    65
 73
     2
 40
0.5
 49
0.375
 74
     0
 49
-0.125
 74
     0
  0
LTYPE
  5
2D
330
4
100
AcDbSymbolTableRecord
100
AcDbLinetypeTableRecord
  2
C_CENTER_L
 70
     0
  3
CADAM Center Light
 72
    65
 73
     4
 40
2.0
 49
1.25
 74
     0
 49
-0.25
 74
     0
 49
0.25
 74
     0
 49
-0.25
 74
     0
  0
LTYPE
  5
2E
330
4
100
AcDbSymbolTableRecord
100
AcDbLinetypeTableRecord
  2
C_PHANTOM_L
 70
     0
  3
CADAM Phantom Light
 72
    65
 73
     6
 40
2.5
 49
1.25
 74
     0
 49
-0.25
 74
     0
 49
0.25
 74
     0
 49
-0.25
 74
     0
 49
0.25
 74
     0
 49
-0.25
 74
     0
  0
LTYPE
  5
2F
330
4
100
AcDbSymbolTableRecord
100
AcDbLinetypeTableRecord
  2
C_BREAK_M
 70
     0
  3
CADAM Break Medium
 72
    65
 73
     4
 40
1.0
 49
0.5
 74
     0
 49
-0.25
 74
     0
 49
0.0
 74
     0
 49
-0.25
 74
     0
  0
LTYPE
  5
30
330
4
100
AcDbSymbolTableRecord
100
AcDbLinetypeTableRecord
  2
C_NC
 70
     0
  3
CADAM NC
 72
    65
 73
     0
 40
0.0
  0
LTYPE
  5
31
330
4
100
AcDbSymbolTableRecord
100
AcDbLinetypeTableRecord
  2
DSH1
 70
     0
  3
CADAM Style2 Type 1 Dashed Line
 72
    65
 73
     2
 40
0.075
 49
0.04
 74
     0
 49
-0.035
 74
     0
  0
LTYPE
  5
32
330
4
100
AcDbSymbolTableRecord
100
AcDbLinetypeTableRecord
  2
DSH2
 70
     0
  3
CADAM Style2 Type 2 Dashed Line
 72
    65
 73
     2
 40
0.15
 49
0.11
 74
     0
 49
-0.04
 74
     0
  0
LTYPE
  5
33
330
4
100
AcDbSymbolTableRecord
100
AcDbLinetypeTableRecord
  2
DSH3
 70
     0
  3
CADAM Style2 Type 3 Dashed Line
 72
    65
 73
     2
 40
0.2
 49
0.15
 74
     0
 49
-0.05
 74
     0
  0
LTYPE
  5
34
330
4
100
AcDbSymbolTableRecord
100
AcDbLinetypeTableRecord
  2
DSH4
 70
     0
  3
CADAM Style2 Type 4 Dashed Line
 72
    65
 73
     2
 40
0.36
 49
0.28
 74
     0
 49
-0.08
 74
     0
  0
LTYPE
  5
35
330
4
100
AcDbSymbolTableRecord
100
AcDbLinetypeTableRecord
  2
DSH5
 70
     0
  3
CADAM Style2 Type 5 Dashed Line
 72
    65
 73
     2
 40
0.47
 49
0.39
 74
     0
 49
-0.08
 74
     0
  0
LTYPE
  5
36
330
4
100
AcDbSymbolTableRecord
100
AcDbLinetypeTableRecord
  2
DSH6
 70
     0
  3
CADAM Style2 Type 6 Dashed Line
 72
    65
 73
     2
 40
0.9
 49
0.8100000000000001
 74
     0
 49
-0.09
 74
     0
  0
LTYPE
  5
37
330
4
100
AcDbSymbolTableRecord
100
AcDbLinetypeTableRecord
  2
PL1
 70
     0
  3
Style 2 Type 1 Phantom Line
 72
    65
 73
     6
 40
1.0
 49
0.6
 74
     0
 49
-0.08
 74
     0
 49
0.08
 74
     0
 49
-0.08
 74
     0
 49
0.08
 74
     0
 49
-0.08
 74
     0
  0
LTYPE
  5
38
330
4
100
AcDbSymbolTableRecord
100
AcDbLinetypeTableRecord
  2
PL2
 70
     0
  3
Style 2 Type 2 Phantom Line
 72
    65
 73
     6
 40
1.08
 49
0.6
 74
     0
 49
-0.08
 74
     0
 49
0.12
 74
     0
 49
-0.08
 74
     0
 49
0.12
 74
     0
 49
-0.08
 74
     0
  0
LTYPE
  5
39
330
4
100
AcDbSymbolTableRecord
100
AcDbLinetypeTableRecord
  2
PL3
 70
     0
  3
Style 2 Type 3 Phantom Line
 72
    65
 73
     6
 40
2.0
 49
1.439999999999999
 74
     0
 49
-0.08
 74
     0
 49
0.16
 74
     0
 49
-0.08
 74
     0
 49
0.16
 74
     0
 49
-0.08
 74
     0
  0
LTYPE
  5
3A
330
4
100
AcDbSymbolTableRecord
100
AcDbLinetypeTableRecord
  2
CL1
 70
     0
  3
CADAM Style 2 Type 1 Center Line
 72
    65
 73
     4
 40
0.7
 49
0.45
 74
     0
 49
-0.06
 74
     0
 49
0.13
 74
     0
 49
-0.06
 74
     0
  0
LTYPE
  5
3B
330
4
100
AcDbSymbolTableRecord
100
AcDbLinetypeTableRecord
  2
CL2
 70
     0
  3
CADAM Style 2 Type 2 Center Line
 72
    65
 73
     4
 40
1.199999999999999
 49
1.01
 74
     0
 49
-0.06
 74
     0
 49
0.11
 74
     0
 49
-0.06
 74
     0
  0
LTYPE
  5
3C
330
4
100
AcDbSymbolTableRecord
100
AcDbLinetypeTableRecord
  2
CL3
 70
     0
  3
CADAM Style 2 Type 3 Center Line
 72
    65
 73
     4
 40
1.199999999999999
 49
0.98
 74
     0
 49
-0.06
 74
     0
 49
0.1
 74
     0
 49
-0.06
 74
     0
  0
LTYPE
  5
3D
330
4
100
AcDbSymbolTableRecord
100
AcDbLinetypeTableRecord
  2
CL4
 70
     0
  3
CADAM Style 2 Type 4 Center Line
 72
    65
 73
     4
 40
2.2
 49
1.929999999999999
 74
     0
 49
-0.07
 74
     0
 49
0.13
 74
     0
 49
-0.07
 74
     0
  0
LTYPE
  5
3E
330
4
100
AcDbSymbolTableRecord
100
AcDbLinetypeTableRecord
  2
CL5
 70
     0
  3
CADAM Style 2 Type 5 Center Line
 72
    65
 73
     4
 40
2.2
 49
1.879999999999999
 74
     0
 49
-0.07
 74
     0
 49
0.18
 74
     0
 49
-0.07
 74
     0
  0
LTYPE
  5
3F
330
4
100
AcDbSymbolTableRecord
100
AcDbLinetypeTableRecord
  2
SBK1
 70
     0
  3
CADAM Style 2 Type 1 SetBack Line
 72
    65
 73
     8
 40
2.7
 49
0.1
 74
     0
 49
-0.08
 74
     0
 49
0.1
 74
     0
 49
-0.8
 74
     0
 49
0.0
 74
     0
 49
0.0
 74
     0
 49
0.0
 74
     0
 49
0.0
 74
     0
  0
LTYPE
  5
40
330
4
100
AcDbSymbolTableRecord
100
AcDbLinetypeTableRecord
  2
SBK2
 70
     0
  3
CADAM Style 2 Type 2 SetBack Line
 72
    65
 73
     8
 40
3.709999999999999
 49
0.13
 74
     0
 49
-0.08
 74
     0
 49
0.13
 74
     0
 49
-0.8
 74
     0
 49
0.0
 74
     0
 49
0.0
 74
     0
 49
0.0
 74
     0
 49
0.0
 74
     0
  0
LTYPE
  5
41
330
4
100
AcDbSymbolTableRecord
100
AcDbLinetypeTableRecord
  2
STCH
 70
     0
  3
CADAM Style2 Stitch Line
 72
    65
 73
     2
 40
0.25
 49
0.0
 74
     0
 49
-0.25
 74
     0
  0
LTYPE
  5
42
330
4
100
AcDbSymbolTableRecord
100
AcDbLinetypeTableRecord
  2
MTCH
 70
     0
  3
CADAM Style2 Match Line
 72
    65
 73
     6
 40
2.0
 49
1.439999999999999
 74
     0
 49
-0.8
 74
     0
 49
0.16
 74
     0
 49
-0.08
 74
     0
 49
0.16
 74
     0
 49
-0.08
 74
     0
  0
LTYPE
  5
43
330
4
100
AcDbSymbolTableRecord
100
AcDbLinetypeTableRecord
  2
SLD
 70
     0
  3
CADAM Solid_EXT2
 72
    65
 73
     0
 40
0.0
  0
ENDTAB
  0
TABLE
  2
LAYER
  5
2
330
0
100
AcDbSymbolTable
 70
     7
  0
LAYER
  5
15
330
2
100
AcDbSymbolTableRecord
100
AcDbLayerTableRecord
  2
0
 70
     0
 62
     7
  6
CONTINUOUS
  0
LAYER
  5
44
330
2
100
AcDbSymbolTableRecord
100
AcDbLayerTableRecord
  2
MO_001_NOSHOW
 70
     1
 62
     7
  6
CONTINUOUS
  0
LAYER
  5
45
330
2
100
AcDbSymbolTableRecord
100
AcDbLayerTableRecord
  2
MO_001_VIEW_PV
 70
     0
 62
     7
  6
CONTINUOUS
  0
LAYER
  5
46
330
2
100
AcDbSymbolTableRecord
100
AcDbLayerTableRecord
  2
OVERLAY_MAP
 70
     1
 62
     7
  6
CONTINUOUS
  0
LAYER
  5
47
330
2
100
AcDbSymbolTableRecord
100
AcDbLayerTableRecord
  2
DITTOS
 70
     0
 62
     7
  6
CONTINUOUS
  0
LAYER
  5
48
330
2
100
AcDbSymbolTableRecord
100
AcDbLayerTableRecord
  2
SYMBOLS
 70
     0
 62
     7
  6
CONTINUOUS
  0
LAYER
  5
49
330
2
100
AcDbSymbolTableRecord
100
AcDbLayerTableRecord
  2
SETS
 70
     0
 62
     7
  6
CONTINUOUS
  0
ENDTAB
  0
TABLE
  2
STYLE
  5
3
330
0
100
AcDbSymbolTable
 70
     1
  0
STYLE
  5
18
330
3
100
AcDbSymbolTableRecord
100
AcDbTextStyleTableRecord
  2
STANDARD
 70
     0
 40
4.1672
 41
1.0
 50
0.0
 71
     0
 42
4.1672
  3
monotxt
  4
BIGFONT
  0
ENDTAB
  0
TABLE
  2
VIEW
  5
5
330
0
100
AcDbSymbolTable
 70
     0
  0
ENDTAB
  0
TABLE
  2
UCS
  5
6
330
0
100
AcDbSymbolTable
 70
     1
  0
UCS
  5
4A
330
6
100
AcDbSymbolTableRecord
100
AcDbUCSTableRecord
  2
MO_001_VIEW_PV_P
 70
     0
 10
0.0
 20
0.0
 30
0.0
 11
1.0
 21
0.0
 31
0.0
 12
-0.0000000002051034
 22
1.0
 32
0.0
  0
ENDTAB
  0
TABLE
  2
APPID
  5
8
330
0
100
AcDbSymbolTable
 70
     1
  0
APPID
  5
17
330
8
100
AcDbSymbolTableRecord
100
AcDbRegAppTableRecord
  2
ACAD
 70
     0
  0
ENDTAB
  0
TABLE
  2
DIMSTYLE
  5
9
330
0
100
AcDbSymbolTable
 70
     1
  0
DIMSTYLE
105
19
102
{ACAD_REACTORS
330
D7
330
D9
330
DB
330
DD
330
DF
330
E1
102
}
330
9
100
AcDbSymbolTableRecord
100
AcDbDimStyleTableRecord
  2
STANDARD
 70
     0
  3

  4

  5

  6

  7

 40
1.0
 41
0.18
 42
0.0625
 43
0.38
 44
0.18
 45
0.0
 46
0.0
 47
0.0
 48
0.0
140
0.18
141
0.09
142
0.0
143
25.4
144
1.0
145
0.0
146
1.0
147
0.09
 71
     0
 72
     0
 73
     1
 74
     1
 75
     0
 76
     0
 77
     0
 78
     0
170
     0
171
     2
172
     0
173
     0
174
     0
175
     0
176
     0
177
     0
178
     0
270
     2
271
     4
272
     4
273
     2
274
     2
340
18
275
     0
280
     0
281
     0
282
     0
283
     1
284
     0
285
     0
286
     0
287
     3
288
     0
  0
ENDTAB
  0
TABLE
  2
BLOCK_RECORD
  5
C
330
0
100
AcDbSymbolTable
 70
     6
  0
BLOCK_RECORD
  5
1E
102
{ACAD_XDICTIONARY
360
129
102
}
330
C
100
AcDbSymbolTableRecord
100
AcDbBlockTableRecord
  2
*MODEL_SPACE
  0
BLOCK_RECORD
  5
1F
102
{ACAD_XDICTIONARY
360
12B
102
}
330
C
100
AcDbSymbolTableRecord
100
AcDbBlockTableRecord
  2
*PAPER_SPACE
  0
BLOCK_RECORD
  5
D6
330
C
100
AcDbSymbolTableRecord
100
AcDbBlockTableRecord
  2
*D0
  0
BLOCK_RECORD
  5
D8
330
C
100
AcDbSymbolTableRecord
100
AcDbBlockTableRecord
  2
*D1
  0
BLOCK_RECORD
  5
DA
330
C
100
AcDbSymbolTableRecord
100
AcDbBlockTableRecord
  2
*D2
  0
BLOCK_RECORD
  5
DC
330
C
100
AcDbSymbolTableRecord
100
AcDbBlockTableRecord
  2
*D3
  0
BLOCK_RECORD
  5
DE
330
C
100
AcDbSymbolTableRecord
100
AcDbBlockTableRecord
  2
*D4
  0
BLOCK_RECORD
  5
E0
330
C
100
AcDbSymbolTableRecord
100
AcDbBlockTableRecord
  2
*D5
  0
ENDTAB
  0
ENDSEC
  0
SECTION
  2
BLOCKS
  0
BLOCK
  5
E
330
1E
100
AcDbEntity
  8
0
100
AcDbBlockBegin
  2
*MODEL_SPACE
 70
     0
 10
0.0
 20
0.0
 30
0.0
  3
*MODEL_SPACE
  1

  0
ENDBLK
  5
F
330
1E
100
AcDbEntity
  8
0
100
AcDbBlockEnd
  0
BLOCK
  5
10
330
1F
100
AcDbEntity
 67
     1
  8
0
100
AcDbBlockBegin
  2
*PAPER_SPACE
 70
     0
 10
0.0
 20
0.0
 30
0.0
  3
*PAPER_SPACE
  1

  0
ENDBLK
  5
11
330
1F
100
AcDbEntity
 67
     1
  8
0
100
AcDbBlockEnd
  0
BLOCK
  5
E2
330
D6
100
AcDbEntity
  8
0
100
AcDbBlockBegin
  2
*D0
 70
     1
 10
0.0
 20
0.0
 30
0.0
  3
*D0
  1

  0
TEXT
  5
E3
330
D6
100
AcDbEntity
  8
MO_001_VIEW_PV
  6
BYBLOCK
100
AcDbText
 10
-21.72143299999999
 20
30.75
 30
0.0
 40
3.0
  1
26.5以下
100
AcDbText
  0
LINE
  5
E4
330
D6
100
AcDbEntity
  8
MO_001_VIEW_PV
  6
BYBLOCK
100
AcDbLine
 10
-26.300009
 20
30.0
 30
0.0
 11
0.0
 21
30.0
 31
0.0
  0
SOLID
  5
E5
330
D6
100
AcDbEntity
  8
MO_001_VIEW_PV
  6
BYBLOCK
100
AcDbTrace
 10
-22.981749
 20
30.583512
 30
0.0
 11
-25.792009
 21
30.0
 31
0.0
 12
-22.981749
 22
29.416488
 32
0.0
 13
-22.981749
 23
29.416488
 33
0.0
  0
SOLID
  5
E6
330
D6
100
AcDbEntity
  8
MO_001_VIEW_PV
  6
BYBLOCK
100
AcDbTrace
 10
-3.318259999999999
 20
29.416488
 30
0.0
 11
-0.508
 21
30.0
 31
0.0
 12
-3.318259999999999
 22
30.583512
 32
0.0
 13
-3.318259999999999
 23
30.583512
 33
0.0
  0
LINE
  5
E7
330
D6
100
AcDbEntity
  8
MO_001_VIEW_PV
  6
BYBLOCK
100
AcDbLine
 10
-26.300009
 20
10.741814
 30
0.0
 11
-26.300009
 21
32.28599899999999
 31
0.0
  0
LINE
  5
E8
330
D6
100
AcDbEntity
  8
MO_001_VIEW_PV
  6
BYBLOCK
100
AcDbLine
 10
0.0
 20
20.69999699999999
 30
0.0
 11
0.0
 21
32.28599899999999
 31
0.0
  0
ENDBLK
  5
E9
330
D6
100
AcDbEntity
  8
0
100
AcDbBlockEnd
  0
BLOCK
  5
EA
330
D8
100
AcDbEntity
  8
0
100
AcDbBlockBegin
  2
*D1
 70
     1
 10
0.0
 20
0.0
 30
0.0
  3
*D1
  1

  0
TEXT
  5
EB
330
D8
100
AcDbEntity
  8
MO_001_VIEW_PV
  6
BYBLOCK
100
AcDbText
 10
-15.235715
 20
38.625
 30
0.0
 40
1.5
  1
%%P1.0
100
AcDbText
  0
TEXT
  5
EC
330
D8
100
AcDbEntity
  8
MO_001_VIEW_PV
  6
BYBLOCK
100
AcDbText
 10
-27.021429
 20
36.75
 30
0.0
 40
3.0
  1
36.9
100
AcDbText
  0
LINE
  5
ED
330
D8
100
AcDbEntity
  8
MO_001_VIEW_PV
  6
BYBLOCK
100
AcDbLine
 10
0.0
 20
36.0
 30
0.0
 11
-36.900002
 21
36.0
 31
0.0
  0
SOLID
  5
EE
330
D8
100
AcDbEntity
  8
MO_001_VIEW_PV
  6
BYBLOCK
100
AcDbTrace
 10
-3.318259999999999
 20
35.416488
 30
0.0
 11
-0.508
 21
36.0
 31
0.0
 12
-3.318259999999999
 22
36.583512
 32
0.0
 13
-3.318259999999999
 23
36.583512
 33
0.0
  0
SOLID
  5
EF
330
D8
100
AcDbEntity
  8
MO_001_VIEW_PV
  6
BYBLOCK
100
AcDbTrace
 10
-33.581741
 20
36.583512
 30
0.0
 11
-36.392002
 21
36.0
 31
0.0
 12
-33.581741
 22
35.416488
 32
0.0
 13
-33.581741
 23
35.416488
 33
0.0
  0
LINE
  5
F0
330
D8
100
AcDbEntity
  8
MO_001_VIEW_PV
  6
BYBLOCK
100
AcDbLine
 10
0.0
 20
20.69999699999999
 30
0.0
 11
0.0
 21
38.285999
 31
0.0
  0
LINE
  5
F1
330
D8
100
AcDbEntity
  8
MO_001_VIEW_PV
  6
BYBLOCK
100
AcDbLine
 10
-36.900002
 20
3.029411
 30
0.0
 11
-36.900002
 21
38.285999
 31
0.0
  0
ENDBLK
  5
F2
330
D8
100
AcDbEntity
  8
0
100
AcDbBlockEnd
  0
BLOCK
  5
F3
330
DA
100
AcDbEntity
  8
0
100
AcDbBlockBegin
  2
*D2
 70
     1
 10
0.0
 20
0.0
 30
0.0
  3
*D2
  1

  0
TEXT
  5
F4
330
DA
100
AcDbEntity
  8
MO_001_VIEW_PV
  6
BYBLOCK
100
AcDbText
 10
22.84573599999999
 20
38.625
 30
0.0
 40
1.5
  1
%%P0.5
100
AcDbText
  0
TEXT
  5
F5
330
DA
100
AcDbEntity
  8
MO_001_VIEW_PV
  6
BYBLOCK
100
AcDbText
 10
11.060022
 20
36.75
 30
0.0
 40
3.0
  1
10.5
100
AcDbText
  0
LINE
  5
F6
330
DA
100
AcDbEntity
  8
MO_001_VIEW_PV
  6
BYBLOCK
100
AcDbLine
 10
0.0
 20
36.0
 30
0.0
 11
10.499999
 21
36.0
 31
0.0
  0
SOLID
  5
F7
330
DA
100
AcDbEntity
  8
MO_001_VIEW_PV
  6
BYBLOCK
100
AcDbTrace
 10
3.318259999999999
 20
36.583512
 30
0.0
 11
0.508
 21
36.0
 31
0.0
 12
3.318259999999999
 22
35.416488
 32
0.0
 13
3.318259999999999
 23
35.416488
 33
0.0
  0
SOLID
  5
F8
330
DA
100
AcDbEntity
  8
MO_001_VIEW_PV
  6
BYBLOCK
100
AcDbTrace
 10
7.181739
 20
35.416488
 30
0.0
 11
9.991998999999999
 21
36.0
 31
0.0
 12
7.181739
 22
36.583512
 32
0.0
 13
7.181739
 23
36.583512
 33
0.0
  0
LINE
  5
F9
330
DA
100
AcDbEntity
  8
MO_001_VIEW_PV
  6
BYBLOCK
100
AcDbLine
 10
0.0
 20
20.69999699999999
 30
0.0
 11
0.0
 21
38.285999
 31
0.0
  0
LINE
  5
FA
330
DA
100
AcDbEntity
  8
MO_001_VIEW_PV
  6
BYBLOCK
100
AcDbLine
 10
10.499999
 20
2.875
 30
0.0
 11
10.499999
 21
38.285999
 31
0.0
  0
LINE
  5
FB
330
DA
100
AcDbEntity
  8
MO_001_VIEW_PV
  6
BYBLOCK
100
AcDbLine
 10
10.499999
 20
36.0
 30
0.0
 11
29.16716599999999
 21
36.0
 31
0.0
  0
ENDBLK
  5
FC
330
DA
100
AcDbEntity
  8
0
100
AcDbBlockEnd
  0
BLOCK
  5
FD
330
DC
100
AcDbEntity
  8
0
100
AcDbBlockBegin
  2
*D3
 70
     1
 10
0.0
 20
0.0
 30
0.0
  3
*D3
  1

  0
TEXT
  5
FE
330
DC
100
AcDbEntity
  8
MO_001_VIEW_PV
  6
BYBLOCK
100
AcDbText
 10
21.452929
 20
32.625
 30
0.0
 40
1.5
  1
%%P0.5
100
AcDbText
  0
TEXT
  5
FF
330
DC
100
AcDbEntity
  8
MO_001_VIEW_PV
  6
BYBLOCK
100
AcDbText
 10
12.667215
 20
30.75
 30
0.0
 40
3.0
  1
9.4
100
AcDbText
  0
LINE
  5
100
330
DC
100
AcDbEntity
  8
MO_001_VIEW_PV
  6
BYBLOCK
100
AcDbLine
 10
10.499999
 20
30.0
 30
0.0
 11
1.050002
 21
30.0
 31
0.0
  0
SOLID
  5
101
330
DC
100
AcDbEntity
  8
MO_001_VIEW_PV
  6
BYBLOCK
100
AcDbTrace
 10
7.181739
 20
29.416488
 30
0.0
 11
9.991998999999999
 21
30.0
 31
0.0
 12
7.181739
 22
30.583512
 32
0.0
 13
7.181739
 23
30.583512
 33
0.0
  0
SOLID
  5
102
330
DC
100
AcDbEntity
  8
MO_001_VIEW_PV
  6
BYBLOCK
100
AcDbTrace
 10
4.368262
 20
30.583512
 30
0.0
 11
1.558002
 21
30.0
 31
0.0
 12
4.368262
 22
29.416488
 32
0.0
 13
4.368262
 23
29.416488
 33
0.0
  0
LINE
  5
103
330
DC
100
AcDbEntity
  8
MO_001_VIEW_PV
  6
BYBLOCK
100
AcDbLine
 10
10.499999
 20
2.875
 30
0.0
 11
10.499999
 21
32.28599899999999
 31
0.0
  0
LINE
  5
104
330
DC
100
AcDbEntity
  8
MO_001_VIEW_PV
  6
BYBLOCK
100
AcDbLine
 10
1.050002
 20
4.400001999999999
 30
0.0
 11
1.050002
 21
32.28599899999999
 31
0.0
  0
LINE
  5
105
330
DC
100
AcDbEntity
  8
MO_001_VIEW_PV
  6
BYBLOCK
100
AcDbLine
 10
27.774359
 20
30.0
 30
0.0
 11
10.499999
 21
30.0
 31
0.0
  0
ENDBLK
  5
106
330
DC
100
AcDbEntity
  8
0
100
AcDbBlockEnd
  0
BLOCK
  5
107
330
DE
100
AcDbEntity
  8
0
100
AcDbBlockBegin
  2
*D4
 70
     1
 10
0.0
 20
0.0
 30
0.0
  3
*D4
  1

  0
TEXT
  5
108
330
DE
100
AcDbEntity
  8
MO_001_VIEW_PV
  6
BYBLOCK
100
AcDbText
 10
30.214286
 20
-27.375
 30
0.0
 40
1.5
  1
%%P0.5
100
AcDbText
  0
TEXT
  5
109
330
DE
100
AcDbEntity
  8
MO_001_VIEW_PV
  6
BYBLOCK
100
AcDbText
 10
18.42857099999999
 20
-29.25
 30
0.0
 40
3.0
  1
18.2
100
AcDbText
  0
LINE
  5
10A
330
DE
100
AcDbEntity
  8
MO_001_VIEW_PV
  6
BYBLOCK
100
AcDbLine
 10
0.0
 20
-30.0
 30
0.0
 11
18.199997
 21
-30.0
 31
0.0
  0
SOLID
  5
10B
330
DE
100
AcDbEntity
  8
MO_001_VIEW_PV
  6
BYBLOCK
100
AcDbTrace
 10
3.318259999999999
 20
-29.416488
 30
0.0
 11
0.508
 21
-30.0
 31
0.0
 12
3.318259999999999
 22
-30.583512
 32
0.0
 13
3.318259999999999
 23
-30.583512
 33
0.0
  0
SOLID
  5
10C
330
DE
100
AcDbEntity
  8
MO_001_VIEW_PV
  6
BYBLOCK
100
AcDbTrace
 10
14.88173699999999
 20
-30.583512
 30
0.0
 11
17.691997
 21
-30.0
 31
0.0
 12
14.88173699999999
 22
-29.416488
 32
0.0
 13
14.88173699999999
 23
-29.416488
 33
0.0
  0
LINE
  5
10D
330
DE
100
AcDbEntity
  8
MO_001_VIEW_PV
  6
BYBLOCK
100
AcDbLine
 10
0.0
 20
-20.69999699999999
 30
0.0
 11
0.0
 21
-32.28599899999999
 31
0.0
  0
LINE
  5
10E
330
DE
100
AcDbEntity
  8
MO_001_VIEW_PV
  6
BYBLOCK
100
AcDbLine
 10
18.199997
 20
-17.19999699999999
 30
0.0
 11
18.199997
 21
-32.28599899999999
 31
0.0
  0
LINE
  5
10F
330
DE
100
AcDbEntity
  8
MO_001_VIEW_PV
  6
BYBLOCK
100
AcDbLine
 10
18.199997
 20
-30.0
 30
0.0
 11
36.535713
 21
-30.0
 31
0.0
  0
ENDBLK
  5
110
330
DE
100
AcDbEntity
  8
0
100
AcDbBlockEnd
  0
BLOCK
  5
111
330
E0
100
AcDbEntity
  8
0
100
AcDbBlockBegin
  2
*D5
 70
     1
 10
0.0
 20
0.0
 30
0.0
  3
*D5
  1

  0
TEXT
  5
112
330
E0
100
AcDbEntity
  8
MO_001_VIEW_PV
  6
BYBLOCK
100
AcDbText
 10
26.25
 20
10.928571
 30
0.0
 40
3.0
  1
%%C15以下
 50
90.0
100
AcDbText
  0
LINE
  5
113
330
E0
100
AcDbEntity
  8
MO_001_VIEW_PV
  6
BYBLOCK
100
AcDbLine
 10
27.0
 20
5.150001999999999
 30
0.0
 11
27.0
 21
-5.150001999999999
 31
0.0
  0
LINE
  5
114
330
E0
100
AcDbEntity
  8
MO_001_VIEW_PV
  6
BYBLOCK
100
AcDbLine
 10
27.0
 20
5.150001999999999
 30
0.0
 11
27.0
 21
11.50000099999999
 31
0.0
  0
LINE
  5
115
330
E0
100
AcDbEntity
  8
MO_001_VIEW_PV
  6
BYBLOCK
100
AcDbLine
 10
27.0
 20
-5.150001999999999
 30
0.0
 11
27.0
 21
-11.50000099999999
 31
0.0
  0
SOLID
  5
116
330
E0
100
AcDbEntity
  8
MO_001_VIEW_PV
  6
BYBLOCK
100
AcDbTrace
 10
26.416488
 20
8.468261999999999
 30
0.0
 11
27.0
 21
5.658001999999999
 31
0.0
 12
27.58351199999999
 22
8.468261999999999
 32
0.0
 13
27.58351199999999
 23
8.468261999999999
 33
0.0
  0
SOLID
  5
117
330
E0
100
AcDbEntity
  8
MO_001_VIEW_PV
  6
BYBLOCK
100
AcDbTrace
 10
27.58351199999999
 20
-8.468261999999999
 30
0.0
 11
27.0
 21
-5.658001999999999
 31
0.0
 12
26.416488
 22
-8.468261999999999
 32
0.0
 13
26.416488
 23
-8.468261999999999
 33
0.0
  0
LINE
  5
118
330
E0
100
AcDbEntity
  8
MO_001_VIEW_PV
  6
BYBLOCK
100
AcDbLine
 10
0.307005
 20
5.150001999999999
 30
0.0
 11
29.285999
 21
5.150001999999999
 31
0.0
  0
LINE
  5
119
330
E0
100
AcDbEntity
  8
MO_001_VIEW_PV
  6
BYBLOCK
100
AcDbLine
 10
0.307005
 20
-5.150001999999999
 30
0.0
 11
29.285999
 21
-5.150001999999999
 31
0.0
  0
LINE
  5
11A
330
E0
100
AcDbEntity
  8
MO_001_VIEW_PV
  6
BYBLOCK
100
AcDbLine
 10
27.0
 20
26.035713
 30
0.0
 11
27.0
 21
5.150001999999999
 31
0.0
  0
ENDBLK
  5
11B
330
E0
100
AcDbEntity
  8
0
100
AcDbBlockEnd
  0
ENDSEC
  0
SECTION
  2
ENTITIES
  0
TEXT
  5
4B
330
1E
100
AcDbEntity
  8
OVERLAY_MAP
  6
C_SOLID_L
100
AcDbText
 10
0.0
 20
6.349999999999999
 30
0.0
 40
4.1672
  1
Model Overlay Name
100
AcDbText
  0
TEXT
  5
4C
330
1E
100
AcDbEntity
  8
OVERLAY_MAP
  6
C_SOLID_L
100
AcDbText
 10
126.999998
 20
0.0
 30
0.0
 40
4.1672
  1
Number
100
AcDbText
  0
TEXT
  5
4D
330
1E
100
AcDbEntity
  8
OVERLAY_MAP
  6
C_SOLID_L
100
AcDbText
 10
177.7999969999999
 20
0.0
 30
0.0
 40
4.1672
  1
File Text
100
AcDbText
  0
TEXT
  5
4E
330
1E
100
AcDbEntity
  8
OVERLAY_MAP
  6
C_SOLID_L
100
AcDbText
 10
0.0
 20
-6.349999999999999
 30
0.0
 40
4.1672
  1
ro 5s34 
100
AcDbText
  0
TEXT
  5
4F
330
1E
100
AcDbEntity
  8
OVERLAY_MAP
  6
C_SOLID_L
100
AcDbText
 10
126.999998
 20
-6.349999999999999
 30
0.0
 40
4.1672
  1
001
100
AcDbText
  0
TEXT
  5
50
330
1E
100
AcDbEntity
  8
OVERLAY_MAP
  6
C_SOLID_L
100
AcDbText
 10
177.7999969999999
 20
-6.349999999999999
 30
0.0
 40
4.1672
  1
                                                                   00139
100
AcDbText
  0
POINT
  5
51
330
1E
100
AcDbEntity
  8
MO_001_NOSHOW
  6
C_SOLID_M
100
AcDbPoint
 10
-97.80000300000001
 20
-100.0
 30
0.0
  0
POLYLINE
  5
52
330
1E
100
AcDbEntity
  8
MO_001_NOSHOW
  6
C_SOLID_M
 62
     5
100
AcDb2dPolyline
 66
     1
 10
0.0
 20
0.0
 30
0.0
  0
VERTEX
  5
12D
330
52
100
AcDbEntity
  8
MO_001_NOSHOW
  6
C_SOLID_M
 62
     5
100
AcDbVertex
100
AcDb2dVertex
 10
-90.32833199999998
 20
-122.547728
 30
0.0
  0
VERTEX
  5
12E
330
52
100
AcDbEntity
  8
MO_001_NOSHOW
  6
C_SOLID_M
 62
     5
100
AcDbVertex
100
AcDb2dVertex
 10
-90.25144
 20
-122.651204
 30
0.0
  0
VERTEX
  5
12F
330
52
100
AcDbEntity
  8
MO_001_NOSHOW
  6
C_SOLID_M
 62
     5
100
AcDbVertex
100
AcDb2dVertex
 10
-90.15481899999999
 20
-122.7459239999999
 30
0.0
  0
VERTEX
  5
130
330
52
100
AcDbEntity
  8
MO_001_NOSHOW
  6
C_SOLID_M
 62
     5
100
AcDbVertex
100
AcDb2dVertex
 10
-90.04323900000001
 20
-122.832153
 30
0.0
  0
VERTEX
  5
131
330
52
100
AcDbEntity
  8
MO_001_NOSHOW
  6
C_SOLID_M
 62
     5
100
AcDbVertex
100
AcDb2dVertex
 10
-89.920755
 20
-122.910285
 30
0.0
  0
VERTEX
  5
132
330
52
100
AcDbEntity
  8
MO_001_NOSHOW
  6
C_SOLID_M
 62
     5
100
AcDbVertex
100
AcDb2dVertex
 10
-89.79077
 20
-122.980795
 30
0.0
  0
VERTEX
  5
133
330
52
100
AcDbEntity
  8
MO_001_NOSHOW
  6
C_SOLID_M
 62
     5
100
AcDbVertex
100
AcDb2dVertex
 10
-89.65610799999998
 20
-123.04421
 30
0.0
  0
VERTEX
  5
134
330
52
100
AcDbEntity
  8
MO_001_NOSHOW
  6
C_SOLID_M
 62
     5
100
AcDbVertex
100
AcDb2dVertex
 10
-89.519085
 20
-123.1010729999999
 30
0.0
  0
VERTEX
  5
135
330
52
100
AcDbEntity
  8
MO_001_NOSHOW
  6
C_SOLID_M
 62
     5
100
AcDbVertex
100
AcDb2dVertex
 10
-89.23573499999999
 20
-123.200261
 30
0.0
  0
VERTEX
  5
136
330
52
100
AcDbEntity
  8
MO_001_NOSHOW
  6
C_SOLID_M
 62
     5
100
AcDbVertex
100
AcDb2dVertex
 10
-88.96177900000001
 20
-123.2783249999999
 30
0.0
  0
VERTEX
  5
137
330
52
100
AcDbEntity
  8
MO_001_NOSHOW
  6
C_SOLID_M
 62
     5
100
AcDbVertex
100
AcDb2dVertex
 10
-88.704206
 20
-123.3393549999999
 30
0.0
  0
VERTEX
  5
138
330
52
100
AcDbEntity
  8
MO_001_NOSHOW
  6
C_SOLID_M
 62
     5
100
AcDbVertex
100
AcDb2dVertex
 10
-88.46664100000001
 20
-123.3868289999999
 30
0.0
  0
VERTEX
  5
139
330
52
100
AcDbEntity
  8
MO_001_NOSHOW
  6
C_SOLID_M
 62
     5
100
AcDbVertex
100
AcDb2dVertex
 10
-88.027542
 20
-123.4558149999999
 30
0.0
  0
VERTEX
  5
13A
330
52
100
AcDbEntity
  8
MO_001_NOSHOW
  6
C_SOLID_M
 62
     5
100
AcDbVertex
100
AcDb2dVertex
 10
-87.682389
 20
-123.4952129999999
 30
0.0
  0
VERTEX
  5
13B
330
52
100
AcDbEntity
  8
MO_001_NOSHOW
  6
C_SOLID_M
 62
     5
100
AcDbVertex
100
AcDb2dVertex
 10
-87.14688800000001
 20
-123.533612
 30
0.0
  0
VERTEX
  5
13C
330
52
100
AcDbEntity
  8
MO_001_NOSHOW
  6
C_SOLID_M
 62
     5
100
AcDbVertex
100
AcDb2dVertex
 10
-86.6
 20
-123.546501
 30
0.0
  0
VERTEX
  5
13D
330
52
100
AcDbEntity
  8
MO_001_NOSHOW
  6
C_SOLID_M
 62
     5
100
AcDbVertex
100
AcDb2dVertex
 10
-85.949495
 20
-123.528225
 30
0.0
  0
VERTEX
  5
13E
330
52
100
AcDbEntity
  8
MO_001_NOSHOW
  6
C_SOLID_M
 62
     5
100
AcDbVertex
100
AcDb2dVertex
 10
-85.39541099999999
 20
-123.482647
 30
0.0
  0
VERTEX
  5
13F
330
52
100
AcDbEntity
  8
MO_001_NOSHOW
  6
C_SOLID_M
 62
     5
100
AcDbVertex
100
AcDb2dVertex
 10
-84.93252099999999
 20
-123.420931
 30
0.0
  0
VERTEX
  5
140
330
52
100
AcDbEntity
  8
MO_001_NOSHOW
  6
C_SOLID_M
 62
     5
100
AcDbVertex
100
AcDb2dVertex
 10
-84.55092500000001
 20
-123.351074
 30
0.0
  0
VERTEX
  5
141
330
52
100
AcDbEntity
  8
MO_001_NOSHOW
  6
C_SOLID_M
 62
     5
100
AcDbVertex
100
AcDb2dVertex
 10
-84.239165
 20
-123.278566
 30
0.0
  0
VERTEX
  5
142
330
52
100
AcDbEntity
  8
MO_001_NOSHOW
  6
C_SOLID_M
 62
     5
100
AcDbVertex
100
AcDb2dVertex
 10
-83.98595
 20
-123.207007
 30
0.0
  0
VERTEX
  5
143
330
52
100
AcDbEntity
  8
MO_001_NOSHOW
  6
C_SOLID_M
 62
     5
100
AcDbVertex
100
AcDb2dVertex
 10
-83.781008
 20
-123.138637
 30
0.0
  0
VERTEX
  5
144
330
52
100
AcDbEntity
  8
MO_001_NOSHOW
  6
C_SOLID_M
 62
     5
100
AcDbVertex
100
AcDb2dVertex
 10
-83.61542299999999
 20
-123.0747409999999
 30
0.0
  0
VERTEX
  5
145
330
52
100
AcDbEntity
  8
MO_001_NOSHOW
  6
C_SOLID_M
 62
     5
100
AcDbVertex
100
AcDb2dVertex
 10
-83.48168000000001
 20
-123.0159529999999
 30
0.0
  0
VERTEX
  5
146
330
52
100
AcDbEntity
  8
MO_001_NOSHOW
  6
C_SOLID_M
 62
     5
100
AcDbVertex
100
AcDb2dVertex
 10
-83.274102
 20
-122.907256
 30
0.0
  0
VERTEX
  5
147
330
52
100
AcDbEntity
  8
MO_001_NOSHOW
  6
C_SOLID_M
 62
     5
100
AcDbVertex
100
AcDb2dVertex
 10
-83.14164599999999
 20
-122.8214649999999
 30
0.0
  0
VERTEX
  5
148
330
52
100
AcDbEntity
  8
MO_001_NOSHOW
  6
C_SOLID_M
 62
     5
100
AcDbVertex
100
AcDb2dVertex
 10
-83.05592
 20
-122.755067
 30
0.0
  0
VERTEX
  5
149
330
52
100
AcDbEntity
  8
MO_001_NOSHOW
  6
C_SOLID_M
 62
     5
100
AcDbVertex
100
AcDb2dVertex
 10
-82.94990400000001
 20
-122.652706
 30
0.0
  0
VERTEX
  5
14A
330
52
100
AcDbEntity
  8
MO_001_NOSHOW
  6
C_SOLID_M
 62
     5
100
AcDbVertex
100
AcDb2dVertex
 10
-82.871678
 20
-122.547724
 30
0.0
  0
SEQEND
  5
14B
330
52
100
AcDbEntity
  8
MO_001_NOSHOW
  6
C_SOLID_M
 62
     5
  0
LINE
  5
72
330
1E
100
AcDbEntity
  8
MO_001_VIEW_PV
  6
C_CENTER_L
100
AcDbLine
 10
-40.039715
 20
0.0
 30
0.0
 11
14.02830199999999
 21
0.0
 31
0.0
  0
LINE
  5
73
330
1E
100
AcDbEntity
  8
MO_001_VIEW_PV
  6
C_SOLID_M
100
AcDbLine
 10
0.0
 20
20.69999699999999
 30
0.0
 11
0.0
 21
-20.69999699999999
 31
0.0
  0
LINE
  5
74
330
1E
100
AcDbEntity
  8
MO_001_VIEW_PV
  6
C_SOLID_M
100
AcDbLine
 10
-0.5999979999999999
 20
21.099998
 30
0.0
 11
-0.4000020000000001
 21
21.099998
 31
0.0
  0
LINE
  5
75
330
1E
100
AcDbEntity
  8
MO_001_VIEW_PV
  6
C_SOLID_M
100
AcDbLine
 10
-0.5999979999999999
 20
-21.099998
 30
0.0
 11
-0.399994
 21
-21.099998
 31
0.0
  0
LINE
  5
76
330
1E
100
AcDbEntity
  8
MO_001_VIEW_PV
  6
C_SOLID_M
100
AcDbLine
 10
-0.400003
 20
21.100001
 30
0.0
 11
-0.000005
 21
20.700004
 31
0.0
  0
LINE
  5
77
330
1E
100
AcDbEntity
  8
MO_001_VIEW_PV
  6
C_SOLID_M
100
AcDbLine
 10
-0.4000020000000001
 20
21.099998
 30
0.0
 11
-0.4000020000000001
 21
-21.099998
 31
0.0
  0
LINE
  5
78
330
1E
100
AcDbEntity
  8
MO_001_VIEW_PV
  6
C_SOLID_M
100
AcDbLine
 10
0.000002
 20
-20.70000299999999
 30
0.0
 11
-0.399998
 21
-21.100004
 31
0.0
  0
LINE
  5
79
330
1E
100
AcDbEntity
  8
MO_001_VIEW_PV
  6
C_SOLID_M
100
AcDbLine
 10
-20.29999899999999
 20
19.449997
 30
0.0
 11
-20.29999899999999
 21
-19.449997
 31
0.0
  0
LINE
  5
7A
330
1E
100
AcDbEntity
  8
MO_001_VIEW_PV
  6
C_SOLID_M
100
AcDbLine
 10
-0.5999979999999999
 20
24.050003
 30
0.0
 11
-0.5999979999999999
 21
-24.050003
 31
0.0
  0
LINE
  5
7B
330
1E
100
AcDbEntity
  8
MO_001_VIEW_PV
  6
C_SOLID_M
100
AcDbLine
 10
-15.699997
 20
24.050003
 30
0.0
 11
-0.5999979999999999
 21
24.050003
 31
0.0
  0
LINE
  5
7C
330
1E
100
AcDbEntity
  8
MO_001_VIEW_PV
  6
C_SOLID_M
100
AcDbLine
 10
-15.699997
 20
-24.050003
 30
0.0
 11
-0.5999979999999999
 21
-24.050003
 31
0.0
  0
ARC
  5
7D
330
1E
100
AcDbEntity
  8
MO_001_VIEW_PV
  6
C_SOLID_M
100
AcDbCircle
 10
-15.699997
 20
19.449997
 30
0.0
 40
4.599999999999999
100
AcDbArc
 50
90.000002
 51
180.000005
  0
ARC
  5
7E
330
1E
100
AcDbEntity
  8
MO_001_VIEW_PV
  6
C_SOLID_M
100
AcDbCircle
 10
-15.699997
 20
-19.449997
 30
0.0
 40
4.599999999999999
100
AcDbArc
 50
180.000009
 51
212.444118
  0
LINE
  5
7F
330
1E
100
AcDbEntity
  8
MO_001_VIEW_PV
  6
C_CENTER_L
100
AcDbLine
 10
-3.752625
 20
15.90000199999999
 30
0.0
 11
18.879303
 21
15.90000199999999
 31
0.0
  0
LINE
  5
80
330
1E
100
AcDbEntity
  8
MO_001_VIEW_PV
  6
C_SOLID_M
100
AcDbLine
 10
0.0
 20
17.900002
 30
0.0
 11
17.5
 21
17.900002
 31
0.0
  0
LINE
  5
81
330
1E
100
AcDbEntity
  8
MO_001_VIEW_PV
  6
C_SOLID_M
100
AcDbLine
 10
0.0
 20
13.900002
 30
0.0
 11
17.5
 21
13.900002
 31
0.0
  0
LINE
  5
82
330
1E
100
AcDbEntity
  8
MO_001_VIEW_PV
  6
C_SOLID_M
100
AcDbLine
 10
18.199997
 20
17.19999699999999
 30
0.0
 11
18.199997
 21
14.599998
 31
0.0
  0
LINE
  5
83
330
1E
100
AcDbEntity
  8
MO_001_VIEW_PV
  6
C_SOLID_M
100
AcDbLine
 10
17.5
 20
17.900002
 30
0.0
 11
17.5
 21
13.900002
 31
0.0
  0
LINE
  5
84
330
1E
100
AcDbEntity
  8
MO_001_VIEW_PV
  6
C_SOLID_M
100
AcDbLine
 10
0.0
 20
17.19999699999999
 30
0.0
 11
18.199997
 21
17.19999699999999
 31
0.0
  0
LINE
  5
85
330
1E
100
AcDbEntity
  8
MO_001_VIEW_PV
  6
C_SOLID_M
100
AcDbLine
 10
0.0
 20
14.599998
 30
0.0
 11
18.199997
 21
14.599998
 31
0.0
  0
LINE
  5
86
330
1E
100
AcDbEntity
  8
MO_001_VIEW_PV
  6
C_SOLID_M
100
AcDbLine
 10
17.49999299999999
 20
17.899998
 30
0.0
 11
18.199995
 21
17.19999699999999
 31
0.0
  0
LINE
  5
87
330
1E
100
AcDbEntity
  8
MO_001_VIEW_PV
  6
C_SOLID_M
100
AcDbLine
 10
18.199995
 20
14.59999899999999
 30
0.0
 11
17.49999299999999
 21
13.899997
 31
0.0
  0
LINE
  5
88
330
1E
100
AcDbEntity
  8
MO_001_VIEW_PV
  6
C_CENTER_L
100
AcDbLine
 10
-3.752625
 20
-15.90000199999999
 30
0.0
 11
18.879303
 21
-15.90000199999999
 31
0.0
  0
LINE
  5
89
330
1E
100
AcDbEntity
  8
MO_001_VIEW_PV
  6
C_SOLID_M
100
AcDbLine
 10
0.0
 20
-17.900002
 30
0.0
 11
17.5
 21
-17.900002
 31
0.0
  0
LINE
  5
8A
330
1E
100
AcDbEntity
  8
MO_001_VIEW_PV
  6
C_SOLID_M
100
AcDbLine
 10
0.0
 20
-13.900002
 30
0.0
 11
17.5
 21
-13.900002
 31
0.0
  0
LINE
  5
8B
330
1E
100
AcDbEntity
  8
MO_001_VIEW_PV
  6
C_SOLID_M
100
AcDbLine
 10
18.199997
 20
-17.19999699999999
 30
0.0
 11
18.199997
 21
-14.599998
 31
0.0
  0
LINE
  5
8C
330
1E
100
AcDbEntity
  8
MO_001_VIEW_PV
  6
C_SOLID_M
100
AcDbLine
 10
17.5
 20
-17.900002
 30
0.0
 11
17.5
 21
-13.900002
 31
0.0
  0
LINE
  5
8D
330
1E
100
AcDbEntity
  8
MO_001_VIEW_PV
  6
C_SOLID_M
100
AcDbLine
 10
0.0
 20
-17.19999699999999
 30
0.0
 11
18.199997
 21
-17.19999699999999
 31
0.0
  0
LINE
  5
8E
330
1E
100
AcDbEntity
  8
MO_001_VIEW_PV
  6
C_SOLID_M
100
AcDbLine
 10
0.0
 20
-14.599998
 30
0.0
 11
18.199997
 21
-14.599998
 31
0.0
  0
LINE
  5
8F
330
1E
100
AcDbEntity
  8
MO_001_VIEW_PV
  6
C_SOLID_M
100
AcDbLine
 10
17.499978
 20
-17.89998299999999
 30
0.0
 11
18.19998
 21
-17.199981
 31
0.0
  0
LINE
  5
90
330
1E
100
AcDbEntity
  8
MO_001_VIEW_PV
  6
C_SOLID_M
100
AcDbLine
 10
18.200001
 20
-14.60000299999999
 30
0.0
 11
17.50000499999999
 21
-13.900007
 31
0.0
  0
ARC
  5
91
330
1E
100
AcDbEntity
  8
MO_001_VIEW_PV
  6
C_SOLID_M
100
AcDbCircle
 10
-21.077002
 20
-15.90000199999999
 30
0.0
 40
1.984500999999999
100
AcDbArc
 50
65.49870699999999
 51
114.50136
  0
LINE
  5
92
330
1E
100
AcDbEntity
  8
MO_001_VIEW_PV
  6
C_SOLID_M
100
AcDbLine
 10
-21.90000299999999
 20
-20.650002
 30
0.0
 11
-21.90000299999999
 21
20.650002
 31
0.0
  0
LINE
  5
93
330
1E
100
AcDbEntity
  8
MO_001_VIEW_PV
  6
C_SOLID_M
100
AcDbLine
 10
-23.900003
 20
-20.650002
 30
0.0
 11
-23.900003
 21
20.650002
 31
0.0
  0
LINE
  5
94
330
1E
100
AcDbEntity
  8
MO_001_VIEW_PV
  6
C_SOLID_M
100
AcDbLine
 10
-23.900003
 20
20.650002
 30
0.0
 11
-21.90000299999999
 21
20.650002
 31
0.0
  0
LINE
  5
95
330
1E
100
AcDbEntity
  8
MO_001_VIEW_PV
  6
C_SOLID_M
100
AcDbLine
 10
-23.900003
 20
-20.650002
 30
0.0
 11
-21.90000299999999
 21
-20.650002
 31
0.0
  0
LINE
  5
96
330
1E
100
AcDbEntity
  8
MO_001_VIEW_PV
  6
C_SOLID_M
100
AcDbLine
 10
-24.20000599999999
 20
2.797775
 30
0.0
 11
-23.900003
 21
2.797775
 31
0.0
  0
LINE
  5
97
330
1E
100
AcDbEntity
  8
MO_001_VIEW_PV
  6
C_SOLID_M
100
AcDbLine
 10
-24.315508
 20
12.726311
 30
0.0
 11
-23.900003
 21
12.726311
 31
0.0
  0
ARC
  5
98
330
1E
100
AcDbEntity
  8
MO_001_VIEW_PV
  6
C_SOLID_M
100
AcDbCircle
 10
-24.315508
 20
10.741814
 30
0.0
 40
1.984499999999999
100
AcDbArc
 50
89.99998199999998
 51
187.660267
  0
ARC
  5
99
330
1E
100
AcDbEntity
  8
MO_001_VIEW_PV
  6
C_SOLID_M
100
AcDbCircle
 10
-24.20000599999999
 20
3.997772
 30
0.0
 40
1.199999999999999
100
AcDbArc
 50
187.66023
 51
270.0000249999999
  0
LINE
  5
9A
330
1E
100
AcDbEntity
  8
MO_001_VIEW_PV
  6
C_SOLID_M
100
AcDbLine
 10
-26.282302
 20
10.47728699999999
 30
0.0
 11
-25.38930099999999
 21
3.837813999999999
 31
0.0
  0
ARC
  5
9B
330
1E
100
AcDbEntity
  8
MO_001_VIEW_PV
  6
C_SOLID_M
100
AcDbCircle
 10
-24.060213
 20
-15.70000499999999
 30
0.0
 40
2.239792
100
AcDbArc
 50
85.898208
 51
274.1017749999999
  0
ARC
  5
9C
330
1E
100
AcDbEntity
  8
MO_001_VIEW_PV
  6
C_SOLID_M
100
AcDbCircle
 10
-21.077002
 20
-15.90000199999999
 30
0.0
 40
1.984500999999999
100
AcDbArc
 50
245.49864
 51
294.501293
  0
LINE
  5
9D
330
1E
100
AcDbEntity
  8
MO_001_VIEW_PV
  6
C_SOLID_M
100
AcDbLine
 10
-24.800005
 20
-9.099997999999999
 30
0.0
 11
-24.800005
 21
2.958541999999999
 31
0.0
  0
LINE
  5
9E
330
1E
100
AcDbEntity
  8
MO_001_VIEW_PV
  6
C_SOLID_M
100
AcDbLine
 10
-24.800005
 20
-9.099997999999999
 30
0.0
 11
-23.900003
 21
-9.099997999999999
 31
0.0
  0
LINE
  5
9F
330
1E
100
AcDbEntity
  8
MO_001_VIEW_PV
  6
C_SOLID_M
100
AcDbLine
 10
-24.800005
 20
-8.758338999999999
 30
0.0
 11
-24.300005
 21
-8.758338999999999
 31
0.0
  0
LINE
  5
A0
330
1E
100
AcDbEntity
  8
MO_001_VIEW_PV
  6
C_SOLID_M
100
AcDbLine
 10
-24.300005
 20
-8.645186999999999
 30
0.0
 11
-23.900003
 21
-8.645186999999999
 31
0.0
  0
LINE
  5
A1
330
1E
100
AcDbEntity
  8
MO_001_VIEW_PV
  6
C_SOLID_M
100
AcDbLine
 10
-24.300005
 20
-6.973778
 30
0.0
 11
-23.900003
 21
-6.973778
 31
0.0
  0
LINE
  5
A2
330
1E
100
AcDbEntity
  8
MO_001_VIEW_PV
  6
C_SOLID_M
100
AcDbLine
 10
-24.800005
 20
-6.518341
 30
0.0
 11
-24.300005
 21
-6.518341
 31
0.0
  0
LINE
  5
A3
330
1E
100
AcDbEntity
  8
MO_001_VIEW_PV
  6
C_SOLID_M
100
AcDbLine
 10
-24.800005
 20
-2.239997999999999
 30
0.0
 11
-24.300005
 21
-2.239997999999999
 31
0.0
  0
LINE
  5
A4
330
1E
100
AcDbEntity
  8
MO_001_VIEW_PV
  6
C_SOLID_M
100
AcDbLine
 10
-24.300005
 20
-1.575943
 30
0.0
 11
-23.900003
 21
-1.575943
 31
0.0
  0
LINE
  5
A5
330
1E
100
AcDbEntity
  8
MO_001_VIEW_PV
  6
C_SOLID_M
100
AcDbLine
 10
-24.300005
 20
1.575943
 30
0.0
 11
-23.900003
 21
1.575943
 31
0.0
  0
LINE
  5
A6
330
1E
100
AcDbEntity
  8
MO_001_VIEW_PV
  6
C_SOLID_M
100
AcDbLine
 10
-24.800005
 20
2.239997999999999
 30
0.0
 11
-24.300005
 21
2.239997999999999
 31
0.0
  0
LINE
  5
A7
330
1E
100
AcDbEntity
  8
MO_001_VIEW_PV
  6
C_SOLID_M
100
AcDbLine
 10
-24.300005
 20
-2.239997999999999
 30
0.0
 11
-24.300005
 21
2.239997999999999
 31
0.0
  0
LINE
  5
A8
330
1E
100
AcDbEntity
  8
MO_001_VIEW_PV
  6
C_SOLID_M
100
AcDbLine
 10
-24.300005
 20
-8.758338999999999
 30
0.0
 11
-24.300005
 21
-6.518341
 31
0.0
  0
LINE
  5
A9
330
1E
100
AcDbEntity
  8
MO_001_VIEW_PV
  6
C_SOLID_M
100
AcDbLine
 10
1.099998
 20
3.175002999999999
 30
0.0
 11
10.200004
 21
3.175002999999999
 31
0.0
  0
LINE
  5
AA
330
1E
100
AcDbEntity
  8
MO_001_VIEW_PV
  6
C_SOLID_M
100
AcDbLine
 10
1.099998
 20
-3.175002999999999
 30
0.0
 11
10.200004
 21
-3.175002999999999
 31
0.0
  0
LINE
  5
AB
330
1E
100
AcDbEntity
  8
MO_001_VIEW_PV
  6
C_SOLID_M
100
AcDbLine
 10
10.499999
 20
-2.875
 30
0.0
 11
10.499999
 21
2.875
 31
0.0
  0
LINE
  5
AC
330
1E
100
AcDbEntity
  8
MO_001_VIEW_PV
  6
C_SOLID_M
100
AcDbLine
 10
-36.900002
 20
-3.029411
 30
0.0
 11
-36.900002
 21
3.029411
 31
0.0
  0
LINE
  5
AD
330
1E
100
AcDbEntity
  8
MO_001_VIEW_PV
  6
C_SOLID_M
100
AcDbLine
 10
10.200015
 20
3.174995999999999
 30
0.0
 11
10.500009
 21
2.875001999999999
 31
0.0
  0
LINE
  5
AE
330
1E
100
AcDbEntity
  8
MO_001_VIEW_PV
  6
C_SOLID_M
100
AcDbLine
 10
10.200009
 20
-3.17499
 30
0.0
 11
10.500008
 21
-2.874990999999999
 31
0.0
  0
LINE
  5
AF
330
1E
100
AcDbEntity
  8
MO_001_VIEW_PV
  6
C_SOLID_M
100
AcDbLine
 10
-36.49999799999999
 20
3.174999999999999
 30
0.0
 11
-36.89999799999999
 21
3.029411999999999
 31
0.0
  0
LINE
  5
B0
330
1E
100
AcDbEntity
  8
MO_001_VIEW_PV
  6
C_SOLID_M
100
AcDbLine
 10
-36.49999799999999
 20
-3.174986999999999
 30
0.0
 11
-36.900001
 21
-3.029398
 31
0.0
  0
LINE
  5
B1
330
1E
100
AcDbEntity
  8
MO_001_VIEW_PV
  6
C_SOLID_M
100
AcDbLine
 10
10.200004
 20
-3.175002999999999
 30
0.0
 11
10.200004
 21
3.175002999999999
 31
0.0
  0
LINE
  5
B2
330
1E
100
AcDbEntity
  8
MO_001_VIEW_PV
  6
C_SOLID_M
100
AcDbLine
 10
-36.5
 20
-3.175002999999999
 30
0.0
 11
-36.5
 21
3.175002999999999
 31
0.0
  0
LINE
  5
B3
330
1E
100
AcDbEntity
  8
MO_001_VIEW_PV
  6
C_SOLID_M
100
AcDbLine
 10
-36.5
 20
3.175002999999999
 30
0.0
 11
-25.07353
 21
3.175002999999999
 31
0.0
  0
LINE
  5
B4
330
1E
100
AcDbEntity
  8
MO_001_VIEW_PV
  6
C_SOLID_M
100
AcDbLine
 10
-36.5
 20
-3.175002999999999
 30
0.0
 11
-24.800005
 21
-3.175002999999999
 31
0.0
  0
LINE
  5
B5
330
1E
100
AcDbEntity
  8
MO_001_VIEW_PV
  6
C_SOLID_M
100
AcDbLine
 10
-21.90000299999999
 20
11.0
 30
0.0
 11
-20.29999899999999
 21
11.0
 31
0.0
  0
LINE
  5
B6
330
1E
100
AcDbEntity
  8
MO_001_VIEW_PV
  6
C_SOLID_M
100
AcDbLine
 10
-21.90000299999999
 20
-11.0
 30
0.0
 11
-20.29999899999999
 21
-11.0
 31
0.0
  0
LINE
  5
B7
330
1E
100
AcDbEntity
  8
MO_001_VIEW_PV
  6
C_SOLID_M
100
AcDbLine
 10
-26.103394
 20
-28.439165
 30
0.0
 11
-19.15673299999999
 21
-21.492504
 31
0.0
  0
LINE
  5
B8
330
1E
100
AcDbEntity
  8
MO_001_VIEW_PV
  6
C_SOLID_M
100
AcDbLine
 10
-24.68918
 20
-29.853378
 30
0.0
 11
-17.742519
 21
-22.906717
 31
0.0
  0
LINE
  5
B9
330
1E
100
AcDbEntity
  8
MO_001_VIEW_PV
  6
C_SOLID_M
100
AcDbLine
 10
-24.68918
 20
-29.853378
 30
0.0
 11
-26.103394
 21
-28.439165
 31
0.0
  0
LINE
  5
BA
330
1E
100
AcDbEntity
  8
MO_001_VIEW_PV
  6
C_SOLID_M
100
AcDbLine
 10
-29.497508
 20
-32.116118
 30
0.0
 11
-25.96197399999999
 21
-28.580584
 31
0.0
  0
LINE
  5
BB
330
1E
100
AcDbEntity
  8
MO_001_VIEW_PV
  6
C_SOLID_M
100
AcDbLine
 10
-28.366133
 20
-33.247493
 30
0.0
 11
-24.830599
 21
-29.711959
 31
0.0
  0
ARC
  5
BC
330
1E
100
AcDbEntity
  8
MO_001_VIEW_PV
  6
C_SOLID_M
100
AcDbCircle
 10
-29.426788
 20
-32.61109899999999
 30
0.0
 40
0.499994
100
AcDbArc
 50
351.869635
 51
98.13037299999999
  0
ARC
  5
BD
330
1E
100
AcDbEntity
  8
MO_001_VIEW_PV
  6
C_SOLID_M
100
AcDbCircle
 10
-29.002533
 20
-32.186844
 30
0.0
 40
0.499994
100
AcDbArc
 50
171.869621
 51
278.130385
  0
ARC
  5
BE
330
1E
100
AcDbEntity
  8
MO_001_VIEW_PV
  6
C_SOLID_M
100
AcDbCircle
 10
-28.436852
 20
-32.752518
 30
0.0
 40
0.499994
100
AcDbArc
 50
171.869621
 51
278.1303569999999
  0
ARC
  5
BF
330
1E
100
AcDbEntity
  8
MO_001_VIEW_PV
  6
C_SOLID_M
100
AcDbCircle
 10
-21.624519
 20
-25.374519
 30
0.0
 40
4.599999999999999
100
AcDbArc
 50
20.603795
 51
69.396163
  0
ARC
  5
C0
330
1E
100
AcDbEntity
  8
MO_001_VIEW_PV
  6
C_SOLID_M
100
AcDbCircle
 10
-15.699997
 20
-19.449997
 30
0.0
 40
4.599999999999999
100
AcDbArc
 50
237.5558269999999
 51
269.999998
  0
LINE
  5
C1
330
1E
100
AcDbEntity
  8
MO_001_VIEW_PV
  6
C_SOLID_M
100
AcDbLine
 10
1.099998
 20
-3.175002999999999
 30
0.0
 11
1.099998
 21
3.175002999999999
 31
0.0
  0
LINE
  5
C2
330
1E
100
AcDbEntity
  8
MO_001_VIEW_PV
  6
C_SOLID_M
100
AcDbLine
 10
0.307005
 20
3.175002999999999
 30
0.0
 11
0.359998
 21
3.175002999999999
 31
0.0
  0
LINE
  5
C3
330
1E
100
AcDbEntity
  8
MO_001_VIEW_PV
  6
C_SOLID_M
100
AcDbLine
 10
0.307005
 20
-3.175002999999999
 30
0.0
 11
0.359998
 21
-3.175002999999999
 31
0.0
  0
LINE
  5
C4
330
1E
100
AcDbEntity
  8
MO_001_VIEW_PV
  6
C_SOLID_M
100
AcDbLine
 10
1.050002
 20
2.925002999999999
 30
0.0
 11
1.099998
 21
2.925002999999999
 31
0.0
  0
LINE
  5
C5
330
1E
100
AcDbEntity
  8
MO_001_VIEW_PV
  6
C_SOLID_M
100
AcDbLine
 10
1.050002
 20
-2.925002999999999
 30
0.0
 11
1.099998
 21
-2.925002999999999
 31
0.0
  0
LINE
  5
C6
330
1E
100
AcDbEntity
  8
MO_001_VIEW_PV
  6
C_SOLID_M
100
AcDbLine
 10
0.307005
 20
5.150001999999999
 30
0.0
 11
0.307005
 21
-5.150001999999999
 31
0.0
  0
LINE
  5
C7
330
1E
100
AcDbEntity
  8
MO_001_VIEW_PV
  6
C_SOLID_M
100
AcDbLine
 10
0.007002
 20
5.150001999999999
 30
0.0
 11
0.007002
 21
-5.150001999999999
 31
0.0
  0
LINE
  5
C8
330
1E
100
AcDbEntity
  8
MO_001_VIEW_PV
  6
C_SOLID_M
100
AcDbLine
 10
0.007002
 20
5.150001999999999
 30
0.0
 11
0.307005
 21
5.150001999999999
 31
0.0
  0
LINE
  5
C9
330
1E
100
AcDbEntity
  8
MO_001_VIEW_PV
  6
C_SOLID_M
100
AcDbLine
 10
0.007002
 20
-5.150001999999999
 30
0.0
 11
0.307005
 21
-5.150001999999999
 31
0.0
  0
LINE
  5
CA
330
1E
100
AcDbEntity
  8
MO_001_VIEW_PV
  6
C_SOLID_M
100
AcDbLine
 10
0.0
 20
-3.175002999999999
 30
0.0
 11
0.007002
 21
-3.175002999999999
 31
0.0
  0
LINE
  5
CB
330
1E
100
AcDbEntity
  8
MO_001_VIEW_PV
  6
C_SOLID_M
100
AcDbLine
 10
0.410003
 20
4.400001999999999
 30
0.0
 11
1.050002
 21
4.400001999999999
 31
0.0
  0
LINE
  5
CC
330
1E
100
AcDbEntity
  8
MO_001_VIEW_PV
  6
C_SOLID_M
100
AcDbLine
 10
0.410003
 20
-4.400001999999999
 30
0.0
 11
1.050002
 21
-4.400001999999999
 31
0.0
  0
LINE
  5
CD
330
1E
100
AcDbEntity
  8
MO_001_VIEW_PV
  6
C_SOLID_M
100
AcDbLine
 10
1.050002
 20
4.400001999999999
 30
0.0
 11
1.050002
 21
-4.400001999999999
 31
0.0
  0
LINE
  5
CE
330
1E
100
AcDbEntity
  8
MO_001_VIEW_PV
  6
C_SOLID_M
100
AcDbLine
 10
0.410003
 20
4.400001999999999
 30
0.0
 11
0.410003
 21
-4.400001999999999
 31
0.0
  0
LINE
  5
CF
330
1E
100
AcDbEntity
  8
MO_001_VIEW_PV
  6
C_SOLID_M
100
AcDbLine
 10
0.359998
 20
-2.925002999999999
 30
0.0
 11
0.410003
 21
-2.925002999999999
 31
0.0
  0
LINE
  5
D0
330
1E
100
AcDbEntity
  8
MO_001_VIEW_PV
  6
C_SOLID_M
100
AcDbLine
 10
0.359998
 20
2.925002999999999
 30
0.0
 11
0.410003
 21
2.925002999999999
 31
0.0
  0
LINE
  5
D1
330
1E
100
AcDbEntity
  8
MO_001_VIEW_PV
  6
C_SOLID_M
100
AcDbLine
 10
0.0
 20
3.175002999999999
 30
0.0
 11
0.007002
 21
3.175002999999999
 31
0.0
  0
LINE
  5
D2
330
1E
100
AcDbEntity
  8
MO_001_VIEW_PV
  6
C_SOLID_M
100
AcDbLine
 10
0.359998
 20
-3.175002999999999
 30
0.0
 11
0.359998
 21
3.175002999999999
 31
0.0
  0
TEXT
  5
D3
330
1E
100
AcDbEntity
  8
MO_001_VIEW_PV
  6
C_SOLID_L
100
AcDbText
 10
-30.166063
 20
-57.98321
 30
0.0
 40
4.167187
  1
5S X3・X4付
100
AcDbText
  0
TEXT
  5
D4
330
1E
100
AcDbEntity
  8
MO_001_VIEW_PV
  6
C_SOLID_L
100
AcDbText
 10
23.833937
 20
-63.98321
 30
0.0
 40
4.167187
  1
単位：mm
100
AcDbText
  0
TEXT
  5
D5
330
1E
100
AcDbEntity
  8
MO_001_VIEW_PV
  6
C_SOLID_L
100
AcDbText
 10
23.833937
 20
-70.233991
 30
0.0
 40
4.167187
  1
無励磁時
100
AcDbText
  0
DIMENSION
  5
D7
330
1E
100
AcDbEntity
  8
MO_001_VIEW_PV
  6
C_SOLID_M
100
AcDbDimension
  2
*D0
 10
-13.150004
 20
30.0
 30
0.0
 11
-13.150004
 21
30.0
 31
0.0
  1
26.5以下
  3
STANDARD
100
AcDbAlignedDimension
 13
-26.300009
 23
10.741814
 33
0.0
 14
0.0
 24
20.69999699999999
 34
0.0
100
AcDbRotatedDimension
  0
DIMENSION
  5
D9
330
1E
100
AcDbEntity
  8
MO_001_VIEW_PV
  6
C_SOLID_M
100
AcDbDimension
  2
*D1
 10
-18.450001
 20
36.0
 30
0.0
 11
-18.450001
 21
36.0
 31
0.0
  3
STANDARD
100
AcDbAlignedDimension
 13
-36.900002
 23
3.029411
 33
0.0
 14
0.0
 24
20.69999699999999
 34
0.0
100
AcDbRotatedDimension
  0
DIMENSION
  5
DB
330
1E
100
AcDbEntity
  8
MO_001_VIEW_PV
  6
C_SOLID_M
100
AcDbDimension
  2
*D2
 10
19.631451
 20
36.0
 30
0.0
 11
19.631451
 21
36.0
 31
0.0
  3
STANDARD
100
AcDbAlignedDimension
 13
10.499999
 23
2.875
 33
0.0
 14
0.0
 24
20.69999699999999
 34
0.0
100
AcDbRotatedDimension
  0
DIMENSION
  5
DD
330
1E
100
AcDbEntity
  8
MO_001_VIEW_PV
  6
C_SOLID_M
100
AcDbDimension
  2
*D3
 10
19.738644
 20
30.0
 30
0.0
 11
19.738644
 21
30.0
 31
0.0
  3
STANDARD
100
AcDbAlignedDimension
 13
1.050002
 23
4.400001999999999
 33
0.0
 14
10.499999
 24
2.875
 34
0.0
100
AcDbRotatedDimension
  0
DIMENSION
  5
DF
330
1E
100
AcDbEntity
  8
MO_001_VIEW_PV
  6
C_SOLID_M
100
AcDbDimension
  2
*D4
 10
27.0
 20
-30.0
 30
0.0
 11
27.0
 21
-30.0
 31
0.0
  3
STANDARD
100
AcDbAlignedDimension
 13
0.0
 23
-20.69999699999999
 33
0.0
 14
18.199997
 24
-17.19999699999999
 34
0.0
100
AcDbRotatedDimension
  0
DIMENSION
  5
E1
330
1E
100
AcDbEntity
  8
MO_001_VIEW_PV
  6
C_SOLID_M
100
AcDbDimension
  2
*D5
 10
27.0
 20
18.0
 30
0.0
 11
27.0
 21
18.0
 31
0.0
  1
%%C15以下
  3
STANDARD
100
AcDbAlignedDimension
 13
0.307005
 23
-5.150001999999999
 33
0.0
 14
0.307005
 24
5.150001999999999
 34
0.0
 50
89.999523
100
AcDbRotatedDimension
  0
ENDSEC
  0
SECTION
  2
OBJECTS
  0
DICTIONARY
  5
1A
330
0
100
AcDbDictionary
  3
ACAD_GROUP
350
1B
  3
ACAD_MLINESTYLE
350
1C
  3
ACAD_LAYOUT
350
123
  3
ACAD_PLOTSETTINGS
350
124
1001
ACAD
1000
TREAT_AS_HARD
1070
     0
  0
DICTIONARY
  5
129
330
1E
100
AcDbDictionary
  3
ACAD_LAYOUTSELFREF
350
12A
  0
DICTIONARY
  5
12B
330
1F
100
AcDbDictionary
  3
ACAD_LAYOUTSELFREF
350
12C
  0
DICTIONARY
  5
1B
102
{ACAD_REACTORS
330
1A
102
}
330
1A
100
AcDbDictionary
1001
ACAD
1000
TREAT_AS_HARD
1070
     0
  0
DICTIONARY
  5
1C
102
{ACAD_REACTORS
330
1A
102
}
330
1A
100
AcDbDictionary
  3
STANDARD
350
1D
1001
ACAD
1000
TREAT_AS_HARD
1070
     0
  0
DICTIONARY
  5
123
102
{ACAD_REACTORS
330
1A
102
}
330
1A
100
AcDbDictionary
1001
ACAD
1000
TREAT_AS_HARD
1070
     0
  0
DICTIONARY
  5
124
102
{ACAD_REACTORS
330
1A
102
}
330
1A
100
AcDbDictionary
1001
ACAD
1000
TREAT_AS_HARD
1070
     0
  0
XRECORD
  5
12A
102
{ACAD_REACTORS
330
129
102
}
330
129
100
AcDbXrecord
340
1E
  0
XRECORD
  5
12C
102
{ACAD_REACTORS
330
12B
102
}
330
12B
100
AcDbXrecord
340
1F
  0
MLINESTYLE
  5
1D
102
{ACAD_REACTORS
330
1C
102
}
330
1C
100
AcDbMlineStyle
  2
STANDARD
 70
     0
  3

 62
     0
 51
90.0
 52
90.0
 71
     2
 49
0.5
 62
   256
  6
BYLAYER
 49
-0.5
 62
   256
  6
BYLAYER
  0
ENDSEC
  0
EOF
