  0
SECTION
  2
HEADER
  9
$ACADVER
  1
AC1012
  9
$DWGCODEPAGE
  3
dos932
  9
$INSBASE
 10
0.0
 20
0.0
 30
0.0
  9
$EXTMIN
 10
-57.95159332850307
 20
-71.34317801548127
 30
-0.0015258207003583
  9
$EXTMAX
 10
109.5024343490927
 20
49.12775223978883
 30
0.0000000349246037
  9
$LIMMIN
 10
-57.946415
 20
-74.45976299999999
  9
$LIMMAX
 10
111.7499999999999
 20
51.0
  9
$ORTHOMODE
 70
     0
  9
$REGENMODE
 70
     1
  9
$FILLMODE
 70
     1
  9
$QTEXTMODE
 70
     0
  9
$MIRRTEXT
 70
     1
  9
$DRAGMODE
 70
     2
  9
$LTSCALE
 40
1.0
  9
$OSMODE
 70
    37
  9
$ATTMODE
 70
     1
  9
$TEXTSIZE
 40
4.1672
  9
$TRACEWID
 40
0.05
  9
$TEXTSTYLE
  7
STANDARD
  9
$CLAYER
  8
0
  9
$CELTYPE
  6
CONTINUOUS
  9
$CECOLOR
 62
   256
  9
$CELTSCALE
 40
1.0
  9
$DELOBJ
 70
     1
  9
$DISPSILH
 70
     0
  9
$DIMSCALE
 40
1.0
  9
$DIMASZ
 40
0.18
  9
$DIMEXO
 40
0.0625
  9
$DIMDLI
 40
0.38
  9
$DIMRND
 40
0.0
  9
$DIMDLE
 40
0.0
  9
$DIMEXE
 40
0.18
  9
$DIMTP
 40
0.0
  9
$DIMTM
 40
0.0
  9
$DIMTXT
 40
0.18
  9
$DIMCEN
 40
0.09
  9
$DIMTSZ
 40
0.0
  9
$DIMTOL
 70
     0
  9
$DIMLIM
 70
     0
  9
$DIMTIH
 70
     1
  9
$DIMTOH
 70
     1
  9
$DIMSE1
 70
     0
  9
$DIMSE2
 70
     0
  9
$DIMTAD
 70
     0
  9
$DIMZIN
 70
     0
  9
$DIMBLK
  1

  9
$DIMASO
 70
     1
  9
$DIMSHO
 70
     1
  9
$DIMPOST
  1

  9
$DIMAPOST
  1

  9
$DIMALT
 70
     0
  9
$DIMALTD
 70
     2
  9
$DIMALTF
 40
25.4
  9
$DIMLFAC
 40
1.0
  9
$DIMTOFL
 70
     0
  9
$DIMTVP
 40
0.0
  9
$DIMTIX
 70
     0
  9
$DIMSOXD
 70
     0
  9
$DIMSAH
 70
     0
  9
$DIMBLK1
  1

  9
$DIMBLK2
  1

  9
$DIMSTYLE
  2
STANDARD
  9
$DIMCLRD
 70
     0
  9
$DIMCLRE
 70
     0
  9
$DIMCLRT
 70
     0
  9
$DIMTFAC
 40
1.0
  9
$DIMGAP
 40
0.09
  9
$DIMJUST
 70
     0
  9
$DIMSD1
 70
     0
  9
$DIMSD2
 70
     0
  9
$DIMTOLJ
 70
     1
  9
$DIMTZIN
 70
     0
  9
$DIMALTZ
 70
     0
  9
$DIMALTTZ
 70
     0
  9
$DIMFIT
 70
     3
  9
$DIMUPT
 70
     0
  9
$DIMUNIT
 70
     2
  9
$DIMDEC
 70
     4
  9
$DIMTDEC
 70
     4
  9
$DIMALTU
 70
     2
  9
$DIMALTTD
 70
     2
  9
$DIMTXSTY
  7
STANDARD
  9
$DIMAUNIT
 70
     0
  9
$LUNITS
 70
     2
  9
$LUPREC
 70
     6
  9
$SKETCHINC
 40
0.1
  9
$FILLETRAD
 40
0.0
  9
$AUNITS
 70
     0
  9
$AUPREC
 70
     4
  9
$MENU
  1
acad
  9
$ELEVATION
 40
0.0
  9
$PELEVATION
 40
0.0
  9
$THICKNESS
 40
0.0
  9
$LIMCHECK
 70
     0
  9
$BLIPMODE
 70
     0
  9
$CHAMFERA
 40
0.0
  9
$CHAMFERB
 40
0.0
  9
$CHAMFERC
 40
0.0
  9
$CHAMFERD
 40
0.0
  9
$SKPOLY
 70
     0
  9
$TDCREATE
 40
2376123.569090173
  9
$TDUPDATE
 40
2451687.701540856
  9
$TDINDWG
 40
0.0008607639
  9
$TDUSRTIMER
 40
0.0008607639
  9
$USRTIMER
 70
     1
  9
$ANGBASE
 50
0.0
  9
$ANGDIR
 70
     0
  9
$PDMODE
 70
     0
  9
$PDSIZE
 40
0.0
  9
$PLINEWID
 40
0.0
  9
$COORDS
 70
     1
  9
$SPLFRAME
 70
     0
  9
$SPLINETYPE
 70
     6
  9
$SPLINESEGS
 70
     8
  9
$ATTDIA
 70
     0
  9
$ATTREQ
 70
     1
  9
$HANDLING
 70
 10241
  9
$HANDSEED
  5
3A8
  9
$SURFTAB1
 70
     6
  9
$SURFTAB2
 70
     6
  9
$SURFTYPE
 70
     6
  9
$SURFU
 70
     6
  9
$SURFV
 70
     6
  9
$UCSNAME
  2

  9
$UCSORG
 10
-0.0000035997893162
 20
0.062065919706509
 30
0.0
  9
$UCSXDIR
 10
1.0
 20
0.0
 30
0.0
  9
$UCSYDIR
 10
0.0
 20
1.0
 30
0.0
  9
$PUCSNAME
  2

  9
$PUCSORG
 10
0.0
 20
0.0
 30
0.0
  9
$PUCSXDIR
 10
1.0
 20
0.0
 30
0.0
  9
$PUCSYDIR
 10
0.0
 20
1.0
 30
0.0
  9
$USERI1
 70
     0
  9
$USERI2
 70
     0
  9
$USERI3
 70
     0
  9
$USERI4
 70
     0
  9
$USERI5
 70
     0
  9
$USERR1
 40
0.0
  9
$USERR2
 40
0.0
  9
$USERR3
 40
0.0
  9
$USERR4
 40
0.0
  9
$USERR5
 40
0.0
  9
$WORLDVIEW
 70
     1
  9
$SHADEDGE
 70
     3
  9
$SHADEDIF
 70
    70
  9
$TILEMODE
 70
     1
  9
$MAXACTVP
 70
    16
  9
$PINSBASE
 10
0.0
 20
0.0
 30
0.0
  9
$PLIMCHECK
 70
     0
  9
$PEXTMIN
 10
-57.946415
 20
-74.45976299999999
 30
1.000000000000000E+20
  9
$PEXTMAX
 10
111.7499999999999
 20
51.0
 30
-1.000000000000000E+20
  9
$PLIMMIN
 10
0.0
 20
0.0
  9
$PLIMMAX
 10
12.0
 20
9.0
  9
$UNITMODE
 70
     0
  9
$VISRETAIN
 70
     0
  9
$PLINEGEN
 70
     0
  9
$PSLTSCALE
 70
     1
  9
$TREEDEPTH
 70
  3020
  9
$PICKSTYLE
 70
     1
  9
$CMLSTYLE
  2
STANDARD
  9
$CMLJUST
 70
     0
  9
$CMLSCALE
 40
1.0
  9
$SAVEIMAGES
 70
     1
  0
ENDSEC
  0
SECTION
  2
CLASSES
  0
CLASS
  1
ACDBDICTIONARYWDFLT
  2
AcDbDictionaryWithDefault
  3
AutoCAD 2000
 90
    32768
280
     0
281
     0
  0
CLASS
  1
ACDBPLACEHOLDER
  2
AcDbPlaceHolder
  3
AutoCAD 2000
 90
    32768
280
     0
281
     0
  0
CLASS
  1
LAYOUT
  2
AcDbLayout
  3
AutoCAD 2000
 90
    32768
280
     0
281
     0
  0
CLASS
  1
LONG_TRANSACTION
  2
AcDbLongTransaction
  3
AutoCAD 2000
 90
    32768
280
     0
281
     0
  0
CLASS
  1
LWPOLYLINE
  2
AcDbPolyline
  3
AutoCAD 2000
 90
    32768
280
     0
281
     1
  0
CLASS
  1
HATCH
  2
AcDbHatch
  3
AutoCAD 2000
 90
    32768
280
     0
281
     1
  0
CLASS
  1
XRECORD
  2
AcDbXrecord
  3
AutoCAD 2000
 90
    32768
280
     0
281
     0
  0
ENDSEC
  0
SECTION
  2
TABLES
  0
TABLE
  2
VPORT
  5
7
330
0
100
AcDbSymbolTable
 70
     2
  0
VPORT
  5
2E1
330
7
100
AcDbSymbolTableRecord
100
AcDbViewportTableRecord
  2
*ACTIVE
 70
     0
 10
0.0
 20
0.0
 11
1.0
 21
1.0
 12
26.89920333574846
 22
-11.72988149999999
 13
0.0
 23
0.0
 14
6.349999999999999
 24
6.349999999999999
 15
6.349999999999999
 25
6.349999999999999
 16
0.0
 26
0.0
 36
1.0
 17
0.0
 27
0.0
 37
0.0
 40
126.7576226172413
 41
1.644214162348877
 42
50.0
 43
0.0
 44
0.0
 50
0.0
 51
0.0
 71
     0
 72
   100
 73
     1
 74
     1
 75
     0
 76
     0
 77
     0
 78
     0
  0
ENDTAB
  0
TABLE
  2
LTYPE
  5
4
330
0
100
AcDbSymbolTable
 70
    37
  0
LTYPE
  5
12
330
4
100
AcDbSymbolTableRecord
100
AcDbLinetypeTableRecord
  2
BYBLOCK
 70
     0
  3

 72
    65
 73
     0
 40
0.0
  0
LTYPE
  5
13
330
4
100
AcDbSymbolTableRecord
100
AcDbLinetypeTableRecord
  2
BYLAYER
 70
     0
  3

 72
    65
 73
     0
 40
0.0
  0
LTYPE
  5
14
330
4
100
AcDbSymbolTableRecord
100
AcDbLinetypeTableRecord
  2
CONTINUOUS
 70
     0
  3
DXF Default line type
 72
    65
 73
     0
 40
0.0
  0
LTYPE
  5
20
330
4
100
AcDbSymbolTableRecord
100
AcDbLinetypeTableRecord
  2
DASHED
 70
     0
  3
DXF Dashed
 72
    65
 73
     2
 40
0.75
 49
0.5
 74
     0
 49
-0.25
 74
     0
  0
LTYPE
  5
21
330
4
100
AcDbSymbolTableRecord
100
AcDbLinetypeTableRecord
  2
HIDDEN
 70
     0
  3
DXF Hidden
 72
    65
 73
     2
 40
0.375
 49
0.25
 74
     0
 49
-0.125
 74
     0
  0
LTYPE
  5
22
330
4
100
AcDbSymbolTableRecord
100
AcDbLinetypeTableRecord
  2
CENTER
 70
     0
  3
DXF Center
 72
    65
 73
     4
 40
2.0
 49
1.25
 74
     0
 49
-0.25
 74
     0
 49
0.25
 74
     0
 49
-0.25
 74
     0
  0
LTYPE
  5
23
330
4
100
AcDbSymbolTableRecord
100
AcDbLinetypeTableRecord
  2
PHANTOM
 70
     0
  3
DXF Phantom
 72
    65
 73
     6
 40
2.5
 49
1.25
 74
     0
 49
-0.25
 74
     0
 49
0.25
 74
     0
 49
-0.25
 74
     0
 49
0.25
 74
     0
 49
-0.25
 74
     0
  0
LTYPE
  5
24
330
4
100
AcDbSymbolTableRecord
100
AcDbLinetypeTableRecord
  2
DOT
 70
     0
  3
DXF DOT
 72
    65
 73
     2
 40
0.25
 49
0.0
 74
     0
 49
-0.25
 74
     0
  0
LTYPE
  5
25
330
4
100
AcDbSymbolTableRecord
100
AcDbLinetypeTableRecord
  2
DASHDOT
 70
     0
  3
DXF Dash Dot
 72
    65
 73
     4
 40
1.0
 49
0.5
 74
     0
 49
-0.25
 74
     0
 49
0.0
 74
     0
 49
-0.25
 74
     0
  0
LTYPE
  5
26
330
4
100
AcDbSymbolTableRecord
100
AcDbLinetypeTableRecord
  2
BORDER
 70
     0
  3
DXF Border
 72
    65
 73
     6
 40
1.75
 49
0.5
 74
     0
 49
-0.25
 74
     0
 49
0.5
 74
     0
 49
-0.25
 74
     0
 49
0.0
 74
     0
 49
-0.25
 74
     0
  0
LTYPE
  5
27
330
4
100
AcDbSymbolTableRecord
100
AcDbLinetypeTableRecord
  2
DIVIDE
 70
     0
  3
DXF Divide
 72
    65
 73
     6
 40
1.25
 49
0.5
 74
     0
 49
-0.25
 74
     0
 49
0.0
 74
     0
 49
-0.25
 74
     0
 49
0.0
 74
     0
 49
-0.25
 74
     0
  0
LTYPE
  5
28
330
4
100
AcDbSymbolTableRecord
100
AcDbLinetypeTableRecord
  2
C_SOLID_L
 70
     0
  3
CADAM Solid Light
 72
    65
 73
     0
 40
0.0
  0
LTYPE
  5
29
330
4
100
AcDbSymbolTableRecord
100
AcDbLinetypeTableRecord
  2
C_SOLID_M
 70
     0
  3
CADAM Solid Medium
 72
    65
 73
     0
 40
0.0
  0
LTYPE
  5
2A
330
4
100
AcDbSymbolTableRecord
100
AcDbLinetypeTableRecord
  2
C_SOLID_H
 70
     0
  3
CADAM Solid Heavy
 72
    65
 73
     0
 40
0.0
  0
LTYPE
  5
2B
330
4
100
AcDbSymbolTableRecord
100
AcDbLinetypeTableRecord
  2
C_DASHED_L
 70
     0
  3
CADAM Dashed Light
 72
    65
 73
     2
 40
0.375
 49
0.25
 74
     0
 49
-0.125
 74
     0
  0
LTYPE
  5
2C
330
4
100
AcDbSymbolTableRecord
100
AcDbLinetypeTableRecord
  2
C_DASHED_M
 70
     0
  3
CADAM Dashed Medium
 72
    65
 73
     2
 40
0.5
 49
0.375
 74
     0
 49
-0.125
 74
     0
  0
LTYPE
  5
2D
330
4
100
AcDbSymbolTableRecord
100
AcDbLinetypeTableRecord
  2
C_CENTER_L
 70
     0
  3
CADAM Center Light
 72
    65
 73
     4
 40
2.0
 49
1.25
 74
     0
 49
-0.25
 74
     0
 49
0.25
 74
     0
 49
-0.25
 74
     0
  0
LTYPE
  5
2E
330
4
100
AcDbSymbolTableRecord
100
AcDbLinetypeTableRecord
  2
C_PHANTOM_L
 70
     0
  3
CADAM Phantom Light
 72
    65
 73
     6
 40
2.5
 49
1.25
 74
     0
 49
-0.25
 74
     0
 49
0.25
 74
     0
 49
-0.25
 74
     0
 49
0.25
 74
     0
 49
-0.25
 74
     0
  0
LTYPE
  5
2F
330
4
100
AcDbSymbolTableRecord
100
AcDbLinetypeTableRecord
  2
C_BREAK_M
 70
     0
  3
CADAM Break Medium
 72
    65
 73
     4
 40
1.0
 49
0.5
 74
     0
 49
-0.25
 74
     0
 49
0.0
 74
     0
 49
-0.25
 74
     0
  0
LTYPE
  5
30
330
4
100
AcDbSymbolTableRecord
100
AcDbLinetypeTableRecord
  2
C_NC
 70
     0
  3
CADAM NC
 72
    65
 73
     0
 40
0.0
  0
LTYPE
  5
31
330
4
100
AcDbSymbolTableRecord
100
AcDbLinetypeTableRecord
  2
DSH1
 70
     0
  3
CADAM Style2 Type 1 Dashed Line
 72
    65
 73
     2
 40
0.075
 49
0.04
 74
     0
 49
-0.035
 74
     0
  0
LTYPE
  5
32
330
4
100
AcDbSymbolTableRecord
100
AcDbLinetypeTableRecord
  2
DSH2
 70
     0
  3
CADAM Style2 Type 2 Dashed Line
 72
    65
 73
     2
 40
0.15
 49
0.11
 74
     0
 49
-0.04
 74
     0
  0
LTYPE
  5
33
330
4
100
AcDbSymbolTableRecord
100
AcDbLinetypeTableRecord
  2
DSH3
 70
     0
  3
CADAM Style2 Type 3 Dashed Line
 72
    65
 73
     2
 40
0.2
 49
0.15
 74
     0
 49
-0.05
 74
     0
  0
LTYPE
  5
34
330
4
100
AcDbSymbolTableRecord
100
AcDbLinetypeTableRecord
  2
DSH4
 70
     0
  3
CADAM Style2 Type 4 Dashed Line
 72
    65
 73
     2
 40
0.36
 49
0.28
 74
     0
 49
-0.08
 74
     0
  0
LTYPE
  5
35
330
4
100
AcDbSymbolTableRecord
100
AcDbLinetypeTableRecord
  2
DSH5
 70
     0
  3
CADAM Style2 Type 5 Dashed Line
 72
    65
 73
     2
 40
0.47
 49
0.39
 74
     0
 49
-0.08
 74
     0
  0
LTYPE
  5
36
330
4
100
AcDbSymbolTableRecord
100
AcDbLinetypeTableRecord
  2
DSH6
 70
     0
  3
CADAM Style2 Type 6 Dashed Line
 72
    65
 73
     2
 40
0.9
 49
0.8100000000000001
 74
     0
 49
-0.09
 74
     0
  0
LTYPE
  5
37
330
4
100
AcDbSymbolTableRecord
100
AcDbLinetypeTableRecord
  2
PL1
 70
     0
  3
Style 2 Type 1 Phantom Line
 72
    65
 73
     6
 40
1.0
 49
0.6
 74
     0
 49
-0.08
 74
     0
 49
0.08
 74
     0
 49
-0.08
 74
     0
 49
0.08
 74
     0
 49
-0.08
 74
     0
  0
LTYPE
  5
38
330
4
100
AcDbSymbolTableRecord
100
AcDbLinetypeTableRecord
  2
PL2
 70
     0
  3
Style 2 Type 2 Phantom Line
 72
    65
 73
     6
 40
1.08
 49
0.6
 74
     0
 49
-0.08
 74
     0
 49
0.12
 74
     0
 49
-0.08
 74
     0
 49
0.12
 74
     0
 49
-0.08
 74
     0
  0
LTYPE
  5
39
330
4
100
AcDbSymbolTableRecord
100
AcDbLinetypeTableRecord
  2
PL3
 70
     0
  3
Style 2 Type 3 Phantom Line
 72
    65
 73
     6
 40
2.0
 49
1.439999999999999
 74
     0
 49
-0.08
 74
     0
 49
0.16
 74
     0
 49
-0.08
 74
     0
 49
0.16
 74
     0
 49
-0.08
 74
     0
  0
LTYPE
  5
3A
330
4
100
AcDbSymbolTableRecord
100
AcDbLinetypeTableRecord
  2
CL1
 70
     0
  3
CADAM Style 2 Type 1 Center Line
 72
    65
 73
     4
 40
0.7
 49
0.45
 74
     0
 49
-0.06
 74
     0
 49
0.13
 74
     0
 49
-0.06
 74
     0
  0
LTYPE
  5
3B
330
4
100
AcDbSymbolTableRecord
100
AcDbLinetypeTableRecord
  2
CL2
 70
     0
  3
CADAM Style 2 Type 2 Center Line
 72
    65
 73
     4
 40
1.199999999999999
 49
1.01
 74
     0
 49
-0.06
 74
     0
 49
0.11
 74
     0
 49
-0.06
 74
     0
  0
LTYPE
  5
3C
330
4
100
AcDbSymbolTableRecord
100
AcDbLinetypeTableRecord
  2
CL3
 70
     0
  3
CADAM Style 2 Type 3 Center Line
 72
    65
 73
     4
 40
1.199999999999999
 49
0.98
 74
     0
 49
-0.06
 74
     0
 49
0.1
 74
     0
 49
-0.06
 74
     0
  0
LTYPE
  5
3D
330
4
100
AcDbSymbolTableRecord
100
AcDbLinetypeTableRecord
  2
CL4
 70
     0
  3
CADAM Style 2 Type 4 Center Line
 72
    65
 73
     4
 40
2.2
 49
1.929999999999999
 74
     0
 49
-0.07
 74
     0
 49
0.13
 74
     0
 49
-0.07
 74
     0
  0
LTYPE
  5
3E
330
4
100
AcDbSymbolTableRecord
100
AcDbLinetypeTableRecord
  2
CL5
 70
     0
  3
CADAM Style 2 Type 5 Center Line
 72
    65
 73
     4
 40
2.2
 49
1.879999999999999
 74
     0
 49
-0.07
 74
     0
 49
0.18
 74
     0
 49
-0.07
 74
     0
  0
LTYPE
  5
3F
330
4
100
AcDbSymbolTableRecord
100
AcDbLinetypeTableRecord
  2
SBK1
 70
     0
  3
CADAM Style 2 Type 1 SetBack Line
 72
    65
 73
     8
 40
2.7
 49
0.1
 74
     0
 49
-0.08
 74
     0
 49
0.1
 74
     0
 49
-0.8
 74
     0
 49
0.0
 74
     0
 49
0.0
 74
     0
 49
0.0
 74
     0
 49
0.0
 74
     0
  0
LTYPE
  5
40
330
4
100
AcDbSymbolTableRecord
100
AcDbLinetypeTableRecord
  2
SBK2
 70
     0
  3
CADAM Style 2 Type 2 SetBack Line
 72
    65
 73
     8
 40
3.709999999999999
 49
0.13
 74
     0
 49
-0.08
 74
     0
 49
0.13
 74
     0
 49
-0.8
 74
     0
 49
0.0
 74
     0
 49
0.0
 74
     0
 49
0.0
 74
     0
 49
0.0
 74
     0
  0
LTYPE
  5
41
330
4
100
AcDbSymbolTableRecord
100
AcDbLinetypeTableRecord
  2
STCH
 70
     0
  3
CADAM Style2 Stitch Line
 72
    65
 73
     2
 40
0.25
 49
0.0
 74
     0
 49
-0.25
 74
     0
  0
LTYPE
  5
42
330
4
100
AcDbSymbolTableRecord
100
AcDbLinetypeTableRecord
  2
MTCH
 70
     0
  3
CADAM Style2 Match Line
 72
    65
 73
     6
 40
2.0
 49
1.439999999999999
 74
     0
 49
-0.8
 74
     0
 49
0.16
 74
     0
 49
-0.08
 74
     0
 49
0.16
 74
     0
 49
-0.08
 74
     0
  0
LTYPE
  5
43
330
4
100
AcDbSymbolTableRecord
100
AcDbLinetypeTableRecord
  2
SLD
 70
     0
  3
CADAM Solid_EXT2
 72
    65
 73
     0
 40
0.0
  0
ENDTAB
  0
TABLE
  2
LAYER
  5
2
330
0
100
AcDbSymbolTable
 70
     7
  0
LAYER
  5
15
330
2
100
AcDbSymbolTableRecord
100
AcDbLayerTableRecord
  2
0
 70
     0
 62
     7
  6
CONTINUOUS
  0
LAYER
  5
44
330
2
100
AcDbSymbolTableRecord
100
AcDbLayerTableRecord
  2
MO_001_NOSHOW
 70
     1
 62
     7
  6
CONTINUOUS
  0
LAYER
  5
45
330
2
100
AcDbSymbolTableRecord
100
AcDbLayerTableRecord
  2
MO_001_VIEW_PV
 70
     0
 62
     7
  6
CONTINUOUS
  0
LAYER
  5
46
330
2
100
AcDbSymbolTableRecord
100
AcDbLayerTableRecord
  2
OVERLAY_MAP
 70
     1
 62
     7
  6
CONTINUOUS
  0
LAYER
  5
47
330
2
100
AcDbSymbolTableRecord
100
AcDbLayerTableRecord
  2
DITTOS
 70
     0
 62
     7
  6
CONTINUOUS
  0
LAYER
  5
48
330
2
100
AcDbSymbolTableRecord
100
AcDbLayerTableRecord
  2
SYMBOLS
 70
     0
 62
     7
  6
CONTINUOUS
  0
LAYER
  5
49
330
2
100
AcDbSymbolTableRecord
100
AcDbLayerTableRecord
  2
SETS
 70
     0
 62
     7
  6
CONTINUOUS
  0
ENDTAB
  0
TABLE
  2
STYLE
  5
3
330
0
100
AcDbSymbolTable
 70
     1
  0
STYLE
  5
18
330
3
100
AcDbSymbolTableRecord
100
AcDbTextStyleTableRecord
  2
STANDARD
 70
     0
 40
4.1672
 41
1.0
 50
0.0
 71
     0
 42
4.1672
  3
monotxt
  4
BIGFONT
  0
ENDTAB
  0
TABLE
  2
VIEW
  5
5
330
0
100
AcDbSymbolTable
 70
     0
  0
ENDTAB
  0
TABLE
  2
UCS
  5
6
330
0
100
AcDbSymbolTable
 70
     1
  0
UCS
  5
4A
330
6
100
AcDbSymbolTableRecord
100
AcDbUCSTableRecord
  2
MO_001_VIEW_PV_P
 70
     0
 10
0.0
 20
0.0
 30
0.0
 11
1.0
 21
0.0
 31
0.0
 12
-0.0000000002051034
 22
1.0
 32
0.0
  0
ENDTAB
  0
TABLE
  2
APPID
  5
8
330
0
100
AcDbSymbolTable
 70
     1
  0
APPID
  5
17
330
8
100
AcDbSymbolTableRecord
100
AcDbRegAppTableRecord
  2
ACAD
 70
     0
  0
ENDTAB
  0
TABLE
  2
DIMSTYLE
  5
9
330
0
100
AcDbSymbolTable
 70
     1
  0
DIMSTYLE
105
19
102
{ACAD_REACTORS
330
244
330
246
330
248
330
24A
330
24C
330
24E
330
250
330
252
330
254
330
256
330
258
330
25A
102
}
330
9
100
AcDbSymbolTableRecord
100
AcDbDimStyleTableRecord
  2
STANDARD
 70
     0
  3

  4

  5

  6

  7

 40
1.0
 41
0.18
 42
0.0625
 43
0.38
 44
0.18
 45
0.0
 46
0.0
 47
0.0
 48
0.0
140
0.18
141
0.09
142
0.0
143
25.4
144
1.0
145
0.0
146
1.0
147
0.09
 71
     0
 72
     0
 73
     1
 74
     1
 75
     0
 76
     0
 77
     0
 78
     0
170
     0
171
     2
172
     0
173
     0
174
     0
175
     0
176
     0
177
     0
178
     0
270
     2
271
     4
272
     4
273
     2
274
     2
340
18
275
     0
280
     0
281
     0
282
     0
283
     1
284
     0
285
     0
286
     0
287
     3
288
     0
  0
ENDTAB
  0
TABLE
  2
BLOCK_RECORD
  5
C
330
0
100
AcDbSymbolTable
 70
    12
  0
BLOCK_RECORD
  5
1E
102
{ACAD_XDICTIONARY
360
2E2
102
}
330
C
100
AcDbSymbolTableRecord
100
AcDbBlockTableRecord
  2
*MODEL_SPACE
  0
BLOCK_RECORD
  5
1F
102
{ACAD_XDICTIONARY
360
2E4
102
}
330
C
100
AcDbSymbolTableRecord
100
AcDbBlockTableRecord
  2
*PAPER_SPACE
  0
BLOCK_RECORD
  5
243
330
C
100
AcDbSymbolTableRecord
100
AcDbBlockTableRecord
  2
*D0
  0
BLOCK_RECORD
  5
245
330
C
100
AcDbSymbolTableRecord
100
AcDbBlockTableRecord
  2
*D1
  0
BLOCK_RECORD
  5
247
330
C
100
AcDbSymbolTableRecord
100
AcDbBlockTableRecord
  2
*D2
  0
BLOCK_RECORD
  5
249
330
C
100
AcDbSymbolTableRecord
100
AcDbBlockTableRecord
  2
*D3
  0
BLOCK_RECORD
  5
24B
330
C
100
AcDbSymbolTableRecord
100
AcDbBlockTableRecord
  2
*D4
  0
BLOCK_RECORD
  5
24D
330
C
100
AcDbSymbolTableRecord
100
AcDbBlockTableRecord
  2
*D5
  0
BLOCK_RECORD
  5
24F
330
C
100
AcDbSymbolTableRecord
100
AcDbBlockTableRecord
  2
*D6
  0
BLOCK_RECORD
  5
251
330
C
100
AcDbSymbolTableRecord
100
AcDbBlockTableRecord
  2
*D7
  0
BLOCK_RECORD
  5
253
330
C
100
AcDbSymbolTableRecord
100
AcDbBlockTableRecord
  2
*D8
  0
BLOCK_RECORD
  5
255
330
C
100
AcDbSymbolTableRecord
100
AcDbBlockTableRecord
  2
*D9
  0
BLOCK_RECORD
  5
257
330
C
100
AcDbSymbolTableRecord
100
AcDbBlockTableRecord
  2
*D10
  0
BLOCK_RECORD
  5
259
330
C
100
AcDbSymbolTableRecord
100
AcDbBlockTableRecord
  2
*D11
  0
ENDTAB
  0
ENDSEC
  0
SECTION
  2
BLOCKS
  0
BLOCK
  5
E
330
1E
100
AcDbEntity
  8
0
100
AcDbBlockBegin
  2
*MODEL_SPACE
 70
     0
 10
0.0
 20
0.0
 30
0.0
  3
*MODEL_SPACE
  1

  0
ENDBLK
  5
F
330
1E
100
AcDbEntity
  8
0
100
AcDbBlockEnd
  0
BLOCK
  5
10
330
1F
100
AcDbEntity
 67
     1
  8
0
100
AcDbBlockBegin
  2
*PAPER_SPACE
 70
     0
 10
0.0
 20
0.0
 30
0.0
  3
*PAPER_SPACE
  1

  0
ENDBLK
  5
11
330
1F
100
AcDbEntity
 67
     1
  8
0
100
AcDbBlockEnd
  0
BLOCK
  5
261
330
243
100
AcDbEntity
  8
0
100
AcDbBlockBegin
  2
*D0
 70
     1
 10
0.0
 20
0.0
 30
0.0
  3
*D0
  1

  0
TEXT
  5
262
330
243
100
AcDbEntity
  8
MO_001_VIEW_PV
  6
BYBLOCK
100
AcDbText
 10
104.2499999999999
 20
-6.080286
 30
0.0
 40
3.0
  1
長さ250以上
 50
90.0
100
AcDbText
  0
LINE
  5
263
330
243
100
AcDbEntity
  8
MO_001_VIEW_PV
  6
BYBLOCK
100
AcDbLine
 10
105.0
 20
-50.24993900000001
 30
0.0
 11
105.0
 21
-26.79809
 31
0.0
  0
SOLID
  5
264
330
243
100
AcDbEntity
  8
MO_001_VIEW_PV
  6
BYBLOCK
100
AcDbTrace
 10
104.416488
 20
-46.93167899999999
 30
0.0
 11
105.0
 21
-49.741939
 31
0.0
 12
105.583512
 22
-46.93167899999999
 32
0.0
 13
105.583512
 23
-46.93167899999999
 33
0.0
  0
SOLID
  5
265
330
243
100
AcDbEntity
  8
MO_001_VIEW_PV
  6
BYBLOCK
100
AcDbTrace
 10
105.583512
 20
-30.11635
 30
0.0
 11
105.0
 21
-27.30609
 31
0.0
 12
104.416488
 22
-30.11635
 32
0.0
 13
104.416488
 23
-30.11635
 33
0.0
  0
LINE
  5
266
330
243
100
AcDbEntity
  8
MO_001_VIEW_PV
  6
BYBLOCK
100
AcDbLine
 10
78.823975
 20
-50.24993900000001
 30
0.0
 11
107.286003
 21
-50.24993900000001
 31
0.0
  0
LINE
  5
267
330
243
100
AcDbEntity
  8
MO_001_VIEW_PV
  6
BYBLOCK
100
AcDbLine
 10
79.85000600000001
 20
-26.79809
 30
0.0
 11
107.286003
 21
-26.79809
 31
0.0
  0
LINE
  5
268
330
243
100
AcDbEntity
  8
MO_001_VIEW_PV
  6
BYBLOCK
100
AcDbLine
 10
105.0
 20
-26.79809
 30
0.0
 11
105.0
 21
15.026855
 31
0.0
  0
ENDBLK
  5
269
330
243
100
AcDbEntity
  8
0
100
AcDbBlockEnd
  0
BLOCK
  5
26A
330
245
100
AcDbEntity
  8
0
100
AcDbBlockBegin
  2
*D1
 70
     1
 10
0.0
 20
0.0
 30
0.0
  3
*D1
  1

  0
TEXT
  5
26B
330
245
100
AcDbEntity
  8
MO_001_VIEW_PV
  6
BYBLOCK
100
AcDbText
 10
-20.816911
 20
35.625
 30
0.0
 40
1.5
  1
%%P0.1
100
AcDbText
  0
TEXT
  5
26C
330
245
100
AcDbEntity
  8
MO_001_VIEW_PV
  6
BYBLOCK
100
AcDbText
 10
-29.602625
 20
33.75
 30
0.0
 40
3.0
  1
2.9
100
AcDbText
  0
LINE
  5
26D
330
245
100
AcDbEntity
  8
MO_001_VIEW_PV
  6
BYBLOCK
100
AcDbLine
 10
-37.606991
 20
33.0
 30
0.0
 11
-34.70699299999999
 21
33.0
 31
0.0
  0
LINE
  5
26E
330
245
100
AcDbEntity
  8
MO_001_VIEW_PV
  6
BYBLOCK
100
AcDbLine
 10
-34.70699299999999
 20
33.0
 30
0.0
 11
-28.35699299999999
 21
33.0
 31
0.0
  0
SOLID
  5
26F
330
245
100
AcDbEntity
  8
MO_001_VIEW_PV
  6
BYBLOCK
100
AcDbTrace
 10
-37.606991
 20
33.635
 30
0.0
 11
-37.606991
 21
32.365
 31
0.0
 12
-37.606991
 22
33.635
 32
0.0
 13
-37.606991
 23
33.635
 33
0.0
  0
SOLID
  5
270
330
245
100
AcDbEntity
  8
MO_001_VIEW_PV
  6
BYBLOCK
100
AcDbTrace
 10
-31.388733
 20
33.58351199999999
 30
0.0
 11
-34.198993
 21
33.0
 31
0.0
 12
-31.388733
 22
32.416488
 32
0.0
 13
-31.388733
 23
32.416488
 33
0.0
  0
LINE
  5
271
330
245
100
AcDbEntity
  8
MO_001_VIEW_PV
  6
BYBLOCK
100
AcDbLine
 10
-37.606991
 20
25.0
 30
0.0
 11
-37.606991
 21
35.28599899999999
 31
0.0
  0
LINE
  5
272
330
245
100
AcDbEntity
  8
MO_001_VIEW_PV
  6
BYBLOCK
100
AcDbLine
 10
-34.70699299999999
 20
25.0
 30
0.0
 11
-34.70699299999999
 21
35.28599899999999
 31
0.0
  0
LINE
  5
273
330
245
100
AcDbEntity
  8
MO_001_VIEW_PV
  6
BYBLOCK
100
AcDbLine
 10
-34.70699299999999
 20
33.0
 30
0.0
 11
-14.495482
 21
33.0
 31
0.0
  0
ENDBLK
  5
274
330
245
100
AcDbEntity
  8
0
100
AcDbBlockEnd
  0
BLOCK
  5
275
330
247
100
AcDbEntity
  8
0
100
AcDbBlockBegin
  2
*D2
 70
     1
 10
0.0
 20
0.0
 30
0.0
  3
*D2
  1

  0
TEXT
  5
276
330
247
100
AcDbEntity
  8
MO_001_VIEW_PV
  6
BYBLOCK
100
AcDbText
 10
-48.196416
 20
35.625
 30
0.0
 40
1.5
  1
%%P0.3
100
AcDbText
  0
TEXT
  5
277
330
247
100
AcDbEntity
  8
MO_001_VIEW_PV
  6
BYBLOCK
100
AcDbText
 10
-56.98213
 20
33.75
 30
0.0
 40
3.0
  1
2.2
100
AcDbText
  0
LINE
  5
278
330
247
100
AcDbEntity
  8
MO_001_VIEW_PV
  6
BYBLOCK
100
AcDbLine
 10
-39.87718199999999
 20
33.0
 30
0.0
 11
-37.606991
 21
33.0
 31
0.0
  0
LINE
  5
279
330
247
100
AcDbEntity
  8
MO_001_VIEW_PV
  6
BYBLOCK
100
AcDbLine
 10
-39.87718199999999
 20
33.0
 30
0.0
 11
-46.227182
 21
33.0
 31
0.0
  0
SOLID
  5
27A
330
247
100
AcDbEntity
  8
MO_001_VIEW_PV
  6
BYBLOCK
100
AcDbTrace
 10
-43.195442
 20
32.416488
 30
0.0
 11
-40.385182
 21
33.0
 31
0.0
 12
-43.195442
 22
33.58351199999999
 32
0.0
 13
-43.195442
 23
33.58351199999999
 33
0.0
  0
LINE
  5
27B
330
247
100
AcDbEntity
  8
MO_001_VIEW_PV
  6
BYBLOCK
100
AcDbLine
 10
-39.87718199999999
 20
12.90377799999999
 30
0.0
 11
-39.87718199999999
 21
35.28599899999999
 31
0.0
  0
LINE
  5
27C
330
247
100
AcDbEntity
  8
MO_001_VIEW_PV
  6
BYBLOCK
100
AcDbLine
 10
-37.606991
 20
25.0
 30
0.0
 11
-37.606991
 21
35.28599899999999
 31
0.0
  0
LINE
  5
27D
330
247
100
AcDbEntity
  8
MO_001_VIEW_PV
  6
BYBLOCK
100
AcDbLine
 10
-57.946415
 20
33.0
 30
0.0
 11
-39.87718199999999
 21
33.0
 31
0.0
  0
ENDBLK
  5
27E
330
247
100
AcDbEntity
  8
0
100
AcDbBlockEnd
  0
BLOCK
  5
27F
330
249
100
AcDbEntity
  8
0
100
AcDbBlockBegin
  2
*D3
 70
     1
 10
0.0
 20
0.0
 30
0.0
  3
*D3
  1

  0
TEXT
  5
280
330
249
100
AcDbEntity
  8
MO_001_VIEW_PV
  6
BYBLOCK
100
AcDbText
 10
-25.51002
 20
39.75
 30
0.0
 40
3.0
  1
41以下
100
AcDbText
  0
LINE
  5
281
330
249
100
AcDbEntity
  8
MO_001_VIEW_PV
  6
BYBLOCK
100
AcDbLine
 10
-39.87718199999999
 20
39.0
 30
0.0
 11
0.0
 21
39.0
 31
0.0
  0
SOLID
  5
282
330
249
100
AcDbEntity
  8
MO_001_VIEW_PV
  6
BYBLOCK
100
AcDbTrace
 10
-36.55892199999999
 20
39.583512
 30
0.0
 11
-39.369182
 21
39.0
 31
0.0
 12
-36.55892199999999
 22
38.416488
 32
0.0
 13
-36.55892199999999
 23
38.416488
 33
0.0
  0
SOLID
  5
283
330
249
100
AcDbEntity
  8
MO_001_VIEW_PV
  6
BYBLOCK
100
AcDbTrace
 10
-3.318259999999999
 20
38.416488
 30
0.0
 11
-0.508
 21
39.0
 31
0.0
 12
-3.318259999999999
 22
39.583512
 32
0.0
 13
-3.318259999999999
 23
39.583512
 33
0.0
  0
LINE
  5
284
330
249
100
AcDbEntity
  8
MO_001_VIEW_PV
  6
BYBLOCK
100
AcDbLine
 10
-39.87718199999999
 20
12.90377799999999
 30
0.0
 11
-39.87718199999999
 21
41.285999
 31
0.0
  0
LINE
  5
285
330
249
100
AcDbEntity
  8
MO_001_VIEW_PV
  6
BYBLOCK
100
AcDbLine
 10
0.0
 20
24.599998
 30
0.0
 11
0.0
 21
41.285999
 31
0.0
  0
ENDBLK
  5
286
330
249
100
AcDbEntity
  8
0
100
AcDbBlockEnd
  0
BLOCK
  5
287
330
24B
100
AcDbEntity
  8
0
100
AcDbBlockBegin
  2
*D4
 70
     1
 10
0.0
 20
0.0
 30
0.0
  3
*D4
  1

  0
TEXT
  5
288
330
24B
100
AcDbEntity
  8
MO_001_VIEW_PV
  6
BYBLOCK
100
AcDbText
 10
-23.639213
 20
47.625
 30
0.0
 40
1.5
  1
%%P1.0
100
AcDbText
  0
TEXT
  5
289
330
24B
100
AcDbEntity
  8
MO_001_VIEW_PV
  6
BYBLOCK
100
AcDbText
 10
-35.424927
 20
45.75
 30
0.0
 40
3.0
  1
53.8
100
AcDbText
  0
LINE
  5
28A
330
24B
100
AcDbEntity
  8
MO_001_VIEW_PV
  6
BYBLOCK
100
AcDbLine
 10
0.0
 20
45.0
 30
0.0
 11
-53.70699699999999
 21
45.0
 31
0.0
  0
SOLID
  5
28B
330
24B
100
AcDbEntity
  8
MO_001_VIEW_PV
  6
BYBLOCK
100
AcDbTrace
 10
-3.318259999999999
 20
44.416488
 30
0.0
 11
-0.508
 21
45.0
 31
0.0
 12
-3.318259999999999
 22
45.58351199999999
 32
0.0
 13
-3.318259999999999
 23
45.58351199999999
 33
0.0
  0
SOLID
  5
28C
330
24B
100
AcDbEntity
  8
MO_001_VIEW_PV
  6
BYBLOCK
100
AcDbTrace
 10
-50.38873699999999
 20
45.58351199999999
 30
0.0
 11
-53.198997
 21
45.0
 31
0.0
 12
-50.38873699999999
 22
44.416488
 32
0.0
 13
-50.38873699999999
 23
44.416488
 33
0.0
  0
LINE
  5
28D
330
24B
100
AcDbEntity
  8
MO_001_VIEW_PV
  6
BYBLOCK
100
AcDbLine
 10
0.0
 20
24.599998
 30
0.0
 11
0.0
 21
47.28599899999999
 31
0.0
  0
LINE
  5
28E
330
24B
100
AcDbEntity
  8
MO_001_VIEW_PV
  6
BYBLOCK
100
AcDbLine
 10
-53.70699699999999
 20
37.06293499999999
 30
0.0
 11
-53.70699699999999
 21
47.28599899999999
 31
0.0
  0
LINE
  5
28F
330
24B
100
AcDbEntity
  8
MO_001_VIEW_PV
  6
BYBLOCK
100
AcDbLine
 10
-53.70699699999999
 20
3.824408999999999
 30
0.0
 11
-53.70699699999999
 21
32.487854
 31
0.0
  0
ENDBLK
  5
290
330
24B
100
AcDbEntity
  8
0
100
AcDbBlockEnd
  0
BLOCK
  5
291
330
24D
100
AcDbEntity
  8
0
100
AcDbBlockBegin
  2
*D5
 70
     1
 10
0.0
 20
0.0
 30
0.0
  3
*D5
  1

  0
TEXT
  5
292
330
24D
100
AcDbEntity
  8
MO_001_VIEW_PV
  6
BYBLOCK
100
AcDbText
 10
29.85152299999999
 20
47.625
 30
0.0
 40
1.5
  1
%%P0.5
100
AcDbText
  0
TEXT
  5
293
330
24D
100
AcDbEntity
  8
MO_001_VIEW_PV
  6
BYBLOCK
100
AcDbText
 10
18.06580899999999
 20
45.75
 30
0.0
 40
3.0
  1
17.3
100
AcDbText
  0
LINE
  5
294
330
24D
100
AcDbEntity
  8
MO_001_VIEW_PV
  6
BYBLOCK
100
AcDbLine
 10
0.0
 20
45.0
 30
0.0
 11
17.39300499999999
 21
45.0
 31
0.0
  0
SOLID
  5
295
330
24D
100
AcDbEntity
  8
MO_001_VIEW_PV
  6
BYBLOCK
100
AcDbTrace
 10
3.318259999999999
 20
45.58351199999999
 30
0.0
 11
0.508
 21
45.0
 31
0.0
 12
3.318259999999999
 22
44.416488
 32
0.0
 13
3.318259999999999
 23
44.416488
 33
0.0
  0
SOLID
  5
296
330
24D
100
AcDbEntity
  8
MO_001_VIEW_PV
  6
BYBLOCK
100
AcDbTrace
 10
14.074745
 20
44.416488
 30
0.0
 11
16.88500499999999
 21
45.0
 31
0.0
 12
14.074745
 22
45.58351199999999
 32
0.0
 13
14.074745
 23
45.58351199999999
 33
0.0
  0
LINE
  5
297
330
24D
100
AcDbEntity
  8
MO_001_VIEW_PV
  6
BYBLOCK
100
AcDbLine
 10
0.0
 20
24.599998
 30
0.0
 11
0.0
 21
47.28599899999999
 31
0.0
  0
LINE
  5
298
330
24D
100
AcDbEntity
  8
MO_001_VIEW_PV
  6
BYBLOCK
100
AcDbLine
 10
17.39300499999999
 20
3.669998
 30
0.0
 11
17.39300499999999
 21
47.28599899999999
 31
0.0
  0
LINE
  5
299
330
24D
100
AcDbEntity
  8
MO_001_VIEW_PV
  6
BYBLOCK
100
AcDbLine
 10
17.39300499999999
 20
45.0
 30
0.0
 11
36.17295099999999
 21
45.0
 31
0.0
  0
ENDBLK
  5
29A
330
24D
100
AcDbEntity
  8
0
100
AcDbBlockEnd
  0
BLOCK
  5
29B
330
24F
100
AcDbEntity
  8
0
100
AcDbBlockBegin
  2
*D6
 70
     1
 10
0.0
 20
0.0
 30
0.0
  3
*D6
  1

  0
TEXT
  5
29C
330
24F
100
AcDbEntity
  8
MO_001_VIEW_PV
  6
BYBLOCK
100
AcDbText
 10
30.711615
 20
41.625
 30
0.0
 40
1.5
  1
%%P0.5
100
AcDbText
  0
TEXT
  5
29D
330
24F
100
AcDbEntity
  8
MO_001_VIEW_PV
  6
BYBLOCK
100
AcDbText
 10
18.92590099999999
 20
39.75
 30
0.0
 40
3.0
  1
18.4
100
AcDbText
  0
LINE
  5
29E
330
24F
100
AcDbEntity
  8
MO_001_VIEW_PV
  6
BYBLOCK
100
AcDbLine
 10
18.400002
 20
39.0
 30
0.0
 11
0.0
 21
39.0
 31
0.0
  0
SOLID
  5
29F
330
24F
100
AcDbEntity
  8
MO_001_VIEW_PV
  6
BYBLOCK
100
AcDbTrace
 10
15.081741
 20
38.416488
 30
0.0
 11
17.89200199999999
 21
39.0
 31
0.0
 12
15.081741
 22
39.583512
 32
0.0
 13
15.081741
 23
39.583512
 33
0.0
  0
SOLID
  5
2A0
330
24F
100
AcDbEntity
  8
MO_001_VIEW_PV
  6
BYBLOCK
100
AcDbTrace
 10
3.318259999999999
 20
39.583512
 30
0.0
 11
0.508
 21
39.0
 31
0.0
 12
3.318259999999999
 22
38.416488
 32
0.0
 13
3.318259999999999
 23
38.416488
 33
0.0
  0
LINE
  5
2A1
330
24F
100
AcDbEntity
  8
MO_001_VIEW_PV
  6
BYBLOCK
100
AcDbLine
 10
18.400002
 20
19.949997
 30
0.0
 11
18.400002
 21
41.285999
 31
0.0
  0
LINE
  5
2A2
330
24F
100
AcDbEntity
  8
MO_001_VIEW_PV
  6
BYBLOCK
100
AcDbLine
 10
0.0
 20
24.599998
 30
0.0
 11
0.0
 21
41.285999
 31
0.0
  0
LINE
  5
2A3
330
24F
100
AcDbEntity
  8
MO_001_VIEW_PV
  6
BYBLOCK
100
AcDbLine
 10
37.033043
 20
39.0
 30
0.0
 11
18.400002
 21
39.0
 31
0.0
  0
ENDBLK
  5
2A4
330
24F
100
AcDbEntity
  8
0
100
AcDbBlockEnd
  0
BLOCK
  5
2A5
330
251
100
AcDbEntity
  8
0
100
AcDbBlockBegin
  2
*D7
 70
     1
 10
0.0
 20
0.0
 30
0.0
  3
*D7
  1

  0
TEXT
  5
2A6
330
251
100
AcDbEntity
  8
MO_001_VIEW_PV
  6
BYBLOCK
100
AcDbText
 10
24.375
 20
22.65270499999999
 30
0.0
 40
1.5
  1
%%P0.03
 50
90.0
100
AcDbText
  0
TEXT
  5
2A7
330
251
100
AcDbEntity
  8
MO_001_VIEW_PV
  6
BYBLOCK
100
AcDbText
 10
26.25
 20
7.866991
 30
0.0
 40
3.0
  1
%%C7.94
 50
90.0
100
AcDbText
  0
LINE
  5
2A8
330
251
100
AcDbEntity
  8
MO_001_VIEW_PV
  6
BYBLOCK
100
AcDbLine
 10
27.0
 20
-3.970001
 30
0.0
 11
27.0
 21
3.970001
 31
0.0
  0
LINE
  5
2A9
330
251
100
AcDbEntity
  8
MO_001_VIEW_PV
  6
BYBLOCK
100
AcDbLine
 10
27.0
 20
-3.970001
 30
0.0
 11
27.0
 21
-10.320001
 31
0.0
  0
LINE
  5
2AA
330
251
100
AcDbEntity
  8
MO_001_VIEW_PV
  6
BYBLOCK
100
AcDbLine
 10
27.0
 20
3.970001
 30
0.0
 11
27.0
 21
10.320001
 31
0.0
  0
SOLID
  5
2AB
330
251
100
AcDbEntity
  8
MO_001_VIEW_PV
  6
BYBLOCK
100
AcDbTrace
 10
27.58351199999999
 20
-7.288261
 30
0.0
 11
27.0
 21
-4.478000999999999
 31
0.0
 12
26.416488
 22
-7.288261
 32
0.0
 13
26.416488
 23
-7.288261
 33
0.0
  0
SOLID
  5
2AC
330
251
100
AcDbEntity
  8
MO_001_VIEW_PV
  6
BYBLOCK
100
AcDbTrace
 10
26.416488
 20
7.288261
 30
0.0
 11
27.0
 21
4.478000999999999
 31
0.0
 12
27.58351199999999
 22
7.288261
 32
0.0
 13
27.58351199999999
 23
7.288261
 33
0.0
  0
LINE
  5
2AD
330
251
100
AcDbEntity
  8
MO_001_VIEW_PV
  6
BYBLOCK
100
AcDbLine
 10
17.09300199999999
 20
-3.970001
 30
0.0
 11
29.285999
 21
-3.970001
 31
0.0
  0
LINE
  5
2AE
330
251
100
AcDbEntity
  8
MO_001_VIEW_PV
  6
BYBLOCK
100
AcDbLine
 10
17.09300199999999
 20
3.970001
 30
0.0
 11
29.285999
 21
3.970001
 31
0.0
  0
LINE
  5
2AF
330
251
100
AcDbEntity
  8
MO_001_VIEW_PV
  6
BYBLOCK
100
AcDbLine
 10
27.0
 20
3.970001
 30
0.0
 11
27.0
 21
30.474133
 31
0.0
  0
ENDBLK
  5
2B0
330
251
100
AcDbEntity
  8
0
100
AcDbBlockEnd
  0
BLOCK
  5
2B1
330
253
100
AcDbEntity
  8
0
100
AcDbBlockBegin
  2
*D8
 70
     1
 10
0.0
 20
0.0
 30
0.0
  3
*D8
  1

  0
TEXT
  5
2B2
330
253
100
AcDbEntity
  8
MO_001_VIEW_PV
  6
BYBLOCK
100
AcDbText
 10
21.428571
 20
-32.25
 30
0.0
 40
3.0
  1
11.1以上
100
AcDbText
  0
LINE
  5
2B3
330
253
100
AcDbEntity
  8
MO_001_VIEW_PV
  6
BYBLOCK
100
AcDbLine
 10
17.39300499999999
 20
-33.0
 30
0.0
 11
5.993003999999999
 21
-33.0
 31
0.0
  0
LINE
  5
2B4
330
253
100
AcDbEntity
  8
MO_001_VIEW_PV
  6
BYBLOCK
100
AcDbLine
 10
17.39300499999999
 20
-33.0
 30
0.0
 11
23.74300499999999
 21
-33.0
 31
0.0
  0
LINE
  5
2B5
330
253
100
AcDbEntity
  8
MO_001_VIEW_PV
  6
BYBLOCK
100
AcDbLine
 10
5.993003999999999
 20
-33.0
 30
0.0
 11
-0.356996
 21
-33.0
 31
0.0
  0
SOLID
  5
2B6
330
253
100
AcDbEntity
  8
MO_001_VIEW_PV
  6
BYBLOCK
100
AcDbTrace
 10
20.711265
 20
-32.416488
 30
0.0
 11
17.90100499999999
 21
-33.0
 31
0.0
 12
20.711265
 22
-33.58351199999999
 32
0.0
 13
20.711265
 23
-33.58351199999999
 33
0.0
  0
SOLID
  5
2B7
330
253
100
AcDbEntity
  8
MO_001_VIEW_PV
  6
BYBLOCK
100
AcDbTrace
 10
2.674744
 20
-33.58351199999999
 30
0.0
 11
5.485003999999999
 21
-33.0
 31
0.0
 12
2.674744
 22
-32.416488
 32
0.0
 13
2.674744
 23
-32.416488
 33
0.0
  0
LINE
  5
2B8
330
253
100
AcDbEntity
  8
MO_001_VIEW_PV
  6
BYBLOCK
100
AcDbLine
 10
17.39300499999999
 20
-3.669998
 30
0.0
 11
17.39300499999999
 21
-35.28599899999999
 31
0.0
  0
LINE
  5
2B9
330
253
100
AcDbEntity
  8
MO_001_VIEW_PV
  6
BYBLOCK
100
AcDbLine
 10
5.993003999999999
 20
2.769997
 30
0.0
 11
5.993003999999999
 21
-35.28599899999999
 31
0.0
  0
LINE
  5
2BA
330
253
100
AcDbEntity
  8
MO_001_VIEW_PV
  6
BYBLOCK
100
AcDbLine
 10
39.535713
 20
-33.0
 30
0.0
 11
17.39300499999999
 21
-33.0
 31
0.0
  0
ENDBLK
  5
2BB
330
253
100
AcDbEntity
  8
0
100
AcDbBlockEnd
  0
BLOCK
  5
2BC
330
255
100
AcDbEntity
  8
0
100
AcDbBlockBegin
  2
*D9
 70
     1
 10
0.0
 20
0.0
 30
0.0
  3
*D9
  1

  0
TEXT
  5
2BD
330
255
100
AcDbEntity
  8
MO_001_VIEW_PV
  6
BYBLOCK
100
AcDbText
 10
61.928571
 20
45.75
 30
0.0
 40
3.0
  1
%%C59以下
100
AcDbText
  0
LINE
  5
2BE
330
255
100
AcDbEntity
  8
MO_001_VIEW_PV
  6
BYBLOCK
100
AcDbLine
 10
40.19999699999999
 20
45.0
 30
0.0
 11
97.80000300000001
 21
45.0
 31
0.0
  0
SOLID
  5
2BF
330
255
100
AcDbEntity
  8
MO_001_VIEW_PV
  6
BYBLOCK
100
AcDbTrace
 10
43.518257
 20
45.58351199999999
 30
0.0
 11
40.707997
 21
45.0
 31
0.0
 12
43.518257
 22
44.416488
 32
0.0
 13
43.518257
 23
44.416488
 33
0.0
  0
SOLID
  5
2C0
330
255
100
AcDbEntity
  8
MO_001_VIEW_PV
  6
BYBLOCK
100
AcDbTrace
 10
94.48174300000001
 20
44.416488
 30
0.0
 11
97.29200300000002
 21
45.0
 31
0.0
 12
94.48174300000001
 22
45.58351199999999
 32
0.0
 13
94.48174300000001
 23
45.58351199999999
 33
0.0
  0
LINE
  5
2C1
330
255
100
AcDbEntity
  8
MO_001_VIEW_PV
  6
BYBLOCK
100
AcDbLine
 10
40.19999699999999
 20
0.0
 30
0.0
 11
40.19999699999999
 21
47.28599899999999
 31
0.0
  0
LINE
  5
2C2
330
255
100
AcDbEntity
  8
MO_001_VIEW_PV
  6
BYBLOCK
100
AcDbLine
 10
97.80000300000001
 20
0.0
 30
0.0
 11
97.80000300000001
 21
47.28599899999999
 31
0.0
  0
ENDBLK
  5
2C3
330
255
100
AcDbEntity
  8
0
100
AcDbBlockEnd
  0
BLOCK
  5
2C4
330
257
100
AcDbEntity
  8
0
100
AcDbBlockBegin
  2
*D10
 70
     1
 10
0.0
 20
0.0
 30
0.0
  3
*D10
  1

  0
TEXT
  5
2C5
330
257
100
AcDbEntity
  8
MO_001_VIEW_PV
  6
BYBLOCK
100
AcDbText
 10
61.928571
 20
39.75
 30
0.0
 40
3.0
  1
%%C27以下
100
AcDbText
  0
LINE
  5
2C6
330
257
100
AcDbEntity
  8
MO_001_VIEW_PV
  6
BYBLOCK
100
AcDbLine
 10
57.099998
 20
39.0
 30
0.0
 11
80.900002
 21
39.0
 31
0.0
  0
SOLID
  5
2C7
330
257
100
AcDbEntity
  8
MO_001_VIEW_PV
  6
BYBLOCK
100
AcDbTrace
 10
60.418259
 20
39.583512
 30
0.0
 11
57.607998
 21
39.0
 31
0.0
 12
60.418259
 22
38.416488
 32
0.0
 13
60.418259
 23
38.416488
 33
0.0
  0
SOLID
  5
2C8
330
257
100
AcDbEntity
  8
MO_001_VIEW_PV
  6
BYBLOCK
100
AcDbTrace
 10
77.58174100000001
 20
38.416488
 30
0.0
 11
80.39200200000001
 21
39.0
 31
0.0
 12
77.58174100000001
 22
39.583512
 32
0.0
 13
77.58174100000001
 23
39.583512
 33
0.0
  0
LINE
  5
2C9
330
257
100
AcDbEntity
  8
MO_001_VIEW_PV
  6
BYBLOCK
100
AcDbLine
 10
57.099998
 20
0.0
 30
0.0
 11
57.099998
 21
41.285999
 31
0.0
  0
LINE
  5
2CA
330
257
100
AcDbEntity
  8
MO_001_VIEW_PV
  6
BYBLOCK
100
AcDbLine
 10
80.900002
 20
0.0
 30
0.0
 11
80.900002
 21
41.285999
 31
0.0
  0
ENDBLK
  5
2CB
330
257
100
AcDbEntity
  8
0
100
AcDbBlockEnd
  0
BLOCK
  5
2CC
330
259
100
AcDbEntity
  8
0
100
AcDbBlockBegin
  2
*D11
 70
     1
 10
0.0
 20
0.0
 30
0.0
  3
*D11
  1

  0
TEXT
  5
2CD
330
259
100
AcDbEntity
  8
MO_001_VIEW_PV
  6
BYBLOCK
100
AcDbText
 10
33.375
 20
3.214285999999999
 30
0.0
 40
1.5
  1
%%P0.3
 50
90.0
100
AcDbText
  0
TEXT
  5
2CE
330
259
100
AcDbEntity
  8
MO_001_VIEW_PV
  6
BYBLOCK
100
AcDbText
 10
35.25
 20
-8.571429
 30
0.0
 40
3.0
  1
36.5
 50
90.0
100
AcDbText
  0
LINE
  5
2CF
330
259
100
AcDbEntity
  8
MO_001_VIEW_PV
  6
BYBLOCK
100
AcDbLine
 10
36.0
 20
18.25
 30
0.0
 11
36.0
 21
-18.25
 31
0.0
  0
SOLID
  5
2D0
330
259
100
AcDbEntity
  8
MO_001_VIEW_PV
  6
BYBLOCK
100
AcDbTrace
 10
36.583512
 20
14.93173999999999
 30
0.0
 11
36.0
 21
17.742
 31
0.0
 12
35.416488
 22
14.93173999999999
 32
0.0
 13
35.416488
 23
14.93173999999999
 33
0.0
  0
SOLID
  5
2D1
330
259
100
AcDbEntity
  8
MO_001_VIEW_PV
  6
BYBLOCK
100
AcDbTrace
 10
35.416488
 20
-14.93173999999999
 30
0.0
 11
36.0
 21
-17.742
 31
0.0
 12
36.583512
 22
-14.93173999999999
 32
0.0
 13
36.583512
 23
-14.93173999999999
 33
0.0
  0
LINE
  5
2D2
330
259
100
AcDbEntity
  8
MO_001_VIEW_PV
  6
BYBLOCK
100
AcDbLine
 10
63.868439
 20
18.25
 30
0.0
 11
33.714001
 21
18.25
 31
0.0
  0
LINE
  5
2D3
330
259
100
AcDbEntity
  8
MO_001_VIEW_PV
  6
BYBLOCK
100
AcDbLine
 10
63.868439
 20
-18.25
 30
0.0
 11
33.714001
 21
-18.25
 31
0.0
  0
ENDBLK
  5
2D4
330
259
100
AcDbEntity
  8
0
100
AcDbBlockEnd
  0
ENDSEC
  0
SECTION
  2
ENTITIES
  0
TEXT
  5
4B
330
1E
100
AcDbEntity
  8
OVERLAY_MAP
  6
C_SOLID_L
100
AcDbText
 10
0.0
 20
6.349999999999999
 30
0.0
 40
4.1672
  1
Model Overlay Name
100
AcDbText
  0
TEXT
  5
4C
330
1E
100
AcDbEntity
  8
OVERLAY_MAP
  6
C_SOLID_L
100
AcDbText
 10
126.999998
 20
0.0
 30
0.0
 40
4.1672
  1
Number
100
AcDbText
  0
TEXT
  5
4D
330
1E
100
AcDbEntity
  8
OVERLAY_MAP
  6
C_SOLID_L
100
AcDbText
 10
177.7999969999999
 20
0.0
 30
0.0
 40
4.1672
  1
File Text
100
AcDbText
  0
TEXT
  5
4E
330
1E
100
AcDbEntity
  8
OVERLAY_MAP
  6
C_SOLID_L
100
AcDbText
 10
0.0
 20
-6.349999999999999
 30
0.0
 40
4.1672
  1
ro 6e349 
100
AcDbText
  0
TEXT
  5
4F
330
1E
100
AcDbEntity
  8
OVERLAY_MAP
  6
C_SOLID_L
100
AcDbText
 10
126.999998
 20
-6.349999999999999
 30
0.0
 40
4.1672
  1
001
100
AcDbText
  0
TEXT
  5
50
330
1E
100
AcDbEntity
  8
OVERLAY_MAP
  6
C_SOLID_L
100
AcDbText
 10
177.7999969999999
 20
-6.349999999999999
 30
0.0
 40
4.1672
  1
                                                                   00139
100
AcDbText
  0
LINE
  5
51
330
1E
100
AcDbEntity
  8
MO_001_VIEW_PV
  6
C_CENTER_L
100
AcDbLine
 10
39.0
 20
0.0
 30
0.0
 11
99.0
 21
0.0
 31
0.0
  0
LINE
  5
52
330
1E
100
AcDbEntity
  8
MO_001_VIEW_PV
  6
C_CENTER_L
100
AcDbLine
 10
69.0
 20
31.799999
 30
0.0
 11
69.0
 21
-31.799999
 31
0.0
  0
CIRCLE
  5
53
330
1E
100
AcDbEntity
  8
MO_001_VIEW_PV
  6
C_SOLID_M
100
AcDbCircle
 10
69.0
 20
0.0
 30
0.0
 40
28.79999899999999
  0
CIRCLE
  5
54
330
1E
100
AcDbEntity
  8
MO_001_VIEW_PV
  6
C_SOLID_M
100
AcDbCircle
 10
69.0
 20
0.0
 30
0.0
 40
24.6
  0
ARC
  5
55
330
1E
100
AcDbEntity
  8
MO_001_VIEW_PV
  6
C_SOLID_M
100
AcDbCircle
 10
72.59120899999999
 20
-9.866773
 30
0.0
 40
2.1
100
AcDbArc
 50
211.1791799999999
 51
345.218385
  0
CIRCLE
  5
56
330
1E
100
AcDbEntity
  8
MO_001_VIEW_PV
  6
C_SOLID_M
100
AcDbCircle
 10
87.24999999999999
 20
0.0
 30
0.0
 40
2.649999999999999
  0
CIRCLE
  5
57
330
1E
100
AcDbEntity
  8
MO_001_VIEW_PV
  6
C_SOLID_M
100
AcDbCircle
 10
69.0
 20
18.25
 30
0.0
 40
2.649999999999999
  0
CIRCLE
  5
58
330
1E
100
AcDbEntity
  8
MO_001_VIEW_PV
  6
C_SOLID_M
100
AcDbCircle
 10
50.75
 20
0.0
 30
0.0
 40
2.649999999999999
  0
CIRCLE
  5
59
330
1E
100
AcDbEntity
  8
MO_001_VIEW_PV
  6
C_SOLID_M
100
AcDbCircle
 10
69.0
 20
-18.25
 30
0.0
 40
2.649999999999999
  0
LINE
  5
5A
330
1E
100
AcDbEntity
  8
MO_001_VIEW_PV
  6
C_SOLID_M
100
AcDbLine
 10
67.34394300000001
 20
-10.97576799999999
 30
0.0
 11
67.224588
 21
-11.766814
 31
0.0
  0
LINE
  5
5B
330
1E
100
AcDbEntity
  8
MO_001_VIEW_PV
  6
C_SOLID_M
100
AcDbLine
 10
70.65603399999999
 20
-10.97576899999999
 30
0.0
 11
70.775389
 21
-11.76681599999999
 31
0.0
  0
ARC
  5
5C
330
1E
100
AcDbEntity
  8
MO_001_VIEW_PV
  6
C_SOLID_M
100
AcDbCircle
 10
69.0
 20
0.0
 30
0.0
 40
11.1
100
AcDbArc
 50
260.696091
 51
279.303904
  0
ARC
  5
5D
330
1E
100
AcDbEntity
  8
MO_001_VIEW_PV
  6
C_SOLID_M
100
AcDbCircle
 10
69.0
 20
0.0
 30
0.0
 40
11.90000099999999
100
AcDbArc
 50
261.419818
 51
278.5801769999999
  0
LINE
  5
5E
330
1E
100
AcDbEntity
  8
MO_001_VIEW_PV
  6
C_SOLID_M
100
AcDbLine
 10
65.911084
 20
-11.90582
 30
0.0
 11
67.224611
 21
-11.76681599999999
 31
0.0
  0
LINE
  5
5F
330
1E
100
AcDbEntity
  8
MO_001_VIEW_PV
  6
C_SOLID_M
100
AcDbLine
 10
70.775412
 20
-11.76681799999999
 30
0.0
 11
72.08894
 21
-11.905822
 31
0.0
  0
ARC
  5
60
330
1E
100
AcDbEntity
  8
MO_001_VIEW_PV
  6
C_SOLID_M
100
AcDbCircle
 10
78.093262
 20
-5.250001
 30
0.0
 40
2.1
100
AcDbArc
 50
251.1791789999999
 51
48.820799
  0
LINE
  5
61
330
1E
100
AcDbEntity
  8
MO_001_VIEW_PV
  6
C_SOLID_M
100
AcDbLine
 10
74.78646799999999
 20
-9.472414
 30
0.0
 11
75.203509
 21
-10.155107
 31
0.0
  0
LINE
  5
62
330
1E
100
AcDbEntity
  8
MO_001_VIEW_PV
  6
C_SOLID_M
100
AcDbLine
 10
77.323695
 20
-7.343443999999999
 30
0.0
 11
77.923603
 21
-7.872702999999999
 31
0.0
  0
ARC
  5
63
330
1E
100
AcDbEntity
  8
MO_001_VIEW_PV
  6
C_SOLID_M
100
AcDbCircle
 10
69.0
 20
0.0
 30
0.0
 40
11.1
100
AcDbArc
 50
300.6960899999999
 51
319.303902
  0
ARC
  5
64
330
1E
100
AcDbEntity
  8
MO_001_VIEW_PV
  6
C_SOLID_M
100
AcDbCircle
 10
69.0
 20
0.0
 30
0.0
 40
11.90000099999999
100
AcDbArc
 50
301.4198169999999
 51
318.5801759999999
  0
LINE
  5
65
330
1E
100
AcDbEntity
  8
MO_001_VIEW_PV
  6
C_SOLID_M
100
AcDbLine
 10
74.28666899999999
 20
-11.105907
 30
0.0
 11
74.907927
 21
-10.461658
 31
0.0
  0
LINE
  5
66
330
1E
100
AcDbEntity
  8
MO_001_VIEW_PV
  6
C_SOLID_M
100
AcDbLine
 10
77.923601
 20
-7.872697
 30
0.0
 11
79.019165
 21
-7.134864999999999
 31
0.0
  0
ARC
  5
67
330
1E
100
AcDbEntity
  8
MO_001_VIEW_PV
  6
C_SOLID_M
100
AcDbCircle
 10
79.340485
 20
1.823304
 30
0.0
 40
2.1
100
AcDbArc
 50
291.1791779999999
 51
88.82079799999999
  0
LINE
  5
68
330
1E
100
AcDbEntity
  8
MO_001_VIEW_PV
  6
C_SOLID_M
100
AcDbLine
 10
79.521466
 20
-3.536808
 30
0.0
 11
80.27976499999999
 21
-3.791712
 31
0.0
  0
LINE
  5
69
330
1E
100
AcDbEntity
  8
MO_001_VIEW_PV
  6
C_SOLID_M
100
AcDbLine
 10
80.09659599999999
 20
-0.275036
 30
0.0
 11
80.89635300000001
 21
-0.294858
 31
0.0
  0
ARC
  5
6A
330
1E
100
AcDbEntity
  8
MO_001_VIEW_PV
  6
C_SOLID_M
100
AcDbCircle
 10
69.0
 20
0.0
 30
0.0
 40
11.1
100
AcDbArc
 50
340.696091
 51
359.3039019999999
  0
ARC
  5
6B
330
1E
100
AcDbEntity
  8
MO_001_VIEW_PV
  6
C_SOLID_M
100
AcDbCircle
 10
69.0
 20
0.0
 30
0.0
 40
11.90000099999999
100
AcDbArc
 50
341.419818
 51
358.5801759999999
  0
LINE
  5
6C
330
1E
100
AcDbEntity
  8
MO_001_VIEW_PV
  6
C_SOLID_M
100
AcDbLine
 10
80.188553
 20
-5.109423
 30
0.0
 11
80.279752
 21
-3.791713999999999
 31
0.0
  0
LINE
  5
6D
330
1E
100
AcDbEntity
  8
MO_001_VIEW_PV
  6
C_SOLID_M
100
AcDbLine
 10
80.896346
 20
-0.294859
 30
0.0
 11
81.26133000000001
 21
0.9745749999999999
 31
0.0
  0
ARC
  5
6E
330
1E
100
AcDbEntity
  8
MO_001_VIEW_PV
  6
C_SOLID_M
100
AcDbCircle
 10
75.749268
 20
8.043466
 30
0.0
 40
2.1
100
AcDbArc
 50
331.1791769999999
 51
128.820796
  0
LINE
  5
6F
330
1E
100
AcDbEntity
  8
MO_001_VIEW_PV
  6
C_SOLID_M
100
AcDbLine
 10
79.333325
 20
4.053708
 30
0.0
 11
80.078065
 21
4.345864999999999
 31
0.0
  0
LINE
  5
70
330
1E
100
AcDbEntity
  8
MO_001_VIEW_PV
  6
C_SOLID_M
100
AcDbLine
 10
77.677272
 20
6.922063
 30
0.0
 11
78.30265799999999
 21
7.420946999999999
 31
0.0
  0
ARC
  5
71
330
1E
100
AcDbEntity
  8
MO_001_VIEW_PV
  6
C_SOLID_M
100
AcDbCircle
 10
69.0
 20
0.0
 30
0.0
 40
11.1
100
AcDbArc
 50
20.696091
 51
39.30390399999999
  0
ARC
  5
72
330
1E
100
AcDbEntity
  8
MO_001_VIEW_PV
  6
C_SOLID_M
100
AcDbCircle
 10
69.0
 20
0.0
 30
0.0
 40
11.90000099999999
100
AcDbArc
 50
21.41981799999999
 51
38.58017699999999
  0
LINE
  5
73
330
1E
100
AcDbEntity
  8
MO_001_VIEW_PV
  6
C_SOLID_M
100
AcDbLine
 10
80.85522500000001
 20
3.277822
 30
0.0
 11
80.07808
 21
4.345868
 31
0.0
  0
LINE
  5
74
330
1E
100
AcDbEntity
  8
MO_001_VIEW_PV
  6
C_SOLID_M
100
AcDbLine
 10
78.302662
 20
7.420946999999999
 30
0.0
 11
77.766279
 21
8.627997
 31
0.0
  0
ARC
  5
75
330
1E
100
AcDbEntity
  8
MO_001_VIEW_PV
  6
C_SOLID_M
100
AcDbCircle
 10
69.0
 20
10.5
 30
0.0
 40
2.1
100
AcDbArc
 50
11.17917599999999
 51
168.820802
  0
LINE
  5
76
330
1E
100
AcDbEntity
  8
MO_001_VIEW_PV
  6
C_SOLID_M
100
AcDbLine
 10
74.310103
 20
9.747450999999999
 30
0.0
 11
74.692813
 21
10.44996899999999
 31
0.0
  0
LINE
  5
77
330
1E
100
AcDbEntity
  8
MO_001_VIEW_PV
  6
C_SOLID_M
100
AcDbLine
 10
71.19775899999999
 20
10.880249
 30
0.0
 11
71.356156
 21
11.66441199999999
 31
0.0
  0
ARC
  5
78
330
1E
100
AcDbEntity
  8
MO_001_VIEW_PV
  6
C_SOLID_M
100
AcDbCircle
 10
69.0
 20
0.0
 30
0.0
 40
11.1
100
AcDbArc
 50
60.69609399999999
 51
79.30390600000001
  0
ARC
  5
79
330
1E
100
AcDbEntity
  8
MO_001_VIEW_PV
  6
C_SOLID_M
100
AcDbCircle
 10
69.0
 20
0.0
 30
0.0
 40
11.90000099999999
100
AcDbArc
 50
61.41981999999999
 51
78.580179
  0
LINE
  5
7A
330
1E
100
AcDbEntity
  8
MO_001_VIEW_PV
  6
C_SOLID_M
100
AcDbLine
 10
75.974655
 20
10.13133399999999
 30
0.0
 11
74.692801
 21
10.44996599999999
 31
0.0
  0
LINE
  5
7B
330
1E
100
AcDbEntity
  8
MO_001_VIEW_PV
  6
C_SOLID_M
100
AcDbLine
 10
71.356142
 20
11.664409
 30
0.0
 11
70.16937299999999
 21
12.244283
 31
0.0
  0
ARC
  5
7C
330
1E
100
AcDbEntity
  8
MO_001_VIEW_PV
  6
C_SOLID_M
100
AcDbCircle
 10
62.25073199999999
 20
8.043467999999998
 30
0.0
 40
2.1
100
AcDbArc
 50
51.179178
 51
208.820808
  0
LINE
  5
7D
330
1E
100
AcDbEntity
  8
MO_001_VIEW_PV
  6
C_SOLID_M
100
AcDbLine
 10
66.802237
 20
10.880252
 30
0.0
 11
66.64384
 21
11.664413
 31
0.0
  0
LINE
  5
7E
330
1E
100
AcDbEntity
  8
MO_001_VIEW_PV
  6
C_SOLID_M
100
AcDbLine
 10
63.689893
 20
9.747446999999999
 30
0.0
 11
63.307183
 21
10.44996499999999
 31
0.0
  0
ARC
  5
7F
330
1E
100
AcDbEntity
  8
MO_001_VIEW_PV
  6
C_SOLID_M
100
AcDbCircle
 10
69.0
 20
0.0
 30
0.0
 40
11.1
100
AcDbArc
 50
100.696092
 51
119.3039109999999
  0
ARC
  5
80
330
1E
100
AcDbEntity
  8
MO_001_VIEW_PV
  6
C_SOLID_M
100
AcDbCircle
 10
69.0
 20
0.0
 30
0.0
 40
11.90000099999999
100
AcDbArc
 50
101.4198189999999
 51
118.580185
  0
LINE
  5
81
330
1E
100
AcDbEntity
  8
MO_001_VIEW_PV
  6
C_SOLID_M
100
AcDbLine
 10
67.83062499999999
 20
12.244289
 30
0.0
 11
66.643855
 21
11.664415
 31
0.0
  0
LINE
  5
82
330
1E
100
AcDbEntity
  8
MO_001_VIEW_PV
  6
C_SOLID_M
100
AcDbLine
 10
63.30719300000001
 20
10.44996899999999
 30
0.0
 11
62.025339
 21
10.131338
 31
0.0
  0
ARC
  5
83
330
1E
100
AcDbEntity
  8
MO_001_VIEW_PV
  6
C_SOLID_M
100
AcDbCircle
 10
58.659515
 20
1.823306999999999
 30
0.0
 40
2.1
100
AcDbArc
 50
91.17918000000001
 51
248.8208129999999
  0
LINE
  5
84
330
1E
100
AcDbEntity
  8
MO_001_VIEW_PV
  6
C_SOLID_M
100
AcDbLine
 10
60.322727
 20
6.922061999999999
 30
0.0
 11
59.697341
 21
7.420946
 31
0.0
  0
LINE
  5
85
330
1E
100
AcDbEntity
  8
MO_001_VIEW_PV
  6
C_SOLID_M
100
AcDbLine
 10
58.66668199999999
 20
4.053707
 30
0.0
 11
57.921942
 21
4.345863999999999
 31
0.0
  0
ARC
  5
86
330
1E
100
AcDbEntity
  8
MO_001_VIEW_PV
  6
C_SOLID_M
100
AcDbCircle
 10
69.0
 20
0.0
 30
0.0
 40
11.1
100
AcDbArc
 50
140.696091
 51
159.3039169999999
  0
ARC
  5
87
330
1E
100
AcDbEntity
  8
MO_001_VIEW_PV
  6
C_SOLID_M
100
AcDbCircle
 10
69.0
 20
0.0
 30
0.0
 40
11.90000099999999
100
AcDbArc
 50
141.4198179999999
 51
158.5801899999999
  0
LINE
  5
88
330
1E
100
AcDbEntity
  8
MO_001_VIEW_PV
  6
C_SOLID_M
100
AcDbLine
 10
60.233726
 20
8.628002
 30
0.0
 11
59.69734200000001
 21
7.42095
 31
0.0
  0
LINE
  5
89
330
1E
100
AcDbEntity
  8
MO_001_VIEW_PV
  6
C_SOLID_M
100
AcDbLine
 10
57.92193199999999
 20
4.345867
 30
0.0
 11
57.144788
 21
3.277820999999999
 31
0.0
  0
ARC
  5
8A
330
1E
100
AcDbEntity
  8
MO_001_VIEW_PV
  6
C_SOLID_M
100
AcDbCircle
 10
59.90673100000001
 20
-5.249998999999999
 30
0.0
 40
2.1
100
AcDbArc
 50
131.179179
 51
288.820805
  0
LINE
  5
8B
330
1E
100
AcDbEntity
  8
MO_001_VIEW_PV
  6
C_SOLID_M
100
AcDbLine
 10
57.903411
 20
-0.275036
 30
0.0
 11
57.103654
 21
-0.294859
 31
0.0
  0
LINE
  5
8C
330
1E
100
AcDbEntity
  8
MO_001_VIEW_PV
  6
C_SOLID_M
100
AcDbLine
 10
58.478552
 20
-3.536807
 30
0.0
 11
57.720253
 21
-3.791711
 31
0.0
  0
ARC
  5
8D
330
1E
100
AcDbEntity
  8
MO_001_VIEW_PV
  6
C_SOLID_M
100
AcDbCircle
 10
69.0
 20
0.0
 30
0.0
 40
11.1
100
AcDbArc
 50
180.696101
 51
199.3039259999999
  0
ARC
  5
8E
330
1E
100
AcDbEntity
  8
MO_001_VIEW_PV
  6
C_SOLID_M
100
AcDbCircle
 10
69.0
 20
0.0
 30
0.0
 40
11.90000099999999
100
AcDbArc
 50
181.419827
 51
198.5801999999999
  0
LINE
  5
8F
330
1E
100
AcDbEntity
  8
MO_001_VIEW_PV
  6
C_SOLID_M
100
AcDbLine
 10
56.73866700000001
 20
0.9745779999999999
 30
0.0
 11
57.103651
 21
-0.294855
 31
0.0
  0
LINE
  5
90
330
1E
100
AcDbEntity
  8
MO_001_VIEW_PV
  6
C_SOLID_M
100
AcDbLine
 10
57.720234
 20
-3.791712999999999
 30
0.0
 11
57.811434
 21
-5.109423
 31
0.0
  0
ARC
  5
91
330
1E
100
AcDbEntity
  8
MO_001_VIEW_PV
  6
C_SOLID_M
100
AcDbCircle
 10
65.40879100000001
 20
-9.866772
 30
0.0
 40
2.1
100
AcDbArc
 50
171.179185
 51
328.820797
  0
LINE
  5
92
330
1E
100
AcDbEntity
  8
MO_001_VIEW_PV
  6
C_SOLID_M
100
AcDbLine
 10
60.676299
 20
-7.343447999999999
 30
0.0
 11
60.07639399999999
 21
-7.872705
 31
0.0
  0
LINE
  5
93
330
1E
100
AcDbEntity
  8
MO_001_VIEW_PV
  6
C_SOLID_M
100
AcDbLine
 10
63.21350999999999
 20
-9.472407999999999
 30
0.0
 11
62.796466
 21
-10.15510399999999
 31
0.0
  0
ARC
  5
94
330
1E
100
AcDbEntity
  8
MO_001_VIEW_PV
  6
C_SOLID_M
100
AcDbCircle
 10
69.0
 20
0.0
 30
0.0
 40
11.1
100
AcDbArc
 50
220.696106
 51
239.303932
  0
ARC
  5
95
330
1E
100
AcDbEntity
  8
MO_001_VIEW_PV
  6
C_SOLID_M
100
AcDbCircle
 10
69.0
 20
0.0
 30
0.0
 40
11.90000099999999
100
AcDbArc
 50
221.419833
 51
238.5802049999999
  0
LINE
  5
96
330
1E
100
AcDbEntity
  8
MO_001_VIEW_PV
  6
C_SOLID_M
100
AcDbLine
 10
58.98083299999999
 20
-7.134864
 30
0.0
 11
60.07640300000001
 21
-7.8727
 31
0.0
  0
LINE
  5
97
330
1E
100
AcDbEntity
  8
MO_001_VIEW_PV
  6
C_SOLID_M
100
AcDbLine
 10
62.796459
 20
-10.155106
 30
0.0
 11
63.713324
 21
-11.10590299999999
 31
0.0
  0
ARC
  5
98
330
1E
100
AcDbEntity
  8
MO_001_VIEW_PV
  6
C_SOLID_M
100
AcDbCircle
 10
69.0
 20
0.0
 30
0.0
 40
11.1
100
AcDbArc
 50
264.733266
 51
90.000002
  0
ARC
  5
99
330
1E
100
AcDbEntity
  8
MO_001_VIEW_PV
  6
C_SOLID_M
100
AcDbCircle
 10
69.0
 20
0.0
 30
0.0
 40
4.0
100
AcDbArc
 50
269.999998
 51
41.459303
  0
ARC
  5
9A
330
1E
100
AcDbEntity
  8
MO_001_VIEW_PV
  6
C_SOLID_M
100
AcDbCircle
 10
69.0
 20
0.0
 30
0.0
 40
12.09999999999999
100
AcDbArc
 50
303.8299279999999
 51
311.428493
  0
ARC
  5
9B
330
1E
100
AcDbEntity
  8
MO_001_VIEW_PV
  6
C_SOLID_M
100
AcDbCircle
 10
69.0
 20
0.0
 30
0.0
 40
10.74000099999999
100
AcDbArc
 50
269.999998
 51
90.000002
  0
LINE
  5
9C
330
1E
100
AcDbEntity
  8
MO_001_VIEW_PV
  6
C_SOLID_M
100
AcDbLine
 10
77.24458199999999
 20
-9.342285999999999
 30
0.0
 11
77.006375
 21
-9.072364
 31
0.0
  0
ARC
  5
9D
330
1E
100
AcDbEntity
  8
MO_001_VIEW_PV
  6
C_SOLID_M
100
AcDbCircle
 10
73.654854
 20
-12.24509499999999
 30
0.0
 40
2.0
100
AcDbArc
 50
78.33214699999999
 51
110.8138019999999
  0
LINE
  5
9E
330
1E
100
AcDbEntity
  8
MO_001_VIEW_PV
  6
C_SOLID_M
100
AcDbLine
 10
68.014081
 20
-10.69540099999999
 30
0.0
 11
67.981104
 21
-11.05313699999999
 31
0.0
  0
ARC
  5
9F
330
1E
100
AcDbEntity
  8
MO_001_VIEW_PV
  6
C_SOLID_M
100
AcDbCircle
 10
69.0
 20
0.18
 30
0.0
 40
10.92
100
AcDbArc
 50
90.000002
 51
270.000001
  0
ARC
  5
A0
330
1E
100
AcDbEntity
  8
MO_001_VIEW_PV
  6
C_SOLID_M
100
AcDbCircle
 10
69.0
 20
0.18
 30
0.0
 40
10.560001
100
AcDbArc
 50
90.000002
 51
270.000001
  0
ARC
  5
A1
330
1E
100
AcDbEntity
  8
MO_001_VIEW_PV
  6
C_SOLID_M
100
AcDbCircle
 10
69.0
 20
0.0
 30
0.0
 40
10.380001
100
AcDbArc
 50
269.999998
 51
90.000002
  0
ARC
  5
A2
330
1E
100
AcDbEntity
  8
MO_001_VIEW_PV
  6
C_SOLID_M
100
AcDbCircle
 10
69.0
 20
0.18
 30
0.0
 40
10.200001
100
AcDbArc
 50
90.000002
 51
270.000001
  0
LINE
  5
A3
330
1E
100
AcDbEntity
  8
MO_001_VIEW_PV
  6
C_SOLID_M
100
AcDbLine
 10
71.442131
 20
3.129999999999999
 30
0.0
 11
71.727913
 21
3.129999999999999
 31
0.0
  0
ARC
  5
A4
330
1E
100
AcDbEntity
  8
MO_001_VIEW_PV
  6
C_SOLID_M
100
AcDbCircle
 10
71.727913
 20
2.41
 30
0.0
 40
0.36
100
AcDbArc
 50
41.459286
 51
66.12411299999999
  0
ARC
  5
A5
330
1E
100
AcDbEntity
  8
MO_001_VIEW_PV
  6
C_SOLID_M
100
AcDbCircle
 10
69.0
 20
0.0
 30
0.0
 40
4.36
100
AcDbArc
 50
269.999998
 51
90.000002
  0
ARC
  5
A6
330
1E
100
AcDbEntity
  8
MO_001_VIEW_PV
  6
C_SOLID_M
100
AcDbCircle
 10
71.727913
 20
2.41
 30
0.0
 40
0.72
100
AcDbArc
 50
41.459286
 51
89.99998900000001
  0
ARC
  5
A7
330
1E
100
AcDbEntity
  8
MO_001_VIEW_PV
  6
C_SOLID_M
100
AcDbCircle
 10
69.0
 20
0.18
 30
0.0
 40
4.179999999999999
100
AcDbArc
 50
90.000002
 51
270.000001
  0
ARC
  5
A8
330
1E
100
AcDbEntity
  8
MO_001_VIEW_PV
  6
C_SOLID_M
100
AcDbCircle
 10
69.0
 20
0.18
 30
0.0
 40
4.54
100
AcDbArc
 50
90.000002
 51
270.000001
  0
ARC
  5
A9
330
1E
100
AcDbEntity
  8
MO_001_VIEW_PV
  6
C_SOLID_M
100
AcDbCircle
 10
69.0
 20
0.0
 30
0.0
 40
4.719999999999999
100
AcDbArc
 50
269.999998
 51
90.000002
  0
ARC
  5
AA
330
1E
100
AcDbEntity
  8
MO_001_VIEW_PV
  6
C_SOLID_M
100
AcDbCircle
 10
69.0
 20
0.18
 30
0.0
 40
4.900001
100
AcDbArc
 50
90.000002
 51
270.000001
  0
ARC
  5
AB
330
1E
100
AcDbEntity
  8
MO_001_VIEW_PV
  6
C_SOLID_M
100
AcDbCircle
 10
69.0
 20
0.0
 30
0.0
 40
5.080001
100
AcDbArc
 50
269.999998
 51
90.000002
  0
ARC
  5
AC
330
1E
100
AcDbEntity
  8
MO_001_VIEW_PV
  6
C_SOLID_M
100
AcDbCircle
 10
69.0
 20
-0.5660000000000001
 30
0.0
 40
9.814000999999999
100
AcDbArc
 50
269.999998
 51
90.000002
  0
ARC
  5
AD
330
1E
100
AcDbEntity
  8
MO_001_VIEW_PV
  6
C_SOLID_M
100
AcDbCircle
 10
69.0
 20
0.0965
 30
0.0
 40
9.151500999999999
100
AcDbArc
 50
90.000002
 51
270.000001
  0
ARC
  5
AE
330
1E
100
AcDbEntity
  8
MO_001_VIEW_PV
  6
C_SOLID_M
100
AcDbCircle
 10
69.0
 20
-0.4695
 30
0.0
 40
8.585500999999998
100
AcDbArc
 50
269.999998
 51
90.000002
  0
ARC
  5
AF
330
1E
100
AcDbEntity
  8
MO_001_VIEW_PV
  6
C_SOLID_M
100
AcDbCircle
 10
69.0
 20
0.193
 30
0.0
 40
7.923000999999999
100
AcDbArc
 50
90.000002
 51
270.000001
  0
ARC
  5
B0
330
1E
100
AcDbEntity
  8
MO_001_VIEW_PV
  6
C_SOLID_M
100
AcDbCircle
 10
69.0
 20
-0.373
 30
0.0
 40
7.357000999999999
100
AcDbArc
 50
269.999998
 51
90.000002
  0
ARC
  5
B1
330
1E
100
AcDbEntity
  8
MO_001_VIEW_PV
  6
C_SOLID_M
100
AcDbCircle
 10
69.0
 20
0.2894999999999999
 30
0.0
 40
6.694500999999999
100
AcDbArc
 50
90.000002
 51
270.000001
  0
ARC
  5
B2
330
1E
100
AcDbEntity
  8
MO_001_VIEW_PV
  6
C_SOLID_M
100
AcDbCircle
 10
69.0
 20
-0.2765
 30
0.0
 40
6.128499999999999
100
AcDbArc
 50
269.999998
 51
90.000002
  0
ARC
  5
B3
330
1E
100
AcDbEntity
  8
MO_001_VIEW_PV
  6
C_SOLID_M
100
AcDbCircle
 10
69.0
 20
0.386
 30
0.0
 40
5.466001
100
AcDbArc
 50
90.000002
 51
270.000001
  0
ARC
  5
B4
330
1E
100
AcDbEntity
  8
MO_001_VIEW_PV
  6
C_SOLID_M
100
AcDbCircle
 10
69.0
 20
0.386
 30
0.0
 40
5.105999999999999
100
AcDbArc
 50
90.000002
 51
270.000001
  0
ARC
  5
B5
330
1E
100
AcDbEntity
  8
MO_001_VIEW_PV
  6
C_SOLID_M
100
AcDbCircle
 10
69.0
 20
-0.2765
 30
0.0
 40
5.7685
100
AcDbArc
 50
269.999998
 51
90.000002
  0
ARC
  5
B6
330
1E
100
AcDbEntity
  8
MO_001_VIEW_PV
  6
C_SOLID_M
100
AcDbCircle
 10
69.0
 20
0.2894999999999999
 30
0.0
 40
6.3345
100
AcDbArc
 50
90.000002
 51
270.000001
  0
ARC
  5
B7
330
1E
100
AcDbEntity
  8
MO_001_VIEW_PV
  6
C_SOLID_M
100
AcDbCircle
 10
69.0
 20
-0.373
 30
0.0
 40
6.997
100
AcDbArc
 50
269.999998
 51
90.000002
  0
ARC
  5
B8
330
1E
100
AcDbEntity
  8
MO_001_VIEW_PV
  6
C_SOLID_M
100
AcDbCircle
 10
69.0
 20
0.193
 30
0.0
 40
7.563000999999999
100
AcDbArc
 50
90.000002
 51
270.000001
  0
ARC
  5
B9
330
1E
100
AcDbEntity
  8
MO_001_VIEW_PV
  6
C_SOLID_M
100
AcDbCircle
 10
69.0
 20
-0.4695
 30
0.0
 40
8.2255
100
AcDbArc
 50
269.999998
 51
90.000002
  0
ARC
  5
BA
330
1E
100
AcDbEntity
  8
MO_001_VIEW_PV
  6
C_SOLID_M
100
AcDbCircle
 10
69.0
 20
0.0965
 30
0.0
 40
8.791499999999999
100
AcDbArc
 50
90.000002
 51
270.000001
  0
ARC
  5
BB
330
1E
100
AcDbEntity
  8
MO_001_VIEW_PV
  6
C_SOLID_M
100
AcDbCircle
 10
69.0
 20
-0.5660000000000001
 30
0.0
 40
9.454
100
AcDbArc
 50
269.999998
 51
90.000002
  0
ARC
  5
BC
330
1E
100
AcDbEntity
  8
MO_001_VIEW_PV
  6
C_SOLID_M
100
AcDbCircle
 10
69.0
 20
0.0
 30
0.0
 40
12.46
100
AcDbArc
 50
303.8299279999999
 51
311.428493
  0
ARC
  5
BD
330
1E
100
AcDbEntity
  8
MO_001_VIEW_PV
  6
C_SOLID_M
100
AcDbCircle
 10
75.34671800000001
 20
-9.46991
 30
0.0
 40
0.7
100
AcDbArc
 50
258.3321419999999
 51
303.8299279999999
  0
ARC
  5
BE
330
1E
100
AcDbEntity
  8
MO_001_VIEW_PV
  6
C_SOLID_M
100
AcDbCircle
 10
75.34671800000001
 20
-9.46991
 30
0.0
 40
1.06
100
AcDbArc
 50
258.3321419999999
 51
303.8299279999999
  0
LINE
  5
BF
330
1E
100
AcDbEntity
  8
MO_001_VIEW_PV
  6
C_SOLID_M
100
AcDbLine
 10
74.05932400000001
 20
-10.286423
 30
0.0
 11
75.132341
 21
-10.508006
 31
0.0
  0
LINE
  5
C0
330
1E
100
AcDbEntity
  8
MO_001_VIEW_PV
  6
C_SOLID_M
100
AcDbLine
 10
74.13212900000001
 20
-9.933861999999999
 30
0.0
 11
75.205146
 21
-10.155445
 31
0.0
  0
ARC
  5
C1
330
1E
100
AcDbEntity
  8
MO_001_VIEW_PV
  6
C_SOLID_M
100
AcDbCircle
 10
73.654854
 20
-12.24509499999999
 30
0.0
 40
2.359999999999999
100
AcDbArc
 50
78.33214699999999
 51
81.604457
  0
ARC
  5
C2
330
1E
100
AcDbEntity
  8
MO_001_VIEW_PV
  6
C_SOLID_M
100
AcDbCircle
 10
72.59120899999999
 20
-9.866773
 30
0.0
 40
2.1
100
AcDbArc
 50
355.057474
 51
8.820799
  0
CIRCLE
  5
C3
330
1E
100
AcDbEntity
  8
MO_001_VIEW_PV
  6
C_SOLID_M
100
AcDbCircle
 10
69.0
 20
0.0
 30
0.0
 40
25.200001
  0
CIRCLE
  5
C4
330
1E
100
AcDbEntity
  8
MO_001_VIEW_PV
  6
C_SOLID_M
100
AcDbCircle
 10
69.0
 20
0.0
 30
0.0
 40
24.69999899999999
  0
LINE
  5
C5
330
1E
100
AcDbEntity
  8
MO_001_VIEW_PV
  6
C_CENTER_L
100
AcDbLine
 10
63.868439
 20
18.25
 30
0.0
 11
73.565308
 21
18.25
 31
0.0
  0
CIRCLE
  5
C6
330
1E
100
AcDbEntity
  8
MO_001_VIEW_PV
  6
C_SOLID_M
100
AcDbCircle
 10
69.0
 20
18.25
 30
0.0
 40
1.700000999999999
  0
CIRCLE
  5
C7
330
1E
100
AcDbEntity
  8
MO_001_VIEW_PV
  6
C_SOLID_M
100
AcDbCircle
 10
69.0
 20
18.25
 30
0.0
 40
2.5
  0
LINE
  5
C8
330
1E
100
AcDbEntity
  8
MO_001_VIEW_PV
  6
C_CENTER_L
100
AcDbLine
 10
63.868439
 20
-18.25
 30
0.0
 11
73.565308
 21
-18.25
 31
0.0
  0
CIRCLE
  5
C9
330
1E
100
AcDbEntity
  8
MO_001_VIEW_PV
  6
C_SOLID_M
100
AcDbCircle
 10
69.0
 20
-18.25
 30
0.0
 40
1.700000999999999
  0
CIRCLE
  5
CA
330
1E
100
AcDbEntity
  8
MO_001_VIEW_PV
  6
C_SOLID_M
100
AcDbCircle
 10
69.0
 20
-18.25
 30
0.0
 40
2.5
  0
CIRCLE
  5
CB
330
1E
100
AcDbEntity
  8
MO_001_VIEW_PV
  6
C_SOLID_M
100
AcDbCircle
 10
69.0
 20
0.0
 30
0.0
 40
3.97
  0
CIRCLE
  5
CC
330
1E
100
AcDbEntity
  8
MO_001_VIEW_PV
  6
C_SOLID_M
100
AcDbCircle
 10
69.0
 20
0.0
 30
0.0
 40
3.669999999999999
  0
LINE
  5
CD
330
1E
100
AcDbEntity
  8
MO_001_VIEW_PV
  6
C_SOLID_M
100
AcDbLine
 10
-1.5
 20
28.800003
 30
0.0
 11
-1.5
 21
-28.800003
 31
0.0
  0
LINE
  5
CE
330
1E
100
AcDbEntity
  8
MO_001_VIEW_PV
  6
C_CENTER_L
100
AcDbLine
 10
-56.372753
 20
0.0
 30
0.0
 11
20.47081799999999
 21
0.0
 31
0.0
  0
LINE
  5
CF
330
1E
100
AcDbEntity
  8
MO_001_VIEW_PV
  6
C_SOLID_M
100
AcDbLine
 10
-27.19999699999999
 20
28.800003
 30
0.0
 11
-1.5
 21
28.800003
 31
0.0
  0
LINE
  5
D0
330
1E
100
AcDbEntity
  8
MO_001_VIEW_PV
  6
C_SOLID_M
100
AcDbLine
 10
-27.19999699999999
 20
-28.800003
 30
0.0
 11
-1.5
 21
-28.800003
 31
0.0
  0
LINE
  5
D1
330
1E
100
AcDbEntity
  8
MO_001_VIEW_PV
  6
C_SOLID_M
100
AcDbLine
 10
-33.0
 20
23.0
 30
0.0
 11
-33.0
 21
-23.0
 31
0.0
  0
ARC
  5
D2
330
1E
100
AcDbEntity
  8
MO_001_VIEW_PV
  6
C_SOLID_M
100
AcDbCircle
 10
-27.19999699999999
 20
23.0
 30
0.0
 40
5.799999999999999
100
AcDbArc
 50
90.000002
 51
180.000005
  0
LINE
  5
D3
330
1E
100
AcDbEntity
  8
MO_001_VIEW_PV
  6
C_SOLID_M
100
AcDbLine
 10
-0.800003
 20
24.699997
 30
0.0
 11
-0.800003
 21
-24.699997
 31
0.0
  0
LINE
  5
D4
330
1E
100
AcDbEntity
  8
MO_001_VIEW_PV
  6
C_SOLID_M
100
AcDbLine
 10
-1.5
 20
25.199997
 30
0.0
 11
-1.300003
 21
25.199997
 31
0.0
  0
LINE
  5
D5
330
1E
100
AcDbEntity
  8
MO_001_VIEW_PV
  6
C_SOLID_M
100
AcDbLine
 10
-1.5
 20
-25.199997
 30
0.0
 11
-1.300003
 21
-25.199997
 31
0.0
  0
LINE
  5
D6
330
1E
100
AcDbEntity
  8
MO_001_VIEW_PV
  6
C_SOLID_M
100
AcDbLine
 10
-1.299998999999999
 20
25.199998
 30
0.0
 11
-0.7999990000000001
 21
24.699997
 31
0.0
  0
LINE
  5
D7
330
1E
100
AcDbEntity
  8
MO_001_VIEW_PV
  6
C_SOLID_M
100
AcDbLine
 10
-1.300002
 20
-25.199995
 30
0.0
 11
-0.8000019999999999
 21
-24.699994
 31
0.0
  0
LINE
  5
D8
330
1E
100
AcDbEntity
  8
MO_001_VIEW_PV
  6
C_SOLID_M
100
AcDbLine
 10
-1.300003
 20
25.200005
 30
0.0
 11
-1.300003
 21
-25.200005
 31
0.0
  0
LINE
  5
D9
330
1E
100
AcDbEntity
  8
MO_001_VIEW_PV
  6
C_CENTER_L
100
AcDbLine
 10
-5.776794
 20
18.25
 30
0.0
 11
20.204781
 21
18.25
 31
0.0
  0
LINE
  5
DA
330
1E
100
AcDbEntity
  8
MO_001_VIEW_PV
  6
C_SOLID_M
100
AcDbLine
 10
0.0
 20
20.75
 30
0.0
 11
17.599998
 21
20.75
 31
0.0
  0
LINE
  5
DB
330
1E
100
AcDbEntity
  8
MO_001_VIEW_PV
  6
C_SOLID_M
100
AcDbLine
 10
0.0
 20
15.75
 30
0.0
 11
17.599998
 21
15.75
 31
0.0
  0
LINE
  5
DC
330
1E
100
AcDbEntity
  8
MO_001_VIEW_PV
  6
C_SOLID_M
100
AcDbLine
 10
18.400002
 20
19.949997
 30
0.0
 11
18.400002
 21
16.550003
 31
0.0
  0
LINE
  5
DD
330
1E
100
AcDbEntity
  8
MO_001_VIEW_PV
  6
C_SOLID_M
100
AcDbLine
 10
0.0
 20
19.949997
 30
0.0
 11
18.400002
 21
19.949997
 31
0.0
  0
LINE
  5
DE
330
1E
100
AcDbEntity
  8
MO_001_VIEW_PV
  6
C_SOLID_M
100
AcDbLine
 10
0.0
 20
16.550003
 30
0.0
 11
18.400002
 21
16.550003
 31
0.0
  0
LINE
  5
DF
330
1E
100
AcDbEntity
  8
MO_001_VIEW_PV
  6
C_SOLID_M
100
AcDbLine
 10
17.599998
 20
20.75
 30
0.0
 11
17.599998
 21
15.75
 31
0.0
  0
LINE
  5
E0
330
1E
100
AcDbEntity
  8
MO_001_VIEW_PV
  6
C_SOLID_M
100
AcDbLine
 10
17.600014
 20
20.75
 30
0.0
 11
18.400008
 21
19.950006
 31
0.0
  0
LINE
  5
E1
330
1E
100
AcDbEntity
  8
MO_001_VIEW_PV
  6
C_SOLID_M
100
AcDbLine
 10
17.600007
 20
15.750001
 30
0.0
 11
18.400006
 21
16.550001
 31
0.0
  0
LINE
  5
E2
330
1E
100
AcDbEntity
  8
MO_001_VIEW_PV
  6
C_SOLID_M
100
AcDbLine
 10
-34.70699299999999
 20
-25.0
 30
0.0
 11
-34.70699299999999
 21
25.0
 31
0.0
  0
LINE
  5
E3
330
1E
100
AcDbEntity
  8
MO_001_VIEW_PV
  6
C_SOLID_M
100
AcDbLine
 10
-37.606991
 20
-25.0
 30
0.0
 11
-37.606991
 21
25.0
 31
0.0
  0
LINE
  5
E4
330
1E
100
AcDbEntity
  8
MO_001_VIEW_PV
  6
C_SOLID_M
100
AcDbLine
 10
-37.606991
 20
25.0
 30
0.0
 11
-34.70699299999999
 21
25.0
 31
0.0
  0
LINE
  5
E5
330
1E
100
AcDbEntity
  8
MO_001_VIEW_PV
  6
C_SOLID_M
100
AcDbLine
 10
-37.606991
 20
-25.0
 30
0.0
 11
-34.707001
 21
-25.0
 31
0.0
  0
ARC
  5
E6
330
1E
100
AcDbEntity
  8
MO_001_VIEW_PV
  6
C_SOLID_M
100
AcDbCircle
 10
-37.395683
 20
12.90377799999999
 30
0.0
 40
2.381499999999999
100
AcDbArc
 50
95.090474
 51
184.8434969999999
  0
LINE
  5
E7
330
1E
100
AcDbEntity
  8
MO_001_VIEW_PV
  6
C_SOLID_M
100
AcDbLine
 10
-39.76851099999999
 20
12.702707
 30
0.0
 11
-39.09338599999999
 21
4.735348
 31
0.0
  0
ARC
  5
E8
330
1E
100
AcDbEntity
  8
MO_001_VIEW_PV
  6
C_SOLID_M
100
AcDbCircle
 10
-37.598911
 20
4.861983999999999
 30
0.0
 40
1.5
100
AcDbArc
 50
184.843514
 51
269.6913819999999
  0
ARC
  5
E9
330
1E
100
AcDbEntity
  8
MO_001_VIEW_PV
  6
C_SOLID_M
100
AcDbCircle
 10
-37.395683
 20
-18.64465299999999
 30
0.0
 40
2.381499999999999
100
AcDbArc
 50
95.090474
 51
180.0000189999999
  0
LINE
  5
EA
330
1E
100
AcDbEntity
  8
MO_001_VIEW_PV
  6
C_SOLID_M
100
AcDbLine
 10
-39.77718
 20
-18.644654
 30
0.0
 11
-39.77718
 21
-19.100006
 31
0.0
  0
ARC
  5
EB
330
1E
100
AcDbEntity
  8
MO_001_VIEW_PV
  6
C_SOLID_M
100
AcDbCircle
 10
-37.395683
 20
-19.100006
 30
0.0
 40
2.381499999999999
100
AcDbArc
 50
179.999978
 51
264.9095149999999
  0
LINE
  5
EC
330
1E
100
AcDbEntity
  8
MO_001_VIEW_PV
  6
C_SOLID_M
100
AcDbLine
 10
-38.60699799999999
 20
-11.07499699999999
 30
0.0
 11
-38.60699799999999
 21
3.751237
 31
0.0
  0
LINE
  5
ED
330
1E
100
AcDbEntity
  8
MO_001_VIEW_PV
  6
C_SOLID_M
100
AcDbLine
 10
-34.707001
 20
13.25
 30
0.0
 11
-33.0
 21
13.25
 31
0.0
  0
LINE
  5
EE
330
1E
100
AcDbEntity
  8
MO_001_VIEW_PV
  6
C_SOLID_M
100
AcDbLine
 10
-34.707001
 20
-13.25
 30
0.0
 11
-33.0
 21
-13.25
 31
0.0
  0
LINE
  5
EF
330
1E
100
AcDbEntity
  8
MO_001_VIEW_PV
  6
C_SOLID_M
100
AcDbLine
 10
-38.60699799999999
 20
-11.07499699999999
 30
0.0
 11
-37.606991
 21
-11.07499699999999
 31
0.0
  0
LINE
  5
F0
330
1E
100
AcDbEntity
  8
MO_001_VIEW_PV
  6
C_SOLID_M
100
AcDbLine
 10
17.39300499999999
 20
-3.669998
 30
0.0
 11
17.39300499999999
 21
3.669998
 31
0.0
  0
LINE
  5
F1
330
1E
100
AcDbEntity
  8
MO_001_VIEW_PV
  6
C_SOLID_M
100
AcDbLine
 10
-53.70699699999999
 20
-3.824408999999999
 30
0.0
 11
-53.70699699999999
 21
3.824408999999999
 31
0.0
  0
LINE
  5
F2
330
1E
100
AcDbEntity
  8
MO_001_VIEW_PV
  6
C_SOLID_M
100
AcDbLine
 10
5.993003999999999
 20
2.769997
 30
0.0
 11
5.993003999999999
 21
3.970001
 31
0.0
  0
LINE
  5
F3
330
1E
100
AcDbEntity
  8
MO_001_VIEW_PV
  6
C_SOLID_M
100
AcDbLine
 10
5.993003999999999
 20
3.970001
 30
0.0
 11
17.09300199999999
 21
3.970001
 31
0.0
  0
LINE
  5
F4
330
1E
100
AcDbEntity
  8
MO_001_VIEW_PV
  6
C_SOLID_M
100
AcDbLine
 10
5.292999
 20
-3.970001
 30
0.0
 11
17.09300199999999
 21
-3.970001
 31
0.0
  0
LINE
  5
F5
330
1E
100
AcDbEntity
  8
MO_001_VIEW_PV
  6
C_SOLID_M
100
AcDbLine
 10
17.093004
 20
3.970002999999999
 30
0.0
 11
17.39300899999999
 21
3.669998
 31
0.0
  0
LINE
  5
F6
330
1E
100
AcDbEntity
  8
MO_001_VIEW_PV
  6
C_SOLID_M
100
AcDbLine
 10
17.09300499999999
 20
-3.969991999999999
 30
0.0
 11
17.393004
 21
-3.669992999999999
 31
0.0
  0
LINE
  5
F7
330
1E
100
AcDbEntity
  8
MO_001_VIEW_PV
  6
C_SOLID_M
100
AcDbLine
 10
-53.307001
 20
3.969997
 30
0.0
 11
-53.707
 21
3.824408999999999
 31
0.0
  0
LINE
  5
F8
330
1E
100
AcDbEntity
  8
MO_001_VIEW_PV
  6
C_SOLID_M
100
AcDbLine
 10
-53.307
 20
-3.969996
 30
0.0
 11
-53.706996
 21
-3.824408
 31
0.0
  0
LINE
  5
F9
330
1E
100
AcDbEntity
  8
MO_001_VIEW_PV
  6
C_SOLID_M
100
AcDbLine
 10
-53.30699499999999
 20
-3.970001
 30
0.0
 11
-53.30699499999999
 21
3.970001
 31
0.0
  0
LINE
  5
FA
330
1E
100
AcDbEntity
  8
MO_001_VIEW_PV
  6
C_SOLID_M
100
AcDbLine
 10
17.09300199999999
 20
-3.970001
 30
0.0
 11
17.09300199999999
 21
3.970001
 31
0.0
  0
LINE
  5
FB
330
1E
100
AcDbEntity
  8
MO_001_VIEW_PV
  6
C_SOLID_M
100
AcDbLine
 10
5.292999
 20
2.769997
 30
0.0
 11
5.993003999999999
 21
2.769997
 31
0.0
  0
LINE
  5
FC
330
1E
100
AcDbEntity
  8
MO_001_VIEW_PV
  6
C_CENTER_L
100
AcDbLine
 10
-5.776794
 20
-18.25
 30
0.0
 11
20.204781
 21
-18.25
 31
0.0
  0
LINE
  5
FD
330
1E
100
AcDbEntity
  8
MO_001_VIEW_PV
  6
C_SOLID_M
100
AcDbLine
 10
0.0
 20
-20.75
 30
0.0
 11
17.599998
 21
-20.75
 31
0.0
  0
LINE
  5
FE
330
1E
100
AcDbEntity
  8
MO_001_VIEW_PV
  6
C_SOLID_M
100
AcDbLine
 10
0.0
 20
-15.75
 30
0.0
 11
17.599998
 21
-15.75
 31
0.0
  0
LINE
  5
FF
330
1E
100
AcDbEntity
  8
MO_001_VIEW_PV
  6
C_SOLID_M
100
AcDbLine
 10
18.400002
 20
-19.949997
 30
0.0
 11
18.400002
 21
-16.550003
 31
0.0
  0
LINE
  5
100
330
1E
100
AcDbEntity
  8
MO_001_VIEW_PV
  6
C_SOLID_M
100
AcDbLine
 10
0.0
 20
-19.949997
 30
0.0
 11
18.400002
 21
-19.949997
 31
0.0
  0
LINE
  5
101
330
1E
100
AcDbEntity
  8
MO_001_VIEW_PV
  6
C_SOLID_M
100
AcDbLine
 10
0.0
 20
-16.550003
 30
0.0
 11
18.400002
 21
-16.550003
 31
0.0
  0
LINE
  5
102
330
1E
100
AcDbEntity
  8
MO_001_VIEW_PV
  6
C_SOLID_M
100
AcDbLine
 10
17.599998
 20
-20.75
 30
0.0
 11
17.599998
 21
-15.75
 31
0.0
  0
LINE
  5
103
330
1E
100
AcDbEntity
  8
MO_001_VIEW_PV
  6
C_SOLID_M
100
AcDbLine
 10
17.600005
 20
-20.75000699999999
 30
0.0
 11
18.400004
 21
-19.950007
 31
0.0
  0
LINE
  5
104
330
1E
100
AcDbEntity
  8
MO_001_VIEW_PV
  6
C_SOLID_M
100
AcDbLine
 10
17.600003
 20
-15.75000199999999
 30
0.0
 11
18.400008
 21
-16.550007
 31
0.0
  0
LINE
  5
105
330
1E
100
AcDbEntity
  8
MO_001_VIEW_PV
  6
C_SOLID_M
100
AcDbLine
 10
-53.30699499999999
 20
-3.970001
 30
0.0
 11
-38.60699799999999
 21
-3.970001
 31
0.0
  0
LINE
  5
106
330
1E
100
AcDbEntity
  8
MO_001_VIEW_PV
  6
C_SOLID_M
100
AcDbLine
 10
-53.30699499999999
 20
3.970001
 30
0.0
 11
-38.804882
 21
3.970001
 31
0.0
  0
LINE
  5
107
330
1E
100
AcDbEntity
  8
MO_001_VIEW_PV
  6
C_SOLID_M
100
AcDbLine
 10
-38.00699999999999
 20
-2.573134999999999
 30
0.0
 11
-38.00699999999999
 21
2.573134999999999
 31
0.0
  0
LINE
  5
108
330
1E
100
AcDbEntity
  8
MO_001_VIEW_PV
  6
C_SOLID_M
100
AcDbLine
 10
-38.60699799999999
 20
-10.637596
 30
0.0
 11
-38.00699999999999
 21
-10.637596
 31
0.0
  0
LINE
  5
109
330
1E
100
AcDbEntity
  8
MO_001_VIEW_PV
  6
C_SOLID_M
100
AcDbLine
 10
-38.00699999999999
 20
-10.82724
 30
0.0
 11
-37.606991
 21
-10.82724
 31
0.0
  0
LINE
  5
10A
330
1E
100
AcDbEntity
  8
MO_001_VIEW_PV
  6
C_SOLID_M
100
AcDbLine
 10
-38.00699999999999
 20
-8.319350999999999
 30
0.0
 11
-37.606991
 21
-8.319350999999999
 31
0.0
  0
LINE
  5
10B
330
1E
100
AcDbEntity
  8
MO_001_VIEW_PV
  6
C_SOLID_M
100
AcDbLine
 10
-38.60699799999999
 20
-8.064460999999999
 30
0.0
 11
-38.00699999999999
 21
-8.064460999999999
 31
0.0
  0
LINE
  5
10C
330
1E
100
AcDbEntity
  8
MO_001_VIEW_PV
  6
C_SOLID_M
100
AcDbLine
 10
-38.60699799999999
 20
-2.573134999999999
 30
0.0
 11
-38.00699999999999
 21
-2.573134999999999
 31
0.0
  0
LINE
  5
10D
330
1E
100
AcDbEntity
  8
MO_001_VIEW_PV
  6
C_SOLID_M
100
AcDbLine
 10
-38.00699999999999
 20
-2.204200999999999
 30
0.0
 11
-37.606991
 21
-2.204200999999999
 31
0.0
  0
LINE
  5
10E
330
1E
100
AcDbEntity
  8
MO_001_VIEW_PV
  6
C_SOLID_M
100
AcDbLine
 10
-38.00699999999999
 20
2.204200999999999
 30
0.0
 11
-37.606991
 21
2.204200999999999
 31
0.0
  0
LINE
  5
10F
330
1E
100
AcDbEntity
  8
MO_001_VIEW_PV
  6
C_SOLID_M
100
AcDbLine
 10
-38.60699799999999
 20
2.573134999999999
 30
0.0
 11
-38.00699999999999
 21
2.573134999999999
 31
0.0
  0
LINE
  5
110
330
1E
100
AcDbEntity
  8
MO_001_VIEW_PV
  6
C_SOLID_M
100
AcDbLine
 10
-38.00699999999999
 20
-10.82724
 30
0.0
 11
-38.00699999999999
 21
-8.064460999999999
 31
0.0
  0
LINE
  5
111
330
1E
100
AcDbEntity
  8
MO_001_VIEW_PV
  6
C_SOLID_M
100
AcDbLine
 10
0.0
 20
24.599998
 30
0.0
 11
0.0
 21
-24.599998
 31
0.0
  0
LINE
  5
112
330
1E
100
AcDbEntity
  8
MO_001_VIEW_PV
  6
C_SOLID_M
100
AcDbLine
 10
-0.800003
 20
24.599998
 30
0.0
 11
0.0
 21
24.599998
 31
0.0
  0
LINE
  5
113
330
1E
100
AcDbEntity
  8
MO_001_VIEW_PV
  6
C_SOLID_M
100
AcDbLine
 10
-0.800003
 20
-24.599998
 30
0.0
 11
0.0
 21
-24.599998
 31
0.0
  0
ARC
  5
114
330
1E
100
AcDbEntity
  8
MO_001_VIEW_PV
  6
C_SOLID_M
100
AcDbCircle
 10
2.5
 20
-3.191711
 30
0.0
 40
0.6
100
AcDbArc
 50
249.8759789999999
 51
6.738516999999999
  0
ARC
  5
115
330
1E
100
AcDbEntity
  8
MO_001_VIEW_PV
  6
C_SOLID_M
100
AcDbCircle
 10
11.437828
 20
-2.135666
 30
0.0
 40
8.4
100
AcDbArc
 50
173.2614909999999
 51
186.738533
  0
ARC
  5
116
330
1E
100
AcDbEntity
  8
MO_001_VIEW_PV
  6
C_SOLID_M
100
AcDbCircle
 10
2.5
 20
-1.07962
 30
0.0
 40
0.6
100
AcDbArc
 50
353.261468
 51
110.124035
  0
ARC
  5
117
330
1E
100
AcDbEntity
  8
MO_001_VIEW_PV
  6
C_SOLID_M
100
AcDbCircle
 10
1.571053
 20
1.455543999999999
 30
0.0
 40
2.1
100
AcDbArc
 50
221.572023
 51
290.124016
  0
ARC
  5
118
330
1E
100
AcDbEntity
  8
MO_001_VIEW_PV
  6
C_SOLID_M
100
AcDbCircle
 10
1.571053
 20
-5.726874999999999
 30
0.0
 40
2.1
100
AcDbArc
 50
69.87597
 51
138.427977
  0
LINE
  5
119
330
1E
100
AcDbEntity
  8
MO_001_VIEW_PV
  6
C_SOLID_M
100
AcDbLine
 10
2.301825999999999
 20
-7.343445
 30
0.0
 11
2.699997
 21
-7.343445
 31
0.0
  0
LINE
  5
11A
330
1E
100
AcDbEntity
  8
MO_001_VIEW_PV
  6
C_SOLID_M
100
AcDbLine
 10
2.301825999999999
 20
-7.872696
 30
0.0
 11
2.699997
 21
-7.872696
 31
0.0
  0
LINE
  5
11B
330
1E
100
AcDbEntity
  8
MO_001_VIEW_PV
  6
C_SOLID_M
100
AcDbLine
 10
2.301825999999999
 20
-10.155106
 30
0.0
 11
2.699997
 21
-10.155106
 31
0.0
  0
LINE
  5
11C
330
1E
100
AcDbEntity
  8
MO_001_VIEW_PV
  6
C_SOLID_M
100
AcDbLine
 10
0.4000020000000001
 20
-11.900002
 30
0.0
 11
3.099997999999999
 21
-11.900002
 31
0.0
  0
LINE
  5
11D
330
1E
100
AcDbEntity
  8
MO_001_VIEW_PV
  6
C_SOLID_M
100
AcDbLine
 10
0.4000020000000001
 20
-11.76681499999999
 30
0.0
 11
3.099997999999999
 21
-11.76681499999999
 31
0.0
  0
LINE
  5
11E
330
1E
100
AcDbEntity
  8
MO_001_VIEW_PV
  6
C_SOLID_M
100
AcDbLine
 10
0.4000020000000001
 20
-10.97576899999999
 30
0.0
 11
3.099997999999999
 21
-10.97576899999999
 31
0.0
  0
LINE
  5
11F
330
1E
100
AcDbEntity
  8
MO_001_VIEW_PV
  6
C_SOLID_M
100
AcDbLine
 10
3.099997999999999
 20
-10.97576899999999
 30
0.0
 11
3.099997999999999
 21
-11.900002
 31
0.0
  0
ARC
  5
120
330
1E
100
AcDbEntity
  8
MO_001_VIEW_PV
  6
C_SOLID_M
100
AcDbCircle
 10
0.4000020000000001
 20
-12.300003
 30
0.0
 40
0.4
100
AcDbArc
 50
90.000002
 51
180.000005
  0
ARC
  5
121
330
1E
100
AcDbEntity
  8
MO_001_VIEW_PV
  6
C_SOLID_M
100
AcDbCircle
 10
0.4000020000000001
 20
-12.166817
 30
0.0
 40
0.4
100
AcDbArc
 50
90.000002
 51
180.000005
  0
ARC
  5
122
330
1E
100
AcDbEntity
  8
MO_001_VIEW_PV
  6
C_SOLID_M
100
AcDbCircle
 10
0.4000020000000001
 20
-12.175766
 30
0.0
 40
1.199999999999999
100
AcDbArc
 50
90.000002
 51
109.4712939999999
  0
ARC
  5
123
330
1E
100
AcDbEntity
  8
MO_001_VIEW_PV
  6
C_SOLID_M
100
AcDbCircle
 10
1.571053
 20
1.660125999999999
 30
0.0
 40
2.1
100
AcDbArc
 50
221.572023
 51
290.124016
  0
ARC
  5
124
330
1E
100
AcDbEntity
  8
MO_001_VIEW_PV
  6
C_SOLID_M
100
AcDbCircle
 10
2.5
 20
-0.8750379999999998
 30
0.0
 40
0.6
100
AcDbArc
 50
353.261468
 51
110.124035
  0
LINE
  5
125
330
1E
100
AcDbEntity
  8
MO_001_VIEW_PV
  6
C_SOLID_M
100
AcDbLine
 10
3.099997999999999
 20
-0.8750379999999998
 30
0.0
 11
3.099997999999999
 21
-1.07962
 31
0.0
  0
LINE
  5
126
330
1E
100
AcDbEntity
  8
MO_001_VIEW_PV
  6
C_SOLID_M
100
AcDbLine
 10
3.099997999999999
 20
-7.743438999999999
 30
0.0
 11
3.099997999999999
 21
-9.755111999999998
 31
0.0
  0
ARC
  5
127
330
1E
100
AcDbEntity
  8
MO_001_VIEW_PV
  6
C_SOLID_M
100
AcDbCircle
 10
2.699997
 20
-8.272697
 30
0.0
 40
0.4
100
AcDbArc
 50
0.0
 51
89.99998900000001
  0
ARC
  5
128
330
1E
100
AcDbEntity
  8
MO_001_VIEW_PV
  6
C_SOLID_M
100
AcDbCircle
 10
2.699997
 20
-7.743438999999999
 30
0.0
 40
0.4
100
AcDbArc
 50
0.0
 51
89.99998900000001
  0
ARC
  5
129
330
1E
100
AcDbEntity
  8
MO_001_VIEW_PV
  6
C_SOLID_M
100
AcDbCircle
 10
2.699997
 20
-9.755111999999998
 30
0.0
 40
0.4
100
AcDbArc
 50
269.999998
 51
0.0
  0
POLYLINE
  5
12A
330
1E
100
AcDbEntity
  8
MO_001_VIEW_PV
  6
C_SOLID_M
100
AcDb2dPolyline
 66
     1
 10
0.0
 20
0.0
 30
0.0
  0
VERTEX
  5
2E6
330
12A
100
AcDbEntity
  8
MO_001_VIEW_PV
  6
C_SOLID_M
100
AcDbVertex
100
AcDb2dVertex
 10
-0.000003
 20
-7.434391999999999
 30
0.0
  0
VERTEX
  5
2E7
330
12A
100
AcDbEntity
  8
MO_001_VIEW_PV
  6
C_SOLID_M
100
AcDbVertex
100
AcDb2dVertex
 10
0.108887
 20
-7.521142999999999
 30
0.0
  0
VERTEX
  5
2E8
330
12A
100
AcDbEntity
  8
MO_001_VIEW_PV
  6
C_SOLID_M
100
AcDbVertex
100
AcDb2dVertex
 10
0.318854
 20
-7.65713
 30
0.0
  0
VERTEX
  5
2E9
330
12A
100
AcDbEntity
  8
MO_001_VIEW_PV
  6
C_SOLID_M
100
AcDbVertex
100
AcDb2dVertex
 10
0.490691
 20
-7.744718999999999
 30
0.0
  0
VERTEX
  5
2EA
330
12A
100
AcDbEntity
  8
MO_001_VIEW_PV
  6
C_SOLID_M
100
AcDbVertex
100
AcDb2dVertex
 10
0.7675340000000001
 20
-7.850938
 30
0.0
  0
VERTEX
  5
2EB
330
12A
100
AcDbEntity
  8
MO_001_VIEW_PV
  6
C_SOLID_M
100
AcDbVertex
100
AcDb2dVertex
 10
1.061880999999999
 20
-7.924952
 30
0.0
  0
VERTEX
  5
2EC
330
12A
100
AcDbEntity
  8
MO_001_VIEW_PV
  6
C_SOLID_M
100
AcDbVertex
100
AcDb2dVertex
 10
1.372223999999999
 20
-7.965507
 30
0.0
  0
VERTEX
  5
2ED
330
12A
100
AcDbEntity
  8
MO_001_VIEW_PV
  6
C_SOLID_M
100
AcDbVertex
100
AcDb2dVertex
 10
1.608300999999999
 20
-7.972442999999999
 30
0.0
  0
VERTEX
  5
2EE
330
12A
100
AcDbEntity
  8
MO_001_VIEW_PV
  6
C_SOLID_M
100
AcDbVertex
100
AcDb2dVertex
 10
1.785213
 20
-7.964352
 30
0.0
  0
VERTEX
  5
2EF
330
12A
100
AcDbEntity
  8
MO_001_VIEW_PV
  6
C_SOLID_M
100
AcDbVertex
100
AcDb2dVertex
 10
2.04733
 20
-7.931000999999999
 30
0.0
  0
VERTEX
  5
2F0
330
12A
100
AcDbEntity
  8
MO_001_VIEW_PV
  6
C_SOLID_M
100
AcDbVertex
100
AcDb2dVertex
 10
2.30182
 20
-7.872694999999999
 30
0.0
  0
SEQEND
  5
2F1
330
12A
100
AcDbEntity
  8
MO_001_VIEW_PV
  6
C_SOLID_M
  0
POLYLINE
  5
137
330
1E
100
AcDbEntity
  8
MO_001_VIEW_PV
  6
C_SOLID_M
100
AcDb2dPolyline
 66
     1
 10
0.0
 20
0.0
 30
0.0
  0
VERTEX
  5
2F2
330
137
100
AcDbEntity
  8
MO_001_VIEW_PV
  6
C_SOLID_M
100
AcDbVertex
100
AcDb2dVertex
 10
-0.000006
 20
-6.905143999999999
 30
0.0
  0
VERTEX
  5
2F3
330
137
100
AcDbEntity
  8
MO_001_VIEW_PV
  6
C_SOLID_M
100
AcDbVertex
100
AcDb2dVertex
 10
0.108884
 20
-6.991894999999999
 30
0.0
  0
VERTEX
  5
2F4
330
137
100
AcDbEntity
  8
MO_001_VIEW_PV
  6
C_SOLID_M
100
AcDbVertex
100
AcDb2dVertex
 10
0.318851
 20
-7.127883999999999
 30
0.0
  0
VERTEX
  5
2F5
330
137
100
AcDbEntity
  8
MO_001_VIEW_PV
  6
C_SOLID_M
100
AcDbVertex
100
AcDb2dVertex
 10
0.4906890000000001
 20
-7.215474
 30
0.0
  0
VERTEX
  5
2F6
330
137
100
AcDbEntity
  8
MO_001_VIEW_PV
  6
C_SOLID_M
100
AcDbVertex
100
AcDb2dVertex
 10
0.7675320000000001
 20
-7.321693999999999
 30
0.0
  0
VERTEX
  5
2F7
330
137
100
AcDbEntity
  8
MO_001_VIEW_PV
  6
C_SOLID_M
100
AcDbVertex
100
AcDb2dVertex
 10
1.061880999999999
 20
-7.395707999999999
 30
0.0
  0
VERTEX
  5
2F8
330
137
100
AcDbEntity
  8
MO_001_VIEW_PV
  6
C_SOLID_M
100
AcDbVertex
100
AcDb2dVertex
 10
1.372223999999999
 20
-7.436263
 30
0.0
  0
VERTEX
  5
2F9
330
137
100
AcDbEntity
  8
MO_001_VIEW_PV
  6
C_SOLID_M
100
AcDbVertex
100
AcDb2dVertex
 10
1.608302
 20
-7.443199
 30
0.0
  0
VERTEX
  5
2FA
330
137
100
AcDbEntity
  8
MO_001_VIEW_PV
  6
C_SOLID_M
100
AcDbVertex
100
AcDb2dVertex
 10
1.785215
 20
-7.435108999999999
 30
0.0
  0
VERTEX
  5
2FB
330
137
100
AcDbEntity
  8
MO_001_VIEW_PV
  6
C_SOLID_M
100
AcDbVertex
100
AcDb2dVertex
 10
2.047333
 20
-7.401757
 30
0.0
  0
VERTEX
  5
2FC
330
137
100
AcDbEntity
  8
MO_001_VIEW_PV
  6
C_SOLID_M
100
AcDbVertex
100
AcDb2dVertex
 10
2.301823
 20
-7.343449999999999
 30
0.0
  0
SEQEND
  5
2FD
330
137
100
AcDbEntity
  8
MO_001_VIEW_PV
  6
C_SOLID_M
  0
POLYLINE
  5
144
330
1E
100
AcDbEntity
  8
MO_001_VIEW_PV
  6
C_SOLID_M
100
AcDb2dPolyline
 66
     1
 10
0.0
 20
0.0
 30
0.0
  0
VERTEX
  5
2FE
330
144
100
AcDbEntity
  8
MO_001_VIEW_PV
  6
C_SOLID_M
100
AcDbVertex
100
AcDb2dVertex
 10
2.301824
 20
-10.15510099999999
 30
0.0
  0
VERTEX
  5
2FF
330
144
100
AcDbEntity
  8
MO_001_VIEW_PV
  6
C_SOLID_M
100
AcDbVertex
100
AcDb2dVertex
 10
1.999243999999999
 20
-10.088713
 30
0.0
  0
VERTEX
  5
300
330
144
100
AcDbEntity
  8
MO_001_VIEW_PV
  6
C_SOLID_M
100
AcDbVertex
100
AcDb2dVertex
 10
1.765609999999999
 20
-10.06198099999999
 30
0.0
  0
VERTEX
  5
301
330
144
100
AcDbEntity
  8
MO_001_VIEW_PV
  6
C_SOLID_M
100
AcDbVertex
100
AcDb2dVertex
 10
1.588605999999999
 20
-10.055155
 30
0.0
  0
VERTEX
  5
302
330
144
100
AcDbEntity
  8
MO_001_VIEW_PV
  6
C_SOLID_M
100
AcDbVertex
100
AcDb2dVertex
 10
1.323258999999999
 20
-10.066277
 30
0.0
  0
VERTEX
  5
303
330
144
100
AcDbEntity
  8
MO_001_VIEW_PV
  6
C_SOLID_M
100
AcDbVertex
100
AcDb2dVertex
 10
1.061880999999999
 20
-10.102843
 30
0.0
  0
VERTEX
  5
304
330
144
100
AcDbEntity
  8
MO_001_VIEW_PV
  6
C_SOLID_M
100
AcDbVertex
100
AcDb2dVertex
 10
0.762984
 20
-10.178296
 30
0.0
  0
VERTEX
  5
305
330
144
100
AcDbEntity
  8
MO_001_VIEW_PV
  6
C_SOLID_M
100
AcDbVertex
100
AcDb2dVertex
 10
0.550381
 20
-10.256797
 30
0.0
  0
VERTEX
  5
306
330
144
100
AcDbEntity
  8
MO_001_VIEW_PV
  6
C_SOLID_M
100
AcDbVertex
100
AcDb2dVertex
 10
0.399264
 20
-10.327349
 30
0.0
  0
VERTEX
  5
307
330
144
100
AcDbEntity
  8
MO_001_VIEW_PV
  6
C_SOLID_M
100
AcDbVertex
100
AcDb2dVertex
 10
0.188559
 20
-10.45073499999999
 30
0.0
  0
VERTEX
  5
308
330
144
100
AcDbEntity
  8
MO_001_VIEW_PV
  6
C_SOLID_M
100
AcDbVertex
100
AcDb2dVertex
 10
-0.000006
 20
-10.593407
 30
0.0
  0
SEQEND
  5
309
330
144
100
AcDbEntity
  8
MO_001_VIEW_PV
  6
C_SOLID_M
  0
POLYLINE
  5
151
330
1E
100
AcDbEntity
  8
MO_001_VIEW_PV
  6
C_SOLID_M
100
AcDb2dPolyline
 66
     1
 10
0.0
 20
0.0
 30
0.0
  0
VERTEX
  5
30A
330
151
100
AcDbEntity
  8
MO_001_VIEW_PV
  6
C_SOLID_M
100
AcDbVertex
100
AcDb2dVertex
 10
2.293565999999999
 20
4.379872999999999
 30
0.0
  0
VERTEX
  5
30B
330
151
100
AcDbEntity
  8
MO_001_VIEW_PV
  6
C_SOLID_M
100
AcDbVertex
100
AcDb2dVertex
 10
2.442322
 20
4.348442999999999
 30
0.0
  0
VERTEX
  5
30C
330
151
100
AcDbEntity
  8
MO_001_VIEW_PV
  6
C_SOLID_M
100
AcDbVertex
100
AcDb2dVertex
 10
2.556877
 20
4.348372
 30
0.0
  0
VERTEX
  5
30D
330
151
100
AcDbEntity
  8
MO_001_VIEW_PV
  6
C_SOLID_M
100
AcDbVertex
100
AcDb2dVertex
 10
2.641659
 20
4.361612
 30
0.0
  0
VERTEX
  5
30E
330
151
100
AcDbEntity
  8
MO_001_VIEW_PV
  6
C_SOLID_M
100
AcDbVertex
100
AcDb2dVertex
 10
2.762850999999999
 20
4.402163999999999
 30
0.0
  0
VERTEX
  5
30F
330
151
100
AcDbEntity
  8
MO_001_VIEW_PV
  6
C_SOLID_M
100
AcDbVertex
100
AcDb2dVertex
 10
2.871925
 20
4.465800999999999
 30
0.0
  0
VERTEX
  5
310
330
151
100
AcDbEntity
  8
MO_001_VIEW_PV
  6
C_SOLID_M
100
AcDbVertex
100
AcDb2dVertex
 10
2.978644
 20
4.567019999999999
 30
0.0
  0
VERTEX
  5
311
330
151
100
AcDbEntity
  8
MO_001_VIEW_PV
  6
C_SOLID_M
100
AcDbVertex
100
AcDb2dVertex
 10
3.038680999999999
 20
4.657601
 30
0.0
  0
VERTEX
  5
312
330
151
100
AcDbEntity
  8
MO_001_VIEW_PV
  6
C_SOLID_M
100
AcDbVertex
100
AcDb2dVertex
 10
3.070915999999999
 20
4.7316
 30
0.0
  0
VERTEX
  5
313
330
151
100
AcDbEntity
  8
MO_001_VIEW_PV
  6
C_SOLID_M
100
AcDbVertex
100
AcDb2dVertex
 10
3.097147999999999
 20
4.848698
 30
0.0
  0
VERTEX
  5
314
330
151
100
AcDbEntity
  8
MO_001_VIEW_PV
  6
C_SOLID_M
100
AcDbVertex
100
AcDb2dVertex
 10
3.095854
 20
4.968296999999999
 30
0.0
  0
SEQEND
  5
315
330
151
100
AcDbEntity
  8
MO_001_VIEW_PV
  6
C_SOLID_M
  0
POLYLINE
  5
15E
330
1E
100
AcDbEntity
  8
MO_001_VIEW_PV
  6
C_SOLID_M
100
AcDb2dPolyline
 66
     1
 10
0.0
 20
0.0
 30
0.0
  0
VERTEX
  5
316
330
15E
100
AcDbEntity
  8
MO_001_VIEW_PV
  6
C_SOLID_M
100
AcDbVertex
100
AcDb2dVertex
 10
3.095854
 20
6.798516
 30
0.0
  0
VERTEX
  5
317
330
15E
100
AcDbEntity
  8
MO_001_VIEW_PV
  6
C_SOLID_M
100
AcDbVertex
100
AcDb2dVertex
 10
3.052346
 20
6.341752999999999
 30
0.0
  0
VERTEX
  5
318
330
15E
100
AcDbEntity
  8
MO_001_VIEW_PV
  6
C_SOLID_M
100
AcDbVertex
100
AcDb2dVertex
 10
3.037827
 20
5.883405999999999
 30
0.0
  0
VERTEX
  5
319
330
15E
100
AcDbEntity
  8
MO_001_VIEW_PV
  6
C_SOLID_M
100
AcDbVertex
100
AcDb2dVertex
 10
3.052346
 20
5.425057999999999
 30
0.0
  0
VERTEX
  5
31A
330
15E
100
AcDbEntity
  8
MO_001_VIEW_PV
  6
C_SOLID_M
100
AcDbVertex
100
AcDb2dVertex
 10
3.095854
 20
4.968295999999999
 30
0.0
  0
SEQEND
  5
31B
330
15E
100
AcDbEntity
  8
MO_001_VIEW_PV
  6
C_SOLID_M
  0
POLYLINE
  5
165
330
1E
100
AcDbEntity
  8
MO_001_VIEW_PV
  6
C_SOLID_M
100
AcDb2dPolyline
 66
     1
 10
0.0
 20
0.0
 30
0.0
  0
VERTEX
  5
31C
330
165
100
AcDbEntity
  8
MO_001_VIEW_PV
  6
C_SOLID_M
100
AcDbVertex
100
AcDb2dVertex
 10
3.095854
 20
6.798519
 30
0.0
  0
VERTEX
  5
31D
330
165
100
AcDbEntity
  8
MO_001_VIEW_PV
  6
C_SOLID_M
100
AcDbVertex
100
AcDb2dVertex
 10
3.094348
 20
6.940153999999999
 30
0.0
  0
VERTEX
  5
31E
330
165
100
AcDbEntity
  8
MO_001_VIEW_PV
  6
C_SOLID_M
100
AcDbVertex
100
AcDb2dVertex
 10
3.067902999999999
 20
7.043639999999999
 30
0.0
  0
VERTEX
  5
31F
330
165
100
AcDbEntity
  8
MO_001_VIEW_PV
  6
C_SOLID_M
100
AcDbVertex
100
AcDb2dVertex
 10
3.034402
 20
7.117152
 30
0.0
  0
VERTEX
  5
320
330
165
100
AcDbEntity
  8
MO_001_VIEW_PV
  6
C_SOLID_M
100
AcDbVertex
100
AcDb2dVertex
 10
2.963855
 20
7.217227
 30
0.0
  0
VERTEX
  5
321
330
165
100
AcDbEntity
  8
MO_001_VIEW_PV
  6
C_SOLID_M
100
AcDbVertex
100
AcDb2dVertex
 10
2.871925999999999
 20
7.301014
 30
0.0
  0
VERTEX
  5
322
330
165
100
AcDbEntity
  8
MO_001_VIEW_PV
  6
C_SOLID_M
100
AcDbVertex
100
AcDb2dVertex
 10
2.741162
 20
7.373972999999999
 30
0.0
  0
VERTEX
  5
323
330
165
100
AcDbEntity
  8
MO_001_VIEW_PV
  6
C_SOLID_M
100
AcDbVertex
100
AcDb2dVertex
 10
2.632352
 20
7.40723
 30
0.0
  0
VERTEX
  5
324
330
165
100
AcDbEntity
  8
MO_001_VIEW_PV
  6
C_SOLID_M
100
AcDbVertex
100
AcDb2dVertex
 10
2.547352999999999
 20
7.419214
 30
0.0
  0
VERTEX
  5
325
330
165
100
AcDbEntity
  8
MO_001_VIEW_PV
  6
C_SOLID_M
100
AcDbVertex
100
AcDb2dVertex
 10
2.418584
 20
7.415799
 30
0.0
  0
VERTEX
  5
326
330
165
100
AcDbEntity
  8
MO_001_VIEW_PV
  6
C_SOLID_M
100
AcDbVertex
100
AcDb2dVertex
 10
2.293568
 20
7.386942999999999
 30
0.0
  0
SEQEND
  5
327
330
165
100
AcDbEntity
  8
MO_001_VIEW_PV
  6
C_SOLID_M
  0
POLYLINE
  5
172
330
1E
100
AcDbEntity
  8
MO_001_VIEW_PV
  6
C_SOLID_M
100
AcDb2dPolyline
 66
     1
 10
0.0
 20
0.0
 30
0.0
  0
VERTEX
  5
328
330
172
100
AcDbEntity
  8
MO_001_VIEW_PV
  6
C_SOLID_M
100
AcDbVertex
100
AcDb2dVertex
 10
-0.000002
 20
7.923875999999999
 30
0.0
  0
VERTEX
  5
329
330
172
100
AcDbEntity
  8
MO_001_VIEW_PV
  6
C_SOLID_M
100
AcDbVertex
100
AcDb2dVertex
 10
0.108493
 20
7.818519
 30
0.0
  0
VERTEX
  5
32A
330
172
100
AcDbEntity
  8
MO_001_VIEW_PV
  6
C_SOLID_M
100
AcDbVertex
100
AcDb2dVertex
 10
0.31764
 20
7.653289999999999
 30
0.0
  0
VERTEX
  5
32B
330
172
100
AcDbEntity
  8
MO_001_VIEW_PV
  6
C_SOLID_M
100
AcDbVertex
100
AcDb2dVertex
 10
0.488776
 20
7.546786999999999
 30
0.0
  0
VERTEX
  5
32C
330
172
100
AcDbEntity
  8
MO_001_VIEW_PV
  6
C_SOLID_M
100
AcDbVertex
100
AcDb2dVertex
 10
0.624059
 20
7.477413
 30
0.0
  0
VERTEX
  5
32D
330
172
100
AcDbEntity
  8
MO_001_VIEW_PV
  6
C_SOLID_M
100
AcDbVertex
100
AcDb2dVertex
 10
0.836362
 20
7.391127
 30
0.0
  0
VERTEX
  5
32E
330
172
100
AcDbEntity
  8
MO_001_VIEW_PV
  6
C_SOLID_M
100
AcDbVertex
100
AcDb2dVertex
 10
1.057613999999999
 20
7.327086999999999
 30
0.0
  0
VERTEX
  5
32F
330
172
100
AcDbEntity
  8
MO_001_VIEW_PV
  6
C_SOLID_M
100
AcDbVertex
100
AcDb2dVertex
 10
1.211176
 20
7.296757
 30
0.0
  0
VERTEX
  5
330
330
172
100
AcDbEntity
  8
MO_001_VIEW_PV
  6
C_SOLID_M
100
AcDbVertex
100
AcDb2dVertex
 10
1.484226999999999
 20
7.269580999999999
 30
0.0
  0
VERTEX
  5
331
330
172
100
AcDbEntity
  8
MO_001_VIEW_PV
  6
C_SOLID_M
100
AcDbVertex
100
AcDb2dVertex
 10
1.690245999999999
 20
7.271057
 30
0.0
  0
VERTEX
  5
332
330
172
100
AcDbEntity
  8
MO_001_VIEW_PV
  6
C_SOLID_M
100
AcDbVertex
100
AcDb2dVertex
 10
1.844115999999999
 20
7.284467
 30
0.0
  0
VERTEX
  5
333
330
172
100
AcDbEntity
  8
MO_001_VIEW_PV
  6
C_SOLID_M
100
AcDbVertex
100
AcDb2dVertex
 10
2.07189
 20
7.324175
 30
0.0
  0
VERTEX
  5
334
330
172
100
AcDbEntity
  8
MO_001_VIEW_PV
  6
C_SOLID_M
100
AcDbVertex
100
AcDb2dVertex
 10
2.293563
 20
7.386944
 30
0.0
  0
SEQEND
  5
335
330
172
100
AcDbEntity
  8
MO_001_VIEW_PV
  6
C_SOLID_M
  0
POLYLINE
  5
181
330
1E
100
AcDbEntity
  8
MO_001_VIEW_PV
  6
C_SOLID_M
100
AcDb2dPolyline
 66
     1
 10
0.0
 20
0.0
 30
0.0
  0
VERTEX
  5
336
330
181
100
AcDbEntity
  8
MO_001_VIEW_PV
  6
C_SOLID_M
100
AcDbVertex
100
AcDb2dVertex
 10
2.293563999999999
 20
4.379878999999999
 30
0.0
  0
VERTEX
  5
337
330
181
100
AcDbEntity
  8
MO_001_VIEW_PV
  6
C_SOLID_M
100
AcDbVertex
100
AcDb2dVertex
 10
2.144234999999999
 20
4.424877999999999
 30
0.0
  0
VERTEX
  5
338
330
181
100
AcDbEntity
  8
MO_001_VIEW_PV
  6
C_SOLID_M
100
AcDbVertex
100
AcDb2dVertex
 10
1.875711
 20
4.478282
 30
0.0
  0
VERTEX
  5
339
330
181
100
AcDbEntity
  8
MO_001_VIEW_PV
  6
C_SOLID_M
100
AcDbVertex
100
AcDb2dVertex
 10
1.670643999999999
 20
4.496715
 30
0.0
  0
VERTEX
  5
33A
330
181
100
AcDbEntity
  8
MO_001_VIEW_PV
  6
C_SOLID_M
100
AcDbVertex
100
AcDb2dVertex
 10
1.516106999999999
 20
4.498241
 30
0.0
  0
VERTEX
  5
33B
330
181
100
AcDbEntity
  8
MO_001_VIEW_PV
  6
C_SOLID_M
100
AcDbVertex
100
AcDb2dVertex
 10
1.285119
 20
4.480751
 30
0.0
  0
VERTEX
  5
33C
330
181
100
AcDbEntity
  8
MO_001_VIEW_PV
  6
C_SOLID_M
100
AcDbVertex
100
AcDb2dVertex
 10
1.057613999999999
 20
4.439735999999999
 30
0.0
  0
VERTEX
  5
33D
330
181
100
AcDbEntity
  8
MO_001_VIEW_PV
  6
C_SOLID_M
100
AcDbVertex
100
AcDb2dVertex
 10
0.9069219999999999
 20
4.398838999999999
 30
0.0
  0
VERTEX
  5
33E
330
181
100
AcDbEntity
  8
MO_001_VIEW_PV
  6
C_SOLID_M
100
AcDbVertex
100
AcDb2dVertex
 10
0.6526380000000001
 20
4.302564
 30
0.0
  0
VERTEX
  5
33F
330
181
100
AcDbEntity
  8
MO_001_VIEW_PV
  6
C_SOLID_M
100
AcDbVertex
100
AcDb2dVertex
 10
0.472003
 20
4.210570999999999
 30
0.0
  0
VERTEX
  5
340
330
181
100
AcDbEntity
  8
MO_001_VIEW_PV
  6
C_SOLID_M
100
AcDbVertex
100
AcDb2dVertex
 10
0.343377
 20
4.131027999999999
 30
0.0
  0
VERTEX
  5
341
330
181
100
AcDbEntity
  8
MO_001_VIEW_PV
  6
C_SOLID_M
100
AcDbVertex
100
AcDb2dVertex
 10
0.163114
 20
3.995796999999999
 30
0.0
  0
VERTEX
  5
342
330
181
100
AcDbEntity
  8
MO_001_VIEW_PV
  6
C_SOLID_M
100
AcDbVertex
100
AcDb2dVertex
 10
-0.000002
 20
3.842947
 30
0.0
  0
SEQEND
  5
343
330
181
100
AcDbEntity
  8
MO_001_VIEW_PV
  6
C_SOLID_M
  0
POLYLINE
  5
190
330
1E
100
AcDbEntity
  8
MO_001_VIEW_PV
  6
C_SOLID_M
100
AcDb2dPolyline
 66
     1
 10
0.0
 20
0.0
 30
0.0
  0
VERTEX
  5
344
330
190
100
AcDbEntity
  8
MO_001_VIEW_PV
  6
C_SOLID_M
100
AcDbVertex
100
AcDb2dVertex
 10
2.293563999999999
 20
4.087717999999999
 30
0.0
  0
VERTEX
  5
345
330
190
100
AcDbEntity
  8
MO_001_VIEW_PV
  6
C_SOLID_M
100
AcDbVertex
100
AcDb2dVertex
 10
2.144234999999999
 20
4.132717999999999
 30
0.0
  0
VERTEX
  5
346
330
190
100
AcDbEntity
  8
MO_001_VIEW_PV
  6
C_SOLID_M
100
AcDbVertex
100
AcDb2dVertex
 10
1.875711
 20
4.186122
 30
0.0
  0
VERTEX
  5
347
330
190
100
AcDbEntity
  8
MO_001_VIEW_PV
  6
C_SOLID_M
100
AcDbVertex
100
AcDb2dVertex
 10
1.670643999999999
 20
4.204555
 30
0.0
  0
VERTEX
  5
348
330
190
100
AcDbEntity
  8
MO_001_VIEW_PV
  6
C_SOLID_M
100
AcDbVertex
100
AcDb2dVertex
 10
1.516105999999999
 20
4.206081
 30
0.0
  0
VERTEX
  5
349
330
190
100
AcDbEntity
  8
MO_001_VIEW_PV
  6
C_SOLID_M
100
AcDbVertex
100
AcDb2dVertex
 10
1.285119
 20
4.188591
 30
0.0
  0
VERTEX
  5
34A
330
190
100
AcDbEntity
  8
MO_001_VIEW_PV
  6
C_SOLID_M
100
AcDbVertex
100
AcDb2dVertex
 10
1.057613999999999
 20
4.147575999999999
 30
0.0
  0
VERTEX
  5
34B
330
190
100
AcDbEntity
  8
MO_001_VIEW_PV
  6
C_SOLID_M
100
AcDbVertex
100
AcDb2dVertex
 10
0.9069209999999998
 20
4.106678999999999
 30
0.0
  0
VERTEX
  5
34C
330
190
100
AcDbEntity
  8
MO_001_VIEW_PV
  6
C_SOLID_M
100
AcDbVertex
100
AcDb2dVertex
 10
0.652637
 20
4.010403
 30
0.0
  0
VERTEX
  5
34D
330
190
100
AcDbEntity
  8
MO_001_VIEW_PV
  6
C_SOLID_M
100
AcDbVertex
100
AcDb2dVertex
 10
0.472002
 20
3.918408999999999
 30
0.0
  0
VERTEX
  5
34E
330
190
100
AcDbEntity
  8
MO_001_VIEW_PV
  6
C_SOLID_M
100
AcDbVertex
100
AcDb2dVertex
 10
0.343376
 20
3.838866
 30
0.0
  0
VERTEX
  5
34F
330
190
100
AcDbEntity
  8
MO_001_VIEW_PV
  6
C_SOLID_M
100
AcDbVertex
100
AcDb2dVertex
 10
0.163113
 20
3.703633999999999
 30
0.0
  0
VERTEX
  5
350
330
190
100
AcDbEntity
  8
MO_001_VIEW_PV
  6
C_SOLID_M
100
AcDbVertex
100
AcDb2dVertex
 10
-0.000003
 20
3.550783
 30
0.0
  0
SEQEND
  5
351
330
190
100
AcDbEntity
  8
MO_001_VIEW_PV
  6
C_SOLID_M
  0
POLYLINE
  5
19F
330
1E
100
AcDbEntity
  8
MO_001_VIEW_PV
  6
C_SOLID_M
100
AcDb2dPolyline
 66
     1
 10
0.0
 20
0.0
 30
0.0
  0
VERTEX
  5
352
330
19F
100
AcDbEntity
  8
MO_001_VIEW_PV
  6
C_SOLID_M
100
AcDbVertex
100
AcDb2dVertex
 10
2.293565999999999
 20
4.087712999999999
 30
0.0
  0
VERTEX
  5
353
330
19F
100
AcDbEntity
  8
MO_001_VIEW_PV
  6
C_SOLID_M
100
AcDbVertex
100
AcDb2dVertex
 10
2.433549
 20
4.057129999999999
 30
0.0
  0
VERTEX
  5
354
330
19F
100
AcDbEntity
  8
MO_001_VIEW_PV
  6
C_SOLID_M
100
AcDbVertex
100
AcDb2dVertex
 10
2.541493
 20
4.055037
 30
0.0
  0
VERTEX
  5
355
330
19F
100
AcDbEntity
  8
MO_001_VIEW_PV
  6
C_SOLID_M
100
AcDbVertex
100
AcDb2dVertex
 10
2.621759999999999
 20
4.065294
 30
0.0
  0
VERTEX
  5
356
330
19F
100
AcDbEntity
  8
MO_001_VIEW_PV
  6
C_SOLID_M
100
AcDbVertex
100
AcDb2dVertex
 10
2.73755
 20
4.099223999999999
 30
0.0
  0
VERTEX
  5
357
330
19F
100
AcDbEntity
  8
MO_001_VIEW_PV
  6
C_SOLID_M
100
AcDbVertex
100
AcDb2dVertex
 10
2.843611999999999
 20
4.154101999999999
 30
0.0
  0
VERTEX
  5
358
330
19F
100
AcDbEntity
  8
MO_001_VIEW_PV
  6
C_SOLID_M
100
AcDbVertex
100
AcDb2dVertex
 10
2.950781
 20
4.24313
 30
0.0
  0
VERTEX
  5
359
330
19F
100
AcDbEntity
  8
MO_001_VIEW_PV
  6
C_SOLID_M
100
AcDbVertex
100
AcDb2dVertex
 10
3.014447999999999
 20
4.324089999999999
 30
0.0
  0
VERTEX
  5
35A
330
19F
100
AcDbEntity
  8
MO_001_VIEW_PV
  6
C_SOLID_M
100
AcDbVertex
100
AcDb2dVertex
 10
3.051359
 20
4.391056999999999
 30
0.0
  0
VERTEX
  5
35B
330
19F
100
AcDbEntity
  8
MO_001_VIEW_PV
  6
C_SOLID_M
100
AcDbVertex
100
AcDb2dVertex
 10
3.087712999999999
 20
4.498616999999999
 30
0.0
  0
VERTEX
  5
35C
330
19F
100
AcDbEntity
  8
MO_001_VIEW_PV
  6
C_SOLID_M
100
AcDbVertex
100
AcDb2dVertex
 10
3.099997999999999
 20
4.610770999999999
 30
0.0
  0
SEQEND
  5
35D
330
19F
100
AcDbEntity
  8
MO_001_VIEW_PV
  6
C_SOLID_M
  0
LINE
  5
1AC
330
1E
100
AcDbEntity
  8
MO_001_VIEW_PV
  6
C_SOLID_M
100
AcDbLine
 10
3.099997999999999
 20
4.610770999999999
 30
0.0
 11
3.099997999999999
 21
4.902930999999999
 31
0.0
  0
POLYLINE
  5
1AD
330
1E
100
AcDbEntity
  8
MO_001_VIEW_PV
  6
C_SOLID_M
100
AcDb2dPolyline
 66
     1
 10
0.0
 20
0.0
 30
0.0
  0
VERTEX
  5
35E
330
1AD
100
AcDbEntity
  8
MO_001_VIEW_PV
  6
C_SOLID_M
100
AcDbVertex
100
AcDb2dVertex
 10
2.293568999999999
 20
10.463397
 30
0.0
  0
VERTEX
  5
35F
330
1AD
100
AcDbEntity
  8
MO_001_VIEW_PV
  6
C_SOLID_M
100
AcDbVertex
100
AcDb2dVertex
 10
2.442324
 20
10.450985
 30
0.0
  0
VERTEX
  5
360
330
1AD
100
AcDbEntity
  8
MO_001_VIEW_PV
  6
C_SOLID_M
100
AcDbVertex
100
AcDb2dVertex
 10
2.669359999999999
 20
10.458913
 30
0.0
  0
VERTEX
  5
361
330
1AD
100
AcDbEntity
  8
MO_001_VIEW_PV
  6
C_SOLID_M
100
AcDbVertex
100
AcDb2dVertex
 10
2.775668
 20
10.474561
 30
0.0
  0
VERTEX
  5
362
330
1AD
100
AcDbEntity
  8
MO_001_VIEW_PV
  6
C_SOLID_M
100
AcDbVertex
100
AcDb2dVertex
 10
2.871926999999999
 20
10.49733299999999
 30
0.0
  0
VERTEX
  5
363
330
1AD
100
AcDbEntity
  8
MO_001_VIEW_PV
  6
C_SOLID_M
100
AcDbVertex
100
AcDb2dVertex
 10
2.978645
 20
10.537308
 30
0.0
  0
VERTEX
  5
364
330
1AD
100
AcDbEntity
  8
MO_001_VIEW_PV
  6
C_SOLID_M
100
AcDbVertex
100
AcDb2dVertex
 10
3.038682
 20
10.57308099999999
 30
0.0
  0
VERTEX
  5
365
330
1AD
100
AcDbEntity
  8
MO_001_VIEW_PV
  6
C_SOLID_M
100
AcDbVertex
100
AcDb2dVertex
 10
3.070915999999999
 20
10.602305
 30
0.0
  0
VERTEX
  5
366
330
1AD
100
AcDbEntity
  8
MO_001_VIEW_PV
  6
C_SOLID_M
100
AcDbVertex
100
AcDb2dVertex
 10
3.097147999999999
 20
10.64855
 30
0.0
  0
VERTEX
  5
367
330
1AD
100
AcDbEntity
  8
MO_001_VIEW_PV
  6
C_SOLID_M
100
AcDbVertex
100
AcDb2dVertex
 10
3.095854
 20
10.695783
 30
0.0
  0
SEQEND
  5
368
330
1AD
100
AcDbEntity
  8
MO_001_VIEW_PV
  6
C_SOLID_M
  0
POLYLINE
  5
1B9
330
1E
100
AcDbEntity
  8
MO_001_VIEW_PV
  6
C_SOLID_M
100
AcDb2dPolyline
 66
     1
 10
0.0
 20
0.0
 30
0.0
  0
VERTEX
  5
369
330
1B9
100
AcDbEntity
  8
MO_001_VIEW_PV
  6
C_SOLID_M
100
AcDbVertex
100
AcDb2dVertex
 10
3.095854
 20
11.418597
 30
0.0
  0
VERTEX
  5
36A
330
1B9
100
AcDbEntity
  8
MO_001_VIEW_PV
  6
C_SOLID_M
100
AcDbVertex
100
AcDb2dVertex
 10
3.052346
 20
11.23820599999999
 30
0.0
  0
VERTEX
  5
36B
330
1B9
100
AcDbEntity
  8
MO_001_VIEW_PV
  6
C_SOLID_M
100
AcDbVertex
100
AcDb2dVertex
 10
3.037827
 20
11.057189
 30
0.0
  0
VERTEX
  5
36C
330
1B9
100
AcDbEntity
  8
MO_001_VIEW_PV
  6
C_SOLID_M
100
AcDbVertex
100
AcDb2dVertex
 10
3.052346
 20
10.876173
 30
0.0
  0
VERTEX
  5
36D
330
1B9
100
AcDbEntity
  8
MO_001_VIEW_PV
  6
C_SOLID_M
100
AcDbVertex
100
AcDb2dVertex
 10
3.095854
 20
10.695782
 30
0.0
  0
SEQEND
  5
36E
330
1B9
100
AcDbEntity
  8
MO_001_VIEW_PV
  6
C_SOLID_M
  0
POLYLINE
  5
1C0
330
1E
100
AcDbEntity
  8
MO_001_VIEW_PV
  6
C_SOLID_M
100
AcDb2dPolyline
 66
     1
 10
0.0
 20
0.0
 30
0.0
  0
VERTEX
  5
36F
330
1C0
100
AcDbEntity
  8
MO_001_VIEW_PV
  6
C_SOLID_M
100
AcDbVertex
100
AcDb2dVertex
 10
3.095854
 20
11.418597
 30
0.0
  0
VERTEX
  5
370
330
1C0
100
AcDbEntity
  8
MO_001_VIEW_PV
  6
C_SOLID_M
100
AcDbVertex
100
AcDb2dVertex
 10
3.094348
 20
11.474533
 30
0.0
  0
VERTEX
  5
371
330
1C0
100
AcDbEntity
  8
MO_001_VIEW_PV
  6
C_SOLID_M
100
AcDbVertex
100
AcDb2dVertex
 10
3.067902999999999
 20
11.515402
 30
0.0
  0
VERTEX
  5
372
330
1C0
100
AcDbEntity
  8
MO_001_VIEW_PV
  6
C_SOLID_M
100
AcDbVertex
100
AcDb2dVertex
 10
3.034402999999999
 20
11.54443399999999
 30
0.0
  0
VERTEX
  5
373
330
1C0
100
AcDbEntity
  8
MO_001_VIEW_PV
  6
C_SOLID_M
100
AcDbVertex
100
AcDb2dVertex
 10
2.963856
 20
11.583957
 30
0.0
  0
VERTEX
  5
374
330
1C0
100
AcDbEntity
  8
MO_001_VIEW_PV
  6
C_SOLID_M
100
AcDbVertex
100
AcDb2dVertex
 10
2.871925999999999
 20
11.617047
 30
0.0
  0
VERTEX
  5
375
330
1C0
100
AcDbEntity
  8
MO_001_VIEW_PV
  6
C_SOLID_M
100
AcDbVertex
100
AcDb2dVertex
 10
2.741163
 20
11.64586
 30
0.0
  0
VERTEX
  5
376
330
1C0
100
AcDbEntity
  8
MO_001_VIEW_PV
  6
C_SOLID_M
100
AcDbVertex
100
AcDb2dVertex
 10
2.518716999999999
 20
11.66430599999999
 30
0.0
  0
VERTEX
  5
377
330
1C0
100
AcDbEntity
  8
MO_001_VIEW_PV
  6
C_SOLID_M
100
AcDbVertex
100
AcDb2dVertex
 10
2.293568
 20
11.650982
 30
0.0
  0
SEQEND
  5
378
330
1C0
100
AcDbEntity
  8
MO_001_VIEW_PV
  6
C_SOLID_M
  0
POLYLINE
  5
1CB
330
1E
100
AcDbEntity
  8
MO_001_VIEW_PV
  6
C_SOLID_M
100
AcDb2dPolyline
 66
     1
 10
0.0
 20
0.0
 30
0.0
  0
VERTEX
  5
379
330
1CB
100
AcDbEntity
  8
MO_001_VIEW_PV
  6
C_SOLID_M
100
AcDbVertex
100
AcDb2dVertex
 10
-0.000003
 20
11.863036
 30
0.0
  0
VERTEX
  5
37A
330
1CB
100
AcDbEntity
  8
MO_001_VIEW_PV
  6
C_SOLID_M
100
AcDbVertex
100
AcDb2dVertex
 10
0.225163
 20
11.782906
 30
0.0
  0
VERTEX
  5
37B
330
1CB
100
AcDbEntity
  8
MO_001_VIEW_PV
  6
C_SOLID_M
100
AcDbVertex
100
AcDb2dVertex
 10
0.414058
 20
11.73138099999999
 30
0.0
  0
VERTEX
  5
37C
330
1CB
100
AcDbEntity
  8
MO_001_VIEW_PV
  6
C_SOLID_M
100
AcDbVertex
100
AcDb2dVertex
 10
0.7238720000000001
 20
11.669413
 30
0.0
  0
VERTEX
  5
37D
330
1CB
100
AcDbEntity
  8
MO_001_VIEW_PV
  6
C_SOLID_M
100
AcDbVertex
100
AcDb2dVertex
 10
1.057612999999999
 20
11.627343
 30
0.0
  0
VERTEX
  5
37E
330
1CB
100
AcDbEntity
  8
MO_001_VIEW_PV
  6
C_SOLID_M
100
AcDbVertex
100
AcDb2dVertex
 10
1.366748999999999
 20
11.60762599999999
 30
0.0
  0
VERTEX
  5
37F
330
1CB
100
AcDbEntity
  8
MO_001_VIEW_PV
  6
C_SOLID_M
100
AcDbVertex
100
AcDb2dVertex
 10
1.836815999999999
 20
11.610164
 30
0.0
  0
VERTEX
  5
380
330
1CB
100
AcDbEntity
  8
MO_001_VIEW_PV
  6
C_SOLID_M
100
AcDbVertex
100
AcDb2dVertex
 10
2.068313999999999
 20
11.62587199999999
 30
0.0
  0
VERTEX
  5
381
330
1CB
100
AcDbEntity
  8
MO_001_VIEW_PV
  6
C_SOLID_M
100
AcDbVertex
100
AcDb2dVertex
 10
2.293563
 20
11.650982
 30
0.0
  0
SEQEND
  5
382
330
1CB
100
AcDbEntity
  8
MO_001_VIEW_PV
  6
C_SOLID_M
  0
POLYLINE
  5
1D6
330
1E
100
AcDbEntity
  8
MO_001_VIEW_PV
  6
C_SOLID_M
100
AcDb2dPolyline
 66
     1
 10
0.0
 20
0.0
 30
0.0
  0
VERTEX
  5
383
330
1D6
100
AcDbEntity
  8
MO_001_VIEW_PV
  6
C_SOLID_M
100
AcDbVertex
100
AcDb2dVertex
 10
2.293563999999999
 20
10.463397
 30
0.0
  0
VERTEX
  5
384
330
1D6
100
AcDbEntity
  8
MO_001_VIEW_PV
  6
C_SOLID_M
100
AcDbVertex
100
AcDb2dVertex
 10
1.991700999999999
 20
10.49479999999999
 30
0.0
  0
VERTEX
  5
385
330
1D6
100
AcDbEntity
  8
MO_001_VIEW_PV
  6
C_SOLID_M
100
AcDbVertex
100
AcDb2dVertex
 10
1.523465
 20
10.51020899999999
 30
0.0
  0
VERTEX
  5
386
330
1D6
100
AcDbEntity
  8
MO_001_VIEW_PV
  6
C_SOLID_M
100
AcDbVertex
100
AcDb2dVertex
 10
1.288766
 20
10.50341799999999
 30
0.0
  0
VERTEX
  5
387
330
1D6
100
AcDbEntity
  8
MO_001_VIEW_PV
  6
C_SOLID_M
100
AcDbVertex
100
AcDb2dVertex
 10
1.057613999999999
 20
10.48703699999999
 30
0.0
  0
VERTEX
  5
388
330
1D6
100
AcDbEntity
  8
MO_001_VIEW_PV
  6
C_SOLID_M
100
AcDbVertex
100
AcDb2dVertex
 10
0.759941
 20
10.45065099999999
 30
0.0
  0
VERTEX
  5
389
330
1D6
100
AcDbEntity
  8
MO_001_VIEW_PV
  6
C_SOLID_M
100
AcDbVertex
100
AcDb2dVertex
 10
0.548221
 20
10.412897
 30
0.0
  0
VERTEX
  5
38A
330
1D6
100
AcDbEntity
  8
MO_001_VIEW_PV
  6
C_SOLID_M
100
AcDbVertex
100
AcDb2dVertex
 10
0.255532
 20
10.340596
 30
0.0
  0
VERTEX
  5
38B
330
1D6
100
AcDbEntity
  8
MO_001_VIEW_PV
  6
C_SOLID_M
100
AcDbVertex
100
AcDb2dVertex
 10
0.122642
 20
10.29794199999999
 30
0.0
  0
VERTEX
  5
38C
330
1D6
100
AcDbEntity
  8
MO_001_VIEW_PV
  6
C_SOLID_M
100
AcDbVertex
100
AcDb2dVertex
 10
-0.000003
 20
10.251344
 30
0.0
  0
SEQEND
  5
38D
330
1D6
100
AcDbEntity
  8
MO_001_VIEW_PV
  6
C_SOLID_M
  0
POLYLINE
  5
1E2
330
1E
100
AcDbEntity
  8
MO_001_VIEW_PV
  6
C_SOLID_M
100
AcDb2dPolyline
 66
     1
 10
0.0
 20
0.0
 30
0.0
  0
VERTEX
  5
38E
330
1E2
100
AcDbEntity
  8
MO_001_VIEW_PV
  6
C_SOLID_M
100
AcDbVertex
100
AcDb2dVertex
 10
2.293563999999999
 20
9.760882999999999
 30
0.0
  0
VERTEX
  5
38F
330
1E2
100
AcDbEntity
  8
MO_001_VIEW_PV
  6
C_SOLID_M
100
AcDbVertex
100
AcDb2dVertex
 10
1.991700999999999
 20
9.792286
 30
0.0
  0
VERTEX
  5
390
330
1E2
100
AcDbEntity
  8
MO_001_VIEW_PV
  6
C_SOLID_M
100
AcDbVertex
100
AcDb2dVertex
 10
1.523465
 20
9.807693999999999
 30
0.0
  0
VERTEX
  5
391
330
1E2
100
AcDbEntity
  8
MO_001_VIEW_PV
  6
C_SOLID_M
100
AcDbVertex
100
AcDb2dVertex
 10
1.288766
 20
9.800902999999999
 30
0.0
  0
VERTEX
  5
392
330
1E2
100
AcDbEntity
  8
MO_001_VIEW_PV
  6
C_SOLID_M
100
AcDbVertex
100
AcDb2dVertex
 10
1.057613999999999
 20
9.784522
 30
0.0
  0
VERTEX
  5
393
330
1E2
100
AcDbEntity
  8
MO_001_VIEW_PV
  6
C_SOLID_M
100
AcDbVertex
100
AcDb2dVertex
 10
0.759941
 20
9.748136
 30
0.0
  0
VERTEX
  5
394
330
1E2
100
AcDbEntity
  8
MO_001_VIEW_PV
  6
C_SOLID_M
100
AcDbVertex
100
AcDb2dVertex
 10
0.548221
 20
9.710383
 30
0.0
  0
VERTEX
  5
395
330
1E2
100
AcDbEntity
  8
MO_001_VIEW_PV
  6
C_SOLID_M
100
AcDbVertex
100
AcDb2dVertex
 10
0.255532
 20
9.638082
 30
0.0
  0
VERTEX
  5
396
330
1E2
100
AcDbEntity
  8
MO_001_VIEW_PV
  6
C_SOLID_M
100
AcDbVertex
100
AcDb2dVertex
 10
0.122642
 20
9.595428
 30
0.0
  0
VERTEX
  5
397
330
1E2
100
AcDbEntity
  8
MO_001_VIEW_PV
  6
C_SOLID_M
100
AcDbVertex
100
AcDb2dVertex
 10
-0.000003
 20
9.54883
 30
0.0
  0
SEQEND
  5
398
330
1E2
100
AcDbEntity
  8
MO_001_VIEW_PV
  6
C_SOLID_M
  0
POLYLINE
  5
1EE
330
1E
100
AcDbEntity
  8
MO_001_VIEW_PV
  6
C_SOLID_M
100
AcDb2dPolyline
 66
     1
 10
0.0
 20
0.0
 30
0.0
  0
VERTEX
  5
399
330
1EE
100
AcDbEntity
  8
MO_001_VIEW_PV
  6
C_SOLID_M
100
AcDbVertex
100
AcDb2dVertex
 10
2.293568999999999
 20
9.760882999999999
 30
0.0
  0
VERTEX
  5
39A
330
1EE
100
AcDbEntity
  8
MO_001_VIEW_PV
  6
C_SOLID_M
100
AcDbVertex
100
AcDb2dVertex
 10
2.433551
 20
9.748805
 30
0.0
  0
VERTEX
  5
39B
330
1EE
100
AcDbEntity
  8
MO_001_VIEW_PV
  6
C_SOLID_M
100
AcDbVertex
100
AcDb2dVertex
 10
2.648095
 20
9.754258999999999
 30
0.0
  0
VERTEX
  5
39C
330
1EE
100
AcDbEntity
  8
MO_001_VIEW_PV
  6
C_SOLID_M
100
AcDbVertex
100
AcDb2dVertex
 10
2.749899999999999
 20
9.767441999999999
 30
0.0
  0
VERTEX
  5
39D
330
1EE
100
AcDbEntity
  8
MO_001_VIEW_PV
  6
C_SOLID_M
100
AcDbVertex
100
AcDb2dVertex
 10
2.843612999999999
 20
9.787102
 30
0.0
  0
VERTEX
  5
39E
330
1EE
100
AcDbEntity
  8
MO_001_VIEW_PV
  6
C_SOLID_M
100
AcDbVertex
100
AcDb2dVertex
 10
2.950781999999999
 20
9.822262
 30
0.0
  0
VERTEX
  5
39F
330
1EE
100
AcDbEntity
  8
MO_001_VIEW_PV
  6
C_SOLID_M
100
AcDbVertex
100
AcDb2dVertex
 10
3.014447999999999
 20
9.854235
 30
0.0
  0
VERTEX
  5
3A0
330
1EE
100
AcDbEntity
  8
MO_001_VIEW_PV
  6
C_SOLID_M
100
AcDbVertex
100
AcDb2dVertex
 10
3.051359
 20
9.880682
 30
0.0
  0
VERTEX
  5
3A1
330
1EE
100
AcDbEntity
  8
MO_001_VIEW_PV
  6
C_SOLID_M
100
AcDbVertex
100
AcDb2dVertex
 10
3.087712999999999
 20
9.923161
 30
0.0
  0
VERTEX
  5
3A2
330
1EE
100
AcDbEntity
  8
MO_001_VIEW_PV
  6
C_SOLID_M
100
AcDbVertex
100
AcDb2dVertex
 10
3.099997999999999
 20
9.967452999999999
 30
0.0
  0
SEQEND
  5
3A3
330
1EE
100
AcDbEntity
  8
MO_001_VIEW_PV
  6
C_SOLID_M
  0
LINE
  5
1FA
330
1E
100
AcDbEntity
  8
MO_001_VIEW_PV
  6
C_SOLID_M
100
AcDbLine
 10
3.099997999999999
 20
9.967452999999999
 30
0.0
 11
3.099997999999999
 21
10.66996799999999
 31
0.0
  0
LINE
  5
1FB
330
1E
100
AcDbEntity
  8
MO_001_VIEW_PV
  6
C_SOLID_M
100
AcDbLine
 10
3.199997
 20
11.09999799999999
 30
0.0
 11
3.199997
 21
-11.09999799999999
 31
0.0
  0
LINE
  5
1FC
330
1E
100
AcDbEntity
  8
MO_001_VIEW_PV
  6
C_SOLID_M
100
AcDbLine
 10
3.099997999999999
 20
-11.09999799999999
 30
0.0
 11
3.199997
 21
-11.09999799999999
 31
0.0
  0
LINE
  5
1FD
330
1E
100
AcDbEntity
  8
MO_001_VIEW_PV
  6
C_SOLID_M
100
AcDbLine
 10
3.038642999999999
 20
11.09999799999999
 30
0.0
 11
3.199997
 21
11.09999799999999
 31
0.0
  0
LINE
  5
1FE
330
1E
100
AcDbEntity
  8
MO_001_VIEW_PV
  6
C_SOLID_M
100
AcDbLine
 10
5.292999
 20
-4.720000999999999
 30
0.0
 11
5.292999
 21
5.080001999999999
 31
0.0
  0
LINE
  5
1FF
330
1E
100
AcDbEntity
  8
MO_001_VIEW_PV
  6
C_SOLID_M
100
AcDbLine
 10
4.572319
 20
-5.080001999999999
 30
0.0
 11
5.060448
 21
-5.080001999999999
 31
0.0
  0
LINE
  5
200
330
1E
100
AcDbEntity
  8
MO_001_VIEW_PV
  6
C_SOLID_M
100
AcDbLine
 10
4.844314999999999
 20
5.080001999999999
 30
0.0
 11
5.292999
 21
5.080001999999999
 31
0.0
  0
LINE
  5
201
330
1E
100
AcDbEntity
  8
MO_001_VIEW_PV
  6
C_SOLID_M
100
AcDbLine
 10
3.199997
 20
9.248001
 30
0.0
 11
3.432555999999999
 21
9.248001
 31
0.0
  0
LINE
  5
202
330
1E
100
AcDbEntity
  8
MO_001_VIEW_PV
  6
C_SOLID_M
100
AcDbLine
 10
3.199997
 20
-9.054999999999999
 30
0.0
 11
3.665115
 21
-9.054999999999999
 31
0.0
  0
LINE
  5
203
330
1E
100
AcDbEntity
  8
MO_001_VIEW_PV
  6
C_SOLID_M
100
AcDbLine
 10
3.648276999999999
 20
-7.730002999999999
 30
0.0
 11
4.130219
 21
-7.730002999999999
 31
0.0
  0
LINE
  5
204
330
1E
100
AcDbEntity
  8
MO_001_VIEW_PV
  6
C_SOLID_M
100
AcDbLine
 10
4.110778999999999
 20
-6.404999
 30
0.0
 11
4.595337
 21
-6.404999
 31
0.0
  0
LINE
  5
205
330
1E
100
AcDbEntity
  8
MO_001_VIEW_PV
  6
C_SOLID_M
100
AcDbLine
 10
3.446937999999999
 20
8.115997
 30
0.0
 11
3.897666999999999
 21
8.115997
 31
0.0
  0
LINE
  5
206
330
1E
100
AcDbEntity
  8
MO_001_VIEW_PV
  6
C_SOLID_M
100
AcDbLine
 10
3.914283999999999
 20
6.984000999999999
 30
0.0
 11
4.362777999999999
 21
6.984000999999999
 31
0.0
  0
LINE
  5
207
330
1E
100
AcDbEntity
  8
MO_001_VIEW_PV
  6
C_SOLID_M
100
AcDbLine
 10
4.382438999999999
 20
5.851996999999999
 30
0.0
 11
4.827887999999999
 21
5.851996999999999
 31
0.0
  0
LINE
  5
208
330
1E
100
AcDbEntity
  8
MO_001_VIEW_PV
  6
C_SOLID_M
100
AcDbLine
 10
3.432555999999999
 20
9.248008
 30
0.0
 11
3.665112
 21
-9.055003999999998
 31
0.0
  0
LINE
  5
209
330
1E
100
AcDbEntity
  8
MO_001_VIEW_PV
  6
C_SOLID_M
100
AcDbLine
 10
4.130228999999999
 20
-7.729999
 30
0.0
 11
3.897673
 21
8.116004999999999
 31
0.0
  0
LINE
  5
20A
330
1E
100
AcDbEntity
  8
MO_001_VIEW_PV
  6
C_SOLID_M
100
AcDbLine
 10
4.362776999999999
 20
6.984002
 30
0.0
 11
4.595331999999999
 21
-6.404994
 31
0.0
  0
LINE
  5
20B
330
1E
100
AcDbEntity
  8
MO_001_VIEW_PV
  6
C_SOLID_M
100
AcDbLine
 10
5.060439999999999
 20
-5.079997
 30
0.0
 11
4.827884
 21
5.852001
 31
0.0
  0
LINE
  5
20C
330
1E
100
AcDbEntity
  8
MO_001_VIEW_PV
  6
C_SOLID_M
100
AcDbLine
 10
5.052787999999999
 20
-4.720000999999999
 30
0.0
 11
5.292999
 21
-4.720000999999999
 31
0.0
  0
LINE
  5
20D
330
1E
100
AcDbEntity
  8
MO_001_VIEW_PV
  6
C_SOLID_M
100
AcDbLine
 10
-0.800003
 20
24.599998
 30
0.0
 11
-0.800003
 21
-24.599998
 31
0.0
  0
LINE
  5
20E
330
1E
100
AcDbEntity
  8
MO_001_VIEW_PV
  6
C_SOLID_M
100
AcDbLine
 10
60.75
 20
-35.749939
 30
0.0
 11
58.14999399999999
 21
-35.749939
 31
0.0
  0
LINE
  5
20F
330
1E
100
AcDbEntity
  8
MO_001_VIEW_PV
  6
C_SOLID_M
100
AcDbLine
 10
58.64999399999999
 20
-40.749939
 30
0.0
 11
58.64999399999999
 21
-35.749939
 31
0.0
  0
LINE
  5
210
330
1E
100
AcDbEntity
  8
MO_001_VIEW_PV
  6
C_SOLID_M
100
AcDbLine
 10
60.24998499999999
 20
-40.749939
 30
0.0
 11
60.24998499999999
 21
-35.749939
 31
0.0
  0
LINE
  5
211
330
1E
100
AcDbEntity
  8
MO_001_VIEW_PV
  6
C_SOLID_M
100
AcDbLine
 10
60.24998499999999
 20
-45.24993900000001
 30
0.0
 11
60.24998499999999
 21
-41.749939
 31
0.0
  0
LINE
  5
212
330
1E
100
AcDbEntity
  8
MO_001_VIEW_PV
  6
C_SOLID_M
100
AcDbLine
 10
58.64999399999999
 20
-45.24993900000001
 30
0.0
 11
58.64999399999999
 21
-41.749939
 31
0.0
  0
LINE
  5
213
330
1E
100
AcDbEntity
  8
MO_001_VIEW_PV
  6
C_SOLID_M
100
AcDbLine
 10
58.64999399999999
 20
-45.24993900000001
 30
0.0
 11
60.24998499999999
 21
-45.24993900000001
 31
0.0
  0
LINE
  5
214
330
1E
100
AcDbEntity
  8
MO_001_VIEW_PV
  6
C_SOLID_M
100
AcDbLine
 10
59.72396899999999
 20
-45.24993900000001
 30
0.0
 11
59.72396899999999
 21
-50.24993900000001
 31
0.0
  0
LINE
  5
215
330
1E
100
AcDbEntity
  8
MO_001_VIEW_PV
  6
C_SOLID_M
100
AcDbLine
 10
59.17601
 20
-45.24993900000001
 30
0.0
 11
59.17601
 21
-50.24993900000001
 31
0.0
  0
LINE
  5
216
330
1E
100
AcDbEntity
  8
MO_001_VIEW_PV
  6
C_SOLID_M
100
AcDbLine
 10
59.17601
 20
-50.24993900000001
 30
0.0
 11
59.72396899999999
 21
-50.24993900000001
 31
0.0
  0
ARC
  5
217
330
1E
100
AcDbEntity
  8
MO_001_VIEW_PV
  6
C_SOLID_M
100
AcDbCircle
 10
59.049988
 20
-41.049934
 30
0.0
 40
0.499994
100
AcDbArc
 50
36.869634
 51
143.1303709999999
  0
ARC
  5
218
330
1E
100
AcDbEntity
  8
MO_001_VIEW_PV
  6
C_SOLID_M
100
AcDbCircle
 10
59.049988
 20
-40.449944
 30
0.0
 40
0.499994
100
AcDbArc
 50
216.869629
 51
323.1303759999999
  0
ARC
  5
219
330
1E
100
AcDbEntity
  8
MO_001_VIEW_PV
  6
C_SOLID_M
100
AcDbCircle
 10
59.849991
 20
-40.449944
 30
0.0
 40
0.499994
100
AcDbArc
 50
216.869629
 51
323.1303689999999
  0
ARC
  5
21A
330
1E
100
AcDbEntity
  8
MO_001_VIEW_PV
  6
C_SOLID_M
100
AcDbCircle
 10
59.849991
 20
-41.449944
 30
0.0
 40
0.499994
100
AcDbArc
 50
216.869643
 51
323.1303759999999
  0
ARC
  5
21B
330
1E
100
AcDbEntity
  8
MO_001_VIEW_PV
  6
C_SOLID_M
100
AcDbCircle
 10
59.849991
 20
-42.049934
 30
0.0
 40
0.499994
100
AcDbArc
 50
36.86963099999999
 51
143.1303709999999
  0
ARC
  5
21C
330
1E
100
AcDbEntity
  8
MO_001_VIEW_PV
  6
C_SOLID_M
100
AcDbCircle
 10
59.049988
 20
-42.049934
 30
0.0
 40
0.499994
100
AcDbArc
 50
36.86963099999999
 51
143.1303709999999
  0
LINE
  5
21D
330
1E
100
AcDbEntity
  8
MO_001_VIEW_PV
  6
C_SOLID_M
100
AcDbLine
 10
79.85000600000001
 20
-35.749939
 30
0.0
 11
77.25
 21
-35.749939
 31
0.0
  0
LINE
  5
21E
330
1E
100
AcDbEntity
  8
MO_001_VIEW_PV
  6
C_SOLID_M
100
AcDbLine
 10
77.75
 20
-40.749939
 30
0.0
 11
77.75
 21
-35.749939
 31
0.0
  0
LINE
  5
21F
330
1E
100
AcDbEntity
  8
MO_001_VIEW_PV
  6
C_SOLID_M
100
AcDbLine
 10
79.349991
 20
-40.749939
 30
0.0
 11
79.349991
 21
-35.749939
 31
0.0
  0
LINE
  5
220
330
1E
100
AcDbEntity
  8
MO_001_VIEW_PV
  6
C_SOLID_M
100
AcDbLine
 10
79.349991
 20
-45.24993900000001
 30
0.0
 11
79.349991
 21
-41.749939
 31
0.0
  0
LINE
  5
221
330
1E
100
AcDbEntity
  8
MO_001_VIEW_PV
  6
C_SOLID_M
100
AcDbLine
 10
77.75
 20
-45.24993900000001
 30
0.0
 11
77.75
 21
-41.749939
 31
0.0
  0
LINE
  5
222
330
1E
100
AcDbEntity
  8
MO_001_VIEW_PV
  6
C_SOLID_M
100
AcDbLine
 10
77.75
 20
-45.24993900000001
 30
0.0
 11
79.349991
 21
-45.24993900000001
 31
0.0
  0
LINE
  5
223
330
1E
100
AcDbEntity
  8
MO_001_VIEW_PV
  6
C_SOLID_M
100
AcDbLine
 10
78.823975
 20
-45.24993900000001
 30
0.0
 11
78.823975
 21
-50.24993900000001
 31
0.0
  0
LINE
  5
224
330
1E
100
AcDbEntity
  8
MO_001_VIEW_PV
  6
C_SOLID_M
100
AcDbLine
 10
78.276016
 20
-45.24993900000001
 30
0.0
 11
78.276016
 21
-50.24993900000001
 31
0.0
  0
LINE
  5
225
330
1E
100
AcDbEntity
  8
MO_001_VIEW_PV
  6
C_SOLID_M
100
AcDbLine
 10
78.276016
 20
-50.24993900000001
 30
0.0
 11
78.823975
 21
-50.24993900000001
 31
0.0
  0
ARC
  5
226
330
1E
100
AcDbEntity
  8
MO_001_VIEW_PV
  6
C_SOLID_M
100
AcDbCircle
 10
78.14999399999999
 20
-41.049934
 30
0.0
 40
0.499994
100
AcDbArc
 50
36.869634
 51
143.1303709999999
  0
ARC
  5
227
330
1E
100
AcDbEntity
  8
MO_001_VIEW_PV
  6
C_SOLID_M
100
AcDbCircle
 10
78.14999399999999
 20
-40.449944
 30
0.0
 40
0.499994
100
AcDbArc
 50
216.869629
 51
323.1303759999999
  0
ARC
  5
228
330
1E
100
AcDbEntity
  8
MO_001_VIEW_PV
  6
C_SOLID_M
100
AcDbCircle
 10
78.94999699999999
 20
-40.449944
 30
0.0
 40
0.499994
100
AcDbArc
 50
216.869629
 51
323.1303689999999
  0
ARC
  5
229
330
1E
100
AcDbEntity
  8
MO_001_VIEW_PV
  6
C_SOLID_M
100
AcDbCircle
 10
78.94999699999999
 20
-41.449944
 30
0.0
 40
0.499994
100
AcDbArc
 50
216.869643
 51
323.1303759999999
  0
ARC
  5
22A
330
1E
100
AcDbEntity
  8
MO_001_VIEW_PV
  6
C_SOLID_M
100
AcDbCircle
 10
78.94999699999999
 20
-42.049934
 30
0.0
 40
0.499994
100
AcDbArc
 50
36.86963099999999
 51
143.1303709999999
  0
ARC
  5
22B
330
1E
100
AcDbEntity
  8
MO_001_VIEW_PV
  6
C_SOLID_M
100
AcDbCircle
 10
78.14999399999999
 20
-42.049934
 30
0.0
 40
0.499994
100
AcDbArc
 50
36.86963099999999
 51
143.1303709999999
  0
LINE
  5
22C
330
1E
100
AcDbEntity
  8
MO_001_VIEW_PV
  6
C_SOLID_M
100
AcDbLine
 10
58.14999399999999
 20
-35.749939
 30
0.0
 11
58.14999399999999
 21
-26.79809
 31
0.0
  0
LINE
  5
22D
330
1E
100
AcDbEntity
  8
MO_001_VIEW_PV
  6
C_SOLID_M
100
AcDbLine
 10
60.75
 20
-35.749939
 30
0.0
 11
60.75
 21
-27.50159299999999
 31
0.0
  0
LINE
  5
22E
330
1E
100
AcDbEntity
  8
MO_001_VIEW_PV
  6
C_SOLID_M
100
AcDbLine
 10
77.25
 20
-35.749939
 30
0.0
 11
77.25
 21
-27.50159299999999
 31
0.0
  0
LINE
  5
22F
330
1E
100
AcDbEntity
  8
MO_001_VIEW_PV
  6
C_SOLID_M
100
AcDbLine
 10
79.85000600000001
 20
-35.749939
 30
0.0
 11
79.85000600000001
 21
-26.79809
 31
0.0
  0
ARC
  5
230
330
1E
100
AcDbEntity
  8
MO_001_VIEW_PV
  6
C_SOLID_M
100
AcDbCircle
 10
-27.19999699999999
 20
-23.0
 30
0.0
 40
5.799999999999999
100
AcDbArc
 50
180.000009
 51
218.07845
  0
LINE
  5
231
330
1E
100
AcDbEntity
  8
MO_001_VIEW_PV
  6
C_SOLID_M
100
AcDbLine
 10
-36.809798
 20
-35.298271
 30
0.0
 11
-38.648269
 21
-33.4598
 31
0.0
  0
LINE
  5
232
330
1E
100
AcDbEntity
  8
MO_001_VIEW_PV
  6
C_SOLID_M
100
AcDbLine
 10
-41.83025999999999
 20
-37.348877
 30
0.0
 11
-38.294727
 21
-33.81334299999999
 31
0.0
  0
LINE
  5
233
330
1E
100
AcDbEntity
  8
MO_001_VIEW_PV
  6
C_SOLID_M
100
AcDbLine
 10
-40.698885
 20
-38.480252
 30
0.0
 11
-37.163351
 21
-34.944718
 31
0.0
  0
ARC
  5
234
330
1E
100
AcDbEntity
  8
MO_001_VIEW_PV
  6
C_SOLID_M
100
AcDbCircle
 10
-41.759544
 20
-37.84387199999999
 30
0.0
 40
0.499994
100
AcDbArc
 50
351.869635
 51
98.13037299999999
  0
ARC
  5
235
330
1E
100
AcDbEntity
  8
MO_001_VIEW_PV
  6
C_SOLID_M
100
AcDbCircle
 10
-41.335289
 20
-37.41961699999999
 30
0.0
 40
0.499994
100
AcDbArc
 50
171.869621
 51
278.130385
  0
ARC
  5
236
330
1E
100
AcDbEntity
  8
MO_001_VIEW_PV
  6
C_SOLID_M
100
AcDbCircle
 10
-40.76960800000001
 20
-37.985275
 30
0.0
 40
0.499994
100
AcDbArc
 50
171.869621
 51
278.1303569999999
  0
LINE
  5
237
330
1E
100
AcDbEntity
  8
MO_001_VIEW_PV
  6
C_SOLID_M
100
AcDbLine
 10
-38.648269
 20
-33.4598
 30
0.0
 11
-31.160545
 21
-25.972076
 31
0.0
  0
LINE
  5
238
330
1E
100
AcDbEntity
  8
MO_001_VIEW_PV
  6
C_SOLID_M
100
AcDbLine
 10
-36.809798
 20
-35.298271
 30
0.0
 11
-29.125409
 21
-27.613883
 31
0.0
  0
ARC
  5
239
330
1E
100
AcDbEntity
  8
MO_001_VIEW_PV
  6
C_SOLID_M
100
AcDbCircle
 10
-33.69097899999999
 20
-31.19097899999999
 30
0.0
 40
5.799999999999999
100
AcDbArc
 50
25.88855099999999
 51
77.32100600000001
  0
ARC
  5
23A
330
1E
100
AcDbEntity
  8
MO_001_VIEW_PV
  6
C_SOLID_M
100
AcDbCircle
 10
-27.19999699999999
 20
-23.0
 30
0.0
 40
5.799999999999999
100
AcDbArc
 50
244.133204
 51
269.999998
  0
ARC
  5
23B
330
1E
100
AcDbEntity
  8
MO_001_VIEW_PV
  6
C_SOLID_M
100
AcDbCircle
 10
-33.85349699999999
 20
-18.87232999999999
 30
0.0
 40
2.381499999999999
100
AcDbArc
 50
68.998885
 51
111.0011129999999
  0
ARC
  5
23C
330
1E
100
AcDbEntity
  8
MO_001_VIEW_PV
  6
C_SOLID_M
100
AcDbCircle
 10
-33.85349699999999
 20
-18.87232999999999
 30
0.0
 40
2.381499999999999
100
AcDbArc
 50
248.998887
 51
291.0011149999999
  0
LINE
  5
23D
330
1E
100
AcDbEntity
  8
MO_001_VIEW_PV
  6
C_SOLID_L
100
AcDbLine
 10
-12.450001
 20
-42.0
 30
0.0
 11
21.31802399999999
 21
-42.0
 31
0.0
  0
TEXT
  5
23E
330
1E
100
AcDbEntity
  8
MO_001_VIEW_PV
  6
C_SOLID_L
100
AcDbText
 10
-7.273204999999999
 20
-41.161747
 30
0.0
 40
3.0
  1
2-M5 P0.8
100
AcDbText
  0
TEXT
  5
23F
330
1E
100
AcDbEntity
  8
MO_001_VIEW_PV
  6
C_SOLID_L
100
AcDbText
 10
109.4999999999999
 20
-26.071429
 30
0.0
 40
3.0
  1
(UL1430 AWG20)
 50
90.0
100
AcDbText
  0
TEXT
  5
240
330
1E
100
AcDbEntity
  8
MO_001_VIEW_PV
  6
C_SOLID_L
100
AcDbText
 10
-34.488281
 20
-59.083594
 30
0.0
 40
4.167187
  1
6E X3・X4・X9付
100
AcDbText
  0
TEXT
  5
241
330
1E
100
AcDbEntity
  8
MO_001_VIEW_PV
  6
C_SOLID_L
100
AcDbText
 10
85.51171899999999
 20
-65.08359399999999
 30
0.0
 40
4.167187
  1
単位：mm
100
AcDbText
  0
TEXT
  5
242
330
1E
100
AcDbEntity
  8
MO_001_VIEW_PV
  6
C_SOLID_L
100
AcDbText
 10
85.51171899999999
 20
-71.33437499999999
 30
0.0
 40
4.167187
  1
無励磁時
100
AcDbText
  0
DIMENSION
  5
244
330
1E
100
AcDbEntity
  8
MO_001_VIEW_PV
  6
C_SOLID_M
100
AcDbDimension
  2
*D0
 10
105.0
 20
3.991141999999999
 30
0.0
 11
105.0
 21
3.991141999999999
 31
0.0
  1
長さ250以上
  3
STANDARD
100
AcDbAlignedDimension
 13
79.85000600000001
 23
-26.79809
 33
0.0
 14
78.823975
 24
-50.24993900000001
 34
0.0
 50
89.999523
100
AcDbRotatedDimension
  0
DIMENSION
  5
246
330
1E
100
AcDbEntity
  8
MO_001_VIEW_PV
  6
C_SOLID_M
100
AcDbDimension
  2
*D1
 10
-22.531197
 20
33.0
 30
0.0
 11
-22.531197
 21
33.0
 31
0.0
  3
STANDARD
100
AcDbAlignedDimension
 13
-34.70699299999999
 23
25.0
 33
0.0
 14
-37.606991
 24
25.0
 34
0.0
100
AcDbRotatedDimension
  0
DIMENSION
  5
248
330
1E
100
AcDbEntity
  8
MO_001_VIEW_PV
  6
C_SOLID_M
100
AcDbDimension
  2
*D2
 10
-49.910702
 20
33.0
 30
0.0
 11
-49.910702
 21
33.0
 31
0.0
  3
STANDARD
100
AcDbAlignedDimension
 13
-37.606991
 23
25.0
 33
0.0
 14
-39.87718199999999
 24
12.90377799999999
 34
0.0
100
AcDbRotatedDimension
  0
DIMENSION
  5
24A
330
1E
100
AcDbEntity
  8
MO_001_VIEW_PV
  6
C_SOLID_M
100
AcDbDimension
  2
*D3
 10
-19.93859099999999
 20
39.0
 30
0.0
 11
-19.93859099999999
 21
39.0
 31
0.0
  1
41以下
  3
STANDARD
100
AcDbAlignedDimension
 13
-39.87718199999999
 23
12.90377799999999
 33
0.0
 14
0.0
 24
24.599998
 34
0.0
100
AcDbRotatedDimension
  0
DIMENSION
  5
24C
330
1E
100
AcDbEntity
  8
MO_001_VIEW_PV
  6
C_SOLID_M
100
AcDbDimension
  2
*D4
 10
-26.853498
 20
45.0
 30
0.0
 11
-26.853498
 21
45.0
 31
0.0
  3
STANDARD
100
AcDbAlignedDimension
 13
-53.70699699999999
 23
3.824408999999999
 33
0.0
 14
0.0
 24
24.599998
 34
0.0
100
AcDbRotatedDimension
  0
DIMENSION
  5
24E
330
1E
100
AcDbEntity
  8
MO_001_VIEW_PV
  6
C_SOLID_M
100
AcDbDimension
  2
*D5
 10
26.637238
 20
45.0
 30
0.0
 11
26.637238
 21
45.0
 31
0.0
  3
STANDARD
100
AcDbAlignedDimension
 13
17.39300499999999
 23
3.669998
 33
0.0
 14
0.0
 24
24.599998
 34
0.0
100
AcDbRotatedDimension
  0
DIMENSION
  5
250
330
1E
100
AcDbEntity
  8
MO_001_VIEW_PV
  6
C_SOLID_M
100
AcDbDimension
  2
*D6
 10
27.49732999999999
 20
39.0
 30
0.0
 11
27.49732999999999
 21
39.0
 31
0.0
  3
STANDARD
100
AcDbAlignedDimension
 13
18.400002
 23
19.949997
 33
0.0
 14
0.0
 24
24.599998
 34
0.0
 50
179.97571
100
AcDbRotatedDimension
  0
DIMENSION
  5
252
330
1E
100
AcDbEntity
  8
MO_001_VIEW_PV
  6
C_SOLID_M
100
AcDbDimension
  2
*D7
 10
27.0
 20
18.68841899999999
 30
0.0
 11
27.0
 21
18.68841899999999
 31
0.0
  3
STANDARD
100
AcDbAlignedDimension
 13
17.09300199999999
 23
3.970001
 33
0.0
 14
17.09300199999999
 24
-3.970001
 34
0.0
 50
89.999523
100
AcDbRotatedDimension
  0
DIMENSION
  5
254
330
1E
100
AcDbEntity
  8
MO_001_VIEW_PV
  6
C_SOLID_M
100
AcDbDimension
  2
*D8
 10
30.0
 20
-33.0
 30
0.0
 11
30.0
 21
-33.0
 31
0.0
  1
11.4以上
  3
STANDARD
100
AcDbAlignedDimension
 13
5.993003999999999
 23
2.769997
 33
0.0
 14
17.39300499999999
 24
-3.669998
 34
0.0
100
AcDbRotatedDimension
  0
DIMENSION
  5
256
330
1E
100
AcDbEntity
  8
MO_001_VIEW_PV
  6
C_SOLID_M
100
AcDbDimension
  2
*D9
 10
69.0
 20
45.0
 30
0.0
 11
69.0
 21
45.0
 31
0.0
  1
%%C59以下
  3
STANDARD
100
AcDbAlignedDimension
 13
97.80000300000001
 23
0.0
 33
0.0
 14
40.19999699999999
 24
0.0
 34
0.0
100
AcDbRotatedDimension
  0
DIMENSION
  5
258
330
1E
100
AcDbEntity
  8
MO_001_VIEW_PV
  6
C_SOLID_M
100
AcDbDimension
  2
*D10
 10
69.0
 20
39.0
 30
0.0
 11
69.0
 21
39.0
 31
0.0
  1
%%C26以下
  3
STANDARD
100
AcDbAlignedDimension
 13
80.900002
 23
0.0
 33
0.0
 14
57.099998
 24
0.0
 34
0.0
100
AcDbRotatedDimension
  0
DIMENSION
  5
25A
330
1E
100
AcDbEntity
  8
MO_001_VIEW_PV
  6
C_SOLID_M
100
AcDbDimension
  2
*D11
 10
36.0
 20
0.0
 30
0.0
 11
36.0
 21
0.0
 31
0.0
  3
STANDARD
100
AcDbAlignedDimension
 13
63.868439
 23
-18.25
 33
0.0
 14
63.868439
 24
18.25
 34
0.0
 50
89.999523
100
AcDbRotatedDimension
  0
LINE
  5
25B
330
1E
100
AcDbEntity
  8
MO_001_VIEW_PV
  6
C_SOLID_L
100
AcDbLine
 10
8.799998999999999
 20
-20.74999899999999
 30
0.0
 11
-12.450001
 21
-41.999999
 31
0.0
  0
POLYLINE
  5
25C
330
1E
100
AcDbEntity
  8
MO_001_VIEW_PV
  6
C_SOLID_L
100
AcDb2dPolyline
 66
     1
 10
0.0
 20
0.0
 30
0.0
 70
     1
  0
VERTEX
  5
3A4
330
25C
100
AcDbEntity
  8
MO_001_VIEW_PV
  6
C_SOLID_L
100
AcDbVertex
100
AcDb2dVertex
 10
6.866239999999999
 20
-23.508968
 30
0.0
  0
VERTEX
  5
3A5
330
25C
100
AcDbEntity
  8
MO_001_VIEW_PV
  6
C_SOLID_L
100
AcDbVertex
100
AcDb2dVertex
 10
8.440789
 20
-21.10920899999999
 30
0.0
  0
VERTEX
  5
3A6
330
25C
100
AcDbEntity
  8
MO_001_VIEW_PV
  6
C_SOLID_L
100
AcDbVertex
100
AcDb2dVertex
 10
6.04103
 20
-22.68375799999999
 30
0.0
  0
SEQEND
  5
3A7
330
25C
100
AcDbEntity
  8
MO_001_VIEW_PV
  6
C_SOLID_L
  0
ENDSEC
  0
SECTION
  2
OBJECTS
  0
DICTIONARY
  5
1A
330
0
100
AcDbDictionary
  3
ACAD_GROUP
350
1B
  3
ACAD_MLINESTYLE
350
1C
  3
ACAD_LAYOUT
350
2DC
  3
ACAD_PLOTSETTINGS
350
2DD
1001
ACAD
1000
TREAT_AS_HARD
1070
     0
  0
DICTIONARY
  5
2E2
330
1E
100
AcDbDictionary
  3
ACAD_LAYOUTSELFREF
350
2E3
  0
DICTIONARY
  5
2E4
330
1F
100
AcDbDictionary
  3
ACAD_LAYOUTSELFREF
350
2E5
  0
DICTIONARY
  5
1B
102
{ACAD_REACTORS
330
1A
102
}
330
1A
100
AcDbDictionary
1001
ACAD
1000
TREAT_AS_HARD
1070
     0
  0
DICTIONARY
  5
1C
102
{ACAD_REACTORS
330
1A
102
}
330
1A
100
AcDbDictionary
  3
STANDARD
350
1D
1001
ACAD
1000
TREAT_AS_HARD
1070
     0
  0
DICTIONARY
  5
2DC
102
{ACAD_REACTORS
330
1A
102
}
330
1A
100
AcDbDictionary
1001
ACAD
1000
TREAT_AS_HARD
1070
     0
  0
DICTIONARY
  5
2DD
102
{ACAD_REACTORS
330
1A
102
}
330
1A
100
AcDbDictionary
1001
ACAD
1000
TREAT_AS_HARD
1070
     0
  0
XRECORD
  5
2E3
102
{ACAD_REACTORS
330
2E2
102
}
330
2E2
100
AcDbXrecord
340
1E
  0
XRECORD
  5
2E5
102
{ACAD_REACTORS
330
2E4
102
}
330
2E4
100
AcDbXrecord
340
1F
  0
MLINESTYLE
  5
1D
102
{ACAD_REACTORS
330
1C
102
}
330
1C
100
AcDbMlineStyle
  2
STANDARD
 70
     0
  3

 62
     0
 51
90.0
 52
90.0
 71
     2
 49
0.5
 62
   256
  6
BYLAYER
 49
-0.5
 62
   256
  6
BYLAYER
  0
ENDSEC
  0
EOF
