  0
SECTION
  2
HEADER
  9
$ACADVER
  1
AC1014
  9
$ACADMAINTVER
 70
     9
  9
$DWGCODEPAGE
  3
ANSI_932
  9
$INSBASE
 10
0.0
 20
0.0
 30
0.0
  9
$EXTMIN
 10
-58.42208711958431
 20
-76.78405588333334
 30
0.0
  9
$EXTMAX
 10
364.7683703333331
 20
44.71510841299315
 30
0.0
  9
$LIMMIN
 10
-51.098209
 20
-79.978897
  9
$LIMMAX
 10
78.790436
 20
44.939396
  9
$ORTHOMODE
 70
     0
  9
$REGENMODE
 70
     1
  9
$FILLMODE
 70
     1
  9
$QTEXTMODE
 70
     0
  9
$MIRRTEXT
 70
     1
  9
$DRAGMODE
 70
     2
  9
$LTSCALE
 40
1.0
  9
$OSMODE
 70
   511
  9
$ATTMODE
 70
     1
  9
$TEXTSIZE
 40
4.1672
  9
$TRACEWID
 40
0.05
  9
$TEXTSTYLE
  7
STANDARD
  9
$CLAYER
  8
1
  9
$CELTYPE
  6
CONTINUOUS
  9
$CECOLOR
 62
   256
  9
$CELTSCALE
 40
1.0
  9
$DELOBJ
 70
     1
  9
$DISPSILH
 70
     0
  9
$DIMSCALE
 40
1.0
  9
$DIMASZ
 40
2.0
  9
$DIMEXO
 40
0.0625
  9
$DIMDLI
 40
0.38
  9
$DIMRND
 40
0.0
  9
$DIMDLE
 40
0.0
  9
$DIMEXE
 40
0.18
  9
$DIMTP
 40
0.1
  9
$DIMTM
 40
0.1
  9
$DIMTXT
 40
0.18
  9
$DIMCEN
 40
0.09
  9
$DIMTSZ
 40
0.0
  9
$DIMTOL
 70
     1
  9
$DIMLIM
 70
     0
  9
$DIMTIH
 70
     0
  9
$DIMTOH
 70
     0
  9
$DIMSE1
 70
     0
  9
$DIMSE2
 70
     0
  9
$DIMTAD
 70
     1
  9
$DIMZIN
 70
     0
  9
$DIMBLK
  1

  9
$DIMASO
 70
     1
  9
$DIMSHO
 70
     1
  9
$DIMPOST
  1

  9
$DIMAPOST
  1

  9
$DIMALT
 70
     0
  9
$DIMALTD
 70
     2
  9
$DIMALTF
 40
25.4
  9
$DIMLFAC
 40
1.0
  9
$DIMTOFL
 70
     0
  9
$DIMTVP
 40
0.0
  9
$DIMTIX
 70
     0
  9
$DIMSOXD
 70
     0
  9
$DIMSAH
 70
     0
  9
$DIMBLK1
  1

  9
$DIMBLK2
  1

  9
$DIMSTYLE
  2
STANDARD
  9
$DIMCLRD
 70
     0
  9
$DIMCLRE
 70
     0
  9
$DIMCLRT
 70
     0
  9
$DIMTFAC
 40
0.5
  9
$DIMGAP
 40
0.09
  9
$DIMJUST
 70
     0
  9
$DIMSD1
 70
     0
  9
$DIMSD2
 70
     0
  9
$DIMTOLJ
 70
     2
  9
$DIMTZIN
 70
     0
  9
$DIMALTZ
 70
     0
  9
$DIMALTTZ
 70
     0
  9
$DIMFIT
 70
     5
  9
$DIMUPT
 70
     0
  9
$DIMUNIT
 70
     2
  9
$DIMDEC
 70
     1
  9
$DIMTDEC
 70
     1
  9
$DIMALTU
 70
     2
  9
$DIMALTTD
 70
     2
  9
$DIMTXSTY
  7
STANDARD
  9
$DIMAUNIT
 70
     0
  9
$LUNITS
 70
     2
  9
$LUPREC
 70
     6
  9
$SKETCHINC
 40
0.1
  9
$FILLETRAD
 40
0.0
  9
$AUNITS
 70
     0
  9
$AUPREC
 70
     4
  9
$MENU
  1
acad
  9
$ELEVATION
 40
0.0
  9
$PELEVATION
 40
0.0
  9
$THICKNESS
 40
0.0
  9
$LIMCHECK
 70
     0
  9
$CHAMFERA
 40
0.0
  9
$CHAMFERB
 40
0.0
  9
$CHAMFERC
 40
0.0
  9
$CHAMFERD
 40
0.0
  9
$SKPOLY
 70
     0
  9
$TDCREATE
 40
2305814.56909022
  9
$TDUPDATE
 40
2457319.808660856
  9
$TDINDWG
 40
0.0072550116
  9
$TDUSRTIMER
 40
2457319.433608611
  9
$USRTIMER
 70
     1
  9
$ANGBASE
 50
0.0
  9
$ANGDIR
 70
     0
  9
$PDMODE
 70
     0
  9
$PDSIZE
 40
0.0
  9
$PLINEWID
 40
0.0
  9
$COORDS
 70
     1
  9
$SPLFRAME
 70
     0
  9
$SPLINETYPE
 70
     6
  9
$SPLINESEGS
 70
     8
  9
$ATTDIA
 70
     0
  9
$ATTREQ
 70
     1
  9
$HANDLING
 70
     1
  9
$HANDSEED
  5
2E5
  9
$SURFTAB1
 70
     6
  9
$SURFTAB2
 70
     6
  9
$SURFTYPE
 70
     6
  9
$SURFU
 70
     6
  9
$SURFV
 70
     6
  9
$UCSNAME
  2

  9
$UCSORG
 10
0.0
 20
0.0
 30
0.0
  9
$UCSXDIR
 10
1.0
 20
0.0
 30
0.0
  9
$UCSYDIR
 10
0.0
 20
1.0
 30
0.0
  9
$PUCSNAME
  2

  9
$PUCSORG
 10
0.0
 20
0.0
 30
0.0
  9
$PUCSXDIR
 10
1.0
 20
0.0
 30
0.0
  9
$PUCSYDIR
 10
0.0
 20
1.0
 30
0.0
  9
$USERI1
 70
     0
  9
$USERI2
 70
     0
  9
$USERI3
 70
     0
  9
$USERI4
 70
     0
  9
$USERI5
 70
     0
  9
$USERR1
 40
0.0
  9
$USERR2
 40
0.0
  9
$USERR3
 40
0.0
  9
$USERR4
 40
0.0
  9
$USERR5
 40
0.0
  9
$WORLDVIEW
 70
     1
  9
$SHADEDGE
 70
     3
  9
$SHADEDIF
 70
    70
  9
$TILEMODE
 70
     1
  9
$MAXACTVP
 70
    16
  9
$PINSBASE
 10
0.0
 20
0.0
 30
0.0
  9
$PLIMCHECK
 70
     0
  9
$PEXTMIN
 10
-51.098209
 20
-79.978897
 30
1.000000000000000E+20
  9
$PEXTMAX
 10
78.790436
 20
44.939396
 30
-1.000000000000000E+20
  9
$PLIMMIN
 10
0.0
 20
0.0
  9
$PLIMMAX
 10
0.0
 20
0.0
  9
$UNITMODE
 70
     0
  9
$VISRETAIN
 70
     0
  9
$PLINEGEN
 70
     0
  9
$PSLTSCALE
 70
     1
  9
$TREEDEPTH
 70
  3020
  9
$PICKSTYLE
 70
     1
  9
$CMLSTYLE
  2
STANDARD
  9
$CMLJUST
 70
     0
  9
$CMLSCALE
 40
1.0
  9
$PROXYGRAPHICS
 70
     1
  9
$MEASUREMENT
 70
     0
  0
ENDSEC
  0
SECTION
  2
CLASSES
  0
CLASS
  1
ACDBDICTIONARYWDFLT
  2
AcDbDictionaryWithDefault
  3
ObjectDBX Classes
 90
        0
280
     0
281
     0
  0
CLASS
  1
ACDBPLACEHOLDER
  2
AcDbPlaceHolder
  3
ObjectDBX Classes
 90
        0
280
     0
281
     0
  0
CLASS
  1
LAYOUT
  2
AcDbLayout
  3
ObjectDBX Classes
 90
        0
280
     0
281
     0
  0
CLASS
  1
LONG_TRANSACTION
  2
AcDbLongTransaction
  3
ObjectDBX Classes
 90
        0
280
     0
281
     0
  0
CLASS
  1
LWPOLYLINE
  2
AcDbPolyline
  3
ObjectDBX Classes
 90
        0
280
     0
281
     1
  0
CLASS
  1
HATCH
  2
AcDbHatch
  3
ObjectDBX Classes
 90
        0
280
     0
281
     1
  0
CLASS
  1
XRECORD
  2
AcDbXrecord
  3
ObjectDBX Classes
 90
        0
280
     0
281
     0
  0
CLASS
  1
LONG_TRANSACTION
  2
AcDbLongTransaction
  3
ObjectDBX Classes
 90
        0
280
     0
281
     0
  0
CLASS
  1
LWPOLYLINE
  2
AcDbPolyline
  3
ObjectDBX Classes
 90
        0
280
     0
281
     1
  0
CLASS
  1
HATCH
  2
AcDbHatch
  3
ObjectDBX Classes
 90
        0
280
     0
281
     1
  0
CLASS
  1
XRECORD
  2
AcDbXrecord
  3
ObjectDBX Classes
 90
        0
280
     0
281
     0
  0
CLASS
  1
LONG_TRANSACTION
  2
AcDbLongTransaction
  3
ObjectDBX Classes
 90
        0
280
     0
281
     0
  0
CLASS
  1
LWPOLYLINE
  2
AcDbPolyline
  3
ObjectDBX Classes
 90
        0
280
     0
281
     1
  0
CLASS
  1
HATCH
  2
AcDbHatch
  3
ObjectDBX Classes
 90
        0
280
     0
281
     1
  0
CLASS
  1
XRECORD
  2
AcDbXrecord
  3
ObjectDBX Classes
 90
        0
280
     0
281
     0
  0
CLASS
  1
LONG_TRANSACTION
  2
AcDbLongTransaction
  3
ObjectDBX Classes
 90
        0
280
     0
281
     0
  0
CLASS
  1
LWPOLYLINE
  2
AcDbPolyline
  3
ObjectDBX Classes
 90
        0
280
     0
281
     1
  0
CLASS
  1
HATCH
  2
AcDbHatch
  3
ObjectDBX Classes
 90
        0
280
     0
281
     1
  0
CLASS
  1
XRECORD
  2
AcDbXrecord
  3
ObjectDBX Classes
 90
        0
280
     0
281
     0
  0
CLASS
  1
SCALE
  2
AcDbScale
  3
ObjectDBX Classes
 90
     1153
280
     0
281
     0
  0
CLASS
  1
VISUALSTYLE
  2
AcDbVisualStyle
  3
ObjectDBX Classes
 90
     4095
280
     0
281
     0
  0
CLASS
  1
MATERIAL
  2
AcDbMaterial
  3
ObjectDBX Classes
 90
     1153
280
     0
281
     0
  0
CLASS
  1
TABLESTYLE
  2
AcDbTableStyle
  3
ObjectDBX Classes
 90
     4095
280
     0
281
     0
  0
CLASS
  1
MLEADERSTYLE
  2
AcDbMLeaderStyle
  3
ACDB_MLEADERSTYLE_CLASS
 90
     4095
280
     0
281
     0
  0
CLASS
  1
SUN
  2
AcDbSun
  3
SCENEOE
 90
     1153
280
     0
281
     0
  0
CLASS
  1
RASTERVARIABLES
  2
AcDbRasterVariables
  3
ISM
 90
        0
280
     0
281
     0
  0
CLASS
  1
DIMASSOC
  2
AcDbDimAssoc
  3
"AcDbDimAssoc|Product Desc:     AcDim ARX App For Dimension|Company:          Autodesk, Inc.|WEB Address:      www.autodesk.com"
 90
        0
280
     0
281
     0
  0
ENDSEC
  0
SECTION
  2
TABLES
  0
TABLE
  2
VPORT
  5
7
330
0
100
AcDbSymbolTable
 70
     1
  0
VPORT
  5
168
330
7
100
AcDbSymbolTableRecord
100
AcDbViewportTableRecord
  2
*ACTIVE
 70
     0
 10
0.0
 20
0.0
 11
1.0
 21
1.0
 12
-1.406764109232086
 22
-17.0003463498431
 13
0.0
 23
0.0
 14
6.349999999999997
 24
6.349999999999997
 15
6.349999999999997
 25
6.349999999999997
 16
0.0
 26
0.0
 36
1.0
 17
0.0
 27
0.0
 37
0.0
 40
133.9020090337641
 41
1.248717948717949
 42
50.0
 43
0.0
 44
0.0
 50
0.0
 51
0.0
 71
    16
 72
   100
 73
     1
 74
     3
 75
     0
 76
     0
 77
     0
 78
     0
  0
ENDTAB
  0
TABLE
  2
LTYPE
  5
4
330
0
100
AcDbSymbolTable
 70
    37
  0
LTYPE
  5
12
330
4
100
AcDbSymbolTableRecord
100
AcDbLinetypeTableRecord
  2
BYBLOCK
 70
     0
  3

 72
    65
 73
     0
 40
0.0
  0
LTYPE
  5
13
330
4
100
AcDbSymbolTableRecord
100
AcDbLinetypeTableRecord
  2
BYLAYER
 70
     0
  3

 72
    65
 73
     0
 40
0.0
  0
LTYPE
  5
14
330
4
100
AcDbSymbolTableRecord
100
AcDbLinetypeTableRecord
  2
CONTINUOUS
 70
     0
  3
DXF Default line type
 72
    65
 73
     0
 40
0.0
  0
LTYPE
  5
20
330
4
100
AcDbSymbolTableRecord
100
AcDbLinetypeTableRecord
  2
DASHED
 70
     0
  3
DXF Dashed
 72
    65
 73
     2
 40
0.75
 49
0.5
 74
     0
 49
-0.25
 74
     0
  0
LTYPE
  5
21
330
4
100
AcDbSymbolTableRecord
100
AcDbLinetypeTableRecord
  2
HIDDEN
 70
     0
  3
DXF Hidden
 72
    65
 73
     2
 40
0.375
 49
0.25
 74
     0
 49
-0.125
 74
     0
  0
LTYPE
  5
22
330
4
100
AcDbSymbolTableRecord
100
AcDbLinetypeTableRecord
  2
CENTER
 70
     0
  3
DXF Center
 72
    65
 73
     4
 40
2.0
 49
1.25
 74
     0
 49
-0.25
 74
     0
 49
0.25
 74
     0
 49
-0.25
 74
     0
  0
LTYPE
  5
23
330
4
100
AcDbSymbolTableRecord
100
AcDbLinetypeTableRecord
  2
PHANTOM
 70
     0
  3
DXF Phantom
 72
    65
 73
     6
 40
2.5
 49
1.25
 74
     0
 49
-0.25
 74
     0
 49
0.25
 74
     0
 49
-0.25
 74
     0
 49
0.25
 74
     0
 49
-0.25
 74
     0
  0
LTYPE
  5
24
330
4
100
AcDbSymbolTableRecord
100
AcDbLinetypeTableRecord
  2
DOT
 70
     0
  3
DXF DOT
 72
    65
 73
     2
 40
0.25
 49
0.0
 74
     0
 49
-0.25
 74
     0
  0
LTYPE
  5
25
330
4
100
AcDbSymbolTableRecord
100
AcDbLinetypeTableRecord
  2
DASHDOT
 70
     0
  3
DXF Dash Dot
 72
    65
 73
     4
 40
1.0
 49
0.5
 74
     0
 49
-0.25
 74
     0
 49
0.0
 74
     0
 49
-0.25
 74
     0
  0
LTYPE
  5
26
330
4
100
AcDbSymbolTableRecord
100
AcDbLinetypeTableRecord
  2
BORDER
 70
     0
  3
DXF Border
 72
    65
 73
     6
 40
1.75
 49
0.5
 74
     0
 49
-0.25
 74
     0
 49
0.5
 74
     0
 49
-0.25
 74
     0
 49
0.0
 74
     0
 49
-0.25
 74
     0
  0
LTYPE
  5
27
330
4
100
AcDbSymbolTableRecord
100
AcDbLinetypeTableRecord
  2
DIVIDE
 70
     0
  3
DXF Divide
 72
    65
 73
     6
 40
1.25
 49
0.5
 74
     0
 49
-0.25
 74
     0
 49
0.0
 74
     0
 49
-0.25
 74
     0
 49
0.0
 74
     0
 49
-0.25
 74
     0
  0
LTYPE
  5
28
330
4
100
AcDbSymbolTableRecord
100
AcDbLinetypeTableRecord
  2
C_SOLID_L
 70
     0
  3
CADAM Solid Light
 72
    65
 73
     0
 40
0.0
  0
LTYPE
  5
29
330
4
100
AcDbSymbolTableRecord
100
AcDbLinetypeTableRecord
  2
C_SOLID_M
 70
     0
  3
CADAM Solid Medium
 72
    65
 73
     0
 40
0.0
  0
LTYPE
  5
2A
330
4
100
AcDbSymbolTableRecord
100
AcDbLinetypeTableRecord
  2
C_SOLID_H
 70
     0
  3
CADAM Solid Heavy
 72
    65
 73
     0
 40
0.0
  0
LTYPE
  5
2B
330
4
100
AcDbSymbolTableRecord
100
AcDbLinetypeTableRecord
  2
C_DASHED_L
 70
     0
  3
CADAM Dashed Light
 72
    65
 73
     2
 40
0.375
 49
0.25
 74
     0
 49
-0.125
 74
     0
  0
LTYPE
  5
2C
330
4
100
AcDbSymbolTableRecord
100
AcDbLinetypeTableRecord
  2
C_DASHED_M
 70
     0
  3
CADAM Dashed Medium
 72
    65
 73
     2
 40
0.5
 49
0.375
 74
     0
 49
-0.125
 74
     0
  0
LTYPE
  5
2D
330
4
100
AcDbSymbolTableRecord
100
AcDbLinetypeTableRecord
  2
C_CENTER_L
 70
     0
  3
CADAM Center Light
 72
    65
 73
     4
 40
2.0
 49
1.25
 74
     0
 49
-0.25
 74
     0
 49
0.25
 74
     0
 49
-0.25
 74
     0
  0
LTYPE
  5
2E
330
4
100
AcDbSymbolTableRecord
100
AcDbLinetypeTableRecord
  2
C_PHANTOM_L
 70
     0
  3
CADAM Phantom Light
 72
    65
 73
     6
 40
2.5
 49
1.25
 74
     0
 49
-0.25
 74
     0
 49
0.25
 74
     0
 49
-0.25
 74
     0
 49
0.25
 74
     0
 49
-0.25
 74
     0
  0
LTYPE
  5
2F
330
4
100
AcDbSymbolTableRecord
100
AcDbLinetypeTableRecord
  2
C_BREAK_M
 70
     0
  3
CADAM Break Medium
 72
    65
 73
     4
 40
1.0
 49
0.5
 74
     0
 49
-0.25
 74
     0
 49
0.0
 74
     0
 49
-0.25
 74
     0
  0
LTYPE
  5
30
330
4
100
AcDbSymbolTableRecord
100
AcDbLinetypeTableRecord
  2
C_NC
 70
     0
  3
CADAM NC
 72
    65
 73
     0
 40
0.0
  0
LTYPE
  5
31
330
4
100
AcDbSymbolTableRecord
100
AcDbLinetypeTableRecord
  2
DSH1
 70
     0
  3
CADAM Style2 Type 1 Dashed Line
 72
    65
 73
     2
 40
0.075
 49
0.04
 74
     0
 49
-0.035
 74
     0
  0
LTYPE
  5
32
330
4
100
AcDbSymbolTableRecord
100
AcDbLinetypeTableRecord
  2
DSH2
 70
     0
  3
CADAM Style2 Type 2 Dashed Line
 72
    65
 73
     2
 40
0.15
 49
0.11
 74
     0
 49
-0.04
 74
     0
  0
LTYPE
  5
33
330
4
100
AcDbSymbolTableRecord
100
AcDbLinetypeTableRecord
  2
DSH3
 70
     0
  3
CADAM Style2 Type 3 Dashed Line
 72
    65
 73
     2
 40
0.2
 49
0.15
 74
     0
 49
-0.05
 74
     0
  0
LTYPE
  5
34
330
4
100
AcDbSymbolTableRecord
100
AcDbLinetypeTableRecord
  2
DSH4
 70
     0
  3
CADAM Style2 Type 4 Dashed Line
 72
    65
 73
     2
 40
0.36
 49
0.28
 74
     0
 49
-0.08
 74
     0
  0
LTYPE
  5
35
330
4
100
AcDbSymbolTableRecord
100
AcDbLinetypeTableRecord
  2
DSH5
 70
     0
  3
CADAM Style2 Type 5 Dashed Line
 72
    65
 73
     2
 40
0.47
 49
0.39
 74
     0
 49
-0.08
 74
     0
  0
LTYPE
  5
36
330
4
100
AcDbSymbolTableRecord
100
AcDbLinetypeTableRecord
  2
DSH6
 70
     0
  3
CADAM Style2 Type 6 Dashed Line
 72
    65
 73
     2
 40
0.9
 49
0.81
 74
     0
 49
-0.09
 74
     0
  0
LTYPE
  5
37
330
4
100
AcDbSymbolTableRecord
100
AcDbLinetypeTableRecord
  2
PL1
 70
     0
  3
Style 2 Type 1 Phantom Line
 72
    65
 73
     6
 40
1.0
 49
0.6
 74
     0
 49
-0.08
 74
     0
 49
0.08
 74
     0
 49
-0.08
 74
     0
 49
0.08
 74
     0
 49
-0.08
 74
     0
  0
LTYPE
  5
38
330
4
100
AcDbSymbolTableRecord
100
AcDbLinetypeTableRecord
  2
PL2
 70
     0
  3
Style 2 Type 2 Phantom Line
 72
    65
 73
     6
 40
1.08
 49
0.6
 74
     0
 49
-0.08
 74
     0
 49
0.12
 74
     0
 49
-0.08
 74
     0
 49
0.12
 74
     0
 49
-0.08
 74
     0
  0
LTYPE
  5
39
330
4
100
AcDbSymbolTableRecord
100
AcDbLinetypeTableRecord
  2
PL3
 70
     0
  3
Style 2 Type 3 Phantom Line
 72
    65
 73
     6
 40
2.0
 49
1.439999999999999
 74
     0
 49
-0.08
 74
     0
 49
0.16
 74
     0
 49
-0.08
 74
     0
 49
0.16
 74
     0
 49
-0.08
 74
     0
  0
LTYPE
  5
3A
330
4
100
AcDbSymbolTableRecord
100
AcDbLinetypeTableRecord
  2
CL1
 70
     0
  3
CADAM Style 2 Type 1 Center Line
 72
    65
 73
     4
 40
0.7
 49
0.45
 74
     0
 49
-0.06
 74
     0
 49
0.13
 74
     0
 49
-0.06
 74
     0
  0
LTYPE
  5
3B
330
4
100
AcDbSymbolTableRecord
100
AcDbLinetypeTableRecord
  2
CL2
 70
     0
  3
CADAM Style 2 Type 2 Center Line
 72
    65
 73
     4
 40
1.199999999999999
 49
1.01
 74
     0
 49
-0.06
 74
     0
 49
0.11
 74
     0
 49
-0.06
 74
     0
  0
LTYPE
  5
3C
330
4
100
AcDbSymbolTableRecord
100
AcDbLinetypeTableRecord
  2
CL3
 70
     0
  3
CADAM Style 2 Type 3 Center Line
 72
    65
 73
     4
 40
1.199999999999999
 49
0.98
 74
     0
 49
-0.06
 74
     0
 49
0.1
 74
     0
 49
-0.06
 74
     0
  0
LTYPE
  5
3D
330
4
100
AcDbSymbolTableRecord
100
AcDbLinetypeTableRecord
  2
CL4
 70
     0
  3
CADAM Style 2 Type 4 Center Line
 72
    65
 73
     4
 40
2.2
 49
1.929999999999999
 74
     0
 49
-0.07
 74
     0
 49
0.13
 74
     0
 49
-0.07
 74
     0
  0
LTYPE
  5
3E
330
4
100
AcDbSymbolTableRecord
100
AcDbLinetypeTableRecord
  2
CL5
 70
     0
  3
CADAM Style 2 Type 5 Center Line
 72
    65
 73
     4
 40
2.2
 49
1.879999999999999
 74
     0
 49
-0.07
 74
     0
 49
0.18
 74
     0
 49
-0.07
 74
     0
  0
LTYPE
  5
3F
330
4
100
AcDbSymbolTableRecord
100
AcDbLinetypeTableRecord
  2
SBK1
 70
     0
  3
CADAM Style 2 Type 1 SetBack Line
 72
    65
 73
     8
 40
2.7
 49
0.1
 74
     0
 49
-0.08
 74
     0
 49
0.1
 74
     0
 49
-0.8
 74
     0
 49
0.0
 74
     0
 49
0.0
 74
     0
 49
0.0
 74
     0
 49
0.0
 74
     0
  0
LTYPE
  5
40
330
4
100
AcDbSymbolTableRecord
100
AcDbLinetypeTableRecord
  2
SBK2
 70
     0
  3
CADAM Style 2 Type 2 SetBack Line
 72
    65
 73
     8
 40
3.709999999999998
 49
0.13
 74
     0
 49
-0.08
 74
     0
 49
0.13
 74
     0
 49
-0.8
 74
     0
 49
0.0
 74
     0
 49
0.0
 74
     0
 49
0.0
 74
     0
 49
0.0
 74
     0
  0
LTYPE
  5
41
330
4
100
AcDbSymbolTableRecord
100
AcDbLinetypeTableRecord
  2
STCH
 70
     0
  3
CADAM Style2 Stitch Line
 72
    65
 73
     2
 40
0.25
 49
0.0
 74
     0
 49
-0.25
 74
     0
  0
LTYPE
  5
42
330
4
100
AcDbSymbolTableRecord
100
AcDbLinetypeTableRecord
  2
MTCH
 70
     0
  3
CADAM Style2 Match Line
 72
    65
 73
     6
 40
2.0
 49
1.439999999999999
 74
     0
 49
-0.8
 74
     0
 49
0.16
 74
     0
 49
-0.08
 74
     0
 49
0.16
 74
     0
 49
-0.08
 74
     0
  0
LTYPE
  5
43
330
4
100
AcDbSymbolTableRecord
100
AcDbLinetypeTableRecord
  2
SLD
 70
     0
  3
CADAM Solid_EXT2
 72
    65
 73
     0
 40
0.0
  0
ENDTAB
  0
TABLE
  2
LAYER
  5
2
102
{ACAD_XDICTIONARY
360
1C1
102
}
330
0
100
AcDbSymbolTable
 70
     9
  0
LAYER
  5
15
330
2
100
AcDbSymbolTableRecord
100
AcDbLayerTableRecord
  2
0
 70
     0
 62
     7
  6
CONTINUOUS
  0
LAYER
  5
44
330
2
100
AcDbSymbolTableRecord
100
AcDbLayerTableRecord
  2
MO_001_NOSHOW
 70
     1
 62
     7
  6
CONTINUOUS
  0
LAYER
  5
45
330
2
100
AcDbSymbolTableRecord
100
AcDbLayerTableRecord
  2
MO_001_VIEW_PV
 70
     0
 62
     7
  6
CONTINUOUS
  0
LAYER
  5
46
330
2
100
AcDbSymbolTableRecord
100
AcDbLayerTableRecord
  2
OVERLAY_MAP
 70
     1
 62
     7
  6
CONTINUOUS
  0
LAYER
  5
47
330
2
100
AcDbSymbolTableRecord
100
AcDbLayerTableRecord
  2
DITTOS
 70
     0
 62
     7
  6
CONTINUOUS
  0
LAYER
  5
48
330
2
100
AcDbSymbolTableRecord
100
AcDbLayerTableRecord
  2
SYMBOLS
 70
     0
 62
     7
  6
CONTINUOUS
  0
LAYER
  5
49
330
2
100
AcDbSymbolTableRecord
100
AcDbLayerTableRecord
  2
SETS
 70
     0
 62
     7
  6
CONTINUOUS
  0
LAYER
  5
DB
330
2
100
AcDbSymbolTableRecord
100
AcDbLayerTableRecord
  2
DEFPOINTS
 70
     0
 62
     7
  6
CONTINUOUS
  0
LAYER
  5
1C4
330
2
100
AcDbSymbolTableRecord
100
AcDbLayerTableRecord
  2
1
 70
     0
 62
     7
  6
CONTINUOUS
1001
ACAECLAYERSTANDARD
1000

1000

  0
ENDTAB
  0
TABLE
  2
STYLE
  5
3
330
0
100
AcDbSymbolTable
 70
     1
  0
STYLE
  5
18
330
3
100
AcDbSymbolTableRecord
100
AcDbTextStyleTableRecord
  2
STANDARD
 70
     0
 40
3.5
 41
1.0
 50
0.0
 71
     0
 42
4.1672
  3
monotxt.shx
  4
BIGFONT.shx
  0
ENDTAB
  0
TABLE
  2
VIEW
  5
5
330
0
100
AcDbSymbolTable
 70
     0
  0
ENDTAB
  0
TABLE
  2
UCS
  5
6
330
0
100
AcDbSymbolTable
 70
     0
  0
ENDTAB
  0
TABLE
  2
APPID
  5
8
330
0
100
AcDbSymbolTable
 70
     2
  0
APPID
  5
17
330
8
100
AcDbSymbolTableRecord
100
AcDbRegAppTableRecord
  2
ACAD
 70
     0
  0
APPID
  5
1C5
330
8
100
AcDbSymbolTableRecord
100
AcDbRegAppTableRecord
  2
ACAECLAYERSTANDARD
 70
     0
  0
ENDTAB
  0
TABLE
  2
DIMSTYLE
  5
9
330
0
100
AcDbSymbolTable
 70
     1
  0
DIMSTYLE
105
19
102
{ACAD_REACTORS
330
F5
330
1EC
102
}
330
9
100
AcDbSymbolTableRecord
100
AcDbDimStyleTableRecord
  2
STANDARD
 70
     0
  3

  4

  5

  6

  7

 40
1.0
 41
2.0
 42
0.0625
 43
0.38
 44
0.18
 45
0.0
 46
0.0
 47
0.1
 48
0.1
140
0.18
141
0.09
142
0.0
143
25.4
144
1.0
145
0.0
146
0.5
147
0.09
 71
     1
 72
     0
 73
     0
 74
     0
 75
     0
 76
     0
 77
     1
 78
     0
170
     0
171
     2
172
     0
173
     0
174
     0
175
     0
176
     0
177
     0
178
     0
270
     2
271
     1
272
     1
273
     2
274
     2
340
18
275
     0
280
     0
281
     0
282
     0
283
     2
284
     0
285
     0
286
     0
287
     3
288
     0
  0
ENDTAB
  0
TABLE
  2
BLOCK_RECORD
  5
C
330
0
100
AcDbSymbolTable
 70
     5
  0
BLOCK_RECORD
  5
1E
102
{ACAD_XDICTIONARY
360
10B
102
}
330
C
100
AcDbSymbolTableRecord
100
AcDbBlockTableRecord
  2
*MODEL_SPACE
  0
BLOCK_RECORD
  5
1F
102
{ACAD_XDICTIONARY
360
10D
102
}
330
C
100
AcDbSymbolTableRecord
100
AcDbBlockTableRecord
  2
*PAPER_SPACE
  0
BLOCK_RECORD
  5
B5
330
C
100
AcDbSymbolTableRecord
100
AcDbBlockTableRecord
  2
*D0
  0
BLOCK_RECORD
  5
DC
330
C
100
AcDbSymbolTableRecord
100
AcDbBlockTableRecord
  2
*D1
  0
BLOCK_RECORD
  5
E7
330
C
100
AcDbSymbolTableRecord
100
AcDbBlockTableRecord
  2
*D2
  0
BLOCK_RECORD
  5
F6
330
C
100
AcDbSymbolTableRecord
100
AcDbBlockTableRecord
  2
*D3
  0
BLOCK_RECORD
  5
1EF
330
C
100
AcDbSymbolTableRecord
100
AcDbBlockTableRecord
  2
*D4
  0
ENDTAB
  0
ENDSEC
  0
SECTION
  2
BLOCKS
  0
BLOCK
  5
E
330
1E
100
AcDbEntity
  8
0
100
AcDbBlockBegin
  2
*MODEL_SPACE
 70
     0
 10
0.0
 20
0.0
 30
0.0
  3
*MODEL_SPACE
  1

  0
ENDBLK
  5
F
330
1E
100
AcDbEntity
  8
0
100
AcDbBlockEnd
  0
BLOCK
  5
10
330
1F
100
AcDbEntity
 67
     1
  8
0
100
AcDbBlockBegin
  2
*PAPER_SPACE
 70
     0
 10
0.0
 20
0.0
 30
0.0
  3
*PAPER_SPACE
  1

  0
ENDBLK
  5
11
330
1F
100
AcDbEntity
 67
     1
  8
0
100
AcDbBlockEnd
  0
BLOCK
  5
C9
330
B5
100
AcDbEntity
  8
0
100
AcDbBlockBegin
  2
*D0
 70
     1
 10
0.0
 20
0.0
 30
0.0
  3
*D0
  1
*D0
  0
LINE
  5
CA
330
B5
100
AcDbEntity
  8
MO_001_VIEW_PV
  6
BYBLOCK
100
AcDbLine
 10
0.0
 20
0.0
 30
0.0
 11
-18.37480499999998
 21
5.213137
 31
0.0
  0
LINE
  5
CB
330
B5
100
AcDbEntity
  8
MO_001_VIEW_PV
  6
BYBLOCK
100
AcDbLine
 10
-18.37480499999998
 20
5.213137
 30
0.0
 11
-24.48370399999999
 21
6.946299
 31
0.0
  0
SOLID
  5
CC
330
B5
100
AcDbEntity
  8
MO_001_VIEW_PV
  6
BYBLOCK
100
AcDbTrace
 10
-21.726338
 20
5.557462999999997
 30
0.0
 11
-18.863517
 21
5.35179
 31
0.0
 12
-21.407812
 22
6.680175999999997
 32
0.0
 13
-21.407812
 23
6.680175999999997
 33
0.0
  0
LINE
  5
CD
330
B5
100
AcDbEntity
  8
MO_001_VIEW_PV
  6
BYBLOCK
100
AcDbLine
 10
-18.37480499999998
 20
5.213137
 30
0.0
 11
-32.565865
 21
9.239298
 31
0.0
  0
ENDBLK
  5
CE
330
B5
100
AcDbEntity
  8
0
100
AcDbBlockEnd
  0
BLOCK
  5
E4
330
DC
100
AcDbEntity
  8
0
100
AcDbBlockBegin
  2
*D1
 70
     1
 10
0.0
 20
0.0
 30
0.0
  3
*D1
  1
*D1
  0
LINE
  5
DD
330
DC
100
AcDbEntity
  8
MO_001_VIEW_PV
  6
C_SOLID_M
 62
     0
100
AcDbLine
 10
50.2084249266112
 20
12.84439555027881
 30
0.0
 11
20.44170588909451
 21
5.229428259216949
 31
0.0
  0
MTEXT
  5
DE
330
DC
100
AcDbEntity
  8
MO_001_VIEW_PV
  6
C_SOLID_M
 62
     0
100
AcDbMText
 10
35.75516104668313
 20
11.39053776742426
 30
0.0
 40
4.1672
 41
0.0
 71
     5
 72
     1
  1
\A2;R19.1{\H2.083600;±0.1}
 11
0.9688009445472555
 21
0.2478401296084748
 31
0.0
  0
SOLID
  5
DF
330
DC
100
AcDbEntity
  8
MO_001_VIEW_PV
  6
C_SOLID_M
 62
     0
100
AcDbTrace
 10
20.35909251255835
 20
5.552361907399368
 30
0.0
 11
20.52431926563067
 21
4.906494611034528
 31
0.0
 12
18.504104
 22
4.733748000000001
 32
0.0
 13
18.504104
 23
4.733748000000001
 33
0.0
  0
LINE
  5
E0
330
DC
100
AcDbEntity
  8
MO_001_VIEW_PV
  6
C_SOLID_M
 62
     0
100
AcDbLine
 10
-0.09
 20
0.0
 30
0.0
 11
0.09
 21
0.0
 31
0.0
  0
LINE
  5
E1
330
DC
100
AcDbEntity
  8
MO_001_VIEW_PV
  6
C_SOLID_M
 62
     0
100
AcDbLine
 10
0.0
 20
-0.09
 30
0.0
 11
0.0
 21
0.09
 31
0.0
  0
POINT
  5
E2
330
DC
100
AcDbEntity
  8
DEFPOINTS
  6
C_SOLID_M
 62
     0
100
AcDbPoint
 10
18.504104
 20
4.733748000000001
 30
0.0
  0
POINT
  5
E3
330
DC
100
AcDbEntity
  8
DEFPOINTS
  6
C_SOLID_M
 62
     0
100
AcDbPoint
 10
0.0
 20
0.0
 30
0.0
  0
ENDBLK
  5
E5
330
DC
100
AcDbEntity
  8
0
100
AcDbBlockEnd
  0
BLOCK
  5
F3
330
E7
100
AcDbEntity
  8
0
100
AcDbBlockBegin
  2
*D2
 70
     1
 10
0.0
 20
0.0
 30
0.0
  3
*D2
  1
*D2
  0
LINE
  5
16F
330
E7
100
AcDbEntity
  8
0
  6
CONTINUOUS
 62
     0
100
AcDbLine
 10
0.0
 20
33.862499
 30
0.0
 11
0.0000000000000018
 21
38.23124487913568
 31
0.0
  0
LINE
  5
170
330
E7
100
AcDbEntity
  8
0
  6
CONTINUOUS
 62
     0
100
AcDbLine
 10
-16.88707283316898
 20
15.47415338839247
 30
0.0
 11
-28.1870288227922
 21
25.82865551460239
 31
0.0
  0
ARC
  5
171
330
E7
100
AcDbEntity
  8
0
  6
CONTINUOUS
 62
     0
100
AcDbCircle
 10
0.0000000000000003
 20
0.0000018326623814
 30
0.0
 40
38.05124304647329
100
AcDbArc
 50
93.01185308351191
 51
134.4881463986203
  0
SOLID
  5
172
330
E7
100
AcDbEntity
  8
0
  6
CONTINUOUS
 62
     0
100
AcDbTrace
 10
-2.008069340686867
 20
38.33190238233934
 30
0.0
 11
-1.990549107094171
 21
37.66546597437583
 31
0.0
 12
0.0000000000000018
 22
38.05124487913568
 32
0.0
 13
0.0000000000000018
 23
38.05124487913568
 33
0.0
  0
SOLID
  5
173
330
E7
100
AcDbEntity
  8
0
  6
CONTINUOUS
 62
     0
100
AcDbTrace
 10
-26.42509736432665
 20
26.91400755541408
 30
0.0
 11
-26.9046093219067
 21
27.37716274213036
 31
0.0
 12
-28.05431890326552
 22
25.70704927603207
 32
0.0
 13
-28.05431890326552
 23
25.70704927603207
 33
0.0
  0
POINT
  5
174
330
E7
100
AcDbEntity
  8
DEFPOINTS
  6
CONTINUOUS
 62
     0
100
AcDbPoint
 10
-19.97601125686931
 20
32.386049316837
 30
0.0
  0
POINT
  5
175
330
E7
100
AcDbEntity
  8
DEFPOINTS
  6
CONTINUOUS
 62
     0
100
AcDbPoint
 10
0.0
 20
33.799999
 30
0.0
  0
POINT
  5
176
330
E7
100
AcDbEntity
  8
DEFPOINTS
  6
CONTINUOUS
 62
     0
100
AcDbPoint
 10
0.000002
 20
0.0
 30
0.0
  0
POINT
  5
177
330
E7
100
AcDbEntity
  8
DEFPOINTS
  6
CONTINUOUS
 62
     0
100
AcDbPoint
 10
-16.840993
 20
15.431929
 30
0.0
  0
POINT
  5
178
330
E7
100
AcDbEntity
  8
DEFPOINTS
  6
CONTINUOUS
 62
     0
100
AcDbPoint
 10
0.0
 20
-33.799999
 30
0.0
  0
ENDBLK
  5
F4
330
E7
100
AcDbEntity
  8
0
100
AcDbBlockEnd
  0
BLOCK
  5
FE
330
F6
100
AcDbEntity
  8
0
100
AcDbBlockBegin
  2
*D3
 70
     1
 10
0.0
 20
0.0
 30
0.0
  3
*D3
  1
*D3
  0
LINE
  5
161
330
F6
100
AcDbEntity
  8
0
  6
CONTINUOUS
 62
     0
100
AcDbLine
 10
-14.17411772836789
 20
15.5844472180331
 30
0.0
 11
-38.66761895301073
 21
42.45539243766619
 31
0.0
  0
MTEXT
  5
162
330
F6
100
AcDbEntity
  8
0
  6
CONTINUOUS
 62
     0
100
AcDbMText
 10
-29.25464354304916
 20
36.95317014286032
 30
0.0
 40
3.5
 41
0.0
 71
     5
 72
     1
  1
\A2;R19.1{\H0.090000;%%p0.1}
 11
0.6736565588216078
 21
-0.7390445458540571
 31
0.0
  0
SOLID
  5
163
330
F6
100
AcDbEntity
  8
0
 62
     0
100
AcDbTrace
 10
-14.42046591031924
 20
15.35989503175923
 30
0.0
 11
-13.92776954641654
 21
15.80899940430697
 31
0.0
 12
-12.82680461072467
 22
14.10635812632499
 32
0.0
 13
-12.82680461072467
 23
14.10635812632499
 33
0.0
  0
LINE
  5
164
330
F6
100
AcDbEntity
  8
0
  6
CONTINUOUS
 62
     0
100
AcDbLine
 10
-0.0499602952926147
 20
-0.0093971337547765
 30
0.0
 11
0.1300397047073853
 21
-0.0093971337547765
 31
0.0
  0
LINE
  5
165
330
F6
100
AcDbEntity
  8
0
  6
CONTINUOUS
 62
     0
100
AcDbLine
 10
0.0400397047073853
 20
-0.0993971337547765
 30
0.0
 11
0.0400397047073853
 21
0.0806028662452235
 31
0.0
  0
POINT
  5
166
330
F6
100
AcDbEntity
  8
DEFPOINTS
 62
     0
100
AcDbPoint
 10
-12.82680461072467
 20
14.10635812632499
 30
0.0
  0
POINT
  5
167
330
F6
100
AcDbEntity
  8
DEFPOINTS
 62
     0
100
AcDbPoint
 10
0.0400397047073853
 20
-0.0093971337547765
 30
0.0
  0
ENDBLK
  5
FF
330
F6
100
AcDbEntity
  8
0
100
AcDbBlockEnd
  0
BLOCK
  5
1F0
330
1EF
100
AcDbEntity
  8
0
100
AcDbBlockBegin
  2
*D4
 70
     1
 10
0.0
 20
0.0
 30
0.0
  3
*D4
  1
*D4
  0
LINE
  5
1F2
330
1EF
100
AcDbEntity
  8
1
  6
CONTINUOUS
 62
     0
100
AcDbLine
 10
0.0
 20
33.862499
 30
0.0
 11
-0.0000000000000009
 21
37.69882502937521
 31
0.0
  0
LINE
  5
1F3
330
1EF
100
AcDbEntity
  8
1
  6
CONTINUOUS
 62
     0
100
AcDbLine
 10
-4.957472478570633
 20
22.36171049984653
 30
0.0
 11
-8.15952034890262
 21
36.80521203372208
 31
0.0
  0
ARC
  5
1F4
330
1EF
100
AcDbEntity
  8
1
  6
CONTINUOUS
 62
     0
100
AcDbCircle
 10
-0.0000000000000009
 20
0.0000019158468447
 30
0.0
 40
37.51882311352837
100
AcDbArc
 50
93.05460356835769
 51
99.44539896644993
  0
SOLID
  5
1F5
330
1EF
100
AcDbEntity
  8
1
 62
     0
100
AcDbTrace
 10
-1.990405046672385
 20
37.13230354059068
 30
0.0
 11
-2.008173905376971
 21
37.79873336593223
 31
0.0
 12
-0.0000000000000009
 22
37.51882502937521
 32
0.0
 13
-0.0000000000000009
 23
37.51882502937521
 33
0.0
  0
SOLID
  5
1F6
330
1EF
100
AcDbEntity
  8
1
 62
     0
100
AcDbTrace
 10
-6.220572328818653
 20
37.33740061436155
 30
0.0
 11
-6.093678151554636
 21
36.6829219575507
 31
0.0
 12
-8.12056121061919
 22
36.62947875416407
 32
0.0
 13
-8.12056121061919
 23
36.62947875416407
 33
0.0
  0
MTEXT
  5
1F7
330
1EF
100
AcDbEntity
  8
1
  6
CONTINUOUS
 62
     0
100
AcDbMText
 10
-4.52002543285433
 20
41.27205108739643
 30
0.0
 40
3.5
 41
0.0
 71
     5
 72
     1
  1
 
 11
0.9940563358141439
 21
0.1088668968408581
 31
0.0
  0
POINT
  5
1F8
330
1EF
100
AcDbEntity
  8
DEFPOINTS
 62
     0
100
AcDbPoint
 10
-2.726042103153991
 20
37.41965961438896
 30
0.0
  0
POINT
  5
1F9
330
1EF
100
AcDbEntity
  8
DEFPOINTS
 62
     0
100
AcDbPoint
 10
-3.32719
 20
15.007983
 30
0.0
  0
POINT
  5
1FA
330
1EF
100
AcDbEntity
  8
DEFPOINTS
 62
     0
100
AcDbPoint
 10
0.0
 20
-33.799999
 30
0.0
  0
POINT
  5
1FB
330
1EF
100
AcDbEntity
  8
DEFPOINTS
 62
     0
100
AcDbPoint
 10
0.0
 20
33.799999
 30
0.0
  0
POINT
  5
1FC
330
1EF
100
AcDbEntity
  8
DEFPOINTS
 62
     0
100
AcDbPoint
 10
-4.943944999999998
 20
22.300692
 30
0.0
  0
ENDBLK
  5
1F1
330
1EF
100
AcDbEntity
  8
0
100
AcDbBlockEnd
  0
ENDSEC
  0
SECTION
  2
ENTITIES
  0
TEXT
  5
4B
330
1E
100
AcDbEntity
  8
OVERLAY_MAP
  6
C_SOLID_L
100
AcDbText
 10
0.0
 20
6.349999999999997
 30
0.0
 40
4.1672
  1
Model Overlay Name
100
AcDbText
  0
TEXT
  5
4C
330
1E
100
AcDbEntity
  8
OVERLAY_MAP
  6
C_SOLID_L
100
AcDbText
 10
126.999998
 20
0.0
 30
0.0
 40
4.1672
  1
Number
100
AcDbText
  0
TEXT
  5
4D
330
1E
100
AcDbEntity
  8
OVERLAY_MAP
  6
C_SOLID_L
100
AcDbText
 10
177.7999969999999
 20
0.0
 30
0.0
 40
4.1672
  1
File Text
100
AcDbText
  0
TEXT
  5
4E
330
1E
100
AcDbEntity
  8
OVERLAY_MAP
  6
C_SOLID_L
100
AcDbText
 10
0.0
 20
-6.349999999999997
 30
0.0
 40
4.1672
  1
rs 6e6 
100
AcDbText
  0
TEXT
  5
4F
330
1E
100
AcDbEntity
  8
OVERLAY_MAP
  6
C_SOLID_L
100
AcDbText
 10
126.999998
 20
-6.349999999999997
 30
0.0
 40
4.1672
  1
001
100
AcDbText
  0
TEXT
  5
50
330
1E
100
AcDbEntity
  8
OVERLAY_MAP
  6
C_SOLID_L
100
AcDbText
 10
177.7999969999999
 20
-6.349999999999997
 30
0.0
 40
4.1672
  1
                                                                   00139
100
AcDbText
  0
CIRCLE
  5
51
330
1E
100
AcDbEntity
  8
MO_001_VIEW_PV
  6
C_SOLID_M
100
AcDbCircle
 10
0.0
 20
0.0
 30
0.0
 40
25.0
  0
ARC
  5
52
330
1E
100
AcDbEntity
  8
MO_001_VIEW_PV
  6
C_SOLID_M
100
AcDbCircle
 10
0.0
 20
0.0
 30
0.0
 40
11.1
100
AcDbArc
 50
58.95374
 51
96.04625699999998
  0
ARC
  5
53
330
1E
100
AcDbEntity
  8
1
  6
C_SOLID_M
100
AcDbCircle
 10
-19.027328
 20
1.664672999999999
 30
0.0
 40
2.381499999999999
100
AcDbArc
 50
174.906709
 51
354.999981
  0
ARC
  5
54
330
1E
100
AcDbEntity
  8
1
  6
C_SOLID_M
100
AcDbCircle
 10
-16.541092
 20
9.550005
 30
0.0
 40
2.381499999999999
100
AcDbArc
 50
330.00005
 51
150.0932290000001
  0
ARC
  5
55
330
1E
100
AcDbEntity
  8
1
  6
C_SOLID_M
100
AcDbCircle
 10
0.0
 20
0.0
 30
0.0
 40
16.718506
100
AcDbArc
 50
149.9999560000001
 51
174.999979
  0
ARC
  5
56
330
1E
100
AcDbEntity
  8
1
  6
C_SOLID_M
100
AcDbCircle
 10
0.0
 20
0.0
 30
0.0
 40
21.481506
100
AcDbArc
 50
149.989629
 51
175.0103060000001
  0
ARC
  5
57
330
1E
100
AcDbEntity
  8
1
  6
C_SOLID_M
100
AcDbCircle
 10
10.955307
 20
15.645815
 30
0.0
 40
2.381499999999999
100
AcDbArc
 50
54.9067330000001
 51
234.9999700000001
  0
ARC
  5
58
330
1E
100
AcDbEntity
  8
1
  6
C_SOLID_M
100
AcDbCircle
 10
16.541092
 20
9.550000999999998
 30
0.0
 40
2.381499999999999
100
AcDbArc
 50
210.000003
 51
30.09324300000009
  0
ARC
  5
59
330
1E
100
AcDbEntity
  8
1
  6
C_SOLID_M
100
AcDbCircle
 10
0.0
 20
0.0
 30
0.0
 40
16.718506
100
AcDbArc
 50
29.99997000000007
 51
54.99999200000022
  0
ARC
  5
5A
330
1E
100
AcDbEntity
  8
1
  6
C_SOLID_M
100
AcDbCircle
 10
0.0
 20
0.0
 30
0.0
 40
21.481506
100
AcDbArc
 50
29.98964300000002
 51
55.0103200000001
  0
ARC
  5
5B
330
1E
100
AcDbEntity
  8
1
  6
C_SOLID_M
100
AcDbCircle
 10
8.072006
 20
-17.31048799999999
 30
0.0
 40
2.381499999999999
100
AcDbArc
 50
294.90674
 51
114.999977
  0
ARC
  5
5C
330
1E
100
AcDbEntity
  8
1
  6
C_SOLID_M
100
AcDbCircle
 10
0.0
 20
-19.100006
 30
0.0
 40
2.381499999999999
100
AcDbArc
 50
90.00002699999999
 51
270.093243
  0
ARC
  5
5D
330
1E
100
AcDbEntity
  8
1
  6
C_SOLID_M
100
AcDbCircle
 10
0.0
 20
0.0
 30
0.0
 40
16.718506
100
AcDbArc
 50
269.9999699999998
 51
294.999993
  0
ARC
  5
5E
330
1E
100
AcDbEntity
  8
1
  6
C_SOLID_M
100
AcDbCircle
 10
0.0
 20
0.0
 30
0.0
 40
21.481506
100
AcDbArc
 50
269.9896430000001
 51
295.01032
  0
CIRCLE
  5
5F
330
1E
100
AcDbEntity
  8
1
  6
C_SOLID_M
100
AcDbCircle
 10
-14.082001
 20
-12.903777
 30
0.0
 40
1.7
  0
LINE
  5
60
330
1E
100
AcDbEntity
  8
DITTOS
  6
C_CENTER_L
100
AcDbLine
 10
-33.800003
 20
0.0
 30
0.0
 11
33.800003
 21
0.0
 31
0.0
  0
LINE
  5
61
330
1E
100
AcDbEntity
  8
DITTOS
  6
C_CENTER_L
100
AcDbLine
 10
0.0
 20
-33.799999
 30
0.0
 11
0.0
 21
33.799999
 31
0.0
  0
ARC
  5
62
330
1E
100
AcDbEntity
  8
MO_001_VIEW_PV
  6
C_SOLID_M
100
AcDbCircle
 10
9.274811
 20
-2.056175999999998
 30
0.0
 40
2.6
100
AcDbArc
 50
289.530008
 51
45.46985999999999
  0
ARC
  5
63
330
1E
100
AcDbEntity
  8
MO_001_VIEW_PV
  6
C_SOLID_M
100
AcDbCircle
 10
6.418105999999997
 20
7.004135
 30
0.0
 40
2.6
100
AcDbArc
 50
349.5300529999998
 51
105.469889
  0
ARC
  5
64
330
1E
100
AcDbEntity
  8
MO_001_VIEW_PV
  6
C_SOLID_M
100
AcDbCircle
 10
-2.856704999999998
 20
9.060311
 30
0.0
 40
2.6
100
AcDbArc
 50
49.530052
 51
165.469884
  0
ARC
  5
65
330
1E
100
AcDbEntity
  8
MO_001_VIEW_PV
  6
C_SOLID_M
100
AcDbCircle
 10
-9.274811
 20
2.056175999999998
 30
0.0
 40
2.6
100
AcDbArc
 50
109.530027
 51
225.4698719999999
  0
ARC
  5
66
330
1E
100
AcDbEntity
  8
MO_001_VIEW_PV
  6
C_SOLID_M
100
AcDbCircle
 10
-6.418105999999997
 20
-7.004135
 30
0.0
 40
2.6
100
AcDbArc
 50
169.530022
 51
285.4698599999998
  0
ARC
  5
67
330
1E
100
AcDbEntity
  8
MO_001_VIEW_PV
  6
C_SOLID_M
100
AcDbCircle
 10
2.856704999999998
 20
-9.060311
 30
0.0
 40
2.6
100
AcDbArc
 50
229.5300269999999
 51
345.469862
  0
ARC
  5
68
330
1E
100
AcDbEntity
  8
MO_001_VIEW_PV
  6
C_SOLID_M
100
AcDbCircle
 10
0.0
 20
0.0
 30
0.0
 40
28.79999899999999
100
AcDbArc
 50
292.1316549999999
 51
247.86833
  0
CIRCLE
  5
69
330
1E
100
AcDbEntity
  8
MO_001_VIEW_PV
  6
C_SOLID_M
100
AcDbCircle
 10
0.0
 20
0.0
 30
0.0
 40
3.824410999999998
  0
CIRCLE
  5
6A
330
1E
100
AcDbEntity
  8
MO_001_VIEW_PV
  6
C_SOLID_M
100
AcDbCircle
 10
0.0
 20
0.0
 30
0.0
 40
3.97
  0
ARC
  5
6B
330
1E
100
AcDbEntity
  8
MO_001_VIEW_PV
  6
C_SOLID_M
100
AcDbCircle
 10
8.579987
 20
9.36342
 30
0.0
 40
3.2
100
AcDbArc
 50
173.976092
 51
281.0239259999998
  0
ARC
  5
6C
330
1E
100
AcDbEntity
  8
MO_001_VIEW_PV
  6
C_SOLID_M
100
AcDbCircle
 10
-3.818954
 20
12.112208
 30
0.0
 40
3.2
100
AcDbArc
 50
233.9760979999999
 51
341.023907
  0
ARC
  5
6D
330
1E
100
AcDbEntity
  8
MO_001_VIEW_PV
  6
C_SOLID_M
100
AcDbCircle
 10
-12.398956
 20
2.748777
 30
0.0
 40
3.2
100
AcDbArc
 50
293.9760929999998
 51
41.02390599999997
  0
ARC
  5
6E
330
1E
100
AcDbEntity
  8
MO_001_VIEW_PV
  6
C_SOLID_M
100
AcDbCircle
 10
-8.579987
 20
-9.36342
 30
0.0
 40
3.2
100
AcDbArc
 50
353.976097
 51
101.0239069999999
  0
ARC
  5
6F
330
1E
100
AcDbEntity
  8
MO_001_VIEW_PV
  6
C_SOLID_M
100
AcDbCircle
 10
3.818954
 20
-12.112208
 30
0.0
 40
3.2
100
AcDbArc
 50
53.976096
 51
161.023909
  0
ARC
  5
70
330
1E
100
AcDbEntity
  8
MO_001_VIEW_PV
  6
C_SOLID_M
100
AcDbCircle
 10
12.398956
 20
-2.748777
 30
0.0
 40
3.2
100
AcDbArc
 50
113.9760969999999
 51
221.0239109999999
  0
ARC
  5
71
330
1E
100
AcDbEntity
  8
MO_001_VIEW_PV
  6
C_SOLID_M
100
AcDbCircle
 10
0.0
 20
0.0
 30
0.0
 40
11.1
100
AcDbArc
 50
178.953743
 51
216.04626
  0
ARC
  5
72
330
1E
100
AcDbEntity
  8
MO_001_VIEW_PV
  6
C_SOLID_M
100
AcDbCircle
 10
0.0
 20
0.0
 30
0.0
 40
11.1
100
AcDbArc
 50
118.953741
 51
156.046258
  0
ARC
  5
73
330
1E
100
AcDbEntity
  8
MO_001_VIEW_PV
  6
C_SOLID_M
100
AcDbCircle
 10
0.0
 20
0.0
 30
0.0
 40
11.1
100
AcDbArc
 50
238.9537479999999
 51
276.0462589999999
  0
ARC
  5
74
330
1E
100
AcDbEntity
  8
MO_001_VIEW_PV
  6
C_SOLID_M
100
AcDbCircle
 10
0.0
 20
0.0
 30
0.0
 40
11.1
100
AcDbArc
 50
298.953743
 51
336.0462569999999
  0
ARC
  5
75
330
1E
100
AcDbEntity
  8
MO_001_VIEW_PV
  6
C_SOLID_M
100
AcDbCircle
 10
0.0
 20
0.0
 30
0.0
 40
11.1
100
AcDbArc
 50
358.953741
 51
36.04624799999999
  0
ARC
  5
76
330
1E
100
AcDbEntity
  8
MO_001_VIEW_PV
  6
C_SOLID_M
100
AcDbCircle
 10
-9.550003
 20
-27.17052999999999
 30
0.0
 40
2.5
100
AcDbArc
 50
343.1218479999999
 51
158.1466639999999
  0
ARC
  5
77
330
1E
100
AcDbEntity
  8
MO_001_VIEW_PV
  6
C_SOLID_M
100
AcDbCircle
 10
9.550003
 20
-27.17052999999999
 30
0.0
 40
2.5
100
AcDbArc
 50
21.853342
 51
196.8781539999999
  0
LINE
  5
78
330
1E
100
AcDbEntity
  8
MO_001_VIEW_PV
  6
C_SOLID_M
100
AcDbLine
 10
-8.25
 20
-35.749939
 30
0.0
 11
-10.850006
 21
-35.749939
 31
0.0
  0
LINE
  5
79
330
1E
100
AcDbEntity
  8
MO_001_VIEW_PV
  6
C_SOLID_M
100
AcDbLine
 10
-10.350006
 20
-40.749939
 30
0.0
 11
-10.350006
 21
-35.749939
 31
0.0
  0
LINE
  5
7A
330
1E
100
AcDbEntity
  8
MO_001_VIEW_PV
  6
C_SOLID_M
100
AcDbLine
 10
-8.750015
 20
-40.749939
 30
0.0
 11
-8.750015
 21
-35.749939
 31
0.0
  0
LINE
  5
7B
330
1E
100
AcDbEntity
  8
MO_001_VIEW_PV
  6
C_SOLID_M
100
AcDbLine
 10
-8.750015
 20
-45.24993900000001
 30
0.0
 11
-8.750015
 21
-41.749939
 31
0.0
  0
LINE
  5
7C
330
1E
100
AcDbEntity
  8
MO_001_VIEW_PV
  6
C_SOLID_M
100
AcDbLine
 10
-10.350006
 20
-45.24993900000001
 30
0.0
 11
-10.350006
 21
-41.749939
 31
0.0
  0
LINE
  5
7D
330
1E
100
AcDbEntity
  8
MO_001_VIEW_PV
  6
C_SOLID_M
100
AcDbLine
 10
-10.350006
 20
-45.24993900000001
 30
0.0
 11
-8.750015
 21
-45.24993900000001
 31
0.0
  0
LINE
  5
7E
330
1E
100
AcDbEntity
  8
MO_001_VIEW_PV
  6
C_SOLID_M
100
AcDbLine
 10
-9.276031
 20
-45.24993900000001
 30
0.0
 11
-9.276031
 21
-50.24993900000001
 31
0.0
  0
LINE
  5
7F
330
1E
100
AcDbEntity
  8
MO_001_VIEW_PV
  6
C_SOLID_M
100
AcDbLine
 10
-9.82399
 20
-45.24993900000001
 30
0.0
 11
-9.82399
 21
-50.24993900000001
 31
0.0
  0
LINE
  5
80
330
1E
100
AcDbEntity
  8
MO_001_VIEW_PV
  6
C_SOLID_M
100
AcDbLine
 10
-9.82399
 20
-50.24993900000001
 30
0.0
 11
-9.276031
 21
-50.24993900000001
 31
0.0
  0
ARC
  5
81
330
1E
100
AcDbEntity
  8
MO_001_VIEW_PV
  6
C_SOLID_M
100
AcDbCircle
 10
-9.950012
 20
-41.049934
 30
0.0
 40
0.499994
100
AcDbArc
 50
36.869634
 51
143.1303709999999
  0
ARC
  5
82
330
1E
100
AcDbEntity
  8
MO_001_VIEW_PV
  6
C_SOLID_M
100
AcDbCircle
 10
-9.950012
 20
-40.449944
 30
0.0
 40
0.499994
100
AcDbArc
 50
216.869629
 51
323.1303759999998
  0
ARC
  5
83
330
1E
100
AcDbEntity
  8
MO_001_VIEW_PV
  6
C_SOLID_M
100
AcDbCircle
 10
-9.150008999999997
 20
-40.449944
 30
0.0
 40
0.499994
100
AcDbArc
 50
216.869629
 51
323.1303689999998
  0
ARC
  5
84
330
1E
100
AcDbEntity
  8
MO_001_VIEW_PV
  6
C_SOLID_M
100
AcDbCircle
 10
-9.150008999999997
 20
-41.449944
 30
0.0
 40
0.499994
100
AcDbArc
 50
216.869643
 51
323.1303759999998
  0
ARC
  5
85
330
1E
100
AcDbEntity
  8
MO_001_VIEW_PV
  6
C_SOLID_M
100
AcDbCircle
 10
-9.150008999999997
 20
-42.049934
 30
0.0
 40
0.499994
100
AcDbArc
 50
36.86963099999999
 51
143.1303709999999
  0
ARC
  5
86
330
1E
100
AcDbEntity
  8
MO_001_VIEW_PV
  6
C_SOLID_M
100
AcDbCircle
 10
-9.950012
 20
-42.049934
 30
0.0
 40
0.499994
100
AcDbArc
 50
36.86963099999999
 51
143.1303709999999
  0
LINE
  5
87
330
1E
100
AcDbEntity
  8
MO_001_VIEW_PV
  6
C_SOLID_M
100
AcDbLine
 10
10.850006
 20
-35.749939
 30
0.0
 11
8.25
 21
-35.749939
 31
0.0
  0
LINE
  5
88
330
1E
100
AcDbEntity
  8
MO_001_VIEW_PV
  6
C_SOLID_M
100
AcDbLine
 10
8.75
 20
-40.749939
 30
0.0
 11
8.75
 21
-35.749939
 31
0.0
  0
LINE
  5
89
330
1E
100
AcDbEntity
  8
MO_001_VIEW_PV
  6
C_SOLID_M
100
AcDbLine
 10
10.349991
 20
-40.749939
 30
0.0
 11
10.349991
 21
-35.749939
 31
0.0
  0
LINE
  5
8A
330
1E
100
AcDbEntity
  8
MO_001_VIEW_PV
  6
C_SOLID_M
100
AcDbLine
 10
10.349991
 20
-45.24993900000001
 30
0.0
 11
10.349991
 21
-41.749939
 31
0.0
  0
LINE
  5
8B
330
1E
100
AcDbEntity
  8
MO_001_VIEW_PV
  6
C_SOLID_M
100
AcDbLine
 10
8.75
 20
-45.24993900000001
 30
0.0
 11
8.75
 21
-41.749939
 31
0.0
  0
LINE
  5
8C
330
1E
100
AcDbEntity
  8
MO_001_VIEW_PV
  6
C_SOLID_M
100
AcDbLine
 10
8.75
 20
-45.24993900000001
 30
0.0
 11
10.349991
 21
-45.24993900000001
 31
0.0
  0
LINE
  5
8D
330
1E
100
AcDbEntity
  8
MO_001_VIEW_PV
  6
C_SOLID_M
100
AcDbLine
 10
9.823975
 20
-45.24993900000001
 30
0.0
 11
9.823975
 21
-50.24993900000001
 31
0.0
  0
LINE
  5
8E
330
1E
100
AcDbEntity
  8
MO_001_VIEW_PV
  6
C_SOLID_M
100
AcDbLine
 10
9.276016
 20
-45.24993900000001
 30
0.0
 11
9.276016
 21
-50.24993900000001
 31
0.0
  0
LINE
  5
8F
330
1E
100
AcDbEntity
  8
MO_001_VIEW_PV
  6
C_SOLID_M
100
AcDbLine
 10
9.276016
 20
-50.24993900000001
 30
0.0
 11
9.823975
 21
-50.24993900000001
 31
0.0
  0
ARC
  5
90
330
1E
100
AcDbEntity
  8
MO_001_VIEW_PV
  6
C_SOLID_M
100
AcDbCircle
 10
9.149994
 20
-41.049934
 30
0.0
 40
0.499994
100
AcDbArc
 50
36.869634
 51
143.1303709999999
  0
ARC
  5
91
330
1E
100
AcDbEntity
  8
MO_001_VIEW_PV
  6
C_SOLID_M
100
AcDbCircle
 10
9.149994
 20
-40.449944
 30
0.0
 40
0.499994
100
AcDbArc
 50
216.869629
 51
323.1303759999998
  0
ARC
  5
92
330
1E
100
AcDbEntity
  8
MO_001_VIEW_PV
  6
C_SOLID_M
100
AcDbCircle
 10
9.949997
 20
-40.449944
 30
0.0
 40
0.499994
100
AcDbArc
 50
216.869629
 51
323.1303689999998
  0
ARC
  5
93
330
1E
100
AcDbEntity
  8
MO_001_VIEW_PV
  6
C_SOLID_M
100
AcDbCircle
 10
9.949997
 20
-41.449944
 30
0.0
 40
0.499994
100
AcDbArc
 50
216.869643
 51
323.1303759999998
  0
ARC
  5
94
330
1E
100
AcDbEntity
  8
MO_001_VIEW_PV
  6
C_SOLID_M
100
AcDbCircle
 10
9.949997
 20
-42.049934
 30
0.0
 40
0.499994
100
AcDbArc
 50
36.86963099999999
 51
143.1303709999999
  0
ARC
  5
95
330
1E
100
AcDbEntity
  8
MO_001_VIEW_PV
  6
C_SOLID_M
100
AcDbCircle
 10
9.149994
 20
-42.049934
 30
0.0
 40
0.499994
100
AcDbArc
 50
36.86963099999999
 51
143.1303709999999
  0
LINE
  5
96
330
1E
100
AcDbEntity
  8
MO_001_VIEW_PV
  6
C_SOLID_M
100
AcDbLine
 10
-10.850006
 20
-35.749939
 30
0.0
 11
-10.850006
 21
-25.03511599999999
 31
0.0
  0
LINE
  5
97
330
1E
100
AcDbEntity
  8
MO_001_VIEW_PV
  6
C_SOLID_M
100
AcDbLine
 10
-8.25
 20
-35.749939
 30
0.0
 11
-8.25
 21
-25.03511599999999
 31
0.0
  0
LINE
  5
98
330
1E
100
AcDbEntity
  8
MO_001_VIEW_PV
  6
C_SOLID_M
100
AcDbLine
 10
8.25
 20
-35.749939
 30
0.0
 11
8.25
 21
-25.035114
 31
0.0
  0
LINE
  5
99
330
1E
100
AcDbEntity
  8
MO_001_VIEW_PV
  6
C_SOLID_M
100
AcDbLine
 10
10.850006
 20
-35.749939
 30
0.0
 11
10.850006
 21
-25.035114
 31
0.0
  0
ARC
  5
9A
330
1E
100
AcDbEntity
  8
MO_001_VIEW_PV
  6
C_SOLID_M
100
AcDbCircle
 10
0.0
 20
0.0
 30
0.0
 40
28.79999899999999
100
AcDbArc
 50
253.3539589999999
 51
286.646043
  0
CIRCLE
  5
9B
330
1E
100
AcDbEntity
  8
1
  6
C_SOLID_L
100
AcDbCircle
 10
-14.082001
 20
-12.903777
 30
0.0
 40
2.0
  0
ARC
  5
9C
330
1E
100
AcDbEntity
  8
MO_001_VIEW_PV
  6
C_CENTER_L
100
AcDbCircle
 10
0.0
 20
0.0
 30
0.0
 40
19.100006
100
AcDbArc
 50
114.9174622825559
 51
137.4999954288909
  0
CIRCLE
  5
9E
330
1E
100
AcDbEntity
  8
1
  6
C_SOLID_M
100
AcDbCircle
 10
-4.134002999999998
 20
18.64725899999998
 30
0.0
 40
1.7
  0
CIRCLE
  5
9F
330
1E
100
AcDbEntity
  8
1
  6
C_SOLID_L
100
AcDbCircle
 10
-4.134002999999998
 20
18.64725899999998
 30
0.0
 40
2.0
  0
ARC
  5
A0
330
1E
100
AcDbEntity
  8
1
  6
C_CENTER_L
100
AcDbCircle
 10
0.0
 20
0.0
 30
0.0
 40
19.100006
100
AcDbArc
 50
90.60349100000008
 51
113.0975990000001
  0
LINE
  5
A1
330
1E
100
AcDbEntity
  8
1
  6
C_CENTER_L
100
AcDbLine
 10
-3.32719
 20
15.007983
 30
0.0
 11
-4.943944999999998
 21
22.300692
 31
0.0
  0
CIRCLE
  5
A2
330
1E
100
AcDbEntity
  8
1
  6
C_SOLID_M
100
AcDbCircle
 10
18.216003
 20
-5.743477999999997
 30
0.0
 40
1.7
  0
CIRCLE
  5
A3
330
1E
100
AcDbEntity
  8
1
  6
C_SOLID_L
100
AcDbCircle
 10
18.216003
 20
-5.743477999999997
 30
0.0
 40
2.0
  0
ARC
  5
A4
330
1E
100
AcDbEntity
  8
1
  6
C_CENTER_L
100
AcDbCircle
 10
0.0
 20
0.0
 30
0.0
 40
19.100006
100
AcDbArc
 50
330.603491
 51
353.097599
  0
LINE
  5
A5
330
1E
100
AcDbEntity
  8
1
  6
C_CENTER_L
100
AcDbLine
 10
14.660896
 20
-4.622561
 30
0.0
 11
21.78494399999999
 21
-6.868764999999998
 31
0.0
  0
LINE
  5
A6
330
1E
100
AcDbEntity
  8
MO_001_VIEW_PV
  6
C_SOLID_L
100
AcDbLine
 10
-58.42208711958431
 20
-22.04712415113153
 30
0.0
 11
-29.91559911958431
 21
-22.04712415113153
 31
0.0
  0
TEXT
  5
AB
330
1E
100
AcDbEntity
  8
MO_001_VIEW_PV
  6
C_SOLID_L
100
AcDbText
 10
-11.53183
 20
-64.60273199999999
 30
0.0
 40
4.167187
  1
6S X6付
100
AcDbText
  0
TEXT
  5
AC
330
1E
100
AcDbEntity
  8
MO_001_VIEW_PV
  6
C_SOLID_L
100
AcDbText
 10
-27.13673940101484
 20
41.64738598893148
 30
0.0
 40
3.0
  1
※1/2回転角度(%%P3%%D)
100
AcDbText
  0
TEXT
  5
AD
330
1E
100
AcDbEntity
  8
MO_001_VIEW_PV
  6
C_SOLID_L
100
AcDbText
 10
17.82858
 20
39.01495399999999
 30
0.0
 40
3.0
  1
※図は右回転を示し，
100
AcDbText
  0
TEXT
  5
AE
330
1E
100
AcDbEntity
  8
MO_001_VIEW_PV
  6
C_SOLID_L
100
AcDbText
 10
17.82858
 20
34.51495399999998
 30
0.0
 40
3.0
  1
 左回転の場合は反対
100
AcDbText
  0
TEXT
  5
AF
330
1E
100
AcDbEntity
  8
MO_001_VIEW_PV
  6
C_SOLID_L
100
AcDbText
 10
17.82858
 20
30.014954
 30
0.0
 40
3.0
  1
 になります。
100
AcDbText
  0
TEXT
  5
B0
330
1E
100
AcDbEntity
  8
MO_001_VIEW_PV
  6
C_SOLID_L
100
AcDbText
 10
-57.28080911958431
 20
-20.73446015113153
 30
0.0
 40
3.0
  1
3-M4 P0.7
100
AcDbText
  0
TEXT
  5
B3
330
1E
100
AcDbEntity
  8
MO_001_VIEW_PV
  6
C_SOLID_L
100
AcDbText
 10
24.46817
 20
-70.60272799999998
 30
0.0
 40
4.167187
  1
単位：mm
100
AcDbText
  0
TEXT
  5
B4
330
1E
100
AcDbEntity
  8
MO_001_VIEW_PV
  6
C_SOLID_L
100
AcDbText
 10
24.46817
 20
-76.853509
 30
0.0
 40
4.167187
  1
図は右回転、無励磁時を示す
100
AcDbText
  0
LINE
  5
B7
330
1E
100
AcDbEntity
  8
MO_001_VIEW_PV
  6
C_SOLID_L
100
AcDbLine
 10
-14.08735011958431
 20
-12.90868015113151
 30
0.0
 11
-29.91559911958431
 21
-22.04712415113153
 31
0.0
  0
LWPOLYLINE
  5
B8
330
1E
100
AcDbEntity
  8
MO_001_VIEW_PV
  6
C_SOLID_L
100
AcDbPolyline
 90
        3
 70
     1
 43
0.0
 10
-16.66929211958431
 20
-15.07314615113152
 10
-14.52729111958431
 20
-13.16268015113151
 10
-17.25280311958431
 20
-14.0624741511315
  0
DIMENSION
  5
F5
330
1E
100
AcDbEntity
  8
0
  6
CONTINUOUS
100
AcDbDimension
  2
*D3
 10
0.0400397047073853
 20
-0.0093971337547765
 30
0.0
 11
-31.65653831707484
 21
34.7637863266901
 31
0.0
 70
   164
  3
STANDARD
100
AcDbRadialDimension
 15
-12.82680461072467
 25
14.10635812632499
 35
0.0
 40
0.0
1001
ACAD
1000
DSTYLE
1002
{
1070
   147
1040
1.5
1070
   288
1070
     1
1002
}
  0
DIMENSION
  5
1EC
330
1E
100
AcDbEntity
  8
1
  6
CONTINUOUS
100
AcDbDimension
  2
*D4
 10
-4.943944999999998
 20
22.300692
 30
0.0
 11
-4.52002543285433
 21
41.27205108739643
 31
0.0
 70
   162
  1
 
  3
STANDARD
100
AcDb2LineAngularDimension
 13
0.0
 23
-33.799999
 33
0.0
 14
0.0
 24
33.799999
 34
0.0
 15
-3.32719
 25
15.007983
 35
0.0
 16
-2.726042103153991
 26
37.41965961438896
 36
0.0
1001
ACAD
1000
DSTYLE
1002
{
1070
   287
1070
     5
1070
   279
1070
     2
1002
}
  0
ARC
  5
206
330
1E
100
AcDbEntity
  8
1
  6
C_CENTER_L
100
AcDbCircle
 10
0.0
 20
0.0
 30
0.0
 40
19.100006
100
AcDbArc
 50
210.6034909999999
 51
233.097599
  0
LINE
  5
207
330
1E
100
AcDbEntity
  8
1
  6
C_CENTER_L
100
AcDbLine
 10
-11.3337032565432
 20
-10.38542787824166
 30
0.0
 11
-16.84099698262542
 21
-15.43193242402137
 31
0.0
  0
ENDSEC
  0
SECTION
  2
OBJECTS
  0
DICTIONARY
  5
1A
330
0
100
AcDbDictionary
  3
ACAD_GROUP
350
1B
  3
ACAD_IMAGE_VARS
350
1C0
  3
ACAD_MLINESTYLE
350
1C
  3
ACAD_SCALELIST
350
29A
  3
APPDATA
350
1BE
  3
DWGPROPS
350
2E4
1001
ACAD
1000
TREAT_AS_HARD
1070
     0
1000
TREAT_AS_HARD
1070
     0
1000
TREAT_AS_HARD
1070
     0
  0
DICTIONARY
  5
1C1
330
2
100
AcDbDictionary
280
     1
  3
ACAD_LAYERSTATES
360
1C2
  3
ACLYDICTIONARY
360
1C6
  0
DICTIONARY
  5
10B
330
1E
100
AcDbDictionary
  3
ACAD_LAYOUTSELFREF
350
169
1001
ACAD
1000
TREAT_AS_HARD
1070
     0
1000
TREAT_AS_HARD
1070
     0
  0
DICTIONARY
  5
10D
330
1F
100
AcDbDictionary
  3
ACAD_LAYOUTSELFREF
350
16A
1001
ACAD
1000
TREAT_AS_HARD
1070
     0
1000
TREAT_AS_HARD
1070
     0
  0
DICTIONARY
  5
1B
102
{ACAD_REACTORS
330
1A
102
}
330
1A
100
AcDbDictionary
1001
ACAD
1000
TREAT_AS_HARD
1070
     0
1000
TREAT_AS_HARD
1070
     0
1000
TREAT_AS_HARD
1070
     0
  0
RASTERVARIABLES
  5
1C0
102
{ACAD_REACTORS
330
1A
102
}
330
1A
100
AcDbRasterVariables
 90
        0
 70
     1
 71
     1
 72
     0
  0
DICTIONARY
  5
1C
102
{ACAD_REACTORS
330
1A
102
}
330
1A
100
AcDbDictionary
  3
STANDARD
350
1D
1001
ACAD
1000
TREAT_AS_HARD
1070
     0
1000
TREAT_AS_HARD
1070
     0
1000
TREAT_AS_HARD
1070
     0
  0
DICTIONARY
  5
29A
102
{ACAD_REACTORS
330
1A
102
}
330
1A
100
AcDbDictionary
  0
DICTIONARY
  5
1BE
102
{ACAD_REACTORS
330
1A
102
}
330
1A
100
AcDbDictionary
  0
XRECORD
  5
2E4
102
{ACAD_REACTORS
330
1A
102
}
330
1A
100
AcDbXrecord
  1
DWGPROPS COOKIE
  2

  3

  4

  6

  7

  8
SMT204
  9

300
=
301
=
302
=
303
=
304
=
305
=
306
=
307
=
308
=
309
=
 40
0.0
 41
2305814.19409022
 42
2457319.433660856
  1

 90
        0
  0
DICTIONARY
  5
1C2
102
{ACAD_REACTORS
330
1C1
102
}
330
1C1
100
AcDbDictionary
  0
DICTIONARY
  5
1C6
102
{ACAD_REACTORS
330
1C1
102
}
330
1C1
100
AcDbDictionary
1001
ACAD
1000
<All
  0
XRECORD
  5
169
102
{ACAD_REACTORS
330
10B
102
}
330
10B
100
AcDbXrecord
340
1E
  0
XRECORD
  5
16A
102
{ACAD_REACTORS
330
10D
102
}
330
10D
100
AcDbXrecord
340
1F
  0
MLINESTYLE
  5
1D
102
{ACAD_REACTORS
330
1C
102
}
330
1C
100
AcDbMlineStyle
  2
STANDARD
 70
     0
  3

 62
     0
 51
90.0
 52
90.0
 71
     2
 49
0.5
 62
   256
  6
BYLAYER
 49
-0.5
 62
   256
  6
BYLAYER
  0
ENDSEC
  0
EOF
