  0
SECTION
  2
HEADER
  9
$ACADVER
  1
AC1012
  9
$DWGCODEPAGE
  3
dos932
  9
$INSBASE
 10
0.0
 20
0.0
 30
0.0
  9
$EXTMIN
 10
-64.37911571770638
 20
-92.75353478862086
 30
-0.0015258207003583
  9
$EXTMAX
 10
127.5047401415031
 20
55.12685650622421
 30
0.0000000349246037
  9
$LIMMIN
 10
-64.37319200000001
 20
-95.874664
  9
$LIMMAX
 10
129.75
 20
57.0
  9
$ORTHOMODE
 70
     0
  9
$REGENMODE
 70
     1
  9
$FILLMODE
 70
     1
  9
$QTEXTMODE
 70
     0
  9
$MIRRTEXT
 70
     1
  9
$DRAGMODE
 70
     2
  9
$LTSCALE
 40
1.0
  9
$OSMODE
 70
    37
  9
$ATTMODE
 70
     1
  9
$TEXTSIZE
 40
4.1672
  9
$TRACEWID
 40
0.05
  9
$TEXTSTYLE
  7
STANDARD
  9
$CLAYER
  8
0
  9
$CELTYPE
  6
CONTINUOUS
  9
$CECOLOR
 62
   256
  9
$CELTSCALE
 40
1.0
  9
$DELOBJ
 70
     1
  9
$DISPSILH
 70
     0
  9
$DIMSCALE
 40
1.0
  9
$DIMASZ
 40
0.18
  9
$DIMEXO
 40
0.0625
  9
$DIMDLI
 40
0.38
  9
$DIMRND
 40
0.0
  9
$DIMDLE
 40
0.0
  9
$DIMEXE
 40
0.18
  9
$DIMTP
 40
0.0
  9
$DIMTM
 40
0.0
  9
$DIMTXT
 40
0.18
  9
$DIMCEN
 40
0.09
  9
$DIMTSZ
 40
0.0
  9
$DIMTOL
 70
     0
  9
$DIMLIM
 70
     0
  9
$DIMTIH
 70
     1
  9
$DIMTOH
 70
     1
  9
$DIMSE1
 70
     0
  9
$DIMSE2
 70
     0
  9
$DIMTAD
 70
     0
  9
$DIMZIN
 70
     0
  9
$DIMBLK
  1

  9
$DIMASO
 70
     1
  9
$DIMSHO
 70
     1
  9
$DIMPOST
  1

  9
$DIMAPOST
  1

  9
$DIMALT
 70
     0
  9
$DIMALTD
 70
     2
  9
$DIMALTF
 40
25.4
  9
$DIMLFAC
 40
1.0
  9
$DIMTOFL
 70
     0
  9
$DIMTVP
 40
0.0
  9
$DIMTIX
 70
     0
  9
$DIMSOXD
 70
     0
  9
$DIMSAH
 70
     0
  9
$DIMBLK1
  1

  9
$DIMBLK2
  1

  9
$DIMSTYLE
  2
STANDARD
  9
$DIMCLRD
 70
     0
  9
$DIMCLRE
 70
     0
  9
$DIMCLRT
 70
     0
  9
$DIMTFAC
 40
1.0
  9
$DIMGAP
 40
0.09
  9
$DIMJUST
 70
     0
  9
$DIMSD1
 70
     0
  9
$DIMSD2
 70
     0
  9
$DIMTOLJ
 70
     1
  9
$DIMTZIN
 70
     0
  9
$DIMALTZ
 70
     0
  9
$DIMALTTZ
 70
     0
  9
$DIMFIT
 70
     3
  9
$DIMUPT
 70
     0
  9
$DIMUNIT
 70
     2
  9
$DIMDEC
 70
     4
  9
$DIMTDEC
 70
     4
  9
$DIMALTU
 70
     2
  9
$DIMALTTD
 70
     2
  9
$DIMTXSTY
  7
STANDARD
  9
$DIMAUNIT
 70
     0
  9
$LUNITS
 70
     2
  9
$LUPREC
 70
     6
  9
$SKETCHINC
 40
0.1
  9
$FILLETRAD
 40
0.0
  9
$AUNITS
 70
     0
  9
$AUPREC
 70
     4
  9
$MENU
  1
acad
  9
$ELEVATION
 40
0.0
  9
$PELEVATION
 40
0.0
  9
$THICKNESS
 40
0.0
  9
$LIMCHECK
 70
     0
  9
$BLIPMODE
 70
     0
  9
$CHAMFERA
 40
0.0
  9
$CHAMFERB
 40
0.0
  9
$CHAMFERC
 40
0.0
  9
$CHAMFERD
 40
0.0
  9
$SKPOLY
 70
     0
  9
$TDCREATE
 40
2376122.594768715
  9
$TDUPDATE
 40
2451687.705787500
  9
$TDINDWG
 40
0.0006083333
  9
$TDUSRTIMER
 40
0.0006083333
  9
$USRTIMER
 70
     1
  9
$ANGBASE
 50
0.0
  9
$ANGDIR
 70
     0
  9
$PDMODE
 70
     0
  9
$PDSIZE
 40
0.0
  9
$PLINEWID
 40
0.0
  9
$COORDS
 70
     1
  9
$SPLFRAME
 70
     0
  9
$SPLINETYPE
 70
     6
  9
$SPLINESEGS
 70
     8
  9
$ATTDIA
 70
     0
  9
$ATTREQ
 70
     1
  9
$HANDLING
 70
 10241
  9
$HANDSEED
  5
5B9
  9
$SURFTAB1
 70
     6
  9
$SURFTAB2
 70
     6
  9
$SURFTYPE
 70
     6
  9
$SURFU
 70
     6
  9
$SURFV
 70
     6
  9
$UCSNAME
  2

  9
$UCSORG
 10
2.0
 20
0.0
 30
0.0
  9
$UCSXDIR
 10
1.0
 20
0.0
 30
0.0
  9
$UCSYDIR
 10
0.0
 20
1.0
 30
0.0
  9
$PUCSNAME
  2

  9
$PUCSORG
 10
0.0
 20
0.0
 30
0.0
  9
$PUCSXDIR
 10
1.0
 20
0.0
 30
0.0
  9
$PUCSYDIR
 10
0.0
 20
1.0
 30
0.0
  9
$USERI1
 70
     0
  9
$USERI2
 70
     0
  9
$USERI3
 70
     0
  9
$USERI4
 70
     0
  9
$USERI5
 70
     0
  9
$USERR1
 40
0.0
  9
$USERR2
 40
0.0
  9
$USERR3
 40
0.0
  9
$USERR4
 40
0.0
  9
$USERR5
 40
0.0
  9
$WORLDVIEW
 70
     1
  9
$SHADEDGE
 70
     3
  9
$SHADEDIF
 70
    70
  9
$TILEMODE
 70
     1
  9
$MAXACTVP
 70
    16
  9
$PINSBASE
 10
0.0
 20
0.0
 30
0.0
  9
$PLIMCHECK
 70
     0
  9
$PEXTMIN
 10
-64.37319200000001
 20
-95.874664
 30
1.000000000000000E+20
  9
$PEXTMAX
 10
129.75
 20
57.0
 30
-1.000000000000000E+20
  9
$PLIMMIN
 10
0.0
 20
0.0
  9
$PLIMMAX
 10
12.0
 20
9.0
  9
$UNITMODE
 70
     0
  9
$VISRETAIN
 70
     0
  9
$PLINEGEN
 70
     0
  9
$PSLTSCALE
 70
     1
  9
$TREEDEPTH
 70
  3020
  9
$PICKSTYLE
 70
     1
  9
$CMLSTYLE
  2
STANDARD
  9
$CMLJUST
 70
     0
  9
$CMLSCALE
 40
1.0
  9
$SAVEIMAGES
 70
     1
  0
ENDSEC
  0
SECTION
  2
CLASSES
  0
CLASS
  1
ACDBDICTIONARYWDFLT
  2
AcDbDictionaryWithDefault
  3
AutoCAD 2000
 90
    32768
280
     0
281
     0
  0
CLASS
  1
ACDBPLACEHOLDER
  2
AcDbPlaceHolder
  3
AutoCAD 2000
 90
    32768
280
     0
281
     0
  0
CLASS
  1
LAYOUT
  2
AcDbLayout
  3
AutoCAD 2000
 90
    32768
280
     0
281
     0
  0
CLASS
  1
LONG_TRANSACTION
  2
AcDbLongTransaction
  3
AutoCAD 2000
 90
    32768
280
     0
281
     0
  0
CLASS
  1
LWPOLYLINE
  2
AcDbPolyline
  3
AutoCAD 2000
 90
    32768
280
     0
281
     1
  0
CLASS
  1
HATCH
  2
AcDbHatch
  3
AutoCAD 2000
 90
    32768
280
     0
281
     1
  0
CLASS
  1
XRECORD
  2
AcDbXrecord
  3
AutoCAD 2000
 90
    32768
280
     0
281
     0
  0
ENDSEC
  0
SECTION
  2
TABLES
  0
TABLE
  2
VPORT
  5
7
330
0
100
AcDbSymbolTable
 70
     2
  0
VPORT
  5
3F6
330
7
100
AcDbSymbolTableRecord
100
AcDbViewportTableRecord
  2
*ACTIVE
 70
     0
 10
0.0
 20
0.0
 11
1.0
 21
1.0
 12
32.68544214114682
 22
-19.43733199999999
 13
0.0
 23
0.0
 14
6.349999999999999
 24
6.349999999999999
 15
6.349999999999999
 25
6.349999999999999
 16
0.0
 26
0.0
 36
1.0
 17
0.0
 27
0.0
 37
0.0
 40
154.4561260413793
 41
1.644214162348877
 42
50.0
 43
0.0
 44
0.0
 50
0.0
 51
0.0
 71
     0
 72
   100
 73
     1
 74
     1
 75
     0
 76
     0
 77
     0
 78
     0
  0
ENDTAB
  0
TABLE
  2
LTYPE
  5
4
330
0
100
AcDbSymbolTable
 70
    37
  0
LTYPE
  5
12
330
4
100
AcDbSymbolTableRecord
100
AcDbLinetypeTableRecord
  2
BYBLOCK
 70
     0
  3

 72
    65
 73
     0
 40
0.0
  0
LTYPE
  5
13
330
4
100
AcDbSymbolTableRecord
100
AcDbLinetypeTableRecord
  2
BYLAYER
 70
     0
  3

 72
    65
 73
     0
 40
0.0
  0
LTYPE
  5
14
330
4
100
AcDbSymbolTableRecord
100
AcDbLinetypeTableRecord
  2
CONTINUOUS
 70
     0
  3
DXF Default line type
 72
    65
 73
     0
 40
0.0
  0
LTYPE
  5
20
330
4
100
AcDbSymbolTableRecord
100
AcDbLinetypeTableRecord
  2
DASHED
 70
     0
  3
DXF Dashed
 72
    65
 73
     2
 40
0.75
 49
0.5
 74
     0
 49
-0.25
 74
     0
  0
LTYPE
  5
21
330
4
100
AcDbSymbolTableRecord
100
AcDbLinetypeTableRecord
  2
HIDDEN
 70
     0
  3
DXF Hidden
 72
    65
 73
     2
 40
0.375
 49
0.25
 74
     0
 49
-0.125
 74
     0
  0
LTYPE
  5
22
330
4
100
AcDbSymbolTableRecord
100
AcDbLinetypeTableRecord
  2
CENTER
 70
     0
  3
DXF Center
 72
    65
 73
     4
 40
2.0
 49
1.25
 74
     0
 49
-0.25
 74
     0
 49
0.25
 74
     0
 49
-0.25
 74
     0
  0
LTYPE
  5
23
330
4
100
AcDbSymbolTableRecord
100
AcDbLinetypeTableRecord
  2
PHANTOM
 70
     0
  3
DXF Phantom
 72
    65
 73
     6
 40
2.5
 49
1.25
 74
     0
 49
-0.25
 74
     0
 49
0.25
 74
     0
 49
-0.25
 74
     0
 49
0.25
 74
     0
 49
-0.25
 74
     0
  0
LTYPE
  5
24
330
4
100
AcDbSymbolTableRecord
100
AcDbLinetypeTableRecord
  2
DOT
 70
     0
  3
DXF DOT
 72
    65
 73
     2
 40
0.25
 49
0.0
 74
     0
 49
-0.25
 74
     0
  0
LTYPE
  5
25
330
4
100
AcDbSymbolTableRecord
100
AcDbLinetypeTableRecord
  2
DASHDOT
 70
     0
  3
DXF Dash Dot
 72
    65
 73
     4
 40
1.0
 49
0.5
 74
     0
 49
-0.25
 74
     0
 49
0.0
 74
     0
 49
-0.25
 74
     0
  0
LTYPE
  5
26
330
4
100
AcDbSymbolTableRecord
100
AcDbLinetypeTableRecord
  2
BORDER
 70
     0
  3
DXF Border
 72
    65
 73
     6
 40
1.75
 49
0.5
 74
     0
 49
-0.25
 74
     0
 49
0.5
 74
     0
 49
-0.25
 74
     0
 49
0.0
 74
     0
 49
-0.25
 74
     0
  0
LTYPE
  5
27
330
4
100
AcDbSymbolTableRecord
100
AcDbLinetypeTableRecord
  2
DIVIDE
 70
     0
  3
DXF Divide
 72
    65
 73
     6
 40
1.25
 49
0.5
 74
     0
 49
-0.25
 74
     0
 49
0.0
 74
     0
 49
-0.25
 74
     0
 49
0.0
 74
     0
 49
-0.25
 74
     0
  0
LTYPE
  5
28
330
4
100
AcDbSymbolTableRecord
100
AcDbLinetypeTableRecord
  2
C_SOLID_L
 70
     0
  3
CADAM Solid Light
 72
    65
 73
     0
 40
0.0
  0
LTYPE
  5
29
330
4
100
AcDbSymbolTableRecord
100
AcDbLinetypeTableRecord
  2
C_SOLID_M
 70
     0
  3
CADAM Solid Medium
 72
    65
 73
     0
 40
0.0
  0
LTYPE
  5
2A
330
4
100
AcDbSymbolTableRecord
100
AcDbLinetypeTableRecord
  2
C_SOLID_H
 70
     0
  3
CADAM Solid Heavy
 72
    65
 73
     0
 40
0.0
  0
LTYPE
  5
2B
330
4
100
AcDbSymbolTableRecord
100
AcDbLinetypeTableRecord
  2
C_DASHED_L
 70
     0
  3
CADAM Dashed Light
 72
    65
 73
     2
 40
0.375
 49
0.25
 74
     0
 49
-0.125
 74
     0
  0
LTYPE
  5
2C
330
4
100
AcDbSymbolTableRecord
100
AcDbLinetypeTableRecord
  2
C_DASHED_M
 70
     0
  3
CADAM Dashed Medium
 72
    65
 73
     2
 40
0.5
 49
0.375
 74
     0
 49
-0.125
 74
     0
  0
LTYPE
  5
2D
330
4
100
AcDbSymbolTableRecord
100
AcDbLinetypeTableRecord
  2
C_CENTER_L
 70
     0
  3
CADAM Center Light
 72
    65
 73
     4
 40
2.0
 49
1.25
 74
     0
 49
-0.25
 74
     0
 49
0.25
 74
     0
 49
-0.25
 74
     0
  0
LTYPE
  5
2E
330
4
100
AcDbSymbolTableRecord
100
AcDbLinetypeTableRecord
  2
C_PHANTOM_L
 70
     0
  3
CADAM Phantom Light
 72
    65
 73
     6
 40
2.5
 49
1.25
 74
     0
 49
-0.25
 74
     0
 49
0.25
 74
     0
 49
-0.25
 74
     0
 49
0.25
 74
     0
 49
-0.25
 74
     0
  0
LTYPE
  5
2F
330
4
100
AcDbSymbolTableRecord
100
AcDbLinetypeTableRecord
  2
C_BREAK_M
 70
     0
  3
CADAM Break Medium
 72
    65
 73
     4
 40
1.0
 49
0.5
 74
     0
 49
-0.25
 74
     0
 49
0.0
 74
     0
 49
-0.25
 74
     0
  0
LTYPE
  5
30
330
4
100
AcDbSymbolTableRecord
100
AcDbLinetypeTableRecord
  2
C_NC
 70
     0
  3
CADAM NC
 72
    65
 73
     0
 40
0.0
  0
LTYPE
  5
31
330
4
100
AcDbSymbolTableRecord
100
AcDbLinetypeTableRecord
  2
DSH1
 70
     0
  3
CADAM Style2 Type 1 Dashed Line
 72
    65
 73
     2
 40
0.075
 49
0.04
 74
     0
 49
-0.035
 74
     0
  0
LTYPE
  5
32
330
4
100
AcDbSymbolTableRecord
100
AcDbLinetypeTableRecord
  2
DSH2
 70
     0
  3
CADAM Style2 Type 2 Dashed Line
 72
    65
 73
     2
 40
0.15
 49
0.11
 74
     0
 49
-0.04
 74
     0
  0
LTYPE
  5
33
330
4
100
AcDbSymbolTableRecord
100
AcDbLinetypeTableRecord
  2
DSH3
 70
     0
  3
CADAM Style2 Type 3 Dashed Line
 72
    65
 73
     2
 40
0.2
 49
0.15
 74
     0
 49
-0.05
 74
     0
  0
LTYPE
  5
34
330
4
100
AcDbSymbolTableRecord
100
AcDbLinetypeTableRecord
  2
DSH4
 70
     0
  3
CADAM Style2 Type 4 Dashed Line
 72
    65
 73
     2
 40
0.36
 49
0.28
 74
     0
 49
-0.08
 74
     0
  0
LTYPE
  5
35
330
4
100
AcDbSymbolTableRecord
100
AcDbLinetypeTableRecord
  2
DSH5
 70
     0
  3
CADAM Style2 Type 5 Dashed Line
 72
    65
 73
     2
 40
0.47
 49
0.39
 74
     0
 49
-0.08
 74
     0
  0
LTYPE
  5
36
330
4
100
AcDbSymbolTableRecord
100
AcDbLinetypeTableRecord
  2
DSH6
 70
     0
  3
CADAM Style2 Type 6 Dashed Line
 72
    65
 73
     2
 40
0.9
 49
0.8100000000000001
 74
     0
 49
-0.09
 74
     0
  0
LTYPE
  5
37
330
4
100
AcDbSymbolTableRecord
100
AcDbLinetypeTableRecord
  2
PL1
 70
     0
  3
Style 2 Type 1 Phantom Line
 72
    65
 73
     6
 40
1.0
 49
0.6
 74
     0
 49
-0.08
 74
     0
 49
0.08
 74
     0
 49
-0.08
 74
     0
 49
0.08
 74
     0
 49
-0.08
 74
     0
  0
LTYPE
  5
38
330
4
100
AcDbSymbolTableRecord
100
AcDbLinetypeTableRecord
  2
PL2
 70
     0
  3
Style 2 Type 2 Phantom Line
 72
    65
 73
     6
 40
1.08
 49
0.6
 74
     0
 49
-0.08
 74
     0
 49
0.12
 74
     0
 49
-0.08
 74
     0
 49
0.12
 74
     0
 49
-0.08
 74
     0
  0
LTYPE
  5
39
330
4
100
AcDbSymbolTableRecord
100
AcDbLinetypeTableRecord
  2
PL3
 70
     0
  3
Style 2 Type 3 Phantom Line
 72
    65
 73
     6
 40
2.0
 49
1.439999999999999
 74
     0
 49
-0.08
 74
     0
 49
0.16
 74
     0
 49
-0.08
 74
     0
 49
0.16
 74
     0
 49
-0.08
 74
     0
  0
LTYPE
  5
3A
330
4
100
AcDbSymbolTableRecord
100
AcDbLinetypeTableRecord
  2
CL1
 70
     0
  3
CADAM Style 2 Type 1 Center Line
 72
    65
 73
     4
 40
0.7
 49
0.45
 74
     0
 49
-0.06
 74
     0
 49
0.13
 74
     0
 49
-0.06
 74
     0
  0
LTYPE
  5
3B
330
4
100
AcDbSymbolTableRecord
100
AcDbLinetypeTableRecord
  2
CL2
 70
     0
  3
CADAM Style 2 Type 2 Center Line
 72
    65
 73
     4
 40
1.199999999999999
 49
1.01
 74
     0
 49
-0.06
 74
     0
 49
0.11
 74
     0
 49
-0.06
 74
     0
  0
LTYPE
  5
3C
330
4
100
AcDbSymbolTableRecord
100
AcDbLinetypeTableRecord
  2
CL3
 70
     0
  3
CADAM Style 2 Type 3 Center Line
 72
    65
 73
     4
 40
1.199999999999999
 49
0.98
 74
     0
 49
-0.06
 74
     0
 49
0.1
 74
     0
 49
-0.06
 74
     0
  0
LTYPE
  5
3D
330
4
100
AcDbSymbolTableRecord
100
AcDbLinetypeTableRecord
  2
CL4
 70
     0
  3
CADAM Style 2 Type 4 Center Line
 72
    65
 73
     4
 40
2.2
 49
1.929999999999999
 74
     0
 49
-0.07
 74
     0
 49
0.13
 74
     0
 49
-0.07
 74
     0
  0
LTYPE
  5
3E
330
4
100
AcDbSymbolTableRecord
100
AcDbLinetypeTableRecord
  2
CL5
 70
     0
  3
CADAM Style 2 Type 5 Center Line
 72
    65
 73
     4
 40
2.2
 49
1.879999999999999
 74
     0
 49
-0.07
 74
     0
 49
0.18
 74
     0
 49
-0.07
 74
     0
  0
LTYPE
  5
3F
330
4
100
AcDbSymbolTableRecord
100
AcDbLinetypeTableRecord
  2
SBK1
 70
     0
  3
CADAM Style 2 Type 1 SetBack Line
 72
    65
 73
     8
 40
2.7
 49
0.1
 74
     0
 49
-0.08
 74
     0
 49
0.1
 74
     0
 49
-0.8
 74
     0
 49
0.0
 74
     0
 49
0.0
 74
     0
 49
0.0
 74
     0
 49
0.0
 74
     0
  0
LTYPE
  5
40
330
4
100
AcDbSymbolTableRecord
100
AcDbLinetypeTableRecord
  2
SBK2
 70
     0
  3
CADAM Style 2 Type 2 SetBack Line
 72
    65
 73
     8
 40
3.709999999999999
 49
0.13
 74
     0
 49
-0.08
 74
     0
 49
0.13
 74
     0
 49
-0.8
 74
     0
 49
0.0
 74
     0
 49
0.0
 74
     0
 49
0.0
 74
     0
 49
0.0
 74
     0
  0
LTYPE
  5
41
330
4
100
AcDbSymbolTableRecord
100
AcDbLinetypeTableRecord
  2
STCH
 70
     0
  3
CADAM Style2 Stitch Line
 72
    65
 73
     2
 40
0.25
 49
0.0
 74
     0
 49
-0.25
 74
     0
  0
LTYPE
  5
42
330
4
100
AcDbSymbolTableRecord
100
AcDbLinetypeTableRecord
  2
MTCH
 70
     0
  3
CADAM Style2 Match Line
 72
    65
 73
     6
 40
2.0
 49
1.439999999999999
 74
     0
 49
-0.8
 74
     0
 49
0.16
 74
     0
 49
-0.08
 74
     0
 49
0.16
 74
     0
 49
-0.08
 74
     0
  0
LTYPE
  5
43
330
4
100
AcDbSymbolTableRecord
100
AcDbLinetypeTableRecord
  2
SLD
 70
     0
  3
CADAM Solid_EXT2
 72
    65
 73
     0
 40
0.0
  0
ENDTAB
  0
TABLE
  2
LAYER
  5
2
330
0
100
AcDbSymbolTable
 70
     7
  0
LAYER
  5
15
330
2
100
AcDbSymbolTableRecord
100
AcDbLayerTableRecord
  2
0
 70
     0
 62
     7
  6
CONTINUOUS
  0
LAYER
  5
44
330
2
100
AcDbSymbolTableRecord
100
AcDbLayerTableRecord
  2
MO_001_NOSHOW
 70
     1
 62
     7
  6
CONTINUOUS
  0
LAYER
  5
45
330
2
100
AcDbSymbolTableRecord
100
AcDbLayerTableRecord
  2
MO_001_VIEW_PV
 70
     0
 62
     7
  6
CONTINUOUS
  0
LAYER
  5
46
330
2
100
AcDbSymbolTableRecord
100
AcDbLayerTableRecord
  2
OVERLAY_MAP
 70
     1
 62
     7
  6
CONTINUOUS
  0
LAYER
  5
47
330
2
100
AcDbSymbolTableRecord
100
AcDbLayerTableRecord
  2
DITTOS
 70
     0
 62
     7
  6
CONTINUOUS
  0
LAYER
  5
48
330
2
100
AcDbSymbolTableRecord
100
AcDbLayerTableRecord
  2
SYMBOLS
 70
     0
 62
     7
  6
CONTINUOUS
  0
LAYER
  5
49
330
2
100
AcDbSymbolTableRecord
100
AcDbLayerTableRecord
  2
SETS
 70
     0
 62
     7
  6
CONTINUOUS
  0
ENDTAB
  0
TABLE
  2
STYLE
  5
3
330
0
100
AcDbSymbolTable
 70
     1
  0
STYLE
  5
18
330
3
100
AcDbSymbolTableRecord
100
AcDbTextStyleTableRecord
  2
STANDARD
 70
     0
 40
4.1672
 41
1.0
 50
0.0
 71
     0
 42
4.1672
  3
monotxt
  4
BIGFONT
  0
ENDTAB
  0
TABLE
  2
VIEW
  5
5
330
0
100
AcDbSymbolTable
 70
     0
  0
ENDTAB
  0
TABLE
  2
UCS
  5
6
330
0
100
AcDbSymbolTable
 70
     1
  0
UCS
  5
4A
330
6
100
AcDbSymbolTableRecord
100
AcDbUCSTableRecord
  2
MO_001_VIEW_PV_P
 70
     0
 10
0.0
 20
0.0
 30
0.0
 11
1.0
 21
0.0
 31
0.0
 12
-0.0000000002051034
 22
1.0
 32
0.0
  0
ENDTAB
  0
TABLE
  2
APPID
  5
8
330
0
100
AcDbSymbolTable
 70
     1
  0
APPID
  5
17
330
8
100
AcDbSymbolTableRecord
100
AcDbRegAppTableRecord
  2
ACAD
 70
     0
  0
ENDTAB
  0
TABLE
  2
DIMSTYLE
  5
9
330
0
100
AcDbSymbolTable
 70
     1
  0
DIMSTYLE
105
19
102
{ACAD_REACTORS
330
35C
330
35E
330
360
330
362
330
364
330
366
330
368
330
36A
330
36C
330
36E
330
370
330
372
102
}
330
9
100
AcDbSymbolTableRecord
100
AcDbDimStyleTableRecord
  2
STANDARD
 70
     0
  3

  4

  5

  6

  7

 40
1.0
 41
0.18
 42
0.0625
 43
0.38
 44
0.18
 45
0.0
 46
0.0
 47
0.0
 48
0.0
140
0.18
141
0.09
142
0.0
143
25.4
144
1.0
145
0.0
146
1.0
147
0.09
 71
     0
 72
     0
 73
     1
 74
     1
 75
     0
 76
     0
 77
     0
 78
     0
170
     0
171
     2
172
     0
173
     0
174
     0
175
     0
176
     0
177
     0
178
     0
270
     2
271
     4
272
     4
273
     2
274
     2
340
18
275
     0
280
     0
281
     0
282
     0
283
     1
284
     0
285
     0
286
     0
287
     3
288
     0
  0
ENDTAB
  0
TABLE
  2
BLOCK_RECORD
  5
C
330
0
100
AcDbSymbolTable
 70
    12
  0
BLOCK_RECORD
  5
1E
102
{ACAD_XDICTIONARY
360
3F7
102
}
330
C
100
AcDbSymbolTableRecord
100
AcDbBlockTableRecord
  2
*MODEL_SPACE
  0
BLOCK_RECORD
  5
1F
102
{ACAD_XDICTIONARY
360
3F9
102
}
330
C
100
AcDbSymbolTableRecord
100
AcDbBlockTableRecord
  2
*PAPER_SPACE
  0
BLOCK_RECORD
  5
35B
330
C
100
AcDbSymbolTableRecord
100
AcDbBlockTableRecord
  2
*D0
  0
BLOCK_RECORD
  5
35D
330
C
100
AcDbSymbolTableRecord
100
AcDbBlockTableRecord
  2
*D1
  0
BLOCK_RECORD
  5
35F
330
C
100
AcDbSymbolTableRecord
100
AcDbBlockTableRecord
  2
*D2
  0
BLOCK_RECORD
  5
361
330
C
100
AcDbSymbolTableRecord
100
AcDbBlockTableRecord
  2
*D3
  0
BLOCK_RECORD
  5
363
330
C
100
AcDbSymbolTableRecord
100
AcDbBlockTableRecord
  2
*D4
  0
BLOCK_RECORD
  5
365
330
C
100
AcDbSymbolTableRecord
100
AcDbBlockTableRecord
  2
*D5
  0
BLOCK_RECORD
  5
367
330
C
100
AcDbSymbolTableRecord
100
AcDbBlockTableRecord
  2
*D6
  0
BLOCK_RECORD
  5
369
330
C
100
AcDbSymbolTableRecord
100
AcDbBlockTableRecord
  2
*D7
  0
BLOCK_RECORD
  5
36B
330
C
100
AcDbSymbolTableRecord
100
AcDbBlockTableRecord
  2
*D8
  0
BLOCK_RECORD
  5
36D
330
C
100
AcDbSymbolTableRecord
100
AcDbBlockTableRecord
  2
*D9
  0
BLOCK_RECORD
  5
36F
330
C
100
AcDbSymbolTableRecord
100
AcDbBlockTableRecord
  2
*D10
  0
BLOCK_RECORD
  5
371
330
C
100
AcDbSymbolTableRecord
100
AcDbBlockTableRecord
  2
*D11
  0
ENDTAB
  0
ENDSEC
  0
SECTION
  2
BLOCKS
  0
BLOCK
  5
E
330
1E
100
AcDbEntity
  8
0
100
AcDbBlockBegin
  2
*MODEL_SPACE
 70
     0
 10
0.0
 20
0.0
 30
0.0
  3
*MODEL_SPACE
  1

  0
ENDBLK
  5
F
330
1E
100
AcDbEntity
  8
0
100
AcDbBlockEnd
  0
BLOCK
  5
10
330
1F
100
AcDbEntity
 67
     1
  8
0
100
AcDbBlockBegin
  2
*PAPER_SPACE
 70
     0
 10
0.0
 20
0.0
 30
0.0
  3
*PAPER_SPACE
  1

  0
ENDBLK
  5
11
330
1F
100
AcDbEntity
 67
     1
  8
0
100
AcDbBlockEnd
  0
BLOCK
  5
379
330
35B
100
AcDbEntity
  8
0
100
AcDbBlockBegin
  2
*D0
 70
     1
 10
0.0
 20
0.0
 30
0.0
  3
*D0
  1

  0
TEXT
  5
37A
330
35B
100
AcDbEntity
  8
MO_001_VIEW_PV
  6
BYBLOCK
100
AcDbText
 10
-50.814187
 20
41.625
 30
0.0
 40
1.5
  1
%%P0.3
100
AcDbText
  0
TEXT
  5
37B
330
35B
100
AcDbEntity
  8
MO_001_VIEW_PV
  6
BYBLOCK
100
AcDbText
 10
-59.599901
 20
39.75
 30
0.0
 40
3.0
  1
3.0
100
AcDbText
  0
LINE
  5
37C
330
35B
100
AcDbEntity
  8
MO_001_VIEW_PV
  6
BYBLOCK
100
AcDbLine
 10
-42.120377
 20
39.0
 30
0.0
 11
-39.07249799999999
 21
39.0
 31
0.0
  0
LINE
  5
37D
330
35B
100
AcDbEntity
  8
MO_001_VIEW_PV
  6
BYBLOCK
100
AcDbLine
 10
-42.120377
 20
39.0
 30
0.0
 11
-48.470376
 21
39.0
 31
0.0
  0
SOLID
  5
37E
330
35B
100
AcDbEntity
  8
MO_001_VIEW_PV
  6
BYBLOCK
100
AcDbTrace
 10
-45.438637
 20
38.416488
 30
0.0
 11
-42.628377
 21
39.0
 31
0.0
 12
-45.438637
 22
39.583512
 32
0.0
 13
-45.438637
 23
39.583512
 33
0.0
  0
LINE
  5
37F
330
35B
100
AcDbEntity
  8
MO_001_VIEW_PV
  6
BYBLOCK
100
AcDbLine
 10
-42.120377
 20
16.079056
 30
0.0
 11
-42.120377
 21
41.285999
 31
0.0
  0
LINE
  5
380
330
35B
100
AcDbEntity
  8
MO_001_VIEW_PV
  6
BYBLOCK
100
AcDbLine
 10
-39.07249799999999
 20
30.550003
 30
0.0
 11
-39.07249799999999
 21
41.285999
 31
0.0
  0
LINE
  5
381
330
35B
100
AcDbEntity
  8
MO_001_VIEW_PV
  6
BYBLOCK
100
AcDbLine
 10
-60.564186
 20
39.0
 30
0.0
 11
-42.120377
 21
39.0
 31
0.0
  0
ENDBLK
  5
382
330
35B
100
AcDbEntity
  8
0
100
AcDbBlockEnd
  0
BLOCK
  5
383
330
35D
100
AcDbEntity
  8
0
100
AcDbBlockBegin
  2
*D1
 70
     1
 10
0.0
 20
0.0
 30
0.0
  3
*D1
  1

  0
TEXT
  5
384
330
35D
100
AcDbEntity
  8
MO_001_VIEW_PV
  6
BYBLOCK
100
AcDbText
 10
-21.998758
 20
41.625
 30
0.0
 40
1.5
  1
%%P0.1
100
AcDbText
  0
TEXT
  5
385
330
35D
100
AcDbEntity
  8
MO_001_VIEW_PV
  6
BYBLOCK
100
AcDbText
 10
-30.78447199999999
 20
39.75
 30
0.0
 40
3.0
  1
3.5
100
AcDbText
  0
LINE
  5
386
330
35D
100
AcDbEntity
  8
MO_001_VIEW_PV
  6
BYBLOCK
100
AcDbLine
 10
-39.07249799999999
 20
39.0
 30
0.0
 11
-35.57249799999999
 21
39.0
 31
0.0
  0
LINE
  5
387
330
35D
100
AcDbEntity
  8
MO_001_VIEW_PV
  6
BYBLOCK
100
AcDbLine
 10
-35.57249799999999
 20
39.0
 30
0.0
 11
-29.22249799999999
 21
39.0
 31
0.0
  0
SOLID
  5
388
330
35D
100
AcDbEntity
  8
MO_001_VIEW_PV
  6
BYBLOCK
100
AcDbTrace
 10
-39.07249799999999
 20
39.63499999999999
 30
0.0
 11
-39.07249799999999
 21
38.365
 31
0.0
 12
-39.07249799999999
 22
39.63499999999999
 32
0.0
 13
-39.07249799999999
 23
39.63499999999999
 33
0.0
  0
SOLID
  5
389
330
35D
100
AcDbEntity
  8
MO_001_VIEW_PV
  6
BYBLOCK
100
AcDbTrace
 10
-32.254238
 20
39.583512
 30
0.0
 11
-35.064498
 21
39.0
 31
0.0
 12
-32.254238
 22
38.416488
 32
0.0
 13
-32.254238
 23
38.416488
 33
0.0
  0
LINE
  5
38A
330
35D
100
AcDbEntity
  8
MO_001_VIEW_PV
  6
BYBLOCK
100
AcDbLine
 10
-39.07249799999999
 20
30.550003
 30
0.0
 11
-39.07249799999999
 21
41.285999
 31
0.0
  0
LINE
  5
38B
330
35D
100
AcDbEntity
  8
MO_001_VIEW_PV
  6
BYBLOCK
100
AcDbLine
 10
-35.57249799999999
 20
30.549999
 30
0.0
 11
-35.57249799999999
 21
41.285999
 31
0.0
  0
LINE
  5
38C
330
35D
100
AcDbEntity
  8
MO_001_VIEW_PV
  6
BYBLOCK
100
AcDbLine
 10
-35.57249799999999
 20
39.0
 30
0.0
 11
-15.677329
 21
39.0
 31
0.0
  0
ENDBLK
  5
38D
330
35D
100
AcDbEntity
  8
0
100
AcDbBlockEnd
  0
BLOCK
  5
38E
330
35F
100
AcDbEntity
  8
0
100
AcDbBlockBegin
  2
*D2
 70
     1
 10
0.0
 20
0.0
 30
0.0
  3
*D2
  1

  0
TEXT
  5
38F
330
35F
100
AcDbEntity
  8
MO_001_VIEW_PV
  6
BYBLOCK
100
AcDbText
 10
-25.631617
 20
45.75
 30
0.0
 40
3.0
  1
45以下
100
AcDbText
  0
LINE
  5
390
330
35F
100
AcDbEntity
  8
MO_001_VIEW_PV
  6
BYBLOCK
100
AcDbLine
 10
-42.120377
 20
45.0
 30
0.0
 11
2.0
 21
45.0
 31
0.0
  0
SOLID
  5
391
330
35F
100
AcDbEntity
  8
MO_001_VIEW_PV
  6
BYBLOCK
100
AcDbTrace
 10
-38.80211599999999
 20
45.58351199999999
 30
0.0
 11
-41.612377
 21
45.0
 31
0.0
 12
-38.80211599999999
 22
44.416488
 32
0.0
 13
-38.80211599999999
 23
44.416488
 33
0.0
  0
SOLID
  5
392
330
35F
100
AcDbEntity
  8
MO_001_VIEW_PV
  6
BYBLOCK
100
AcDbTrace
 10
-1.318259999999999
 20
44.416488
 30
0.0
 11
1.491999999999999
 21
45.0
 31
0.0
 12
-1.318259999999999
 22
45.58351199999999
 32
0.0
 13
-1.318259999999999
 23
45.58351199999999
 33
0.0
  0
LINE
  5
393
330
35F
100
AcDbEntity
  8
MO_001_VIEW_PV
  6
BYBLOCK
100
AcDbLine
 10
-42.120377
 20
16.079056
 30
0.0
 11
-42.120377
 21
47.28599899999999
 31
0.0
  0
LINE
  5
394
330
35F
100
AcDbEntity
  8
MO_001_VIEW_PV
  6
BYBLOCK
100
AcDbLine
 10
2.0
 20
28.6
 30
0.0
 11
2.0
 21
47.28599899999999
 31
0.0
  0
ENDBLK
  5
395
330
35F
100
AcDbEntity
  8
0
100
AcDbBlockEnd
  0
BLOCK
  5
396
330
361
100
AcDbEntity
  8
0
100
AcDbBlockBegin
  2
*D3
 70
     1
 10
0.0
 20
0.0
 30
0.0
  3
*D3
  1

  0
TEXT
  5
397
330
361
100
AcDbEntity
  8
MO_001_VIEW_PV
  6
BYBLOCK
100
AcDbText
 10
-25.47196299999999
 20
53.625
 30
0.0
 40
1.5
  1
%%P1.0
100
AcDbText
  0
TEXT
  5
398
330
361
100
AcDbEntity
  8
MO_001_VIEW_PV
  6
BYBLOCK
100
AcDbText
 10
-37.257677
 20
51.75
 30
0.0
 40
3.0
  1
61.4
100
AcDbText
  0
LINE
  5
399
330
361
100
AcDbEntity
  8
MO_001_VIEW_PV
  6
BYBLOCK
100
AcDbLine
 10
2.0
 20
51.0
 30
0.0
 11
-59.372498
 21
51.0
 31
0.0
  0
SOLID
  5
39A
330
361
100
AcDbEntity
  8
MO_001_VIEW_PV
  6
BYBLOCK
100
AcDbTrace
 10
-1.318259999999999
 20
50.416488
 30
0.0
 11
1.491999999999999
 21
51.0
 31
0.0
 12
-1.318259999999999
 22
51.583512
 32
0.0
 13
-1.318259999999999
 23
51.583512
 33
0.0
  0
SOLID
  5
39B
330
361
100
AcDbEntity
  8
MO_001_VIEW_PV
  6
BYBLOCK
100
AcDbTrace
 10
-56.054237
 20
51.583512
 30
0.0
 11
-58.864498
 21
51.0
 31
0.0
 12
-56.054237
 22
50.416488
 32
0.0
 13
-56.054237
 23
50.416488
 33
0.0
  0
LINE
  5
39C
330
361
100
AcDbEntity
  8
MO_001_VIEW_PV
  6
BYBLOCK
100
AcDbLine
 10
2.0
 20
28.6
 30
0.0
 11
2.0
 21
53.285999
 31
0.0
  0
LINE
  5
39D
330
361
100
AcDbEntity
  8
MO_001_VIEW_PV
  6
BYBLOCK
100
AcDbLine
 10
-59.372498
 20
4.619412
 30
0.0
 11
-59.372498
 21
53.285999
 31
0.0
  0
ENDBLK
  5
39E
330
361
100
AcDbEntity
  8
0
100
AcDbBlockEnd
  0
BLOCK
  5
39F
330
363
100
AcDbEntity
  8
0
100
AcDbBlockBegin
  2
*D4
 70
     1
 10
0.0
 20
0.0
 30
0.0
  3
*D4
  1

  0
TEXT
  5
3A0
330
363
100
AcDbEntity
  8
MO_001_VIEW_PV
  6
BYBLOCK
100
AcDbText
 10
36.231025
 20
53.625
 30
0.0
 40
1.5
  1
%%P0.5
100
AcDbText
  0
TEXT
  5
3A1
330
363
100
AcDbEntity
  8
MO_001_VIEW_PV
  6
BYBLOCK
100
AcDbText
 10
24.44531
 20
51.75
 30
0.0
 40
3.0
  1
21.4
100
AcDbText
  0
LINE
  5
3A2
330
363
100
AcDbEntity
  8
MO_001_VIEW_PV
  6
BYBLOCK
100
AcDbLine
 10
2.0
 20
51.0
 30
0.0
 11
23.4275
 21
51.0
 31
0.0
  0
SOLID
  5
3A3
330
363
100
AcDbEntity
  8
MO_001_VIEW_PV
  6
BYBLOCK
100
AcDbTrace
 10
5.318259999999999
 20
51.583512
 30
0.0
 11
2.508
 21
51.0
 31
0.0
 12
5.318259999999999
 22
50.416488
 32
0.0
 13
5.318259999999999
 23
50.416488
 33
0.0
  0
SOLID
  5
3A4
330
363
100
AcDbEntity
  8
MO_001_VIEW_PV
  6
BYBLOCK
100
AcDbTrace
 10
20.10924
 20
50.416488
 30
0.0
 11
22.91949999999999
 21
51.0
 31
0.0
 12
20.10924
 22
51.583512
 32
0.0
 13
20.10924
 23
51.583512
 33
0.0
  0
LINE
  5
3A5
330
363
100
AcDbEntity
  8
MO_001_VIEW_PV
  6
BYBLOCK
100
AcDbLine
 10
2.0
 20
28.6
 30
0.0
 11
2.0
 21
53.285999
 31
0.0
  0
LINE
  5
3A6
330
363
100
AcDbEntity
  8
MO_001_VIEW_PV
  6
BYBLOCK
100
AcDbLine
 10
23.4275
 20
4.465000999999999
 30
0.0
 11
23.4275
 21
53.285999
 31
0.0
  0
LINE
  5
3A7
330
363
100
AcDbEntity
  8
MO_001_VIEW_PV
  6
BYBLOCK
100
AcDbLine
 10
23.4275
 20
51.0
 30
0.0
 11
42.552452
 21
51.0
 31
0.0
  0
ENDBLK
  5
3A8
330
363
100
AcDbEntity
  8
0
100
AcDbBlockEnd
  0
BLOCK
  5
3A9
330
365
100
AcDbEntity
  8
0
100
AcDbBlockBegin
  2
*D5
 70
     1
 10
0.0
 20
0.0
 30
0.0
  3
*D5
  1

  0
TEXT
  5
3AA
330
365
100
AcDbEntity
  8
MO_001_VIEW_PV
  6
BYBLOCK
100
AcDbText
 10
36.591163
 20
47.625
 30
0.0
 40
1.5
  1
%%P0.5
100
AcDbText
  0
TEXT
  5
3AB
330
365
100
AcDbEntity
  8
MO_001_VIEW_PV
  6
BYBLOCK
100
AcDbText
 10
24.805448
 20
45.75
 30
0.0
 40
3.0
  1
22.0
100
AcDbText
  0
LINE
  5
3AC
330
365
100
AcDbEntity
  8
MO_001_VIEW_PV
  6
BYBLOCK
100
AcDbLine
 10
24.0
 20
45.0
 30
0.0
 11
2.0
 21
45.0
 31
0.0
  0
SOLID
  5
3AD
330
365
100
AcDbEntity
  8
MO_001_VIEW_PV
  6
BYBLOCK
100
AcDbTrace
 10
20.68173999999999
 20
44.416488
 30
0.0
 11
23.49199999999999
 21
45.0
 31
0.0
 12
20.68173999999999
 22
45.58351199999999
 32
0.0
 13
20.68173999999999
 23
45.58351199999999
 33
0.0
  0
SOLID
  5
3AE
330
365
100
AcDbEntity
  8
MO_001_VIEW_PV
  6
BYBLOCK
100
AcDbTrace
 10
5.318259999999999
 20
45.58351199999999
 30
0.0
 11
2.508
 21
45.0
 31
0.0
 12
5.318259999999999
 22
44.416488
 32
0.0
 13
5.318259999999999
 23
44.416488
 33
0.0
  0
LINE
  5
3AF
330
365
100
AcDbEntity
  8
MO_001_VIEW_PV
  6
BYBLOCK
100
AcDbLine
 10
24.0
 20
24.25
 30
0.0
 11
24.0
 21
47.28599899999999
 31
0.0
  0
LINE
  5
3B0
330
365
100
AcDbEntity
  8
MO_001_VIEW_PV
  6
BYBLOCK
100
AcDbLine
 10
2.0
 20
28.6
 30
0.0
 11
2.0
 21
47.28599899999999
 31
0.0
  0
LINE
  5
3B1
330
365
100
AcDbEntity
  8
MO_001_VIEW_PV
  6
BYBLOCK
100
AcDbLine
 10
42.91259
 20
45.0
 30
0.0
 11
24.0
 21
45.0
 31
0.0
  0
ENDBLK
  5
3B2
330
365
100
AcDbEntity
  8
0
100
AcDbBlockEnd
  0
BLOCK
  5
3B3
330
367
100
AcDbEntity
  8
0
100
AcDbBlockBegin
  2
*D6
 70
     1
 10
0.0
 20
0.0
 30
0.0
  3
*D6
  1

  0
TEXT
  5
3B4
330
367
100
AcDbEntity
  8
MO_001_VIEW_PV
  6
BYBLOCK
100
AcDbText
 10
30.375
 20
23.858767
 30
0.0
 40
1.5
  1
%%P0.03
 50
90.0
100
AcDbText
  0
TEXT
  5
3B5
330
367
100
AcDbEntity
  8
MO_001_VIEW_PV
  6
BYBLOCK
100
AcDbText
 10
32.25
 20
9.073052999999999
 30
0.0
 40
3.0
  1
%%C9.53
 50
90.0
100
AcDbText
  0
LINE
  5
3B6
330
367
100
AcDbEntity
  8
MO_001_VIEW_PV
  6
BYBLOCK
100
AcDbLine
 10
33.0
 20
4.764999999999999
 30
0.0
 11
33.0
 21
-4.764999999999999
 31
0.0
  0
LINE
  5
3B7
330
367
100
AcDbEntity
  8
MO_001_VIEW_PV
  6
BYBLOCK
100
AcDbLine
 10
33.0
 20
4.764999999999999
 30
0.0
 11
33.0
 21
11.115
 31
0.0
  0
LINE
  5
3B8
330
367
100
AcDbEntity
  8
MO_001_VIEW_PV
  6
BYBLOCK
100
AcDbLine
 10
33.0
 20
-4.764999999999999
 30
0.0
 11
33.0
 21
-11.115
 31
0.0
  0
SOLID
  5
3B9
330
367
100
AcDbEntity
  8
MO_001_VIEW_PV
  6
BYBLOCK
100
AcDbTrace
 10
32.416488
 20
8.08326
 30
0.0
 11
33.0
 21
5.272999999999999
 31
0.0
 12
33.58351199999999
 22
8.08326
 32
0.0
 13
33.58351199999999
 23
8.08326
 33
0.0
  0
SOLID
  5
3BA
330
367
100
AcDbEntity
  8
MO_001_VIEW_PV
  6
BYBLOCK
100
AcDbTrace
 10
33.58351199999999
 20
-8.08326
 30
0.0
 11
33.0
 21
-5.272999999999999
 31
0.0
 12
32.416488
 22
-8.08326
 32
0.0
 13
32.416488
 23
-8.08326
 33
0.0
  0
LINE
  5
3BB
330
367
100
AcDbEntity
  8
MO_001_VIEW_PV
  6
BYBLOCK
100
AcDbLine
 10
23.127501
 20
4.764999999999999
 30
0.0
 11
35.28599899999999
 21
4.764999999999999
 31
0.0
  0
LINE
  5
3BC
330
367
100
AcDbEntity
  8
MO_001_VIEW_PV
  6
BYBLOCK
100
AcDbLine
 10
23.127501
 20
-4.764999999999999
 30
0.0
 11
35.28599899999999
 21
-4.764999999999999
 31
0.0
  0
LINE
  5
3BD
330
367
100
AcDbEntity
  8
MO_001_VIEW_PV
  6
BYBLOCK
100
AcDbLine
 10
33.0
 20
31.680195
 30
0.0
 11
33.0
 21
4.764999999999999
 31
0.0
  0
ENDBLK
  5
3BE
330
367
100
AcDbEntity
  8
0
100
AcDbBlockEnd
  0
BLOCK
  5
3BF
330
369
100
AcDbEntity
  8
0
100
AcDbBlockBegin
  2
*D7
 70
     1
 10
0.0
 20
0.0
 30
0.0
  3
*D7
  1

  0
TEXT
  5
3C0
330
369
100
AcDbEntity
  8
MO_001_VIEW_PV
  6
BYBLOCK
100
AcDbText
 10
24.42857099999999
 20
-38.25
 30
0.0
 40
3.0
  1
14.2以上
100
AcDbText
  0
LINE
  5
3C1
330
369
100
AcDbEntity
  8
MO_001_VIEW_PV
  6
BYBLOCK
100
AcDbLine
 10
23.4275
 20
-39.0
 30
0.0
 11
8.9275
 21
-39.0
 31
0.0
  0
SOLID
  5
3C2
330
369
100
AcDbEntity
  8
MO_001_VIEW_PV
  6
BYBLOCK
100
AcDbTrace
 10
20.10924
 20
-39.583512
 30
0.0
 11
22.91949999999999
 21
-39.0
 31
0.0
 12
20.10924
 22
-38.416488
 32
0.0
 13
20.10924
 23
-38.416488
 33
0.0
  0
SOLID
  5
3C3
330
369
100
AcDbEntity
  8
MO_001_VIEW_PV
  6
BYBLOCK
100
AcDbTrace
 10
12.24576
 20
-38.416488
 30
0.0
 11
9.435499999999999
 21
-39.0
 31
0.0
 12
12.24576
 22
-39.583512
 32
0.0
 13
12.24576
 23
-39.583512
 33
0.0
  0
LINE
  5
3C4
330
369
100
AcDbEntity
  8
MO_001_VIEW_PV
  6
BYBLOCK
100
AcDbLine
 10
23.4275
 20
-4.465000999999999
 30
0.0
 11
23.4275
 21
-41.285999
 31
0.0
  0
LINE
  5
3C5
330
369
100
AcDbEntity
  8
MO_001_VIEW_PV
  6
BYBLOCK
100
AcDbLine
 10
8.9275
 20
3.464999999999999
 30
0.0
 11
8.9275
 21
-41.285999
 31
0.0
  0
LINE
  5
3C6
330
369
100
AcDbEntity
  8
MO_001_VIEW_PV
  6
BYBLOCK
100
AcDbLine
 10
42.53571299999999
 20
-39.0
 30
0.0
 11
23.4275
 21
-39.0
 31
0.0
  0
ENDBLK
  5
3C7
330
369
100
AcDbEntity
  8
0
100
AcDbBlockEnd
  0
BLOCK
  5
3C8
330
36B
100
AcDbEntity
  8
0
100
AcDbBlockBegin
  2
*D8
 70
     1
 10
0.0
 20
0.0
 30
0.0
  3
*D8
  1

  0
TEXT
  5
3C9
330
36B
100
AcDbEntity
  8
MO_001_VIEW_PV
  6
BYBLOCK
100
AcDbText
 10
74.92857099999999
 20
51.75
 30
0.0
 40
3.0
  1
%%C71以下
100
AcDbText
  0
LINE
  5
3CA
330
36B
100
AcDbEntity
  8
MO_001_VIEW_PV
  6
BYBLOCK
100
AcDbLine
 10
46.0
 20
51.0
 30
0.0
 11
116.0
 21
51.0
 31
0.0
  0
SOLID
  5
3CB
330
36B
100
AcDbEntity
  8
MO_001_VIEW_PV
  6
BYBLOCK
100
AcDbTrace
 10
49.31826
 20
51.583512
 30
0.0
 11
46.508
 21
51.0
 31
0.0
 12
49.31826
 22
50.416488
 32
0.0
 13
49.31826
 23
50.416488
 33
0.0
  0
SOLID
  5
3CC
330
36B
100
AcDbEntity
  8
MO_001_VIEW_PV
  6
BYBLOCK
100
AcDbTrace
 10
112.6817399999999
 20
50.416488
 30
0.0
 11
115.492
 21
51.0
 31
0.0
 12
112.6817399999999
 22
51.583512
 32
0.0
 13
112.6817399999999
 23
51.583512
 33
0.0
  0
LINE
  5
3CD
330
36B
100
AcDbEntity
  8
MO_001_VIEW_PV
  6
BYBLOCK
100
AcDbLine
 10
46.0
 20
0.0
 30
0.0
 11
46.0
 21
53.285999
 31
0.0
  0
LINE
  5
3CE
330
36B
100
AcDbEntity
  8
MO_001_VIEW_PV
  6
BYBLOCK
100
AcDbLine
 10
116.0
 20
0.0
 30
0.0
 11
116.0
 21
53.285999
 31
0.0
  0
ENDBLK
  5
3CF
330
36B
100
AcDbEntity
  8
0
100
AcDbBlockEnd
  0
BLOCK
  5
3D0
330
36D
100
AcDbEntity
  8
0
100
AcDbBlockBegin
  2
*D9
 70
     1
 10
0.0
 20
0.0
 30
0.0
  3
*D9
  1

  0
TEXT
  5
3D1
330
36D
100
AcDbEntity
  8
MO_001_VIEW_PV
  6
BYBLOCK
100
AcDbText
 10
74.92857099999999
 20
45.75
 30
0.0
 40
3.0
  1
%%C30以下
100
AcDbText
  0
LINE
  5
3D2
330
36D
100
AcDbEntity
  8
MO_001_VIEW_PV
  6
BYBLOCK
100
AcDbLine
 10
68.300003
 20
45.0
 30
0.0
 11
94.699997
 21
45.0
 31
0.0
  0
SOLID
  5
3D3
330
36D
100
AcDbEntity
  8
MO_001_VIEW_PV
  6
BYBLOCK
100
AcDbTrace
 10
71.618263
 20
45.58351199999999
 30
0.0
 11
68.808003
 21
45.0
 31
0.0
 12
71.618263
 22
44.416488
 32
0.0
 13
71.618263
 23
44.416488
 33
0.0
  0
SOLID
  5
3D4
330
36D
100
AcDbEntity
  8
MO_001_VIEW_PV
  6
BYBLOCK
100
AcDbTrace
 10
91.38173700000001
 20
44.416488
 30
0.0
 11
94.191997
 21
45.0
 31
0.0
 12
91.38173700000001
 22
45.58351199999999
 32
0.0
 13
91.38173700000001
 23
45.58351199999999
 33
0.0
  0
LINE
  5
3D5
330
36D
100
AcDbEntity
  8
MO_001_VIEW_PV
  6
BYBLOCK
100
AcDbLine
 10
68.300003
 20
0.0
 30
0.0
 11
68.300003
 21
47.28599899999999
 31
0.0
  0
LINE
  5
3D6
330
36D
100
AcDbEntity
  8
MO_001_VIEW_PV
  6
BYBLOCK
100
AcDbLine
 10
94.699997
 20
0.0
 30
0.0
 11
94.699997
 21
47.28599899999999
 31
0.0
  0
ENDBLK
  5
3D7
330
36D
100
AcDbEntity
  8
0
100
AcDbBlockEnd
  0
BLOCK
  5
3D8
330
36F
100
AcDbEntity
  8
0
100
AcDbBlockBegin
  2
*D10
 70
     1
 10
0.0
 20
0.0
 30
0.0
  3
*D10
  1

  0
TEXT
  5
3D9
330
36F
100
AcDbEntity
  8
MO_001_VIEW_PV
  6
BYBLOCK
100
AcDbText
 10
122.2499999999999
 20
-13.071429
 30
0.0
 40
3.0
  1
長さ250以上
 50
90.0
100
AcDbText
  0
LINE
  5
3DA
330
36F
100
AcDbEntity
  8
MO_001_VIEW_PV
  6
BYBLOCK
100
AcDbLine
 10
123.0
 20
-65.5
 30
0.0
 11
123.0
 21
-32.353939
 31
0.0
  0
SOLID
  5
3DB
330
36F
100
AcDbEntity
  8
MO_001_VIEW_PV
  6
BYBLOCK
100
AcDbTrace
 10
122.4164879999999
 20
-62.18174000000001
 30
0.0
 11
123.0
 21
-64.992
 31
0.0
 12
123.583512
 22
-62.18174000000001
 32
0.0
 13
123.583512
 23
-62.18174000000001
 33
0.0
  0
SOLID
  5
3DC
330
36F
100
AcDbEntity
  8
MO_001_VIEW_PV
  6
BYBLOCK
100
AcDbTrace
 10
123.583512
 20
-35.67219899999999
 30
0.0
 11
123.0
 21
-32.861939
 31
0.0
 12
122.4164879999999
 22
-35.67219899999999
 32
0.0
 13
122.4164879999999
 23
-35.67219899999999
 33
0.0
  0
LINE
  5
3DD
330
36F
100
AcDbEntity
  8
MO_001_VIEW_PV
  6
BYBLOCK
100
AcDbLine
 10
93.15000899999999
 20
-65.5
 30
0.0
 11
125.286003
 21
-65.5
 31
0.0
  0
LINE
  5
3DE
330
36F
100
AcDbEntity
  8
MO_001_VIEW_PV
  6
BYBLOCK
100
AcDbLine
 10
94.350006
 20
-32.353939
 30
0.0
 11
125.286003
 21
-32.353939
 31
0.0
  0
LINE
  5
3DF
330
36F
100
AcDbEntity
  8
MO_001_VIEW_PV
  6
BYBLOCK
100
AcDbLine
 10
123.0
 20
-32.353939
 30
0.0
 11
123.0
 21
8.035721
 31
0.0
  0
ENDBLK
  5
3E0
330
36F
100
AcDbEntity
  8
0
100
AcDbBlockEnd
  0
BLOCK
  5
3E1
330
371
100
AcDbEntity
  8
0
100
AcDbBlockBegin
  2
*D11
 70
     1
 10
0.0
 20
0.0
 30
0.0
  3
*D11
  1

  0
TEXT
  5
3E2
330
371
100
AcDbEntity
  8
MO_001_VIEW_PV
  6
BYBLOCK
100
AcDbText
 10
39.375
 20
3.214285999999999
 30
0.0
 40
1.5
  1
%%P0.3
 50
90.0
100
AcDbText
  0
TEXT
  5
3E3
330
371
100
AcDbEntity
  8
MO_001_VIEW_PV
  6
BYBLOCK
100
AcDbText
 10
41.25
 20
-8.571429
 30
0.0
 40
3.0
  1
44.5
 50
90.0
100
AcDbText
  0
LINE
  5
3E4
330
371
100
AcDbEntity
  8
MO_001_VIEW_PV
  6
BYBLOCK
100
AcDbLine
 10
42.0
 20
22.25
 30
0.0
 11
42.0
 21
-22.25
 31
0.0
  0
SOLID
  5
3E5
330
371
100
AcDbEntity
  8
MO_001_VIEW_PV
  6
BYBLOCK
100
AcDbTrace
 10
42.58351199999999
 20
18.93173999999999
 30
0.0
 11
42.0
 21
21.74199999999999
 31
0.0
 12
41.416488
 22
18.93173999999999
 32
0.0
 13
41.416488
 23
18.93173999999999
 33
0.0
  0
SOLID
  5
3E6
330
371
100
AcDbEntity
  8
MO_001_VIEW_PV
  6
BYBLOCK
100
AcDbTrace
 10
41.416488
 20
-18.93173999999999
 30
0.0
 11
42.0
 21
-21.74199999999999
 31
0.0
 12
42.58351199999999
 22
-18.93173999999999
 32
0.0
 13
42.58351199999999
 23
-18.93173999999999
 33
0.0
  0
LINE
  5
3E7
330
371
100
AcDbEntity
  8
MO_001_VIEW_PV
  6
BYBLOCK
100
AcDbLine
 10
75.0
 20
22.25
 30
0.0
 11
39.714001
 21
22.25
 31
0.0
  0
LINE
  5
3E8
330
371
100
AcDbEntity
  8
MO_001_VIEW_PV
  6
BYBLOCK
100
AcDbLine
 10
75.0
 20
-22.25
 30
0.0
 11
39.714001
 21
-22.25
 31
0.0
  0
ENDBLK
  5
3E9
330
371
100
AcDbEntity
  8
0
100
AcDbBlockEnd
  0
ENDSEC
  0
SECTION
  2
ENTITIES
  0
TEXT
  5
4B
330
1E
100
AcDbEntity
  8
OVERLAY_MAP
  6
C_SOLID_L
100
AcDbText
 10
0.0
 20
6.349999999999999
 30
0.0
 40
4.1672
  1
Model Overlay Name
100
AcDbText
  0
TEXT
  5
4C
330
1E
100
AcDbEntity
  8
OVERLAY_MAP
  6
C_SOLID_L
100
AcDbText
 10
126.999998
 20
0.0
 30
0.0
 40
4.1672
  1
Number
100
AcDbText
  0
TEXT
  5
4D
330
1E
100
AcDbEntity
  8
OVERLAY_MAP
  6
C_SOLID_L
100
AcDbText
 10
177.7999969999999
 20
0.0
 30
0.0
 40
4.1672
  1
File Text
100
AcDbText
  0
TEXT
  5
4E
330
1E
100
AcDbEntity
  8
OVERLAY_MAP
  6
C_SOLID_L
100
AcDbText
 10
0.0
 20
-6.349999999999999
 30
0.0
 40
4.1672
  1
ro 7s349 
100
AcDbText
  0
TEXT
  5
4F
330
1E
100
AcDbEntity
  8
OVERLAY_MAP
  6
C_SOLID_L
100
AcDbText
 10
126.999998
 20
-6.349999999999999
 30
0.0
 40
4.1672
  1
001
100
AcDbText
  0
TEXT
  5
50
330
1E
100
AcDbEntity
  8
OVERLAY_MAP
  6
C_SOLID_L
100
AcDbText
 10
177.7999969999999
 20
-6.349999999999999
 30
0.0
 40
4.1672
  1
                                                                   00139
100
AcDbText
  0
LINE
  5
51
330
1E
100
AcDbEntity
  8
MO_001_VIEW_PV
  6
C_SOLID_M
100
AcDbLine
 10
1.0
 20
33.0
 30
0.0
 11
1.0
 21
-33.0
 31
0.0
  0
LINE
  5
52
330
1E
100
AcDbEntity
  8
MO_001_VIEW_PV
  6
C_CENTER_L
100
AcDbLine
 10
-64.37319200000001
 20
0.0
 30
0.0
 11
30.76922199999999
 21
0.0
 31
0.0
  0
LINE
  5
53
330
1E
100
AcDbEntity
  8
MO_001_VIEW_PV
  6
C_CENTER_L
100
AcDbLine
 10
-2.100963999999999
 20
22.25
 30
0.0
 11
26.323643
 21
22.25
 31
0.0
  0
LINE
  5
54
330
1E
100
AcDbEntity
  8
MO_001_VIEW_PV
  6
C_SOLID_M
100
AcDbLine
 10
2.0
 20
25.25
 30
0.0
 11
23.0
 21
25.25
 31
0.0
  0
LINE
  5
55
330
1E
100
AcDbEntity
  8
MO_001_VIEW_PV
  6
C_SOLID_M
100
AcDbLine
 10
2.0
 20
19.25
 30
0.0
 11
23.0
 21
19.25
 31
0.0
  0
LINE
  5
56
330
1E
100
AcDbEntity
  8
MO_001_VIEW_PV
  6
C_SOLID_M
100
AcDbLine
 10
24.0
 20
24.25
 30
0.0
 11
24.0
 21
20.24999999999999
 31
0.0
  0
LINE
  5
57
330
1E
100
AcDbEntity
  8
MO_001_VIEW_PV
  6
C_SOLID_M
100
AcDbLine
 10
2.0
 20
24.25
 30
0.0
 11
24.0
 21
24.25
 31
0.0
  0
LINE
  5
58
330
1E
100
AcDbEntity
  8
MO_001_VIEW_PV
  6
C_SOLID_M
100
AcDbLine
 10
2.0
 20
20.24999999999999
 30
0.0
 11
24.0
 21
20.24999999999999
 31
0.0
  0
LINE
  5
59
330
1E
100
AcDbEntity
  8
MO_001_VIEW_PV
  6
C_SOLID_M
100
AcDbLine
 10
23.0
 20
25.25
 30
0.0
 11
23.0
 21
19.25
 31
0.0
  0
LINE
  5
5A
330
1E
100
AcDbEntity
  8
MO_001_VIEW_PV
  6
C_SOLID_M
100
AcDbLine
 10
23.000001
 20
25.250001
 30
0.0
 11
24.000001
 21
24.250001
 31
0.0
  0
LINE
  5
5B
330
1E
100
AcDbEntity
  8
MO_001_VIEW_PV
  6
C_SOLID_M
100
AcDbLine
 10
23.999999
 20
20.249999
 30
0.0
 11
22.99999899999999
 21
19.25
 31
0.0
  0
LINE
  5
5C
330
1E
100
AcDbEntity
  8
MO_001_VIEW_PV
  6
C_SOLID_M
100
AcDbLine
 10
-33.0
 20
31.049999
 30
0.0
 11
-33.0
 21
22.3778
 31
0.0
  0
LINE
  5
5D
330
1E
100
AcDbEntity
  8
MO_001_VIEW_PV
  6
C_SOLID_M
100
AcDbLine
 10
-36.700001
 20
21.64719199999999
 30
0.0
 11
-36.700001
 21
-32.79999899999999
 31
0.0
  0
LINE
  5
5E
330
1E
100
AcDbEntity
  8
MO_001_VIEW_PV
  6
C_SOLID_M
100
AcDbLine
 10
-30.400002
 20
35.0
 30
0.0
 11
-1.0
 21
35.0
 31
0.0
  0
LINE
  5
5F
330
1E
100
AcDbEntity
  8
MO_001_VIEW_PV
  6
C_SOLID_M
100
AcDbLine
 10
-6.749999
 20
-35.0
 30
0.0
 11
-0.999999
 21
-35.0
 31
0.0
  0
LINE
  5
60
330
1E
100
AcDbEntity
  8
MO_001_VIEW_PV
  6
C_SOLID_M
100
AcDbLine
 10
-35.5
 20
34.0
 30
0.0
 11
-30.600002
 21
34.0
 31
0.0
  0
LINE
  5
61
330
1E
100
AcDbEntity
  8
MO_001_VIEW_PV
  6
C_SOLID_M
100
AcDbLine
 10
-35.5
 20
-34.0
 30
0.0
 11
-30.600002
 21
-34.0
 31
0.0
  0
ARC
  5
62
330
1E
100
AcDbEntity
  8
MO_001_VIEW_PV
  6
C_SOLID_M
100
AcDbCircle
 10
-35.5
 20
32.79999899999999
 30
0.0
 40
1.199999999999999
100
AcDbArc
 50
90.000002
 51
180.000005
  0
ARC
  5
63
330
1E
100
AcDbEntity
  8
MO_001_VIEW_PV
  6
C_SOLID_M
100
AcDbCircle
 10
-35.5
 20
-32.79999899999999
 30
0.0
 40
1.199999999999999
100
AcDbArc
 50
180.000009
 51
269.999998
  0
LINE
  5
64
330
1E
100
AcDbEntity
  8
MO_001_VIEW_PV
  6
C_SOLID_M
100
AcDbLine
 10
-30.400002
 20
23.114618
 30
0.0
 11
-30.400002
 21
-35.0
 31
0.0
  0
ARC
  5
65
330
1E
100
AcDbEntity
  8
MO_001_VIEW_PV
  6
C_SOLID_M
100
AcDbCircle
 10
-30.600002
 20
34.200001
 30
0.0
 40
0.2
100
AcDbArc
 50
269.999998
 51
0.0
  0
ARC
  5
66
330
1E
100
AcDbEntity
  8
MO_001_VIEW_PV
  6
C_SOLID_M
100
AcDbCircle
 10
-30.600002
 20
-34.200001
 30
0.0
 40
0.2
100
AcDbArc
 50
0.0
 51
89.99998900000001
  0
LINE
  5
67
330
1E
100
AcDbEntity
  8
MO_001_VIEW_PV
  6
C_SOLID_M
100
AcDbLine
 10
-35.57249799999999
 20
30.549999
 30
0.0
 11
-35.57249799999999
 21
22.028439
 31
0.0
  0
LINE
  5
68
330
1E
100
AcDbEntity
  8
MO_001_VIEW_PV
  6
C_SOLID_M
100
AcDbLine
 10
-39.07249799999999
 20
30.549999
 30
0.0
 11
-39.07249799999999
 21
11.824207
 31
0.0
  0
LINE
  5
69
330
1E
100
AcDbEntity
  8
MO_001_VIEW_PV
  6
C_SOLID_M
100
AcDbLine
 10
-35.900002
 20
31.049999
 30
0.0
 11
-27.215277
 21
31.049999
 31
0.0
  0
LINE
  5
6A
330
1E
100
AcDbEntity
  8
MO_001_VIEW_PV
  6
C_SOLID_M
100
AcDbLine
 10
-35.900002
 20
31.049999
 30
0.0
 11
-35.900002
 21
30.549999
 31
0.0
  0
LINE
  5
6B
330
1E
100
AcDbEntity
  8
MO_001_VIEW_PV
  6
C_SOLID_M
100
AcDbLine
 10
-35.900003
 20
31.050002
 30
0.0
 11
-36.70000499999999
 21
31.34117899999999
 31
0.0
  0
LINE
  5
6C
330
1E
100
AcDbEntity
  8
MO_001_VIEW_PV
  6
C_SOLID_M
100
AcDbLine
 10
-29.0
 20
30.83564
 30
0.0
 11
-29.0
 21
25.529587
 31
0.0
  0
LINE
  5
6D
330
1E
100
AcDbEntity
  8
MO_001_VIEW_PV
  6
C_SOLID_M
100
AcDbLine
 10
-29.799999
 20
31.049999
 30
0.0
 11
-29.799999
 21
23.749096
 31
0.0
  0
LINE
  5
6E
330
1E
100
AcDbEntity
  8
MO_001_VIEW_PV
  6
C_SOLID_M
100
AcDbLine
 10
-29.799997
 20
31.04999799999999
 30
0.0
 11
-29.000001
 21
30.835641
 31
0.0
  0
LINE
  5
6F
330
1E
100
AcDbEntity
  8
MO_001_VIEW_PV
  6
C_SOLID_M
100
AcDbLine
 10
-30.400002
 20
35.0
 30
0.0
 11
-30.400002
 21
34.200001
 31
0.0
  0
POLYLINE
  5
70
330
1E
100
AcDbEntity
  8
MO_001_VIEW_PV
  6
C_SOLID_M
100
AcDb2dPolyline
 66
     1
 10
0.0
 20
0.0
 30
0.0
  0
VERTEX
  5
3FB
330
70
100
AcDbEntity
  8
MO_001_VIEW_PV
  6
C_SOLID_M
100
AcDbVertex
100
AcDb2dVertex
 10
-40.58161199999999
 20
19.724848
 30
0.0
  0
VERTEX
  5
3FC
330
70
100
AcDbEntity
  8
MO_001_VIEW_PV
  6
C_SOLID_M
100
AcDbVertex
100
AcDb2dVertex
 10
-39.144428
 20
20.51335499999999
 30
0.0
  0
VERTEX
  5
3FD
330
70
100
AcDbEntity
  8
MO_001_VIEW_PV
  6
C_SOLID_M
100
AcDbVertex
100
AcDb2dVertex
 10
-38.418663
 20
20.89007399999999
 30
0.0
  0
VERTEX
  5
3FE
330
70
100
AcDbEntity
  8
MO_001_VIEW_PV
  6
C_SOLID_M
100
AcDbVertex
100
AcDb2dVertex
 10
-37.680995
 20
21.242517
 30
0.0
  0
VERTEX
  5
3FF
330
70
100
AcDbEntity
  8
MO_001_VIEW_PV
  6
C_SOLID_M
100
AcDbVertex
100
AcDb2dVertex
 10
-37.306028
 20
21.40668499999999
 30
0.0
  0
VERTEX
  5
400
330
70
100
AcDbEntity
  8
MO_001_VIEW_PV
  6
C_SOLID_M
100
AcDbVertex
100
AcDb2dVertex
 10
-36.637453
 20
21.670147
 30
0.0
  0
VERTEX
  5
401
330
70
100
AcDbEntity
  8
MO_001_VIEW_PV
  6
C_SOLID_M
100
AcDbVertex
100
AcDb2dVertex
 10
-36.123864
 20
21.844627
 30
0.0
  0
VERTEX
  5
402
330
70
100
AcDbEntity
  8
MO_001_VIEW_PV
  6
C_SOLID_M
100
AcDbVertex
100
AcDb2dVertex
 10
-35.730814
 20
21.960684
 30
0.0
  0
VERTEX
  5
403
330
70
100
AcDbEntity
  8
MO_001_VIEW_PV
  6
C_SOLID_M
100
AcDbVertex
100
AcDb2dVertex
 10
-35.12708599999999
 20
22.108284
 30
0.0
  0
VERTEX
  5
404
330
70
100
AcDbEntity
  8
MO_001_VIEW_PV
  6
C_SOLID_M
100
AcDbVertex
100
AcDb2dVertex
 10
-34.818271
 20
22.169137
 30
0.0
  0
VERTEX
  5
405
330
70
100
AcDbEntity
  8
MO_001_VIEW_PV
  6
C_SOLID_M
100
AcDbVertex
100
AcDb2dVertex
 10
-34.504463
 20
22.220724
 30
0.0
  0
VERTEX
  5
406
330
70
100
AcDbEntity
  8
MO_001_VIEW_PV
  6
C_SOLID_M
100
AcDbVertex
100
AcDb2dVertex
 10
-33.967807
 20
22.28758699999999
 30
0.0
  0
VERTEX
  5
407
330
70
100
AcDbEntity
  8
MO_001_VIEW_PV
  6
C_SOLID_M
100
AcDbVertex
100
AcDb2dVertex
 10
-33.153866
 20
22.36368699999999
 30
0.0
  0
VERTEX
  5
408
330
70
100
AcDbEntity
  8
MO_001_VIEW_PV
  6
C_SOLID_M
100
AcDbVertex
100
AcDb2dVertex
 10
-32.750719
 20
22.40220799999999
 30
0.0
  0
VERTEX
  5
409
330
70
100
AcDbEntity
  8
MO_001_VIEW_PV
  6
C_SOLID_M
100
AcDbVertex
100
AcDb2dVertex
 10
-32.354954
 20
22.44803399999999
 30
0.0
  0
VERTEX
  5
40A
330
70
100
AcDbEntity
  8
MO_001_VIEW_PV
  6
C_SOLID_M
100
AcDbVertex
100
AcDb2dVertex
 10
-31.845015
 20
22.529558
 30
0.0
  0
VERTEX
  5
40B
330
70
100
AcDbEntity
  8
MO_001_VIEW_PV
  6
C_SOLID_M
100
AcDbVertex
100
AcDb2dVertex
 10
-31.480571
 20
22.61281499999999
 30
0.0
  0
VERTEX
  5
40C
330
70
100
AcDbEntity
  8
MO_001_VIEW_PV
  6
C_SOLID_M
100
AcDbVertex
100
AcDb2dVertex
 10
-31.219814
 20
22.69123299999999
 30
0.0
  0
VERTEX
  5
40D
330
70
100
AcDbEntity
  8
MO_001_VIEW_PV
  6
C_SOLID_M
100
AcDbVertex
100
AcDb2dVertex
 10
-31.032351
 20
22.760523
 30
0.0
  0
VERTEX
  5
40E
330
70
100
AcDbEntity
  8
MO_001_VIEW_PV
  6
C_SOLID_M
100
AcDbVertex
100
AcDb2dVertex
 10
-30.76572899999999
 20
22.883534
 30
0.0
  0
VERTEX
  5
40F
330
70
100
AcDbEntity
  8
MO_001_VIEW_PV
  6
C_SOLID_M
100
AcDbVertex
100
AcDb2dVertex
 10
-30.518528
 20
23.032232
 30
0.0
  0
VERTEX
  5
410
330
70
100
AcDbEntity
  8
MO_001_VIEW_PV
  6
C_SOLID_M
100
AcDbVertex
100
AcDb2dVertex
 10
-30.299521
 20
23.202504
 30
0.0
  0
VERTEX
  5
411
330
70
100
AcDbEntity
  8
MO_001_VIEW_PV
  6
C_SOLID_M
100
AcDbVertex
100
AcDb2dVertex
 10
-30.12326599999999
 20
23.37192
 30
0.0
  0
VERTEX
  5
412
330
70
100
AcDbEntity
  8
MO_001_VIEW_PV
  6
C_SOLID_M
100
AcDbVertex
100
AcDb2dVertex
 10
-29.97998799999999
 20
23.53462399999999
 30
0.0
  0
VERTEX
  5
413
330
70
100
AcDbEntity
  8
MO_001_VIEW_PV
  6
C_SOLID_M
100
AcDbVertex
100
AcDb2dVertex
 10
-29.862446
 20
23.687276
 30
0.0
  0
VERTEX
  5
414
330
70
100
AcDbEntity
  8
MO_001_VIEW_PV
  6
C_SOLID_M
100
AcDbVertex
100
AcDb2dVertex
 10
-29.67291599999999
 20
23.975523
 30
0.0
  0
VERTEX
  5
415
330
70
100
AcDbEntity
  8
MO_001_VIEW_PV
  6
C_SOLID_M
100
AcDbVertex
100
AcDb2dVertex
 10
-29.54305
 20
24.207597
 30
0.0
  0
VERTEX
  5
416
330
70
100
AcDbEntity
  8
MO_001_VIEW_PV
  6
C_SOLID_M
100
AcDbVertex
100
AcDb2dVertex
 10
-29.36555099999999
 20
24.57777699999999
 30
0.0
  0
VERTEX
  5
417
330
70
100
AcDbEntity
  8
MO_001_VIEW_PV
  6
C_SOLID_M
100
AcDbVertex
100
AcDb2dVertex
 10
-29.205759
 20
24.97010299999999
 30
0.0
  0
VERTEX
  5
418
330
70
100
AcDbEntity
  8
MO_001_VIEW_PV
  6
C_SOLID_M
100
AcDbVertex
100
AcDb2dVertex
 10
-29.094303
 20
25.279338
 30
0.0
  0
VERTEX
  5
419
330
70
100
AcDbEntity
  8
MO_001_VIEW_PV
  6
C_SOLID_M
100
AcDbVertex
100
AcDb2dVertex
 10
-28.91449899999999
 20
25.83798599999999
 30
0.0
  0
VERTEX
  5
41A
330
70
100
AcDbEntity
  8
MO_001_VIEW_PV
  6
C_SOLID_M
100
AcDbVertex
100
AcDb2dVertex
 10
-28.665771
 20
26.695811
 30
0.0
  0
VERTEX
  5
41B
330
70
100
AcDbEntity
  8
MO_001_VIEW_PV
  6
C_SOLID_M
100
AcDbVertex
100
AcDb2dVertex
 10
-28.418156
 20
27.54326199999999
 30
0.0
  0
VERTEX
  5
41C
330
70
100
AcDbEntity
  8
MO_001_VIEW_PV
  6
C_SOLID_M
100
AcDbVertex
100
AcDb2dVertex
 10
-28.266934
 20
28.013046
 30
0.0
  0
VERTEX
  5
41D
330
70
100
AcDbEntity
  8
MO_001_VIEW_PV
  6
C_SOLID_M
100
AcDbVertex
100
AcDb2dVertex
 10
-28.030053
 20
28.693924
 30
0.0
  0
VERTEX
  5
41E
330
70
100
AcDbEntity
  8
MO_001_VIEW_PV
  6
C_SOLID_M
100
AcDbVertex
100
AcDb2dVertex
 10
-27.78944699999999
 20
29.35521099999999
 30
0.0
  0
VERTEX
  5
41F
330
70
100
AcDbEntity
  8
MO_001_VIEW_PV
  6
C_SOLID_M
100
AcDbVertex
100
AcDb2dVertex
 10
-27.479042
 20
30.223886
 30
0.0
  0
VERTEX
  5
420
330
70
100
AcDbEntity
  8
MO_001_VIEW_PV
  6
C_SOLID_M
100
AcDbVertex
100
AcDb2dVertex
 10
-27.33454699999999
 20
30.659359
 30
0.0
  0
VERTEX
  5
421
330
70
100
AcDbEntity
  8
MO_001_VIEW_PV
  6
C_SOLID_M
100
AcDbVertex
100
AcDb2dVertex
 10
-27.200893
 20
31.099575
 30
0.0
  0
VERTEX
  5
422
330
70
100
AcDbEntity
  8
MO_001_VIEW_PV
  6
C_SOLID_M
100
AcDbVertex
100
AcDb2dVertex
 10
-27.063146
 20
31.615176
 30
0.0
  0
VERTEX
  5
423
330
70
100
AcDbEntity
  8
MO_001_VIEW_PV
  6
C_SOLID_M
100
AcDbVertex
100
AcDb2dVertex
 10
-26.887884
 20
32.404164
 30
0.0
  0
VERTEX
  5
424
330
70
100
AcDbEntity
  8
MO_001_VIEW_PV
  6
C_SOLID_M
100
AcDbVertex
100
AcDb2dVertex
 10
-26.74683599999999
 20
33.206876
 30
0.0
  0
VERTEX
  5
425
330
70
100
AcDbEntity
  8
MO_001_VIEW_PV
  6
C_SOLID_M
100
AcDbVertex
100
AcDb2dVertex
 10
-26.669912
 20
33.746874
 30
0.0
  0
VERTEX
  5
426
330
70
100
AcDbEntity
  8
MO_001_VIEW_PV
  6
C_SOLID_M
100
AcDbVertex
100
AcDb2dVertex
 10
-26.57734
 20
34.560008
 30
0.0
  0
VERTEX
  5
427
330
70
100
AcDbEntity
  8
MO_001_VIEW_PV
  6
C_SOLID_M
100
AcDbVertex
100
AcDb2dVertex
 10
-26.508726
 20
35.37192499999999
 30
0.0
  0
SEQEND
  5
428
330
70
100
AcDbEntity
  8
MO_001_VIEW_PV
  6
C_SOLID_M
  0
LINE
  5
9F
330
1E
100
AcDbEntity
  8
MO_001_VIEW_PV
  6
C_SOLID_M
100
AcDbLine
 10
-39.07249799999999
 20
30.549999
 30
0.0
 11
-35.57249799999999
 21
30.549999
 31
0.0
  0
LINE
  5
A0
330
1E
100
AcDbEntity
  8
MO_001_VIEW_PV
  6
C_SOLID_M
100
AcDbLine
 10
-36.700001
 20
32.79999899999999
 30
0.0
 11
-36.700001
 21
30.549999
 31
0.0
  0
LINE
  5
A1
330
1E
100
AcDbEntity
  8
MO_001_VIEW_PV
  6
C_SOLID_M
100
AcDbLine
 10
-39.07249799999999
 20
-30.550003
 30
0.0
 11
-39.07249799999999
 21
30.550003
 31
0.0
  0
LINE
  5
A2
330
1E
100
AcDbEntity
  8
MO_001_VIEW_PV
  6
C_SOLID_M
100
AcDbLine
 10
-39.07249799999999
 20
-30.550003
 30
0.0
 11
-36.799999
 21
-30.550003
 31
0.0
  0
LINE
  5
A3
330
1E
100
AcDbEntity
  8
MO_001_VIEW_PV
  6
C_SOLID_M
100
AcDbLine
 10
-39.07249799999999
 20
30.550003
 30
0.0
 11
-35.57249799999999
 21
30.550003
 31
0.0
  0
LINE
  5
A4
330
1E
100
AcDbEntity
  8
MO_001_VIEW_PV
  6
C_SOLID_M
100
AcDbLine
 10
-39.255085
 20
3.981802999999999
 30
0.0
 11
-39.07249799999999
 21
3.981802999999999
 31
0.0
  0
ARC
  5
A5
330
1E
100
AcDbEntity
  8
MO_001_VIEW_PV
  6
C_SOLID_M
100
AcDbCircle
 10
-38.945377
 20
-23.800003
 30
0.0
 40
3.175002999999999
100
AcDbArc
 50
92.29465199999999
 51
267.705385
  0
ARC
  5
A6
330
1E
100
AcDbEntity
  8
MO_001_VIEW_PV
  6
C_SOLID_M
100
AcDbCircle
 10
-38.945377
 20
16.079056
 30
0.0
 40
3.174999999999999
100
AcDbArc
 50
92.29465199999999
 51
187.416347
  0
LINE
  5
A7
330
1E
100
AcDbEntity
  8
MO_001_VIEW_PV
  6
C_SOLID_M
100
AcDbLine
 10
-42.093815
 20
15.669233
 30
0.0
 11
-40.742544
 21
5.288186
 31
0.0
  0
ARC
  5
A8
330
1E
100
AcDbEntity
  8
MO_001_VIEW_PV
  6
C_SOLID_M
100
AcDbCircle
 10
-39.255085
 20
5.481803
 30
0.0
 40
1.5
100
AcDbArc
 50
187.416365
 51
270.0002979999999
  0
LINE
  5
A9
330
1E
100
AcDbEntity
  8
MO_001_VIEW_PV
  6
C_CENTER_L
100
AcDbLine
 10
-2.100963999999999
 20
-22.25
 30
0.0
 11
26.323643
 21
-22.25
 31
0.0
  0
LINE
  5
AA
330
1E
100
AcDbEntity
  8
MO_001_VIEW_PV
  6
C_SOLID_M
100
AcDbLine
 10
2.0
 20
-25.25
 30
0.0
 11
23.0
 21
-25.25
 31
0.0
  0
LINE
  5
AB
330
1E
100
AcDbEntity
  8
MO_001_VIEW_PV
  6
C_SOLID_M
100
AcDbLine
 10
2.0
 20
-19.25
 30
0.0
 11
23.0
 21
-19.25
 31
0.0
  0
LINE
  5
AC
330
1E
100
AcDbEntity
  8
MO_001_VIEW_PV
  6
C_SOLID_M
100
AcDbLine
 10
24.0
 20
-24.25
 30
0.0
 11
24.0
 21
-20.24999999999999
 31
0.0
  0
LINE
  5
AD
330
1E
100
AcDbEntity
  8
MO_001_VIEW_PV
  6
C_SOLID_M
100
AcDbLine
 10
2.0
 20
-24.25
 30
0.0
 11
24.0
 21
-24.25
 31
0.0
  0
LINE
  5
AE
330
1E
100
AcDbEntity
  8
MO_001_VIEW_PV
  6
C_SOLID_M
100
AcDbLine
 10
2.0
 20
-20.24999999999999
 30
0.0
 11
24.0
 21
-20.24999999999999
 31
0.0
  0
LINE
  5
AF
330
1E
100
AcDbEntity
  8
MO_001_VIEW_PV
  6
C_SOLID_M
100
AcDbLine
 10
23.0
 20
-25.25
 30
0.0
 11
23.0
 21
-19.25
 31
0.0
  0
LINE
  5
B0
330
1E
100
AcDbEntity
  8
MO_001_VIEW_PV
  6
C_SOLID_M
100
AcDbLine
 10
23.000001
 20
-25.250001
 30
0.0
 11
24.000001
 21
-24.250001
 31
0.0
  0
LINE
  5
B1
330
1E
100
AcDbEntity
  8
MO_001_VIEW_PV
  6
C_SOLID_M
100
AcDbLine
 10
23.999998
 20
-20.249998
 30
0.0
 11
22.999998
 21
-19.249998
 31
0.0
  0
LINE
  5
B2
330
1E
100
AcDbEntity
  8
MO_001_VIEW_PV
  6
C_SOLID_M
100
AcDbLine
 10
23.4275
 20
4.465000999999999
 30
0.0
 11
23.4275
 21
-4.465000999999999
 31
0.0
  0
LINE
  5
B3
330
1E
100
AcDbEntity
  8
MO_001_VIEW_PV
  6
C_SOLID_M
100
AcDbLine
 10
-59.372498
 20
4.619412
 30
0.0
 11
-59.372498
 21
-4.619412
 31
0.0
  0
LINE
  5
B4
330
1E
100
AcDbEntity
  8
MO_001_VIEW_PV
  6
C_SOLID_M
100
AcDbLine
 10
8.9275
 20
4.764999999999999
 30
0.0
 11
23.127501
 21
4.764999999999999
 31
0.0
  0
LINE
  5
B5
330
1E
100
AcDbEntity
  8
MO_001_VIEW_PV
  6
C_SOLID_M
100
AcDbLine
 10
8.627500999999998
 20
-4.764999999999999
 30
0.0
 11
23.127501
 21
-4.764999999999999
 31
0.0
  0
LINE
  5
B6
330
1E
100
AcDbEntity
  8
MO_001_VIEW_PV
  6
C_SOLID_M
100
AcDbLine
 10
-58.972496
 20
4.764999999999999
 30
0.0
 11
-58.972496
 21
-4.764999999999999
 31
0.0
  0
LINE
  5
B7
330
1E
100
AcDbEntity
  8
MO_001_VIEW_PV
  6
C_SOLID_M
100
AcDbLine
 10
-58.97249399999999
 20
4.765000999999999
 30
0.0
 11
-59.37249699999999
 21
4.619412
 31
0.0
  0
LINE
  5
B8
330
1E
100
AcDbEntity
  8
MO_001_VIEW_PV
  6
C_SOLID_M
100
AcDbLine
 10
-58.97249399999999
 20
-4.765000999999999
 30
0.0
 11
-59.37249699999999
 21
-4.619412
 31
0.0
  0
LINE
  5
B9
330
1E
100
AcDbEntity
  8
MO_001_VIEW_PV
  6
C_SOLID_M
100
AcDbLine
 10
23.127504
 20
4.765001999999999
 30
0.0
 11
23.427504
 21
4.465003
 31
0.0
  0
LINE
  5
BA
330
1E
100
AcDbEntity
  8
MO_001_VIEW_PV
  6
C_SOLID_M
100
AcDbLine
 10
23.127504
 20
-4.765001999999999
 30
0.0
 11
23.427504
 21
-4.465003
 31
0.0
  0
LINE
  5
BB
330
1E
100
AcDbEntity
  8
MO_001_VIEW_PV
  6
C_SOLID_M
100
AcDbLine
 10
23.127501
 20
4.764999999999999
 30
0.0
 11
23.127501
 21
-4.764999999999999
 31
0.0
  0
LINE
  5
BC
330
1E
100
AcDbEntity
  8
MO_001_VIEW_PV
  6
C_SOLID_M
100
AcDbLine
 10
8.9275
 20
4.764999999999999
 30
0.0
 11
8.9275
 21
3.464999999999999
 31
0.0
  0
LINE
  5
BD
330
1E
100
AcDbEntity
  8
MO_001_VIEW_PV
  6
C_SOLID_M
100
AcDbLine
 10
8.627500999999998
 20
3.464999999999999
 30
0.0
 11
8.9275
 21
3.464999999999999
 31
0.0
  0
LINE
  5
BE
330
1E
100
AcDbEntity
  8
MO_001_VIEW_PV
  6
C_SOLID_M
100
AcDbLine
 10
-58.972496
 20
4.764999999999999
 30
0.0
 11
-40.67444199999999
 21
4.764999999999999
 31
0.0
  0
LINE
  5
BF
330
1E
100
AcDbEntity
  8
MO_001_VIEW_PV
  6
C_SOLID_M
100
AcDbLine
 10
-58.972496
 20
-4.764999999999999
 30
0.0
 11
-40.272499
 21
-4.764999999999999
 31
0.0
  0
LINE
  5
C0
330
1E
100
AcDbEntity
  8
MO_001_VIEW_PV
  6
C_SOLID_M
100
AcDbLine
 10
-40.272499
 20
4.379591999999999
 30
0.0
 11
-40.272499
 21
-13.31782999999999
 31
0.0
  0
LINE
  5
C1
330
1E
100
AcDbEntity
  8
MO_001_VIEW_PV
  6
C_SOLID_M
100
AcDbLine
 10
-39.57249799999999
 20
-13.31782999999999
 30
0.0
 11
-39.57249799999999
 21
-14.599998
 31
0.0
  0
LINE
  5
C2
330
1E
100
AcDbEntity
  8
MO_001_VIEW_PV
  6
C_SOLID_M
100
AcDbLine
 10
-39.57249799999999
 20
-14.599998
 30
0.0
 11
-39.07249799999999
 21
-14.599998
 31
0.0
  0
LINE
  5
C3
330
1E
100
AcDbEntity
  8
MO_001_VIEW_PV
  6
C_SOLID_M
100
AcDbLine
 10
-39.57249799999999
 20
-13.482893
 30
0.0
 11
-39.07249799999999
 21
-13.482893
 31
0.0
  0
LINE
  5
C4
330
1E
100
AcDbEntity
  8
MO_001_VIEW_PV
  6
C_SOLID_M
100
AcDbLine
 10
-40.272499
 20
-13.31782999999999
 30
0.0
 11
-39.57249799999999
 21
-13.31782999999999
 31
0.0
  0
LINE
  5
C5
330
1E
100
AcDbEntity
  8
MO_001_VIEW_PV
  6
C_SOLID_M
100
AcDbLine
 10
-40.272499
 20
-9.441713
 30
0.0
 11
-39.57249799999999
 21
-9.441713
 31
0.0
  0
LINE
  5
C6
330
1E
100
AcDbEntity
  8
MO_001_VIEW_PV
  6
C_SOLID_M
100
AcDbLine
 10
-39.57249799999999
 20
-8.845289999999998
 30
0.0
 11
-39.07249799999999
 21
-8.845289999999998
 31
0.0
  0
LINE
  5
C7
330
1E
100
AcDbEntity
  8
MO_001_VIEW_PV
  6
C_SOLID_M
100
AcDbLine
 10
-39.57249799999999
 20
-4.637602999999999
 30
0.0
 11
-39.07249799999999
 21
-4.637602999999999
 31
0.0
  0
LINE
  5
C8
330
1E
100
AcDbEntity
  8
MO_001_VIEW_PV
  6
C_SOLID_M
100
AcDbLine
 10
-40.272499
 20
-3.876116999999999
 30
0.0
 11
-39.57249799999999
 21
-3.876116999999999
 31
0.0
  0
LINE
  5
C9
330
1E
100
AcDbEntity
  8
MO_001_VIEW_PV
  6
C_SOLID_M
100
AcDbLine
 10
-40.272499
 20
3.876117999999999
 30
0.0
 11
-39.57249799999999
 21
3.876117999999999
 31
0.0
  0
LINE
  5
CA
330
1E
100
AcDbEntity
  8
MO_001_VIEW_PV
  6
C_SOLID_M
100
AcDbLine
 10
-39.57249799999999
 20
-3.876116999999999
 30
0.0
 11
-39.57249799999999
 21
-9.441713
 31
0.0
  0
LINE
  5
CB
330
1E
100
AcDbEntity
  8
MO_001_VIEW_PV
  6
C_SOLID_M
100
AcDbLine
 10
-39.57249799999999
 20
4.015770999999999
 30
0.0
 11
-39.57249799999999
 21
3.876117999999999
 31
0.0
  0
LINE
  5
CC
330
1E
100
AcDbEntity
  8
MO_001_VIEW_PV
  6
C_CENTER_L
100
AcDbLine
 10
81.0
 20
-38.0
 30
0.0
 11
81.0
 21
38.0
 31
0.0
  0
LINE
  5
CD
330
1E
100
AcDbEntity
  8
MO_001_VIEW_PV
  6
C_CENTER_L
100
AcDbLine
 10
43.639099
 20
0.0
 30
0.0
 11
117.744034
 21
0.0
 31
0.0
  0
CIRCLE
  5
CE
330
1E
100
AcDbEntity
  8
MO_001_VIEW_PV
  6
C_SOLID_M
100
AcDbCircle
 10
81.0
 20
0.0
 30
0.0
 40
35.0
  0
LINE
  5
CF
330
1E
100
AcDbEntity
  8
MO_001_VIEW_PV
  6
C_SOLID_M
100
AcDbLine
 10
-1.0
 20
35.0
 30
0.0
 11
-1.0
 21
-35.0
 31
0.0
  0
LINE
  5
D0
330
1E
100
AcDbEntity
  8
MO_001_VIEW_PV
  6
C_SOLID_M
100
AcDbLine
 10
-0.999999
 20
34.999999
 30
0.0
 11
1.000000999999999
 21
33.0
 31
0.0
  0
LINE
  5
D1
330
1E
100
AcDbEntity
  8
MO_001_VIEW_PV
  6
C_SOLID_M
100
AcDbLine
 10
0.999999
 20
-32.999997
 30
0.0
 11
-1.0
 21
-34.999997
 31
0.0
  0
CIRCLE
  5
D2
330
1E
100
AcDbEntity
  8
MO_001_VIEW_PV
  6
C_SOLID_M
100
AcDbCircle
 10
81.0
 20
0.0
 30
0.0
 40
33.0
  0
CIRCLE
  5
D3
330
1E
100
AcDbEntity
  8
MO_001_VIEW_PV
  6
C_SOLID_M
100
AcDbCircle
 10
81.0
 20
0.0
 30
0.0
 40
31.15
  0
CIRCLE
  5
D4
330
1E
100
AcDbEntity
  8
MO_001_VIEW_PV
  6
C_SOLID_M
100
AcDbCircle
 10
81.0
 20
22.25
 30
0.0
 40
2.0
  0
CIRCLE
  5
D5
330
1E
100
AcDbEntity
  8
MO_001_VIEW_PV
  6
C_SOLID_M
100
AcDbCircle
 10
81.0
 20
22.25
 30
0.0
 40
3.0
  0
LINE
  5
D6
330
1E
100
AcDbEntity
  8
MO_001_VIEW_PV
  6
C_CENTER_L
100
AcDbLine
 10
75.0
 20
22.25
 30
0.0
 11
87.0
 21
22.25
 31
0.0
  0
CIRCLE
  5
D7
330
1E
100
AcDbEntity
  8
MO_001_VIEW_PV
  6
C_SOLID_M
100
AcDbCircle
 10
81.0
 20
-22.25
 30
0.0
 40
3.0
  0
CIRCLE
  5
D8
330
1E
100
AcDbEntity
  8
MO_001_VIEW_PV
  6
C_SOLID_M
100
AcDbCircle
 10
81.0
 20
-22.25
 30
0.0
 40
2.0
  0
LINE
  5
D9
330
1E
100
AcDbEntity
  8
MO_001_VIEW_PV
  6
C_CENTER_L
100
AcDbLine
 10
75.0
 20
-22.25
 30
0.0
 11
87.0
 21
-22.25
 31
0.0
  0
CIRCLE
  5
DA
330
1E
100
AcDbEntity
  8
MO_001_VIEW_PV
  6
C_SOLID_M
100
AcDbCircle
 10
81.0
 20
0.0
 30
0.0
 40
4.764999999999999
  0
CIRCLE
  5
DB
330
1E
100
AcDbEntity
  8
MO_001_VIEW_PV
  6
C_SOLID_M
100
AcDbCircle
 10
81.0
 20
0.0
 30
0.0
 40
4.464999999999999
  0
LINE
  5
DC
330
1E
100
AcDbEntity
  8
MO_001_VIEW_PV
  6
C_SOLID_M
100
AcDbLine
 10
94.350006
 20
-32.353939
 30
0.0
 11
94.350006
 21
-50.0
 31
0.0
  0
LINE
  5
DD
330
1E
100
AcDbEntity
  8
MO_001_VIEW_PV
  6
C_SOLID_M
100
AcDbLine
 10
91.44999699999999
 20
-33.40355699999999
 30
0.0
 11
91.44999699999999
 21
-50.0
 31
0.0
  0
LINE
  5
DE
330
1E
100
AcDbEntity
  8
MO_001_VIEW_PV
  6
C_SOLID_M
100
AcDbLine
 10
91.44999699999999
 20
-50.0
 30
0.0
 11
94.350006
 21
-50.0
 31
0.0
  0
LINE
  5
DF
330
1E
100
AcDbEntity
  8
MO_001_VIEW_PV
  6
C_SOLID_M
100
AcDbLine
 10
93.805008
 20
-56.0
 30
0.0
 11
93.805008
 21
-60.5
 31
0.0
  0
LINE
  5
E0
330
1E
100
AcDbEntity
  8
MO_001_VIEW_PV
  6
C_SOLID_M
100
AcDbLine
 10
91.99500999999999
 20
-56.0
 30
0.0
 11
91.99500999999999
 21
-60.5
 31
0.0
  0
ARC
  5
E1
330
1E
100
AcDbEntity
  8
MO_001_VIEW_PV
  6
C_SOLID_M
100
AcDbCircle
 10
92.44749499999999
 20
-55.35535
 30
0.0
 40
0.5753520000000001
100
AcDbArc
 50
38.142761
 51
141.8572369999999
  0
ARC
  5
E2
330
1E
100
AcDbEntity
  8
MO_001_VIEW_PV
  6
C_SOLID_M
100
AcDbCircle
 10
92.44749499999999
 20
-54.64465
 30
0.0
 40
0.5753520000000001
100
AcDbArc
 50
218.1427629999999
 51
321.8572389999999
  0
ARC
  5
E3
330
1E
100
AcDbEntity
  8
MO_001_VIEW_PV
  6
C_SOLID_M
100
AcDbCircle
 10
93.352493
 20
-54.64465
 30
0.0
 40
0.5753520000000001
100
AcDbArc
 50
218.1427629999999
 51
321.8572389999999
  0
ARC
  5
E4
330
1E
100
AcDbEntity
  8
MO_001_VIEW_PV
  6
C_SOLID_M
100
AcDbCircle
 10
92.44749499999999
 20
-56.35535
 30
0.0
 40
0.5753520000000001
100
AcDbArc
 50
38.142761
 51
141.8572369999999
  0
ARC
  5
E5
330
1E
100
AcDbEntity
  8
MO_001_VIEW_PV
  6
C_SOLID_M
100
AcDbCircle
 10
93.352493
 20
-56.35535
 30
0.0
 40
0.5753520000000001
100
AcDbArc
 50
38.142761
 51
141.8572369999999
  0
ARC
  5
E6
330
1E
100
AcDbEntity
  8
MO_001_VIEW_PV
  6
C_SOLID_M
100
AcDbCircle
 10
93.352493
 20
-55.64465
 30
0.0
 40
0.5753520000000001
100
AcDbArc
 50
218.1427629999999
 51
321.8572389999999
  0
LINE
  5
E7
330
1E
100
AcDbEntity
  8
MO_001_VIEW_PV
  6
C_SOLID_M
100
AcDbLine
 10
91.99500999999999
 20
-50.0
 30
0.0
 11
91.99500999999999
 21
-55.0
 31
0.0
  0
LINE
  5
E8
330
1E
100
AcDbEntity
  8
MO_001_VIEW_PV
  6
C_SOLID_M
100
AcDbLine
 10
93.805008
 20
-50.0
 30
0.0
 11
93.805008
 21
-55.0
 31
0.0
  0
LINE
  5
E9
330
1E
100
AcDbEntity
  8
MO_001_VIEW_PV
  6
C_SOLID_M
100
AcDbLine
 10
91.99500999999999
 20
-60.5
 30
0.0
 11
93.805008
 21
-60.5
 31
0.0
  0
LINE
  5
EA
330
1E
100
AcDbEntity
  8
MO_001_VIEW_PV
  6
C_SOLID_M
100
AcDbLine
 10
93.15000899999999
 20
-60.5
 30
0.0
 11
93.15000899999999
 21
-65.5
 31
0.0
  0
LINE
  5
EB
330
1E
100
AcDbEntity
  8
MO_001_VIEW_PV
  6
C_SOLID_M
100
AcDbLine
 10
92.650009
 20
-60.5
 30
0.0
 11
92.650009
 21
-65.5
 31
0.0
  0
LINE
  5
EC
330
1E
100
AcDbEntity
  8
MO_001_VIEW_PV
  6
C_SOLID_M
100
AcDbLine
 10
92.650009
 20
-65.5
 30
0.0
 11
93.15000899999999
 21
-65.5
 31
0.0
  0
LINE
  5
ED
330
1E
100
AcDbEntity
  8
MO_001_VIEW_PV
  6
C_SOLID_M
100
AcDbLine
 10
70.550003
 20
-33.40355699999999
 30
0.0
 11
70.550003
 21
-50.0
 31
0.0
  0
LINE
  5
EE
330
1E
100
AcDbEntity
  8
MO_001_VIEW_PV
  6
C_SOLID_M
100
AcDbLine
 10
67.64999399999999
 20
-32.353939
 30
0.0
 11
67.64999399999999
 21
-50.0
 31
0.0
  0
LINE
  5
EF
330
1E
100
AcDbEntity
  8
MO_001_VIEW_PV
  6
C_SOLID_M
100
AcDbLine
 10
67.64999399999999
 20
-50.0
 30
0.0
 11
70.550003
 21
-50.0
 31
0.0
  0
LINE
  5
F0
330
1E
100
AcDbEntity
  8
MO_001_VIEW_PV
  6
C_SOLID_M
100
AcDbLine
 10
70.00499000000001
 20
-56.0
 30
0.0
 11
70.00499000000001
 21
-60.5
 31
0.0
  0
LINE
  5
F1
330
1E
100
AcDbEntity
  8
MO_001_VIEW_PV
  6
C_SOLID_M
100
AcDbLine
 10
68.194992
 20
-56.0
 30
0.0
 11
68.194992
 21
-60.5
 31
0.0
  0
ARC
  5
F2
330
1E
100
AcDbEntity
  8
MO_001_VIEW_PV
  6
C_SOLID_M
100
AcDbCircle
 10
68.64750699999999
 20
-55.35535
 30
0.0
 40
0.5753520000000001
100
AcDbArc
 50
38.142761
 51
141.8572369999999
  0
ARC
  5
F3
330
1E
100
AcDbEntity
  8
MO_001_VIEW_PV
  6
C_SOLID_M
100
AcDbCircle
 10
68.64750699999999
 20
-54.64465
 30
0.0
 40
0.5753520000000001
100
AcDbArc
 50
218.1427629999999
 51
321.8572389999999
  0
ARC
  5
F4
330
1E
100
AcDbEntity
  8
MO_001_VIEW_PV
  6
C_SOLID_M
100
AcDbCircle
 10
69.55250500000001
 20
-54.64465
 30
0.0
 40
0.5753520000000001
100
AcDbArc
 50
218.1427629999999
 51
321.8572389999999
  0
ARC
  5
F5
330
1E
100
AcDbEntity
  8
MO_001_VIEW_PV
  6
C_SOLID_M
100
AcDbCircle
 10
68.64750699999999
 20
-56.35535
 30
0.0
 40
0.5753520000000001
100
AcDbArc
 50
38.142761
 51
141.8572369999999
  0
ARC
  5
F6
330
1E
100
AcDbEntity
  8
MO_001_VIEW_PV
  6
C_SOLID_M
100
AcDbCircle
 10
69.55250500000001
 20
-56.35535
 30
0.0
 40
0.5753520000000001
100
AcDbArc
 50
38.142761
 51
141.8572369999999
  0
ARC
  5
F7
330
1E
100
AcDbEntity
  8
MO_001_VIEW_PV
  6
C_SOLID_M
100
AcDbCircle
 10
69.55250500000001
 20
-55.64465
 30
0.0
 40
0.5753520000000001
100
AcDbArc
 50
218.1427629999999
 51
321.8572389999999
  0
LINE
  5
F8
330
1E
100
AcDbEntity
  8
MO_001_VIEW_PV
  6
C_SOLID_M
100
AcDbLine
 10
68.194992
 20
-50.0
 30
0.0
 11
68.194992
 21
-55.0
 31
0.0
  0
LINE
  5
F9
330
1E
100
AcDbEntity
  8
MO_001_VIEW_PV
  6
C_SOLID_M
100
AcDbLine
 10
70.00499000000001
 20
-50.0
 30
0.0
 11
70.00499000000001
 21
-55.0
 31
0.0
  0
LINE
  5
FA
330
1E
100
AcDbEntity
  8
MO_001_VIEW_PV
  6
C_SOLID_M
100
AcDbLine
 10
68.194992
 20
-60.5
 30
0.0
 11
70.00499000000001
 21
-60.5
 31
0.0
  0
LINE
  5
FB
330
1E
100
AcDbEntity
  8
MO_001_VIEW_PV
  6
C_SOLID_M
100
AcDbLine
 10
69.349991
 20
-60.5
 30
0.0
 11
69.349991
 21
-65.5
 31
0.0
  0
LINE
  5
FC
330
1E
100
AcDbEntity
  8
MO_001_VIEW_PV
  6
C_SOLID_M
100
AcDbLine
 10
68.849991
 20
-60.5
 30
0.0
 11
68.849991
 21
-65.5
 31
0.0
  0
LINE
  5
FD
330
1E
100
AcDbEntity
  8
MO_001_VIEW_PV
  6
C_SOLID_M
100
AcDbLine
 10
68.849991
 20
-65.5
 30
0.0
 11
69.349991
 21
-65.5
 31
0.0
  0
POLYLINE
  5
FE
330
1E
100
AcDbEntity
  8
MO_001_VIEW_PV
  6
C_SOLID_M
100
AcDb2dPolyline
 66
     1
 10
0.0
 20
0.0
 30
0.0
  0
VERTEX
  5
429
330
FE
100
AcDbEntity
  8
MO_001_VIEW_PV
  6
C_SOLID_M
100
AcDbVertex
100
AcDb2dVertex
 10
-6.749997999999999
 20
-33.451343
 30
0.0
  0
VERTEX
  5
42A
330
FE
100
AcDbEntity
  8
MO_001_VIEW_PV
  6
C_SOLID_M
100
AcDbVertex
100
AcDb2dVertex
 10
-6.505351999999999
 20
-33.364221
 30
0.0
  0
VERTEX
  5
42B
330
FE
100
AcDbEntity
  8
MO_001_VIEW_PV
  6
C_SOLID_M
100
AcDbVertex
100
AcDb2dVertex
 10
-6.311662
 20
-33.27118
 30
0.0
  0
VERTEX
  5
42C
330
FE
100
AcDbEntity
  8
MO_001_VIEW_PV
  6
C_SOLID_M
100
AcDbVertex
100
AcDb2dVertex
 10
-6.165046
 20
-33.17569
 30
0.0
  0
VERTEX
  5
42D
330
FE
100
AcDbEntity
  8
MO_001_VIEW_PV
  6
C_SOLID_M
100
AcDbVertex
100
AcDb2dVertex
 10
-6.06074
 20
-33.080459
 30
0.0
  0
VERTEX
  5
42E
330
FE
100
AcDbEntity
  8
MO_001_VIEW_PV
  6
C_SOLID_M
100
AcDbVertex
100
AcDb2dVertex
 10
-5.993598999999999
 20
-32.98752899999999
 30
0.0
  0
VERTEX
  5
42F
330
FE
100
AcDbEntity
  8
MO_001_VIEW_PV
  6
C_SOLID_M
100
AcDbVertex
100
AcDb2dVertex
 10
-5.958448
 20
-32.89836799999999
 30
0.0
  0
VERTEX
  5
430
330
FE
100
AcDbEntity
  8
MO_001_VIEW_PV
  6
C_SOLID_M
100
AcDbVertex
100
AcDb2dVertex
 10
-5.950320999999999
 20
-32.813977
 30
0.0
  0
VERTEX
  5
431
330
FE
100
AcDbEntity
  8
MO_001_VIEW_PV
  6
C_SOLID_M
100
AcDbVertex
100
AcDb2dVertex
 10
-5.964612
 20
-32.734977
 30
0.0
  0
VERTEX
  5
432
330
FE
100
AcDbEntity
  8
MO_001_VIEW_PV
  6
C_SOLID_M
100
AcDbVertex
100
AcDb2dVertex
 10
-5.997147
 20
-32.661696
 30
0.0
  0
VERTEX
  5
433
330
FE
100
AcDbEntity
  8
MO_001_VIEW_PV
  6
C_SOLID_M
100
AcDbVertex
100
AcDb2dVertex
 10
-6.04423
 20
-32.594232
 30
0.0
  0
VERTEX
  5
434
330
FE
100
AcDbEntity
  8
MO_001_VIEW_PV
  6
C_SOLID_M
100
AcDbVertex
100
AcDb2dVertex
 10
-6.102635
 20
-32.53251999999999
 30
0.0
  0
VERTEX
  5
435
330
FE
100
AcDbEntity
  8
MO_001_VIEW_PV
  6
C_SOLID_M
100
AcDbVertex
100
AcDb2dVertex
 10
-6.169588
 20
-32.476374
 30
0.0
  0
VERTEX
  5
436
330
FE
100
AcDbEntity
  8
MO_001_VIEW_PV
  6
C_SOLID_M
100
AcDbVertex
100
AcDb2dVertex
 10
-6.325567999999999
 20
-32.376668
 30
0.0
  0
VERTEX
  5
437
330
FE
100
AcDbEntity
  8
MO_001_VIEW_PV
  6
C_SOLID_M
100
AcDbVertex
100
AcDb2dVertex
 10
-6.492548
 20
-32.29667199999999
 30
0.0
  0
VERTEX
  5
438
330
FE
100
AcDbEntity
  8
MO_001_VIEW_PV
  6
C_SOLID_M
100
AcDbVertex
100
AcDb2dVertex
 10
-6.659942999999999
 20
-32.23322899999999
 30
0.0
  0
VERTEX
  5
439
330
FE
100
AcDbEntity
  8
MO_001_VIEW_PV
  6
C_SOLID_M
100
AcDbVertex
100
AcDb2dVertex
 10
-6.821124
 20
-32.18334399999999
 30
0.0
  0
VERTEX
  5
43A
330
FE
100
AcDbEntity
  8
MO_001_VIEW_PV
  6
C_SOLID_M
100
AcDbVertex
100
AcDb2dVertex
 10
-7.131711
 20
-32.11004299999999
 30
0.0
  0
VERTEX
  5
43B
330
FE
100
AcDbEntity
  8
MO_001_VIEW_PV
  6
C_SOLID_M
100
AcDbVertex
100
AcDb2dVertex
 10
-7.384166
 20
-32.067757
 30
0.0
  0
VERTEX
  5
43C
330
FE
100
AcDbEntity
  8
MO_001_VIEW_PV
  6
C_SOLID_M
100
AcDbVertex
100
AcDb2dVertex
 10
-7.784961
 20
-32.02625499999999
 30
0.0
  0
VERTEX
  5
43D
330
FE
100
AcDbEntity
  8
MO_001_VIEW_PV
  6
C_SOLID_M
100
AcDbVertex
100
AcDb2dVertex
 10
-8.199999
 20
-32.01226
 30
0.0
  0
VERTEX
  5
43E
330
FE
100
AcDbEntity
  8
MO_001_VIEW_PV
  6
C_SOLID_M
100
AcDbVertex
100
AcDb2dVertex
 10
-8.541976
 20
-32.021735
 30
0.0
  0
VERTEX
  5
43F
330
FE
100
AcDbEntity
  8
MO_001_VIEW_PV
  6
C_SOLID_M
100
AcDbVertex
100
AcDb2dVertex
 10
-8.855510999999999
 20
-32.047637
 30
0.0
  0
VERTEX
  5
440
330
FE
100
AcDbEntity
  8
MO_001_VIEW_PV
  6
C_SOLID_M
100
AcDbVertex
100
AcDb2dVertex
 10
-9.137406
 20
-32.08640799999999
 30
0.0
  0
VERTEX
  5
441
330
FE
100
AcDbEntity
  8
MO_001_VIEW_PV
  6
C_SOLID_M
100
AcDbVertex
100
AcDb2dVertex
 10
-9.386487999999999
 20
-32.134862
 30
0.0
  0
VERTEX
  5
442
330
FE
100
AcDbEntity
  8
MO_001_VIEW_PV
  6
C_SOLID_M
100
AcDbVertex
100
AcDb2dVertex
 10
-9.603061999999999
 20
-32.19023899999999
 30
0.0
  0
VERTEX
  5
443
330
FE
100
AcDbEntity
  8
MO_001_VIEW_PV
  6
C_SOLID_M
100
AcDbVertex
100
AcDb2dVertex
 10
-9.788471000000001
 20
-32.250205
 30
0.0
  0
VERTEX
  5
444
330
FE
100
AcDbEntity
  8
MO_001_VIEW_PV
  6
C_SOLID_M
100
AcDbVertex
100
AcDb2dVertex
 10
-9.944736
 20
-32.312837
 30
0.0
  0
VERTEX
  5
445
330
FE
100
AcDbEntity
  8
MO_001_VIEW_PV
  6
C_SOLID_M
100
AcDbVertex
100
AcDb2dVertex
 10
-10.074273
 20
-32.376582
 30
0.0
  0
VERTEX
  5
446
330
FE
100
AcDbEntity
  8
MO_001_VIEW_PV
  6
C_SOLID_M
100
AcDbVertex
100
AcDb2dVertex
 10
-10.179692
 20
-32.44021599999999
 30
0.0
  0
VERTEX
  5
447
330
FE
100
AcDbEntity
  8
MO_001_VIEW_PV
  6
C_SOLID_M
100
AcDbVertex
100
AcDb2dVertex
 10
-10.263643
 20
-32.5028
 30
0.0
  0
VERTEX
  5
448
330
FE
100
AcDbEntity
  8
MO_001_VIEW_PV
  6
C_SOLID_M
100
AcDbVertex
100
AcDb2dVertex
 10
-10.328711
 20
-32.56362999999999
 30
0.0
  0
VERTEX
  5
449
330
FE
100
AcDbEntity
  8
MO_001_VIEW_PV
  6
C_SOLID_M
100
AcDbVertex
100
AcDb2dVertex
 10
-10.377344
 20
-32.622201
 30
0.0
  0
VERTEX
  5
44A
330
FE
100
AcDbEntity
  8
MO_001_VIEW_PV
  6
C_SOLID_M
100
AcDbVertex
100
AcDb2dVertex
 10
-10.41181799999999
 20
-32.67816699999999
 30
0.0
  0
VERTEX
  5
44B
330
FE
100
AcDbEntity
  8
MO_001_VIEW_PV
  6
C_SOLID_M
100
AcDbVertex
100
AcDb2dVertex
 10
-10.44688599999999
 20
-32.784879
 30
0.0
  0
VERTEX
  5
44C
330
FE
100
AcDbEntity
  8
MO_001_VIEW_PV
  6
C_SOLID_M
100
AcDbVertex
100
AcDb2dVertex
 10
-10.445568
 20
-32.878926
 30
0.0
  0
VERTEX
  5
44D
330
FE
100
AcDbEntity
  8
MO_001_VIEW_PV
  6
C_SOLID_M
100
AcDbVertex
100
AcDb2dVertex
 10
-10.419905
 20
-32.960702
 30
0.0
  0
VERTEX
  5
44E
330
FE
100
AcDbEntity
  8
MO_001_VIEW_PV
  6
C_SOLID_M
100
AcDbVertex
100
AcDb2dVertex
 10
-10.37888699999999
 20
-33.03117299999999
 30
0.0
  0
VERTEX
  5
44F
330
FE
100
AcDbEntity
  8
MO_001_VIEW_PV
  6
C_SOLID_M
100
AcDbVertex
100
AcDb2dVertex
 10
-10.32904199999999
 20
-33.091552
 30
0.0
  0
VERTEX
  5
450
330
FE
100
AcDbEntity
  8
MO_001_VIEW_PV
  6
C_SOLID_M
100
AcDbVertex
100
AcDb2dVertex
 10
-10.211437
 20
-33.193213
 30
0.0
  0
VERTEX
  5
451
330
FE
100
AcDbEntity
  8
MO_001_VIEW_PV
  6
C_SOLID_M
100
AcDbVertex
100
AcDb2dVertex
 10
-10.09897
 20
-33.265174
 30
0.0
  0
VERTEX
  5
452
330
FE
100
AcDbEntity
  8
MO_001_VIEW_PV
  6
C_SOLID_M
100
AcDbVertex
100
AcDb2dVertex
 10
-10.001732
 20
-33.316232
 30
0.0
  0
VERTEX
  5
453
330
FE
100
AcDbEntity
  8
MO_001_VIEW_PV
  6
C_SOLID_M
100
AcDbVertex
100
AcDb2dVertex
 10
-9.836515999999999
 20
-33.38742899999999
 30
0.0
  0
VERTEX
  5
454
330
FE
100
AcDbEntity
  8
MO_001_VIEW_PV
  6
C_SOLID_M
100
AcDbVertex
100
AcDb2dVertex
 10
-9.650002
 20
-33.451343
 30
0.0
  0
SEQEND
  5
455
330
FE
100
AcDbEntity
  8
MO_001_VIEW_PV
  6
C_SOLID_M
  0
LINE
  5
12C
330
1E
100
AcDbEntity
  8
MO_001_VIEW_PV
  6
C_SOLID_M
100
AcDbLine
 10
-6.749999
 20
-32.204201
 30
0.0
 11
-6.749999
 21
-50.000008
 31
0.0
  0
LINE
  5
12D
330
1E
100
AcDbEntity
  8
MO_001_VIEW_PV
  6
C_SOLID_M
100
AcDbLine
 10
-9.650000999999999
 20
-32.204201
 30
0.0
 11
-9.650000999999999
 21
-50.000008
 31
0.0
  0
LINE
  5
12E
330
1E
100
AcDbEntity
  8
MO_001_VIEW_PV
  6
C_SOLID_M
100
AcDbLine
 10
-9.650000999999999
 20
-50.000008
 30
0.0
 11
-6.749999
 21
-50.000008
 31
0.0
  0
LINE
  5
12F
330
1E
100
AcDbEntity
  8
MO_001_VIEW_PV
  6
C_SOLID_M
100
AcDbLine
 10
-7.295000999999999
 20
-56.000008
 30
0.0
 11
-7.295000999999999
 21
-60.50000799999999
 31
0.0
  0
LINE
  5
130
330
1E
100
AcDbEntity
  8
MO_001_VIEW_PV
  6
C_SOLID_M
100
AcDbLine
 10
-9.104999000000001
 20
-56.000008
 30
0.0
 11
-9.104999000000001
 21
-60.50000799999999
 31
0.0
  0
ARC
  5
131
330
1E
100
AcDbEntity
  8
MO_001_VIEW_PV
  6
C_SOLID_M
100
AcDbCircle
 10
-8.652499
 20
-55.35535799999999
 30
0.0
 40
0.5753520000000001
100
AcDbArc
 50
38.142761
 51
141.8572369999999
  0
ARC
  5
132
330
1E
100
AcDbEntity
  8
MO_001_VIEW_PV
  6
C_SOLID_M
100
AcDbCircle
 10
-8.652499
 20
-54.64465699999999
 30
0.0
 40
0.5753520000000001
100
AcDbArc
 50
218.1427629999999
 51
321.8572389999999
  0
ARC
  5
133
330
1E
100
AcDbEntity
  8
MO_001_VIEW_PV
  6
C_SOLID_M
100
AcDbCircle
 10
-7.747499999999999
 20
-54.64465699999999
 30
0.0
 40
0.5753520000000001
100
AcDbArc
 50
218.1427629999999
 51
321.8572389999999
  0
ARC
  5
134
330
1E
100
AcDbEntity
  8
MO_001_VIEW_PV
  6
C_SOLID_M
100
AcDbCircle
 10
-8.652499
 20
-56.35535799999999
 30
0.0
 40
0.5753520000000001
100
AcDbArc
 50
38.142761
 51
141.8572369999999
  0
ARC
  5
135
330
1E
100
AcDbEntity
  8
MO_001_VIEW_PV
  6
C_SOLID_M
100
AcDbCircle
 10
-7.747499999999999
 20
-56.35535799999999
 30
0.0
 40
0.5753520000000001
100
AcDbArc
 50
38.142761
 51
141.8572369999999
  0
ARC
  5
136
330
1E
100
AcDbEntity
  8
MO_001_VIEW_PV
  6
C_SOLID_M
100
AcDbCircle
 10
-7.747499999999999
 20
-55.64465699999999
 30
0.0
 40
0.5753520000000001
100
AcDbArc
 50
218.1427629999999
 51
321.8572389999999
  0
LINE
  5
137
330
1E
100
AcDbEntity
  8
MO_001_VIEW_PV
  6
C_SOLID_M
100
AcDbLine
 10
-9.104999000000001
 20
-50.000008
 30
0.0
 11
-9.104999000000001
 21
-55.00000799999999
 31
0.0
  0
LINE
  5
138
330
1E
100
AcDbEntity
  8
MO_001_VIEW_PV
  6
C_SOLID_M
100
AcDbLine
 10
-7.295000999999999
 20
-50.000008
 30
0.0
 11
-7.295000999999999
 21
-55.00000799999999
 31
0.0
  0
LINE
  5
139
330
1E
100
AcDbEntity
  8
MO_001_VIEW_PV
  6
C_SOLID_M
100
AcDbLine
 10
-9.104999000000001
 20
-60.50000799999999
 30
0.0
 11
-7.295000999999999
 21
-60.50000799999999
 31
0.0
  0
LINE
  5
13A
330
1E
100
AcDbEntity
  8
MO_001_VIEW_PV
  6
C_SOLID_M
100
AcDbLine
 10
-7.95
 20
-60.50000799999999
 30
0.0
 11
-7.95
 21
-65.50000799999999
 31
0.0
  0
LINE
  5
13B
330
1E
100
AcDbEntity
  8
MO_001_VIEW_PV
  6
C_SOLID_M
100
AcDbLine
 10
-8.449999999999999
 20
-60.50000799999999
 30
0.0
 11
-8.449999999999999
 21
-65.50000799999999
 31
0.0
  0
LINE
  5
13C
330
1E
100
AcDbEntity
  8
MO_001_VIEW_PV
  6
C_SOLID_M
100
AcDbLine
 10
-8.449999999999999
 20
-65.50000799999999
 30
0.0
 11
-7.95
 21
-65.50000799999999
 31
0.0
  0
LINE
  5
13D
330
1E
100
AcDbEntity
  8
MO_001_VIEW_PV
  6
C_SOLID_M
100
AcDbLine
 10
-30.400002
 20
-35.0
 30
0.0
 11
-9.650000999999999
 21
-35.0
 31
0.0
  0
CIRCLE
  5
13E
330
1E
100
AcDbEntity
  8
MO_001_VIEW_PV
  6
C_SOLID_M
100
AcDbCircle
 10
81.0
 20
0.0
 30
0.0
 40
28.6
  0
CIRCLE
  5
13F
330
1E
100
AcDbEntity
  8
MO_001_VIEW_PV
  6
C_SOLID_M
100
AcDbCircle
 10
81.0
 20
22.25
 30
0.0
 40
3.299999999999999
  0
CIRCLE
  5
140
330
1E
100
AcDbEntity
  8
MO_001_VIEW_PV
  6
C_SOLID_M
100
AcDbCircle
 10
58.75
 20
0.0
 30
0.0
 40
3.299999999999999
  0
CIRCLE
  5
141
330
1E
100
AcDbEntity
  8
MO_001_VIEW_PV
  6
C_SOLID_M
100
AcDbCircle
 10
81.0
 20
-22.25
 30
0.0
 40
3.299999999999999
  0
CIRCLE
  5
142
330
1E
100
AcDbEntity
  8
MO_001_VIEW_PV
  6
C_SOLID_M
100
AcDbCircle
 10
103.2499999999999
 20
0.0
 30
0.0
 40
3.299999999999999
  0
ARC
  5
143
330
1E
100
AcDbEntity
  8
MO_001_VIEW_PV
  6
C_SOLID_M
100
AcDbCircle
 10
85.138443
 20
-11.370282
 30
0.0
 40
2.35
100
AcDbArc
 50
212.382154
 51
7.617891
  0
ARC
  5
144
330
1E
100
AcDbEntity
  8
MO_001_VIEW_PV
  6
C_SOLID_M
100
AcDbCircle
 10
81.0
 20
0.0
 30
0.0
 40
12.7
100
AcDbArc
 50
260.3211959999999
 51
279.678785
  0
ARC
  5
145
330
1E
100
AcDbEntity
  8
MO_001_VIEW_PV
  6
C_SOLID_M
100
AcDbCircle
 10
81.0
 20
0.0
 30
0.0
 40
13.7
100
AcDbArc
 50
260.3211959999999
 51
279.678799
  0
LINE
  5
146
330
1E
100
AcDbEntity
  8
MO_001_VIEW_PV
  6
C_SOLID_M
100
AcDbLine
 10
78.696691
 20
-13.504991
 30
0.0
 11
78.864816
 21
-12.519225
 31
0.0
  0
LINE
  5
147
330
1E
100
AcDbEntity
  8
MO_001_VIEW_PV
  6
C_SOLID_M
100
AcDbLine
 10
83.135183
 20
-12.519229
 30
0.0
 11
83.303308
 21
-13.504994
 31
0.0
  0
LINE
  5
148
330
1E
100
AcDbEntity
  8
MO_001_VIEW_PV
  6
C_SOLID_M
100
AcDbLine
 10
83.30330899999999
 20
-13.504991
 30
0.0
 11
84.84073199999999
 21
-13.701348
 31
0.0
  0
LINE
  5
149
330
1E
100
AcDbEntity
  8
MO_001_VIEW_PV
  6
C_SOLID_M
100
AcDbLine
 10
78.22908699999999
 20
-13.564714
 30
0.0
 11
77.159255
 21
-13.701351
 31
0.0
  0
ARC
  5
14A
330
1E
100
AcDbEntity
  8
MO_001_VIEW_PV
  6
C_SOLID_M
100
AcDbCircle
 10
91.478912
 20
-6.050000999999999
 30
0.0
 40
2.35
100
AcDbArc
 50
252.382153
 51
47.61789
  0
ARC
  5
14B
330
1E
100
AcDbEntity
  8
MO_001_VIEW_PV
  6
C_SOLID_M
100
AcDbCircle
 10
81.0
 20
0.0
 30
0.0
 40
12.7
100
AcDbArc
 50
300.321195
 51
319.678784
  0
ARC
  5
14C
330
1E
100
AcDbEntity
  8
MO_001_VIEW_PV
  6
C_SOLID_M
100
AcDbCircle
 10
81.0
 20
0.0
 30
0.0
 40
13.7
100
AcDbArc
 50
300.321195
 51
319.6787979999999
  0
LINE
  5
14D
330
1E
100
AcDbEntity
  8
MO_001_VIEW_PV
  6
C_SOLID_M
100
AcDbLine
 10
87.91644000000001
 20
-11.82594399999999
 30
0.0
 11
87.411589
 21
-10.96272899999999
 31
0.0
  0
LINE
  5
14E
330
1E
100
AcDbEntity
  8
MO_001_VIEW_PV
  6
C_SOLID_M
100
AcDbLine
 10
90.682863
 20
-8.217821
 30
0.0
 11
91.445292
 21
-8.864892999999998
 31
0.0
  0
LINE
  5
14F
330
1E
100
AcDbEntity
  8
MO_001_VIEW_PV
  6
C_SOLID_M
100
AcDbLine
 10
91.445257
 20
-8.864874
 30
0.0
 11
92.749207
 21
-8.027055999999999
 31
0.0
  0
LINE
  5
150
330
1E
100
AcDbEntity
  8
MO_001_VIEW_PV
  6
C_SOLID_M
100
AcDbLine
 10
87.916421
 20
-11.825964
 30
0.0
 11
86.86490500000001
 21
-12.964615
 31
0.0
  0
ARC
  5
151
330
1E
100
AcDbEntity
  8
MO_001_VIEW_PV
  6
C_SOLID_M
100
AcDbCircle
 10
92.916176
 20
2.101142999999999
 30
0.0
 40
2.35
100
AcDbArc
 50
292.382152
 51
87.617892
  0
ARC
  5
152
330
1E
100
AcDbEntity
  8
MO_001_VIEW_PV
  6
C_SOLID_M
100
AcDbCircle
 10
81.0
 20
0.0
 30
0.0
 40
12.7
100
AcDbArc
 50
340.321195
 51
359.678784
  0
ARC
  5
153
330
1E
100
AcDbEntity
  8
MO_001_VIEW_PV
  6
C_SOLID_M
100
AcDbCircle
 10
81.0
 20
0.0
 30
0.0
 40
13.7
100
AcDbArc
 50
340.321195
 51
359.6787979999999
  0
LINE
  5
154
330
1E
100
AcDbEntity
  8
MO_001_VIEW_PV
  6
C_SOLID_M
100
AcDbLine
 10
93.899863
 20
-4.613439999999999
 30
0.0
 11
92.958268
 21
-4.276693999999999
 31
0.0
  0
LINE
  5
155
330
1E
100
AcDbEntity
  8
MO_001_VIEW_PV
  6
C_SOLID_M
100
AcDbLine
 10
93.699779
 20
-0.071195
 30
0.0
 11
94.699763
 21
-0.076801
 31
0.0
  0
LINE
  5
156
330
1E
100
AcDbEntity
  8
MO_001_VIEW_PV
  6
C_SOLID_M
100
AcDbLine
 10
94.69981500000001
 20
-0.076814
 30
0.0
 11
95.16015799999999
 21
1.403148
 31
0.0
  0
LINE
  5
157
330
1E
100
AcDbEntity
  8
MO_001_VIEW_PV
  6
C_SOLID_M
100
AcDbLine
 10
93.899886
 20
-4.613433999999999
 30
0.0
 11
93.82628999999999
 21
-6.161591999999999
 31
0.0
  0
ARC
  5
158
330
1E
100
AcDbEntity
  8
MO_001_VIEW_PV
  6
C_SOLID_M
100
AcDbCircle
 10
88.77773299999999
 20
9.269138999999999
 30
0.0
 40
2.35
100
AcDbArc
 50
332.382152
 51
127.6178909999999
  0
ARC
  5
159
330
1E
100
AcDbEntity
  8
MO_001_VIEW_PV
  6
C_SOLID_M
100
AcDbCircle
 10
81.0
 20
0.0
 30
0.0
 40
12.7
100
AcDbArc
 50
20.321196
 51
39.67878499999999
  0
ARC
  5
15A
330
1E
100
AcDbEntity
  8
MO_001_VIEW_PV
  6
C_SOLID_M
100
AcDbCircle
 10
81.0
 20
0.0
 30
0.0
 40
13.7
100
AcDbArc
 50
20.321196
 51
39.67879899999999
  0
LINE
  5
15B
330
1E
100
AcDbEntity
  8
MO_001_VIEW_PV
  6
C_SOLID_M
100
AcDbLine
 10
93.84735799999999
 20
4.757780999999999
 30
0.0
 11
92.909597
 21
4.410498
 31
0.0
  0
LINE
  5
15C
330
1E
100
AcDbEntity
  8
MO_001_VIEW_PV
  6
C_SOLID_M
100
AcDbLine
 10
90.77435799999999
 20
8.108744999999998
 30
0.0
 11
91.543994
 21
8.747227999999999
 31
0.0
  0
LINE
  5
15D
330
1E
100
AcDbEntity
  8
MO_001_VIEW_PV
  6
C_SOLID_M
100
AcDbLine
 10
91.544027
 20
8.747225
 30
0.0
 11
90.945368
 21
10.176845
 31
0.0
  0
LINE
  5
15E
330
1E
100
AcDbEntity
  8
MO_001_VIEW_PV
  6
C_SOLID_M
100
AcDbLine
 10
93.84731700000001
 20
4.757770999999999
 30
0.0
 11
94.786079
 21
3.524501999999999
 31
0.0
  0
ARC
  5
15F
330
1E
100
AcDbEntity
  8
MO_001_VIEW_PV
  6
C_SOLID_M
100
AcDbCircle
 10
81.0
 20
12.100002
 30
0.0
 40
2.35
100
AcDbArc
 50
12.38215199999999
 51
167.617897
  0
ARC
  5
160
330
1E
100
AcDbEntity
  8
MO_001_VIEW_PV
  6
C_SOLID_M
100
AcDbCircle
 10
81.0
 20
0.0
 30
0.0
 40
12.7
100
AcDbArc
 50
60.321198
 51
79.678788
  0
ARC
  5
161
330
1E
100
AcDbEntity
  8
MO_001_VIEW_PV
  6
C_SOLID_M
100
AcDbCircle
 10
81.0
 20
0.0
 30
0.0
 40
13.7
100
AcDbArc
 50
60.321198
 51
79.67880100000001
  0
LINE
  5
162
330
1E
100
AcDbEntity
  8
MO_001_VIEW_PV
  6
C_SOLID_M
100
AcDbLine
 10
87.78336899999999
 20
11.90276499999999
 30
0.0
 11
87.28823
 21
11.03394699999999
 31
0.0
  0
LINE
  5
163
330
1E
100
AcDbEntity
  8
MO_001_VIEW_PV
  6
C_SOLID_M
100
AcDbLine
 10
83.27542499999999
 20
12.494498
 30
0.0
 11
83.454592
 21
13.478319
 31
0.0
  0
LINE
  5
164
330
1E
100
AcDbEntity
  8
MO_001_VIEW_PV
  6
C_SOLID_M
100
AcDbLine
 10
83.45457299999999
 20
13.47832499999999
 30
0.0
 11
82.077033
 21
14.188667
 31
0.0
  0
LINE
  5
165
330
1E
100
AcDbEntity
  8
MO_001_VIEW_PV
  6
C_SOLID_M
100
AcDbLine
 10
87.78339200000001
 20
11.902769
 30
0.0
 11
89.29524699999999
 21
11.561456
 31
0.0
  0
ARC
  5
166
330
1E
100
AcDbEntity
  8
MO_001_VIEW_PV
  6
C_SOLID_M
100
AcDbCircle
 10
73.222267
 20
9.26914
 30
0.0
 40
2.35
100
AcDbArc
 50
52.382152
 51
207.617902
  0
ARC
  5
167
330
1E
100
AcDbEntity
  8
MO_001_VIEW_PV
  6
C_SOLID_M
100
AcDbCircle
 10
81.0
 20
0.0
 30
0.0
 40
12.7
100
AcDbArc
 50
100.3211969999999
 51
119.6787929999999
  0
ARC
  5
168
330
1E
100
AcDbEntity
  8
MO_001_VIEW_PV
  6
C_SOLID_M
100
AcDbCircle
 10
81.0
 20
0.0
 30
0.0
 40
13.7
100
AcDbArc
 50
100.3211969999999
 51
119.6788069999999
  0
LINE
  5
169
330
1E
100
AcDbEntity
  8
MO_001_VIEW_PV
  6
C_SOLID_M
100
AcDbLine
 10
78.545438
 20
13.47832
 30
0.0
 11
78.724604
 21
12.494501
 31
0.0
  0
LINE
  5
16A
330
1E
100
AcDbEntity
  8
MO_001_VIEW_PV
  6
C_SOLID_M
100
AcDbLine
 10
74.71175799999999
 20
11.033942
 30
0.0
 11
74.21662099999998
 21
11.902756
 31
0.0
  0
LINE
  5
16B
330
1E
100
AcDbEntity
  8
MO_001_VIEW_PV
  6
C_SOLID_M
100
AcDbLine
 10
74.216622
 20
11.90276099999999
 30
0.0
 11
72.704759
 21
11.561447
 31
0.0
  0
LINE
  5
16C
330
1E
100
AcDbEntity
  8
MO_001_VIEW_PV
  6
C_SOLID_M
100
AcDbLine
 10
78.54540899999999
 20
13.478317
 30
0.0
 11
79.922949
 21
14.188659
 31
0.0
  0
ARC
  5
16D
330
1E
100
AcDbEntity
  8
MO_001_VIEW_PV
  6
C_SOLID_M
100
AcDbCircle
 10
69.08382399999999
 20
2.101143999999999
 30
0.0
 40
2.35
100
AcDbArc
 50
92.38215399999999
 51
247.617908
  0
ARC
  5
16E
330
1E
100
AcDbEntity
  8
MO_001_VIEW_PV
  6
C_SOLID_M
100
AcDbCircle
 10
81.0
 20
0.0
 30
0.0
 40
12.7
100
AcDbArc
 50
140.3211959999999
 51
159.6787989999999
  0
ARC
  5
16F
330
1E
100
AcDbEntity
  8
MO_001_VIEW_PV
  6
C_SOLID_M
100
AcDbCircle
 10
81.0
 20
0.0
 30
0.0
 40
13.7
100
AcDbArc
 50
140.3211959999999
 51
159.678813
  0
LINE
  5
170
330
1E
100
AcDbEntity
  8
MO_001_VIEW_PV
  6
C_SOLID_M
100
AcDbLine
 10
70.456009
 20
8.74723
 30
0.0
 11
71.22565
 21
8.108741999999999
 31
0.0
  0
LINE
  5
171
330
1E
100
AcDbEntity
  8
MO_001_VIEW_PV
  6
C_SOLID_M
100
AcDbLine
 10
69.09046500000001
 20
4.410483999999999
 30
0.0
 11
68.15270500000001
 21
4.757766
 31
0.0
  0
LINE
  5
172
330
1E
100
AcDbEntity
  8
MO_001_VIEW_PV
  6
C_SOLID_M
100
AcDbLine
 10
68.152678
 20
4.757769
 30
0.0
 11
67.21392
 21
3.524505999999999
 31
0.0
  0
LINE
  5
173
330
1E
100
AcDbEntity
  8
MO_001_VIEW_PV
  6
C_SOLID_M
100
AcDbLine
 10
70.456019
 20
8.747224
 30
0.0
 11
71.05467800000001
 21
10.17684299999999
 31
0.0
  0
ARC
  5
174
330
1E
100
AcDbEntity
  8
MO_001_VIEW_PV
  6
C_SOLID_M
100
AcDbCircle
 10
70.521088
 20
-6.050000999999999
 30
0.0
 40
2.35
100
AcDbArc
 50
132.382153
 51
287.6179
  0
ARC
  5
175
330
1E
100
AcDbEntity
  8
MO_001_VIEW_PV
  6
C_SOLID_M
100
AcDbCircle
 10
81.0
 20
0.0
 30
0.0
 40
12.7
100
AcDbArc
 50
180.3212049999999
 51
199.678808
  0
ARC
  5
176
330
1E
100
AcDbEntity
  8
MO_001_VIEW_PV
  6
C_SOLID_M
100
AcDbCircle
 10
81.0
 20
0.0
 30
0.0
 40
13.7
100
AcDbArc
 50
180.3212049999999
 51
199.678822
  0
LINE
  5
177
330
1E
100
AcDbEntity
  8
MO_001_VIEW_PV
  6
C_SOLID_M
100
AcDbLine
 10
67.300208
 20
-0.076802
 30
0.0
 11
68.30019200000001
 21
-0.071196
 31
0.0
  0
LINE
  5
178
330
1E
100
AcDbEntity
  8
MO_001_VIEW_PV
  6
C_SOLID_M
100
AcDbLine
 10
69.04175600000001
 20
-4.276682
 30
0.0
 11
68.100161
 21
-4.613429
 31
0.0
  0
LINE
  5
179
330
1E
100
AcDbEntity
  8
MO_001_VIEW_PV
  6
C_SOLID_M
100
AcDbLine
 10
68.100167
 20
-4.61343
 30
0.0
 11
68.173764
 21
-6.161586999999999
 31
0.0
  0
LINE
  5
17A
330
1E
100
AcDbEntity
  8
MO_001_VIEW_PV
  6
C_SOLID_M
100
AcDbLine
 10
67.30023599999999
 20
-0.076796
 30
0.0
 11
66.839893
 21
1.403167999999999
 31
0.0
  0
ARC
  5
17B
330
1E
100
AcDbEntity
  8
MO_001_VIEW_PV
  6
C_SOLID_M
100
AcDbCircle
 10
76.86155699999999
 20
-11.370283
 30
0.0
 40
2.35
100
AcDbArc
 50
172.382158
 51
301.194923
  0
ARC
  5
17C
330
1E
100
AcDbEntity
  8
MO_001_VIEW_PV
  6
C_SOLID_M
100
AcDbCircle
 10
81.0
 20
0.0
 30
0.0
 40
12.7
100
AcDbArc
 50
220.3212109999999
 51
239.678814
  0
ARC
  5
17D
330
1E
100
AcDbEntity
  8
MO_001_VIEW_PV
  6
C_SOLID_M
100
AcDbCircle
 10
81.0
 20
0.0
 30
0.0
 40
13.7
100
AcDbArc
 50
220.3212109999999
 51
239.6788279999999
  0
LINE
  5
17E
330
1E
100
AcDbEntity
  8
MO_001_VIEW_PV
  6
C_SOLID_M
100
AcDbLine
 10
70.554693
 20
-8.864879999999999
 30
0.0
 11
71.31712199999999
 21
-8.217807999999999
 31
0.0
  0
LINE
  5
17F
330
1E
100
AcDbEntity
  8
MO_001_VIEW_PV
  6
C_SOLID_M
100
AcDbLine
 10
74.58840999999999
 20
-10.962741
 30
0.0
 11
74.083563
 21
-11.82595
 31
0.0
  0
LINE
  5
180
330
1E
100
AcDbEntity
  8
MO_001_VIEW_PV
  6
C_SOLID_M
100
AcDbLine
 10
74.08362199999999
 20
-11.825966
 30
0.0
 11
75.135138
 21
-12.964618
 31
0.0
  0
LINE
  5
181
330
1E
100
AcDbEntity
  8
MO_001_VIEW_PV
  6
C_SOLID_M
100
AcDbLine
 10
70.55473
 20
-8.864891999999999
 30
0.0
 11
69.250786
 21
-8.027077999999999
 31
0.0
  0
ARC
  5
182
330
1E
100
AcDbEntity
  8
MO_001_VIEW_PV
  6
C_SOLID_M
100
AcDbCircle
 10
81.0
 20
0.0
 30
0.0
 40
12.7
100
AcDbArc
 50
236.5519259999999
 51
90.000002
  0
ARC
  5
183
330
1E
100
AcDbEntity
  8
MO_001_VIEW_PV
  6
C_SOLID_M
100
AcDbCircle
 10
81.0
 20
0.0
 30
0.0
 40
4.764999999999999
100
AcDbArc
 50
269.999998
 51
13.716237
  0
ARC
  5
184
330
1E
100
AcDbEntity
  8
MO_001_VIEW_PV
  6
C_SOLID_M
100
AcDbCircle
 10
81.0
 20
0.0
 30
0.0
 40
12.3
100
AcDbArc
 50
269.999998
 51
90.000002
  0
ARC
  5
185
330
1E
100
AcDbEntity
  8
MO_001_VIEW_PV
  6
C_SOLID_M
100
AcDbCircle
 10
81.0
 20
0.0
 30
0.0
 40
13.9
100
AcDbArc
 50
262.936974
 51
272.879598
  0
ARC
  5
186
330
1E
100
AcDbEntity
  8
MO_001_VIEW_PV
  6
C_SOLID_M
100
AcDbCircle
 10
81.0
 20
0.0
 30
0.0
 40
14.299999
100
AcDbArc
 50
262.936974
 51
272.879598
  0
ARC
  5
187
330
1E
100
AcDbEntity
  8
MO_001_VIEW_PV
  6
C_SOLID_M
100
AcDbCircle
 10
79.413803
 20
-12.802108
 30
0.0
 40
1.0
100
AcDbArc
 50
219.2230529999999
 51
262.936974
  0
LINE
  5
188
330
1E
100
AcDbEntity
  8
MO_001_VIEW_PV
  6
C_SOLID_M
100
AcDbLine
 10
81.718434
 20
-14.281952
 30
0.0
 11
81.698339
 21
-13.882457
 31
0.0
  0
ARC
  5
189
330
1E
100
AcDbEntity
  8
MO_001_VIEW_PV
  6
C_SOLID_M
100
AcDbCircle
 10
79.413803
 20
-12.802108
 30
0.0
 40
1.399999999999999
100
AcDbArc
 50
219.2230529999999
 51
262.936974
  0
ARC
  5
18A
330
1E
100
AcDbEntity
  8
MO_001_VIEW_PV
  6
C_SOLID_M
100
AcDbCircle
 10
75.797539
 20
-13.748613
 30
0.0
 40
2.0
100
AcDbArc
 50
39.22305099999999
 51
69.273397
  0
LINE
  5
18B
330
1E
100
AcDbEntity
  8
MO_001_VIEW_PV
  6
C_SOLID_M
100
AcDbLine
 10
77.346913
 20
-12.483928
 30
0.0
 11
78.329234
 21
-13.68738299999999
 31
0.0
  0
LINE
  5
18C
330
1E
100
AcDbEntity
  8
MO_001_VIEW_PV
  6
C_SOLID_M
100
AcDbLine
 10
77.678882
 20
-12.258073
 30
0.0
 11
78.63910200000001
 21
-13.43445299999999
 31
0.0
  0
LINE
  5
18D
330
1E
100
AcDbEntity
  8
MO_001_VIEW_PV
  6
C_SOLID_M
100
AcDbLine
 10
72.9793
 20
-9.387382999999999
 30
0.0
 11
72.750168
 21
-9.655556999999999
 31
0.0
  0
ARC
  5
18E
330
1E
100
AcDbEntity
  8
MO_001_VIEW_PV
  6
C_SOLID_M
100
AcDbCircle
 10
81.0
 20
0.2
 30
0.0
 40
12.5
100
AcDbArc
 50
90.000002
 51
270.000001
  0
ARC
  5
18F
330
1E
100
AcDbEntity
  8
MO_001_VIEW_PV
  6
C_SOLID_M
100
AcDbCircle
 10
81.0
 20
0.2
 30
0.0
 40
12.09999999999999
100
AcDbArc
 50
90.000002
 51
270.000001
  0
ARC
  5
190
330
1E
100
AcDbEntity
  8
MO_001_VIEW_PV
  6
C_SOLID_M
100
AcDbCircle
 10
81.0
 20
0.0
 30
0.0
 40
11.90000099999999
100
AcDbArc
 50
269.999998
 51
90.000002
  0
ARC
  5
191
330
1E
100
AcDbEntity
  8
MO_001_VIEW_PV
  6
C_SOLID_M
100
AcDbCircle
 10
81.0
 20
0.2
 30
0.0
 40
11.70000099999999
100
AcDbArc
 50
90.000002
 51
270.000001
  0
ARC
  5
192
330
1E
100
AcDbEntity
  8
MO_001_VIEW_PV
  6
C_SOLID_M
100
AcDbCircle
 10
81.0
 20
0.0
 30
0.0
 40
5.164998999999999
100
AcDbArc
 50
269.999998
 51
90.000002
  0
ARC
  5
193
330
1E
100
AcDbEntity
  8
MO_001_VIEW_PV
  6
C_SOLID_M
100
AcDbCircle
 10
85.24051700000001
 20
1.034999999999999
 30
0.0
 40
0.8
100
AcDbArc
 50
13.716232
 51
78.16779900000002
  0
ARC
  5
194
330
1E
100
AcDbEntity
  8
MO_001_VIEW_PV
  6
C_SOLID_M
100
AcDbCircle
 10
81.0
 20
0.2
 30
0.0
 40
4.964999999999999
100
AcDbArc
 50
90.000002
 51
270.000001
  0
ARC
  5
195
330
1E
100
AcDbEntity
  8
MO_001_VIEW_PV
  6
C_SOLID_M
100
AcDbCircle
 10
81.0
 20
0.2
 30
0.0
 40
5.365
100
AcDbArc
 50
90.000002
 51
270.000001
  0
ARC
  5
196
330
1E
100
AcDbEntity
  8
MO_001_VIEW_PV
  6
C_SOLID_M
100
AcDbCircle
 10
81.0
 20
0.0
 30
0.0
 40
5.565
100
AcDbArc
 50
269.999998
 51
90.000002
  0
ARC
  5
197
330
1E
100
AcDbEntity
  8
MO_001_VIEW_PV
  6
C_SOLID_M
100
AcDbCircle
 10
81.0
 20
0.2
 30
0.0
 40
5.764999999999999
100
AcDbArc
 50
90.000002
 51
270.000001
  0
ARC
  5
198
330
1E
100
AcDbEntity
  8
MO_001_VIEW_PV
  6
C_SOLID_M
100
AcDbCircle
 10
81.0
 20
0.0
 30
0.0
 40
5.964999999999999
100
AcDbArc
 50
269.999998
 51
90.000002
  0
ARC
  5
199
330
1E
100
AcDbEntity
  8
MO_001_VIEW_PV
  6
C_SOLID_M
100
AcDbCircle
 10
81.0
 20
-0.4335
 30
0.0
 40
11.46649999999999
100
AcDbArc
 50
269.999998
 51
90.000002
  0
ARC
  5
19A
330
1E
100
AcDbEntity
  8
MO_001_VIEW_PV
  6
C_SOLID_M
100
AcDbCircle
 10
81.0
 20
-0.4335
 30
0.0
 40
11.06650099999999
100
AcDbArc
 50
269.999998
 51
90.000002
  0
ARC
  5
19B
330
1E
100
AcDbEntity
  8
MO_001_VIEW_PV
  6
C_SOLID_M
100
AcDbCircle
 10
81.0
 20
0.308375
 30
0.0
 40
10.724625
100
AcDbArc
 50
90.000002
 51
270.000001
  0
ARC
  5
19C
330
1E
100
AcDbEntity
  8
MO_001_VIEW_PV
  6
C_SOLID_M
100
AcDbCircle
 10
81.0
 20
0.308375
 30
0.0
 40
10.324625
100
AcDbArc
 50
90.000002
 51
270.000001
  0
ARC
  5
19D
330
1E
100
AcDbEntity
  8
MO_001_VIEW_PV
  6
C_SOLID_M
100
AcDbCircle
 10
81.0
 20
-0.325125
 30
0.0
 40
10.091125
100
AcDbArc
 50
269.999998
 51
90.000002
  0
ARC
  5
19E
330
1E
100
AcDbEntity
  8
MO_001_VIEW_PV
  6
C_SOLID_M
100
AcDbCircle
 10
81.0
 20
-0.325125
 30
0.0
 40
9.691125999999998
100
AcDbArc
 50
269.999998
 51
90.000002
  0
ARC
  5
19F
330
1E
100
AcDbEntity
  8
MO_001_VIEW_PV
  6
C_SOLID_M
100
AcDbCircle
 10
81.0
 20
0.4167500000000001
 30
0.0
 40
9.349249999999999
100
AcDbArc
 50
90.000002
 51
270.000001
  0
ARC
  5
1A0
330
1E
100
AcDbEntity
  8
MO_001_VIEW_PV
  6
C_SOLID_M
100
AcDbCircle
 10
81.0
 20
0.4167500000000001
 30
0.0
 40
8.949249999999999
100
AcDbArc
 50
90.000002
 51
270.000001
  0
ARC
  5
1A1
330
1E
100
AcDbEntity
  8
MO_001_VIEW_PV
  6
C_SOLID_M
100
AcDbCircle
 10
81.0
 20
-0.21675
 30
0.0
 40
8.715749999999999
100
AcDbArc
 50
269.999998
 51
90.000002
  0
ARC
  5
1A2
330
1E
100
AcDbEntity
  8
MO_001_VIEW_PV
  6
C_SOLID_M
100
AcDbCircle
 10
81.0
 20
-0.21675
 30
0.0
 40
8.315749999999999
100
AcDbArc
 50
269.999998
 51
90.000002
  0
ARC
  5
1A3
330
1E
100
AcDbEntity
  8
MO_001_VIEW_PV
  6
C_SOLID_M
100
AcDbCircle
 10
81.0
 20
0.525125
 30
0.0
 40
7.973874999999999
100
AcDbArc
 50
90.000002
 51
270.000001
  0
ARC
  5
1A4
330
1E
100
AcDbEntity
  8
MO_001_VIEW_PV
  6
C_SOLID_M
100
AcDbCircle
 10
81.0
 20
0.525125
 30
0.0
 40
7.573875
100
AcDbArc
 50
90.000002
 51
270.000001
  0
ARC
  5
1A5
330
1E
100
AcDbEntity
  8
MO_001_VIEW_PV
  6
C_SOLID_M
100
AcDbCircle
 10
81.0
 20
-0.108375
 30
0.0
 40
7.340374999999999
100
AcDbArc
 50
269.999998
 51
90.000002
  0
ARC
  5
1A6
330
1E
100
AcDbEntity
  8
MO_001_VIEW_PV
  6
C_SOLID_M
100
AcDbCircle
 10
81.0
 20
-0.108375
 30
0.0
 40
6.940375
100
AcDbArc
 50
269.999998
 51
90.000002
  0
ARC
  5
1A7
330
1E
100
AcDbEntity
  8
MO_001_VIEW_PV
  6
C_SOLID_M
100
AcDbCircle
 10
81.0
 20
0.6334999999999999
 30
0.0
 40
6.598499999999999
100
AcDbArc
 50
90.000002
 51
270.000001
  0
ARC
  5
1A8
330
1E
100
AcDbEntity
  8
MO_001_VIEW_PV
  6
C_SOLID_M
100
AcDbCircle
 10
81.0
 20
0.6334999999999999
 30
0.0
 40
6.1985
100
AcDbArc
 50
90.000002
 51
270.000001
  0
ARC
  5
1A9
330
1E
100
AcDbEntity
  8
MO_001_VIEW_PV
  6
C_SOLID_M
100
AcDbCircle
 10
76.86155699999999
 20
-11.370283
 30
0.0
 40
2.35
100
AcDbArc
 50
310.973893
 51
327.6178919999999
  0
LINE
  5
1AA
330
1E
100
AcDbEntity
  8
MO_001_VIEW_PV
  6
C_SOLID_M
100
AcDbLine
 10
1.0
 20
28.6
 30
0.0
 11
1.0
 21
-28.6
 31
0.0
  0
LINE
  5
1AB
330
1E
100
AcDbEntity
  8
MO_001_VIEW_PV
  6
C_SOLID_M
100
AcDbLine
 10
2.0
 20
28.6
 30
0.0
 11
2.0
 21
-28.6
 31
0.0
  0
LINE
  5
1AC
330
1E
100
AcDbEntity
  8
MO_001_VIEW_PV
  6
C_SOLID_M
100
AcDbLine
 10
1.0
 20
28.6
 30
0.0
 11
2.0
 21
28.6
 31
0.0
  0
LINE
  5
1AD
330
1E
100
AcDbEntity
  8
MO_001_VIEW_PV
  6
C_SOLID_M
100
AcDbLine
 10
1.0
 20
-28.6
 30
0.0
 11
2.0
 21
-28.6
 31
0.0
  0
LINE
  5
1AE
330
1E
100
AcDbEntity
  8
MO_001_VIEW_PV
  6
C_SOLID_M
100
AcDbLine
 10
5.700001
 20
-12.7
 30
0.0
 11
5.700001
 21
-13.7
 31
0.0
  0
LINE
  5
1AF
330
1E
100
AcDbEntity
  8
MO_001_VIEW_PV
  6
C_SOLID_M
100
AcDbLine
 10
2.400002
 20
-12.7
 30
0.0
 11
5.700001
 21
-12.7
 31
0.0
  0
LINE
  5
1B0
330
1E
100
AcDbEntity
  8
MO_001_VIEW_PV
  6
C_SOLID_M
100
AcDbLine
 10
2.400002
 20
-13.7
 30
0.0
 11
5.700001
 21
-13.7
 31
0.0
  0
ARC
  5
1B1
330
1E
100
AcDbEntity
  8
MO_001_VIEW_PV
  6
C_SOLID_M
100
AcDbCircle
 10
2.400002
 20
-14.09999899999999
 30
0.0
 40
0.4
100
AcDbArc
 50
90.000002
 51
180.000005
  0
ARC
  5
1B2
330
1E
100
AcDbEntity
  8
MO_001_VIEW_PV
  6
C_SOLID_M
100
AcDbCircle
 10
2.400002
 20
-14.09999899999999
 30
0.0
 40
1.399999999999999
100
AcDbArc
 50
90.000002
 51
106.6016169999999
  0
POLYLINE
  5
1B3
330
1E
100
AcDbEntity
  8
MO_001_VIEW_PV
  6
C_SOLID_M
100
AcDb2dPolyline
 66
     1
 10
0.0
 20
0.0
 30
0.0
  0
VERTEX
  5
456
330
1B3
100
AcDbEntity
  8
MO_001_VIEW_PV
  6
C_SOLID_M
100
AcDbVertex
100
AcDb2dVertex
 10
5.693024999999999
 20
-9.34416
 30
0.0
  0
VERTEX
  5
457
330
1B3
100
AcDbEntity
  8
MO_001_VIEW_PV
  6
C_SOLID_M
100
AcDbVertex
100
AcDb2dVertex
 10
5.699936
 20
-9.286858999999999
 30
0.0
  0
VERTEX
  5
458
330
1B3
100
AcDbEntity
  8
MO_001_VIEW_PV
  6
C_SOLID_M
100
AcDbVertex
100
AcDb2dVertex
 10
5.684498
 20
-9.18697
 30
0.0
  0
VERTEX
  5
459
330
1B3
100
AcDbEntity
  8
MO_001_VIEW_PV
  6
C_SOLID_M
100
AcDbVertex
100
AcDb2dVertex
 10
5.650428999999999
 20
-9.115339
 30
0.0
  0
VERTEX
  5
45A
330
1B3
100
AcDbEntity
  8
MO_001_VIEW_PV
  6
C_SOLID_M
100
AcDbVertex
100
AcDb2dVertex
 10
5.612921
 20
-9.065063999999999
 30
0.0
  0
VERTEX
  5
45B
330
1B3
100
AcDbEntity
  8
MO_001_VIEW_PV
  6
C_SOLID_M
100
AcDbVertex
100
AcDb2dVertex
 10
5.539121999999999
 20
-8.997415
 30
0.0
  0
VERTEX
  5
45C
330
1B3
100
AcDbEntity
  8
MO_001_VIEW_PV
  6
C_SOLID_M
100
AcDbVertex
100
AcDb2dVertex
 10
5.447068999999999
 20
-8.941550999999998
 30
0.0
  0
VERTEX
  5
45D
330
1B3
100
AcDbEntity
  8
MO_001_VIEW_PV
  6
C_SOLID_M
100
AcDbVertex
100
AcDb2dVertex
 10
5.300197999999999
 20
-8.888723999999999
 30
0.0
  0
VERTEX
  5
45E
330
1B3
100
AcDbEntity
  8
MO_001_VIEW_PV
  6
C_SOLID_M
100
AcDbVertex
100
AcDb2dVertex
 10
5.179391
 20
-8.868539999999999
 30
0.0
  0
VERTEX
  5
45F
330
1B3
100
AcDbEntity
  8
MO_001_VIEW_PV
  6
C_SOLID_M
100
AcDbVertex
100
AcDb2dVertex
 10
5.086261
 20
-8.864990999999999
 30
0.0
  0
VERTEX
  5
460
330
1B3
100
AcDbEntity
  8
MO_001_VIEW_PV
  6
C_SOLID_M
100
AcDbVertex
100
AcDb2dVertex
 10
4.94789
 20
-8.878472999999999
 30
0.0
  0
VERTEX
  5
461
330
1B3
100
AcDbEntity
  8
MO_001_VIEW_PV
  6
C_SOLID_M
100
AcDbVertex
100
AcDb2dVertex
 10
4.817768
 20
-8.913782000000001
 30
0.0
  0
SEQEND
  5
462
330
1B3
100
AcDbEntity
  8
MO_001_VIEW_PV
  6
C_SOLID_M
  0
POLYLINE
  5
1C1
330
1E
100
AcDbEntity
  8
MO_001_VIEW_PV
  6
C_SOLID_M
100
AcDb2dPolyline
 66
     1
 10
0.0
 20
0.0
 30
0.0
  0
VERTEX
  5
463
330
1C1
100
AcDbEntity
  8
MO_001_VIEW_PV
  6
C_SOLID_M
100
AcDbVertex
100
AcDb2dVertex
 10
5.693031999999999
 20
-9.344165
 30
0.0
  0
VERTEX
  5
464
330
1C1
100
AcDbEntity
  8
MO_001_VIEW_PV
  6
C_SOLID_M
100
AcDbVertex
100
AcDb2dVertex
 10
5.644791999999999
 20
-9.593201999999999
 30
0.0
  0
VERTEX
  5
465
330
1C1
100
AcDbEntity
  8
MO_001_VIEW_PV
  6
C_SOLID_M
100
AcDbVertex
100
AcDb2dVertex
 10
5.598198
 20
-9.968697
 30
0.0
  0
VERTEX
  5
466
330
1C1
100
AcDbEntity
  8
MO_001_VIEW_PV
  6
C_SOLID_M
100
AcDbVertex
100
AcDb2dVertex
 10
5.582648999999999
 20
-10.345425
 30
0.0
  0
VERTEX
  5
467
330
1C1
100
AcDbEntity
  8
MO_001_VIEW_PV
  6
C_SOLID_M
100
AcDbVertex
100
AcDb2dVertex
 10
5.589560999999999
 20
-10.596653
 30
0.0
  0
VERTEX
  5
468
330
1C1
100
AcDbEntity
  8
MO_001_VIEW_PV
  6
C_SOLID_M
100
AcDbVertex
100
AcDb2dVertex
 10
5.625818999999999
 20
-10.972696
 30
0.0
  0
VERTEX
  5
469
330
1C1
100
AcDbEntity
  8
MO_001_VIEW_PV
  6
C_SOLID_M
100
AcDbVertex
100
AcDb2dVertex
 10
5.693032999999999
 20
-11.346685
 30
0.0
  0
SEQEND
  5
46A
330
1C1
100
AcDbEntity
  8
MO_001_VIEW_PV
  6
C_SOLID_M
  0
POLYLINE
  5
1CA
330
1E
100
AcDbEntity
  8
MO_001_VIEW_PV
  6
C_SOLID_M
100
AcDb2dPolyline
 66
     1
 10
0.0
 20
0.0
 30
0.0
  0
VERTEX
  5
46B
330
1CA
100
AcDbEntity
  8
MO_001_VIEW_PV
  6
C_SOLID_M
100
AcDbVertex
100
AcDb2dVertex
 10
2.0
 20
-8.59181
 30
0.0
  0
VERTEX
  5
46C
330
1CA
100
AcDbEntity
  8
MO_001_VIEW_PV
  6
C_SOLID_M
100
AcDbVertex
100
AcDb2dVertex
 10
2.136937
 20
-8.684911999999998
 30
0.0
  0
VERTEX
  5
46D
330
1CA
100
AcDbEntity
  8
MO_001_VIEW_PV
  6
C_SOLID_M
100
AcDbVertex
100
AcDb2dVertex
 10
2.401234999999999
 20
-8.82812
 30
0.0
  0
VERTEX
  5
46E
330
1CA
100
AcDbEntity
  8
MO_001_VIEW_PV
  6
C_SOLID_M
100
AcDbVertex
100
AcDb2dVertex
 10
2.617304
 20
-8.917586
 30
0.0
  0
VERTEX
  5
46F
330
1CA
100
AcDbEntity
  8
MO_001_VIEW_PV
  6
C_SOLID_M
100
AcDbVertex
100
AcDb2dVertex
 10
2.787738
 20
-8.973883
 30
0.0
  0
VERTEX
  5
470
330
1CA
100
AcDbEntity
  8
MO_001_VIEW_PV
  6
C_SOLID_M
100
AcDbVertex
100
AcDb2dVertex
 10
3.054224
 20
-9.040105999999999
 30
0.0
  0
VERTEX
  5
471
330
1CA
100
AcDbEntity
  8
MO_001_VIEW_PV
  6
C_SOLID_M
100
AcDbVertex
100
AcDb2dVertex
 10
3.330258999999999
 20
-9.083629
 30
0.0
  0
VERTEX
  5
472
330
1CA
100
AcDbEntity
  8
MO_001_VIEW_PV
  6
C_SOLID_M
100
AcDbVertex
100
AcDb2dVertex
 10
3.520601999999999
 20
-9.09988
 30
0.0
  0
VERTEX
  5
473
330
1CA
100
AcDbEntity
  8
MO_001_VIEW_PV
  6
C_SOLID_M
100
AcDbVertex
100
AcDb2dVertex
 10
3.856006999999999
 20
-9.102266999999999
 30
0.0
  0
VERTEX
  5
474
330
1CA
100
AcDbEntity
  8
MO_001_VIEW_PV
  6
C_SOLID_M
100
AcDbVertex
100
AcDb2dVertex
 10
4.106012999999999
 20
-9.082289999999998
 30
0.0
  0
VERTEX
  5
475
330
1CA
100
AcDbEntity
  8
MO_001_VIEW_PV
  6
C_SOLID_M
100
AcDbVertex
100
AcDb2dVertex
 10
4.290709999999999
 20
-9.055196
 30
0.0
  0
VERTEX
  5
476
330
1CA
100
AcDbEntity
  8
MO_001_VIEW_PV
  6
C_SOLID_M
100
AcDbVertex
100
AcDb2dVertex
 10
4.560391
 20
-8.995516999999999
 30
0.0
  0
VERTEX
  5
477
330
1CA
100
AcDbEntity
  8
MO_001_VIEW_PV
  6
C_SOLID_M
100
AcDbVertex
100
AcDb2dVertex
 10
4.817766
 20
-8.913785999999999
 30
0.0
  0
SEQEND
  5
478
330
1CA
100
AcDbEntity
  8
MO_001_VIEW_PV
  6
C_SOLID_M
  0
POLYLINE
  5
1D9
330
1E
100
AcDbEntity
  8
MO_001_VIEW_PV
  6
C_SOLID_M
100
AcDb2dPolyline
 66
     1
 10
0.0
 20
0.0
 30
0.0
  0
VERTEX
  5
479
330
1D9
100
AcDbEntity
  8
MO_001_VIEW_PV
  6
C_SOLID_M
100
AcDbVertex
100
AcDb2dVertex
 10
4.817769
 20
-11.77706
 30
0.0
  0
VERTEX
  5
47A
330
1D9
100
AcDbEntity
  8
MO_001_VIEW_PV
  6
C_SOLID_M
100
AcDbVertex
100
AcDb2dVertex
 10
4.644991
 20
-11.719348
 30
0.0
  0
VERTEX
  5
47B
330
1D9
100
AcDbEntity
  8
MO_001_VIEW_PV
  6
C_SOLID_M
100
AcDbVertex
100
AcDb2dVertex
 10
4.328397999999999
 20
-11.642516
 30
0.0
  0
VERTEX
  5
47C
330
1D9
100
AcDbEntity
  8
MO_001_VIEW_PV
  6
C_SOLID_M
100
AcDbVertex
100
AcDb2dVertex
 10
4.082354
 20
-11.60585399999999
 30
0.0
  0
VERTEX
  5
47D
330
1D9
100
AcDbEntity
  8
MO_001_VIEW_PV
  6
C_SOLID_M
100
AcDbVertex
100
AcDb2dVertex
 10
3.89488
 20
-11.590453
 30
0.0
  0
VERTEX
  5
47E
330
1D9
100
AcDbEntity
  8
MO_001_VIEW_PV
  6
C_SOLID_M
100
AcDbVertex
100
AcDb2dVertex
 10
3.611841
 20
-11.587023
 30
0.0
  0
VERTEX
  5
47F
330
1D9
100
AcDbEntity
  8
MO_001_VIEW_PV
  6
C_SOLID_M
100
AcDbVertex
100
AcDb2dVertex
 10
3.330261
 20
-11.607216
 30
0.0
  0
VERTEX
  5
480
330
1D9
100
AcDbEntity
  8
MO_001_VIEW_PV
  6
C_SOLID_M
100
AcDbVertex
100
AcDb2dVertex
 10
3.142463
 20
-11.63417399999999
 30
0.0
  0
VERTEX
  5
481
330
1D9
100
AcDbEntity
  8
MO_001_VIEW_PV
  6
C_SOLID_M
100
AcDbVertex
100
AcDb2dVertex
 10
2.823688
 20
-11.70653699999999
 30
0.0
  0
VERTEX
  5
482
330
1D9
100
AcDbEntity
  8
MO_001_VIEW_PV
  6
C_SOLID_M
100
AcDbVertex
100
AcDb2dVertex
 10
2.596144999999999
 20
-11.781082
 30
0.0
  0
VERTEX
  5
483
330
1D9
100
AcDbEntity
  8
MO_001_VIEW_PV
  6
C_SOLID_M
100
AcDbVertex
100
AcDb2dVertex
 10
2.433752
 20
-11.847837
 30
0.0
  0
VERTEX
  5
484
330
1D9
100
AcDbEntity
  8
MO_001_VIEW_PV
  6
C_SOLID_M
100
AcDbVertex
100
AcDb2dVertex
 10
2.205945999999999
 20
-11.96436199999999
 30
0.0
  0
VERTEX
  5
485
330
1D9
100
AcDbEntity
  8
MO_001_VIEW_PV
  6
C_SOLID_M
100
AcDbVertex
100
AcDb2dVertex
 10
2.0
 20
-12.099035
 30
0.0
  0
SEQEND
  5
486
330
1D9
100
AcDbEntity
  8
MO_001_VIEW_PV
  6
C_SOLID_M
  0
POLYLINE
  5
1E8
330
1E
100
AcDbEntity
  8
MO_001_VIEW_PV
  6
C_SOLID_M
100
AcDb2dPolyline
 66
     1
 10
0.0
 20
0.0
 30
0.0
  0
VERTEX
  5
487
330
1E8
100
AcDbEntity
  8
MO_001_VIEW_PV
  6
C_SOLID_M
100
AcDbVertex
100
AcDb2dVertex
 10
4.817770999999999
 20
-11.77706399999999
 30
0.0
  0
VERTEX
  5
488
330
1E8
100
AcDbEntity
  8
MO_001_VIEW_PV
  6
C_SOLID_M
100
AcDbVertex
100
AcDb2dVertex
 10
4.973113999999999
 20
-11.816555
 30
0.0
  0
VERTEX
  5
489
330
1E8
100
AcDbEntity
  8
MO_001_VIEW_PV
  6
C_SOLID_M
100
AcDbVertex
100
AcDb2dVertex
 10
5.096636
 20
-11.825958
 30
0.0
  0
VERTEX
  5
48A
330
1E8
100
AcDbEntity
  8
MO_001_VIEW_PV
  6
C_SOLID_M
100
AcDbVertex
100
AcDb2dVertex
 10
5.189664999999999
 20
-11.82129299999999
 30
0.0
  0
VERTEX
  5
48B
330
1E8
100
AcDbEntity
  8
MO_001_VIEW_PV
  6
C_SOLID_M
100
AcDbVertex
100
AcDb2dVertex
 10
5.324455
 20
-11.795757
 30
0.0
  0
VERTEX
  5
48C
330
1E8
100
AcDbEntity
  8
MO_001_VIEW_PV
  6
C_SOLID_M
100
AcDbVertex
100
AcDb2dVertex
 10
5.447072
 20
-11.749296
 30
0.0
  0
VERTEX
  5
48D
330
1E8
100
AcDbEntity
  8
MO_001_VIEW_PV
  6
C_SOLID_M
100
AcDbVertex
100
AcDb2dVertex
 10
5.567550999999999
 20
-11.670662
 30
0.0
  0
VERTEX
  5
48E
330
1E8
100
AcDbEntity
  8
MO_001_VIEW_PV
  6
C_SOLID_M
100
AcDbVertex
100
AcDb2dVertex
 10
5.634983
 20
-11.598287
 30
0.0
  0
VERTEX
  5
48F
330
1E8
100
AcDbEntity
  8
MO_001_VIEW_PV
  6
C_SOLID_M
100
AcDbVertex
100
AcDb2dVertex
 10
5.670619999999999
 20
-11.538519
 30
0.0
  0
VERTEX
  5
490
330
1E8
100
AcDbEntity
  8
MO_001_VIEW_PV
  6
C_SOLID_M
100
AcDbVertex
100
AcDb2dVertex
 10
5.698042
 20
-11.443513
 30
0.0
  0
VERTEX
  5
491
330
1E8
100
AcDbEntity
  8
MO_001_VIEW_PV
  6
C_SOLID_M
100
AcDbVertex
100
AcDb2dVertex
 10
5.693029
 20
-11.346686
 30
0.0
  0
SEQEND
  5
492
330
1E8
100
AcDbEntity
  8
MO_001_VIEW_PV
  6
C_SOLID_M
  0
POLYLINE
  5
1F5
330
1E
100
AcDbEntity
  8
MO_001_VIEW_PV
  6
C_SOLID_M
100
AcDb2dPolyline
 66
     1
 10
0.0
 20
0.0
 30
0.0
  0
VERTEX
  5
493
330
1F5
100
AcDbEntity
  8
MO_001_VIEW_PV
  6
C_SOLID_M
100
AcDbVertex
100
AcDb2dVertex
 10
5.693024999999999
 20
-0.811096
 30
0.0
  0
VERTEX
  5
494
330
1F5
100
AcDbEntity
  8
MO_001_VIEW_PV
  6
C_SOLID_M
100
AcDbVertex
100
AcDb2dVertex
 10
5.699936
 20
-0.723306
 30
0.0
  0
VERTEX
  5
495
330
1F5
100
AcDbEntity
  8
MO_001_VIEW_PV
  6
C_SOLID_M
100
AcDbVertex
100
AcDb2dVertex
 10
5.684498
 20
-0.570268
 30
0.0
  0
VERTEX
  5
496
330
1F5
100
AcDbEntity
  8
MO_001_VIEW_PV
  6
C_SOLID_M
100
AcDbVertex
100
AcDb2dVertex
 10
5.650428999999999
 20
-0.460523
 30
0.0
  0
VERTEX
  5
497
330
1F5
100
AcDbEntity
  8
MO_001_VIEW_PV
  6
C_SOLID_M
100
AcDbVertex
100
AcDb2dVertex
 10
5.612921
 20
-0.383498
 30
0.0
  0
VERTEX
  5
498
330
1F5
100
AcDbEntity
  8
MO_001_VIEW_PV
  6
C_SOLID_M
100
AcDbVertex
100
AcDb2dVertex
 10
5.539120999999999
 20
-0.279853
 30
0.0
  0
VERTEX
  5
499
330
1F5
100
AcDbEntity
  8
MO_001_VIEW_PV
  6
C_SOLID_M
100
AcDbVertex
100
AcDb2dVertex
 10
5.447068999999999
 20
-0.194264
 30
0.0
  0
VERTEX
  5
49A
330
1F5
100
AcDbEntity
  8
MO_001_VIEW_PV
  6
C_SOLID_M
100
AcDbVertex
100
AcDb2dVertex
 10
5.376272
 20
-0.148393
 30
0.0
  0
VERTEX
  5
49B
330
1F5
100
AcDbEntity
  8
MO_001_VIEW_PV
  6
C_SOLID_M
100
AcDbVertex
100
AcDb2dVertex
 10
5.240549999999999
 20
-0.094536
 30
0.0
  0
VERTEX
  5
49C
330
1F5
100
AcDbEntity
  8
MO_001_VIEW_PV
  6
C_SOLID_M
100
AcDbVertex
100
AcDb2dVertex
 10
5.132926
 20
-0.077761
 30
0.0
  0
VERTEX
  5
49D
330
1F5
100
AcDbEntity
  8
MO_001_VIEW_PV
  6
C_SOLID_M
100
AcDbVertex
100
AcDb2dVertex
 10
5.051301
 20
-0.078903
 30
0.0
  0
VERTEX
  5
49E
330
1F5
100
AcDbEntity
  8
MO_001_VIEW_PV
  6
C_SOLID_M
100
AcDbVertex
100
AcDb2dVertex
 10
4.931023
 20
-0.1026
 30
0.0
  0
VERTEX
  5
49F
330
1F5
100
AcDbEntity
  8
MO_001_VIEW_PV
  6
C_SOLID_M
100
AcDbVertex
100
AcDb2dVertex
 10
4.817768
 20
-0.151721
 30
0.0
  0
SEQEND
  5
4A0
330
1F5
100
AcDbEntity
  8
MO_001_VIEW_PV
  6
C_SOLID_M
  0
POLYLINE
  5
204
330
1E
100
AcDbEntity
  8
MO_001_VIEW_PV
  6
C_SOLID_M
100
AcDb2dPolyline
 66
     1
 10
0.0
 20
0.0
 30
0.0
  0
VERTEX
  5
4A1
330
204
100
AcDbEntity
  8
MO_001_VIEW_PV
  6
C_SOLID_M
100
AcDbVertex
100
AcDb2dVertex
 10
5.693031999999999
 20
-0.8111029999999999
 30
0.0
  0
VERTEX
  5
4A2
330
204
100
AcDbEntity
  8
MO_001_VIEW_PV
  6
C_SOLID_M
100
AcDbVertex
100
AcDb2dVertex
 10
5.644791999999999
 20
-1.192649999999999
 30
0.0
  0
VERTEX
  5
4A3
330
204
100
AcDbEntity
  8
MO_001_VIEW_PV
  6
C_SOLID_M
100
AcDbVertex
100
AcDb2dVertex
 10
5.598198
 20
-1.767940999999999
 30
0.0
  0
VERTEX
  5
4A4
330
204
100
AcDbEntity
  8
MO_001_VIEW_PV
  6
C_SOLID_M
100
AcDbVertex
100
AcDb2dVertex
 10
5.582648999999999
 20
-2.34512
 30
0.0
  0
VERTEX
  5
4A5
330
204
100
AcDbEntity
  8
MO_001_VIEW_PV
  6
C_SOLID_M
100
AcDbVertex
100
AcDb2dVertex
 10
5.589560999999999
 20
-2.730023
 30
0.0
  0
VERTEX
  5
4A6
330
204
100
AcDbEntity
  8
MO_001_VIEW_PV
  6
C_SOLID_M
100
AcDbVertex
100
AcDb2dVertex
 10
5.625818999999999
 20
-3.306152999999999
 30
0.0
  0
VERTEX
  5
4A7
330
204
100
AcDbEntity
  8
MO_001_VIEW_PV
  6
C_SOLID_M
100
AcDbVertex
100
AcDb2dVertex
 10
5.693031999999999
 20
-3.879137
 30
0.0
  0
SEQEND
  5
4A8
330
204
100
AcDbEntity
  8
MO_001_VIEW_PV
  6
C_SOLID_M
  0
POLYLINE
  5
20D
330
1E
100
AcDbEntity
  8
MO_001_VIEW_PV
  6
C_SOLID_M
100
AcDb2dPolyline
 66
     1
 10
0.0
 20
0.0
 30
0.0
  0
VERTEX
  5
4A9
330
20D
100
AcDbEntity
  8
MO_001_VIEW_PV
  6
C_SOLID_M
100
AcDbVertex
100
AcDb2dVertex
 10
2.0
 20
0.341568
 30
0.0
  0
VERTEX
  5
4AA
330
20D
100
AcDbEntity
  8
MO_001_VIEW_PV
  6
C_SOLID_M
100
AcDbVertex
100
AcDb2dVertex
 10
2.136937
 20
0.198929
 30
0.0
  0
VERTEX
  5
4AB
330
20D
100
AcDbEntity
  8
MO_001_VIEW_PV
  6
C_SOLID_M
100
AcDbVertex
100
AcDb2dVertex
 10
2.265395999999999
 20
0.084209
 30
0.0
  0
VERTEX
  5
4AC
330
20D
100
AcDbEntity
  8
MO_001_VIEW_PV
  6
C_SOLID_M
100
AcDbVertex
100
AcDb2dVertex
 10
2.507540999999999
 20
-0.092088
 30
0.0
  0
VERTEX
  5
4AD
330
20D
100
AcDbEntity
  8
MO_001_VIEW_PV
  6
C_SOLID_M
100
AcDbVertex
100
AcDb2dVertex
 10
2.701706
 20
-0.202493
 30
0.0
  0
VERTEX
  5
4AE
330
20D
100
AcDbEntity
  8
MO_001_VIEW_PV
  6
C_SOLID_M
100
AcDbVertex
100
AcDb2dVertex
 10
2.85325
 20
-0.272353
 30
0.0
  0
VERTEX
  5
4AF
330
20D
100
AcDbEntity
  8
MO_001_VIEW_PV
  6
C_SOLID_M
100
AcDbVertex
100
AcDb2dVertex
 10
3.088286999999999
 20
-0.355521
 30
0.0
  0
VERTEX
  5
4B0
330
20D
100
AcDbEntity
  8
MO_001_VIEW_PV
  6
C_SOLID_M
100
AcDbVertex
100
AcDb2dVertex
 10
3.330258999999999
 20
-0.4119410000000001
 30
0.0
  0
VERTEX
  5
4B1
330
20D
100
AcDbEntity
  8
MO_001_VIEW_PV
  6
C_SOLID_M
100
AcDbVertex
100
AcDb2dVertex
 10
3.520601999999999
 20
-0.4368380000000001
 30
0.0
  0
VERTEX
  5
4B2
330
20D
100
AcDbEntity
  8
MO_001_VIEW_PV
  6
C_SOLID_M
100
AcDbVertex
100
AcDb2dVertex
 10
3.688242999999999
 20
-0.445032
 30
0.0
  0
VERTEX
  5
4B3
330
20D
100
AcDbEntity
  8
MO_001_VIEW_PV
  6
C_SOLID_M
100
AcDbVertex
100
AcDb2dVertex
 10
3.981395999999999
 20
-0.4287500000000001
 30
0.0
  0
VERTEX
  5
4B4
330
20D
100
AcDbEntity
  8
MO_001_VIEW_PV
  6
C_SOLID_M
100
AcDbVertex
100
AcDb2dVertex
 10
4.198754
 20
-0.391105
 30
0.0
  0
VERTEX
  5
4B5
330
20D
100
AcDbEntity
  8
MO_001_VIEW_PV
  6
C_SOLID_M
100
AcDbVertex
100
AcDb2dVertex
 10
4.359072
 20
-0.348769
 30
0.0
  0
VERTEX
  5
4B6
330
20D
100
AcDbEntity
  8
MO_001_VIEW_PV
  6
C_SOLID_M
100
AcDbVertex
100
AcDb2dVertex
 10
4.593315
 20
-0.263108
 30
0.0
  0
VERTEX
  5
4B7
330
20D
100
AcDbEntity
  8
MO_001_VIEW_PV
  6
C_SOLID_M
100
AcDbVertex
100
AcDb2dVertex
 10
4.817766999999999
 20
-0.151726
 30
0.0
  0
SEQEND
  5
4B8
330
20D
100
AcDbEntity
  8
MO_001_VIEW_PV
  6
C_SOLID_M
  0
POLYLINE
  5
21E
330
1E
100
AcDbEntity
  8
MO_001_VIEW_PV
  6
C_SOLID_M
100
AcDb2dPolyline
 66
     1
 10
0.0
 20
0.0
 30
0.0
  0
VERTEX
  5
4B9
330
21E
100
AcDbEntity
  8
MO_001_VIEW_PV
  6
C_SOLID_M
100
AcDbVertex
100
AcDb2dVertex
 10
4.817769
 20
-4.538508999999999
 30
0.0
  0
VERTEX
  5
4BA
330
21E
100
AcDbEntity
  8
MO_001_VIEW_PV
  6
C_SOLID_M
100
AcDbVertex
100
AcDb2dVertex
 10
4.644989999999999
 20
-4.45009
 30
0.0
  0
VERTEX
  5
4BB
330
21E
100
AcDbEntity
  8
MO_001_VIEW_PV
  6
C_SOLID_M
100
AcDbVertex
100
AcDb2dVertex
 10
4.488673999999999
 20
-4.385224
 30
0.0
  0
VERTEX
  5
4BC
330
21E
100
AcDbEntity
  8
MO_001_VIEW_PV
  6
C_SOLID_M
100
AcDbVertex
100
AcDb2dVertex
 10
4.206083999999999
 20
-4.30079
 30
0.0
  0
VERTEX
  5
4BD
330
21E
100
AcDbEntity
  8
MO_001_VIEW_PV
  6
C_SOLID_M
100
AcDbVertex
100
AcDb2dVertex
 10
3.98884
 20
-4.262407999999999
 30
0.0
  0
VERTEX
  5
4BE
330
21E
100
AcDbEntity
  8
MO_001_VIEW_PV
  6
C_SOLID_M
100
AcDbVertex
100
AcDb2dVertex
 10
3.824208
 20
-4.247899999999999
 30
0.0
  0
VERTEX
  5
4BF
330
21E
100
AcDbEntity
  8
MO_001_VIEW_PV
  6
C_SOLID_M
100
AcDbVertex
100
AcDb2dVertex
 10
3.57648
 20
-4.249248
 30
0.0
  0
VERTEX
  5
4C0
330
21E
100
AcDbEntity
  8
MO_001_VIEW_PV
  6
C_SOLID_M
100
AcDbVertex
100
AcDb2dVertex
 10
3.330261
 20
-4.278292999999999
 30
0.0
  0
VERTEX
  5
4C1
330
21E
100
AcDbEntity
  8
MO_001_VIEW_PV
  6
C_SOLID_M
100
AcDbVertex
100
AcDb2dVertex
 10
3.142463
 20
-4.319594999999999
 30
0.0
  0
VERTEX
  5
4C2
330
21E
100
AcDbEntity
  8
MO_001_VIEW_PV
  6
C_SOLID_M
100
AcDbVertex
100
AcDb2dVertex
 10
2.981211
 20
-4.368979
 30
0.0
  0
VERTEX
  5
4C3
330
21E
100
AcDbEntity
  8
MO_001_VIEW_PV
  6
C_SOLID_M
100
AcDbVertex
100
AcDb2dVertex
 10
2.708475999999999
 20
-4.484328999999999
 30
0.0
  0
VERTEX
  5
4C4
330
21E
100
AcDbEntity
  8
MO_001_VIEW_PV
  6
C_SOLID_M
100
AcDbVertex
100
AcDb2dVertex
 10
2.513981
 20
-4.594075
 30
0.0
  0
VERTEX
  5
4C5
330
21E
100
AcDbEntity
  8
MO_001_VIEW_PV
  6
C_SOLID_M
100
AcDbVertex
100
AcDb2dVertex
 10
2.374927
 20
-4.688820999999999
 30
0.0
  0
VERTEX
  5
4C6
330
21E
100
AcDbEntity
  8
MO_001_VIEW_PV
  6
C_SOLID_M
100
AcDbVertex
100
AcDb2dVertex
 10
2.178942999999999
 20
-4.8498
 30
0.0
  0
VERTEX
  5
4C7
330
21E
100
AcDbEntity
  8
MO_001_VIEW_PV
  6
C_SOLID_M
100
AcDbVertex
100
AcDb2dVertex
 10
2.0
 20
-5.031801999999999
 30
0.0
  0
SEQEND
  5
4C8
330
21E
100
AcDbEntity
  8
MO_001_VIEW_PV
  6
C_SOLID_M
  0
POLYLINE
  5
22F
330
1E
100
AcDbEntity
  8
MO_001_VIEW_PV
  6
C_SOLID_M
100
AcDb2dPolyline
 66
     1
 10
0.0
 20
0.0
 30
0.0
  0
VERTEX
  5
4C9
330
22F
100
AcDbEntity
  8
MO_001_VIEW_PV
  6
C_SOLID_M
100
AcDbVertex
100
AcDb2dVertex
 10
4.817770999999999
 20
-4.538513
 30
0.0
  0
VERTEX
  5
4CA
330
22F
100
AcDbEntity
  8
MO_001_VIEW_PV
  6
C_SOLID_M
100
AcDbVertex
100
AcDb2dVertex
 10
4.893469999999999
 20
-4.574480999999999
 30
0.0
  0
VERTEX
  5
4CB
330
22F
100
AcDbEntity
  8
MO_001_VIEW_PV
  6
C_SOLID_M
100
AcDbVertex
100
AcDb2dVertex
 10
5.034524
 20
-4.609626999999999
 30
0.0
  0
VERTEX
  5
4CC
330
22F
100
AcDbEntity
  8
MO_001_VIEW_PV
  6
C_SOLID_M
100
AcDbVertex
100
AcDb2dVertex
 10
5.143282
 20
-4.611773999999999
 30
0.0
  0
VERTEX
  5
4CD
330
22F
100
AcDbEntity
  8
MO_001_VIEW_PV
  6
C_SOLID_M
100
AcDbVertex
100
AcDb2dVertex
 10
5.224111999999999
 20
-4.599648999999999
 30
0.0
  0
VERTEX
  5
4CE
330
22F
100
AcDbEntity
  8
MO_001_VIEW_PV
  6
C_SOLID_M
100
AcDbVertex
100
AcDb2dVertex
 10
5.340592
 20
-4.559946
 30
0.0
  0
VERTEX
  5
4CF
330
22F
100
AcDbEntity
  8
MO_001_VIEW_PV
  6
C_SOLID_M
100
AcDbVertex
100
AcDb2dVertex
 10
5.447072
 20
-4.495969999999999
 30
0.0
  0
VERTEX
  5
4D0
330
22F
100
AcDbEntity
  8
MO_001_VIEW_PV
  6
C_SOLID_M
100
AcDbVertex
100
AcDb2dVertex
 10
5.511238999999999
 20
-4.440166999999999
 30
0.0
  0
VERTEX
  5
4D1
330
22F
100
AcDbEntity
  8
MO_001_VIEW_PV
  6
C_SOLID_M
100
AcDbVertex
100
AcDb2dVertex
 10
5.603976
 20
-4.321913999999999
 30
0.0
  0
VERTEX
  5
4D2
330
22F
100
AcDbEntity
  8
MO_001_VIEW_PV
  6
C_SOLID_M
100
AcDbVertex
100
AcDb2dVertex
 10
5.654479
 20
-4.219564
 30
0.0
  0
VERTEX
  5
4D3
330
22F
100
AcDbEntity
  8
MO_001_VIEW_PV
  6
C_SOLID_M
100
AcDbVertex
100
AcDb2dVertex
 10
5.680464999999999
 20
-4.137354
 30
0.0
  0
VERTEX
  5
4D4
330
22F
100
AcDbEntity
  8
MO_001_VIEW_PV
  6
C_SOLID_M
100
AcDbVertex
100
AcDb2dVertex
 10
5.699201
 20
-4.00893
 30
0.0
  0
VERTEX
  5
4D5
330
22F
100
AcDbEntity
  8
MO_001_VIEW_PV
  6
C_SOLID_M
100
AcDbVertex
100
AcDb2dVertex
 10
5.693029
 20
-3.879137999999999
 30
0.0
  0
SEQEND
  5
4D6
330
22F
100
AcDbEntity
  8
MO_001_VIEW_PV
  6
C_SOLID_M
  0
POLYLINE
  5
23E
330
1E
100
AcDbEntity
  8
MO_001_VIEW_PV
  6
C_SOLID_M
100
AcDb2dPolyline
 66
     1
 10
0.0
 20
0.0
 30
0.0
  0
VERTEX
  5
4D7
330
23E
100
AcDbEntity
  8
MO_001_VIEW_PV
  6
C_SOLID_M
100
AcDbVertex
100
AcDb2dVertex
 10
5.693024999999999
 20
8.101492
 30
0.0
  0
VERTEX
  5
4D8
330
23E
100
AcDbEntity
  8
MO_001_VIEW_PV
  6
C_SOLID_M
100
AcDbVertex
100
AcDb2dVertex
 10
5.699936
 20
8.178694
 30
0.0
  0
VERTEX
  5
4D9
330
23E
100
AcDbEntity
  8
MO_001_VIEW_PV
  6
C_SOLID_M
100
AcDbVertex
100
AcDb2dVertex
 10
5.684498
 20
8.313273999999999
 30
0.0
  0
VERTEX
  5
4DA
330
23E
100
AcDbEntity
  8
MO_001_VIEW_PV
  6
C_SOLID_M
100
AcDbVertex
100
AcDb2dVertex
 10
5.650428999999999
 20
8.409781999999999
 30
0.0
  0
VERTEX
  5
4DB
330
23E
100
AcDbEntity
  8
MO_001_VIEW_PV
  6
C_SOLID_M
100
AcDbVertex
100
AcDb2dVertex
 10
5.612921
 20
8.477517
 30
0.0
  0
VERTEX
  5
4DC
330
23E
100
AcDbEntity
  8
MO_001_VIEW_PV
  6
C_SOLID_M
100
AcDbVertex
100
AcDb2dVertex
 10
5.539120999999999
 20
8.568661
 30
0.0
  0
VERTEX
  5
4DD
330
23E
100
AcDbEntity
  8
MO_001_VIEW_PV
  6
C_SOLID_M
100
AcDbVertex
100
AcDb2dVertex
 10
5.447068999999999
 20
8.643925999999998
 30
0.0
  0
VERTEX
  5
4DE
330
23E
100
AcDbEntity
  8
MO_001_VIEW_PV
  6
C_SOLID_M
100
AcDbVertex
100
AcDb2dVertex
 10
5.376272
 20
8.684264999999999
 30
0.0
  0
VERTEX
  5
4DF
330
23E
100
AcDbEntity
  8
MO_001_VIEW_PV
  6
C_SOLID_M
100
AcDbVertex
100
AcDb2dVertex
 10
5.240549999999999
 20
8.731626
 30
0.0
  0
VERTEX
  5
4E0
330
23E
100
AcDbEntity
  8
MO_001_VIEW_PV
  6
C_SOLID_M
100
AcDbVertex
100
AcDb2dVertex
 10
5.132926
 20
8.746377999999999
 30
0.0
  0
VERTEX
  5
4E1
330
23E
100
AcDbEntity
  8
MO_001_VIEW_PV
  6
C_SOLID_M
100
AcDbVertex
100
AcDb2dVertex
 10
5.051301
 20
8.745373999999999
 30
0.0
  0
VERTEX
  5
4E2
330
23E
100
AcDbEntity
  8
MO_001_VIEW_PV
  6
C_SOLID_M
100
AcDbVertex
100
AcDb2dVertex
 10
4.931022
 20
8.724535000000001
 30
0.0
  0
VERTEX
  5
4E3
330
23E
100
AcDbEntity
  8
MO_001_VIEW_PV
  6
C_SOLID_M
100
AcDbVertex
100
AcDb2dVertex
 10
4.817768
 20
8.681338999999999
 30
0.0
  0
SEQEND
  5
4E4
330
23E
100
AcDbEntity
  8
MO_001_VIEW_PV
  6
C_SOLID_M
  0
POLYLINE
  5
24D
330
1E
100
AcDbEntity
  8
MO_001_VIEW_PV
  6
C_SOLID_M
100
AcDb2dPolyline
 66
     1
 10
0.0
 20
0.0
 30
0.0
  0
VERTEX
  5
4E5
330
24D
100
AcDbEntity
  8
MO_001_VIEW_PV
  6
C_SOLID_M
100
AcDbVertex
100
AcDb2dVertex
 10
5.693031999999999
 20
8.101485999999999
 30
0.0
  0
VERTEX
  5
4E6
330
24D
100
AcDbEntity
  8
MO_001_VIEW_PV
  6
C_SOLID_M
100
AcDbVertex
100
AcDb2dVertex
 10
5.644791999999999
 20
7.765958999999999
 30
0.0
  0
VERTEX
  5
4E7
330
24D
100
AcDbEntity
  8
MO_001_VIEW_PV
  6
C_SOLID_M
100
AcDbVertex
100
AcDb2dVertex
 10
5.598198
 20
7.260057
 30
0.0
  0
VERTEX
  5
4E8
330
24D
100
AcDbEntity
  8
MO_001_VIEW_PV
  6
C_SOLID_M
100
AcDbVertex
100
AcDb2dVertex
 10
5.582648999999999
 20
6.752492999999999
 30
0.0
  0
VERTEX
  5
4E9
330
24D
100
AcDbEntity
  8
MO_001_VIEW_PV
  6
C_SOLID_M
100
AcDbVertex
100
AcDb2dVertex
 10
5.589560999999999
 20
6.414013999999999
 30
0.0
  0
VERTEX
  5
4EA
330
24D
100
AcDbEntity
  8
MO_001_VIEW_PV
  6
C_SOLID_M
100
AcDbVertex
100
AcDb2dVertex
 10
5.625818999999999
 20
5.907373
 30
0.0
  0
VERTEX
  5
4EB
330
24D
100
AcDbEntity
  8
MO_001_VIEW_PV
  6
C_SOLID_M
100
AcDbVertex
100
AcDb2dVertex
 10
5.693032999999999
 20
5.403499
 30
0.0
  0
SEQEND
  5
4EC
330
24D
100
AcDbEntity
  8
MO_001_VIEW_PV
  6
C_SOLID_M
  0
POLYLINE
  5
256
330
1E
100
AcDbEntity
  8
MO_001_VIEW_PV
  6
C_SOLID_M
100
AcDb2dPolyline
 66
     1
 10
0.0
 20
0.0
 30
0.0
  0
VERTEX
  5
4ED
330
256
100
AcDbEntity
  8
MO_001_VIEW_PV
  6
C_SOLID_M
100
AcDbVertex
100
AcDb2dVertex
 10
2.0
 20
9.11513
 30
0.0
  0
VERTEX
  5
4EE
330
256
100
AcDbEntity
  8
MO_001_VIEW_PV
  6
C_SOLID_M
100
AcDbVertex
100
AcDb2dVertex
 10
2.136937
 20
8.989694
 30
0.0
  0
VERTEX
  5
4EF
330
256
100
AcDbEntity
  8
MO_001_VIEW_PV
  6
C_SOLID_M
100
AcDbVertex
100
AcDb2dVertex
 10
2.265395999999999
 20
8.888811
 30
0.0
  0
VERTEX
  5
4F0
330
256
100
AcDbEntity
  8
MO_001_VIEW_PV
  6
C_SOLID_M
100
AcDbVertex
100
AcDb2dVertex
 10
2.507540999999999
 20
8.733777999999999
 30
0.0
  0
VERTEX
  5
4F1
330
256
100
AcDbEntity
  8
MO_001_VIEW_PV
  6
C_SOLID_M
100
AcDbVertex
100
AcDb2dVertex
 10
2.701706
 20
8.636689999999999
 30
0.0
  0
VERTEX
  5
4F2
330
256
100
AcDbEntity
  8
MO_001_VIEW_PV
  6
C_SOLID_M
100
AcDbVertex
100
AcDb2dVertex
 10
2.85325
 20
8.575255
 30
0.0
  0
VERTEX
  5
4F3
330
256
100
AcDbEntity
  8
MO_001_VIEW_PV
  6
C_SOLID_M
100
AcDbVertex
100
AcDb2dVertex
 10
3.088286999999999
 20
8.502119
 30
0.0
  0
VERTEX
  5
4F4
330
256
100
AcDbEntity
  8
MO_001_VIEW_PV
  6
C_SOLID_M
100
AcDbVertex
100
AcDb2dVertex
 10
3.330258999999999
 20
8.452503999999999
 30
0.0
  0
VERTEX
  5
4F5
330
256
100
AcDbEntity
  8
MO_001_VIEW_PV
  6
C_SOLID_M
100
AcDbVertex
100
AcDb2dVertex
 10
3.520601999999999
 20
8.430609999999999
 30
0.0
  0
VERTEX
  5
4F6
330
256
100
AcDbEntity
  8
MO_001_VIEW_PV
  6
C_SOLID_M
100
AcDbVertex
100
AcDb2dVertex
 10
3.688242999999999
 20
8.423403999999999
 30
0.0
  0
VERTEX
  5
4F7
330
256
100
AcDbEntity
  8
MO_001_VIEW_PV
  6
C_SOLID_M
100
AcDbVertex
100
AcDb2dVertex
 10
3.981395999999999
 20
8.437722
 30
0.0
  0
VERTEX
  5
4F8
330
256
100
AcDbEntity
  8
MO_001_VIEW_PV
  6
C_SOLID_M
100
AcDbVertex
100
AcDb2dVertex
 10
4.198754
 20
8.470826999999999
 30
0.0
  0
VERTEX
  5
4F9
330
256
100
AcDbEntity
  8
MO_001_VIEW_PV
  6
C_SOLID_M
100
AcDbVertex
100
AcDb2dVertex
 10
4.359072
 20
8.508057
 30
0.0
  0
VERTEX
  5
4FA
330
256
100
AcDbEntity
  8
MO_001_VIEW_PV
  6
C_SOLID_M
100
AcDbVertex
100
AcDb2dVertex
 10
4.593315
 20
8.583386
 30
0.0
  0
VERTEX
  5
4FB
330
256
100
AcDbEntity
  8
MO_001_VIEW_PV
  6
C_SOLID_M
100
AcDbVertex
100
AcDb2dVertex
 10
4.817766999999999
 20
8.681333
 30
0.0
  0
SEQEND
  5
4FC
330
256
100
AcDbEntity
  8
MO_001_VIEW_PV
  6
C_SOLID_M
  0
POLYLINE
  5
267
330
1E
100
AcDbEntity
  8
MO_001_VIEW_PV
  6
C_SOLID_M
100
AcDb2dPolyline
 66
     1
 10
0.0
 20
0.0
 30
0.0
  0
VERTEX
  5
4FD
330
267
100
AcDbEntity
  8
MO_001_VIEW_PV
  6
C_SOLID_M
100
AcDbVertex
100
AcDb2dVertex
 10
4.817769
 20
4.823656999999999
 30
0.0
  0
VERTEX
  5
4FE
330
267
100
AcDbEntity
  8
MO_001_VIEW_PV
  6
C_SOLID_M
100
AcDbVertex
100
AcDb2dVertex
 10
4.644989999999999
 20
4.901412
 30
0.0
  0
VERTEX
  5
4FF
330
267
100
AcDbEntity
  8
MO_001_VIEW_PV
  6
C_SOLID_M
100
AcDbVertex
100
AcDb2dVertex
 10
4.488673999999999
 20
4.958452999999999
 30
0.0
  0
VERTEX
  5
500
330
267
100
AcDbEntity
  8
MO_001_VIEW_PV
  6
C_SOLID_M
100
AcDbVertex
100
AcDb2dVertex
 10
4.206083999999999
 20
5.032703999999999
 30
0.0
  0
VERTEX
  5
501
330
267
100
AcDbEntity
  8
MO_001_VIEW_PV
  6
C_SOLID_M
100
AcDbVertex
100
AcDb2dVertex
 10
3.98884
 20
5.066455999999999
 30
0.0
  0
VERTEX
  5
502
330
267
100
AcDbEntity
  8
MO_001_VIEW_PV
  6
C_SOLID_M
100
AcDbVertex
100
AcDb2dVertex
 10
3.824208
 20
5.079215
 30
0.0
  0
VERTEX
  5
503
330
267
100
AcDbEntity
  8
MO_001_VIEW_PV
  6
C_SOLID_M
100
AcDbVertex
100
AcDb2dVertex
 10
3.57648
 20
5.078028999999999
 30
0.0
  0
VERTEX
  5
504
330
267
100
AcDbEntity
  8
MO_001_VIEW_PV
  6
C_SOLID_M
100
AcDbVertex
100
AcDb2dVertex
 10
3.330261
 20
5.052487
 30
0.0
  0
VERTEX
  5
505
330
267
100
AcDbEntity
  8
MO_001_VIEW_PV
  6
C_SOLID_M
100
AcDbVertex
100
AcDb2dVertex
 10
3.142463
 20
5.016167
 30
0.0
  0
VERTEX
  5
506
330
267
100
AcDbEntity
  8
MO_001_VIEW_PV
  6
C_SOLID_M
100
AcDbVertex
100
AcDb2dVertex
 10
2.981211
 20
4.972738999999999
 30
0.0
  0
VERTEX
  5
507
330
267
100
AcDbEntity
  8
MO_001_VIEW_PV
  6
C_SOLID_M
100
AcDbVertex
100
AcDb2dVertex
 10
2.708475999999999
 20
4.871302
 30
0.0
  0
VERTEX
  5
508
330
267
100
AcDbEntity
  8
MO_001_VIEW_PV
  6
C_SOLID_M
100
AcDbVertex
100
AcDb2dVertex
 10
2.513981
 20
4.774792999999999
 30
0.0
  0
VERTEX
  5
509
330
267
100
AcDbEntity
  8
MO_001_VIEW_PV
  6
C_SOLID_M
100
AcDbVertex
100
AcDb2dVertex
 10
2.374927
 20
4.691474999999999
 30
0.0
  0
VERTEX
  5
50A
330
267
100
AcDbEntity
  8
MO_001_VIEW_PV
  6
C_SOLID_M
100
AcDbVertex
100
AcDb2dVertex
 10
2.178942999999999
 20
4.549911999999999
 30
0.0
  0
VERTEX
  5
50B
330
267
100
AcDbEntity
  8
MO_001_VIEW_PV
  6
C_SOLID_M
100
AcDbVertex
100
AcDb2dVertex
 10
2.0
 20
4.389861999999999
 30
0.0
  0
SEQEND
  5
50C
330
267
100
AcDbEntity
  8
MO_001_VIEW_PV
  6
C_SOLID_M
  0
POLYLINE
  5
278
330
1E
100
AcDbEntity
  8
MO_001_VIEW_PV
  6
C_SOLID_M
100
AcDb2dPolyline
 66
     1
 10
0.0
 20
0.0
 30
0.0
  0
VERTEX
  5
50D
330
278
100
AcDbEntity
  8
MO_001_VIEW_PV
  6
C_SOLID_M
100
AcDbVertex
100
AcDb2dVertex
 10
4.817770999999999
 20
4.823653
 30
0.0
  0
VERTEX
  5
50E
330
278
100
AcDbEntity
  8
MO_001_VIEW_PV
  6
C_SOLID_M
100
AcDbVertex
100
AcDb2dVertex
 10
4.893469999999999
 20
4.792023
 30
0.0
  0
VERTEX
  5
50F
330
278
100
AcDbEntity
  8
MO_001_VIEW_PV
  6
C_SOLID_M
100
AcDbVertex
100
AcDb2dVertex
 10
5.034523
 20
4.761116999999999
 30
0.0
  0
VERTEX
  5
510
330
278
100
AcDbEntity
  8
MO_001_VIEW_PV
  6
C_SOLID_M
100
AcDbVertex
100
AcDb2dVertex
 10
5.143282
 20
4.759229
 30
0.0
  0
VERTEX
  5
511
330
278
100
AcDbEntity
  8
MO_001_VIEW_PV
  6
C_SOLID_M
100
AcDbVertex
100
AcDb2dVertex
 10
5.224111999999999
 20
4.769891
 30
0.0
  0
VERTEX
  5
512
330
278
100
AcDbEntity
  8
MO_001_VIEW_PV
  6
C_SOLID_M
100
AcDbVertex
100
AcDb2dVertex
 10
5.340592
 20
4.804806
 30
0.0
  0
VERTEX
  5
513
330
278
100
AcDbEntity
  8
MO_001_VIEW_PV
  6
C_SOLID_M
100
AcDbVertex
100
AcDb2dVertex
 10
5.447072
 20
4.861064999999999
 30
0.0
  0
VERTEX
  5
514
330
278
100
AcDbEntity
  8
MO_001_VIEW_PV
  6
C_SOLID_M
100
AcDbVertex
100
AcDb2dVertex
 10
5.511238999999999
 20
4.910137999999999
 30
0.0
  0
VERTEX
  5
515
330
278
100
AcDbEntity
  8
MO_001_VIEW_PV
  6
C_SOLID_M
100
AcDbVertex
100
AcDb2dVertex
 10
5.603976
 20
5.014126999999999
 30
0.0
  0
VERTEX
  5
516
330
278
100
AcDbEntity
  8
MO_001_VIEW_PV
  6
C_SOLID_M
100
AcDbVertex
100
AcDb2dVertex
 10
5.654479
 20
5.104131999999999
 30
0.0
  0
VERTEX
  5
517
330
278
100
AcDbEntity
  8
MO_001_VIEW_PV
  6
C_SOLID_M
100
AcDbVertex
100
AcDb2dVertex
 10
5.680464999999999
 20
5.176426999999999
 30
0.0
  0
VERTEX
  5
518
330
278
100
AcDbEntity
  8
MO_001_VIEW_PV
  6
C_SOLID_M
100
AcDbVertex
100
AcDb2dVertex
 10
5.699201
 20
5.289361
 30
0.0
  0
VERTEX
  5
519
330
278
100
AcDbEntity
  8
MO_001_VIEW_PV
  6
C_SOLID_M
100
AcDbVertex
100
AcDb2dVertex
 10
5.693029
 20
5.403497999999999
 30
0.0
  0
SEQEND
  5
51A
330
278
100
AcDbEntity
  8
MO_001_VIEW_PV
  6
C_SOLID_M
  0
POLYLINE
  5
287
330
1E
100
AcDbEntity
  8
MO_001_VIEW_PV
  6
C_SOLID_M
100
AcDb2dPolyline
 66
     1
 10
0.0
 20
0.0
 30
0.0
  0
VERTEX
  5
51B
330
287
100
AcDbEntity
  8
MO_001_VIEW_PV
  6
C_SOLID_M
100
AcDbVertex
100
AcDb2dVertex
 10
5.693024999999999
 20
13.22330199999999
 30
0.0
  0
VERTEX
  5
51C
330
287
100
AcDbEntity
  8
MO_001_VIEW_PV
  6
C_SOLID_M
100
AcDbVertex
100
AcDb2dVertex
 10
5.699936
 20
13.253791
 30
0.0
  0
VERTEX
  5
51D
330
287
100
AcDbEntity
  8
MO_001_VIEW_PV
  6
C_SOLID_M
100
AcDbVertex
100
AcDb2dVertex
 10
5.684498
 20
13.306941
 30
0.0
  0
VERTEX
  5
51E
330
287
100
AcDbEntity
  8
MO_001_VIEW_PV
  6
C_SOLID_M
100
AcDbVertex
100
AcDb2dVertex
 10
5.650428999999999
 20
13.34505499999999
 30
0.0
  0
VERTEX
  5
51F
330
287
100
AcDbEntity
  8
MO_001_VIEW_PV
  6
C_SOLID_M
100
AcDbVertex
100
AcDb2dVertex
 10
5.565917999999999
 20
13.39643099999999
 30
0.0
  0
VERTEX
  5
520
330
287
100
AcDbEntity
  8
MO_001_VIEW_PV
  6
C_SOLID_M
100
AcDbVertex
100
AcDb2dVertex
 10
5.447068999999999
 20
13.437526
 30
0.0
  0
VERTEX
  5
521
330
287
100
AcDbEntity
  8
MO_001_VIEW_PV
  6
C_SOLID_M
100
AcDbVertex
100
AcDb2dVertex
 10
5.300197999999999
 20
13.465635
 30
0.0
  0
VERTEX
  5
522
330
287
100
AcDbEntity
  8
MO_001_VIEW_PV
  6
C_SOLID_M
100
AcDbVertex
100
AcDb2dVertex
 10
5.179391
 20
13.476375
 30
0.0
  0
VERTEX
  5
523
330
287
100
AcDbEntity
  8
MO_001_VIEW_PV
  6
C_SOLID_M
100
AcDbVertex
100
AcDb2dVertex
 10
4.993462
 20
13.47480299999999
 30
0.0
  0
VERTEX
  5
524
330
287
100
AcDbEntity
  8
MO_001_VIEW_PV
  6
C_SOLID_M
100
AcDbVertex
100
AcDb2dVertex
 10
4.817768
 20
13.452301
 30
0.0
  0
SEQEND
  5
525
330
287
100
AcDbEntity
  8
MO_001_VIEW_PV
  6
C_SOLID_M
  0
POLYLINE
  5
293
330
1E
100
AcDbEntity
  8
MO_001_VIEW_PV
  6
C_SOLID_M
100
AcDb2dPolyline
 66
     1
 10
0.0
 20
0.0
 30
0.0
  0
VERTEX
  5
526
330
293
100
AcDbEntity
  8
MO_001_VIEW_PV
  6
C_SOLID_M
100
AcDbVertex
100
AcDb2dVertex
 10
5.693031999999999
 20
13.22329899999999
 30
0.0
  0
VERTEX
  5
527
330
293
100
AcDbEntity
  8
MO_001_VIEW_PV
  6
C_SOLID_M
100
AcDbVertex
100
AcDb2dVertex
 10
5.644791999999999
 20
13.090789
 30
0.0
  0
VERTEX
  5
528
330
293
100
AcDbEntity
  8
MO_001_VIEW_PV
  6
C_SOLID_M
100
AcDbVertex
100
AcDb2dVertex
 10
5.598198
 20
12.890992
 30
0.0
  0
VERTEX
  5
529
330
293
100
AcDbEntity
  8
MO_001_VIEW_PV
  6
C_SOLID_M
100
AcDbVertex
100
AcDb2dVertex
 10
5.582648999999999
 20
12.690539
 30
0.0
  0
VERTEX
  5
52A
330
293
100
AcDbEntity
  8
MO_001_VIEW_PV
  6
C_SOLID_M
100
AcDbVertex
100
AcDb2dVertex
 10
5.589560999999999
 20
12.556863
 30
0.0
  0
VERTEX
  5
52B
330
293
100
AcDbEntity
  8
MO_001_VIEW_PV
  6
C_SOLID_M
100
AcDbVertex
100
AcDb2dVertex
 10
5.625818999999999
 20
12.356775
 30
0.0
  0
VERTEX
  5
52C
330
293
100
AcDbEntity
  8
MO_001_VIEW_PV
  6
C_SOLID_M
100
AcDbVertex
100
AcDb2dVertex
 10
5.693032999999999
 20
12.15777899999999
 30
0.0
  0
SEQEND
  5
52D
330
293
100
AcDbEntity
  8
MO_001_VIEW_PV
  6
C_SOLID_M
  0
POLYLINE
  5
29C
330
1E
100
AcDbEntity
  8
MO_001_VIEW_PV
  6
C_SOLID_M
100
AcDb2dPolyline
 66
     1
 10
0.0
 20
0.0
 30
0.0
  0
VERTEX
  5
52E
330
29C
100
AcDbEntity
  8
MO_001_VIEW_PV
  6
C_SOLID_M
100
AcDbVertex
100
AcDb2dVertex
 10
1.999999
 20
13.623619
 30
0.0
  0
VERTEX
  5
52F
330
29C
100
AcDbEntity
  8
MO_001_VIEW_PV
  6
C_SOLID_M
100
AcDbVertex
100
AcDb2dVertex
 10
2.136935999999999
 20
13.574081
 30
0.0
  0
VERTEX
  5
530
330
29C
100
AcDbEntity
  8
MO_001_VIEW_PV
  6
C_SOLID_M
100
AcDbVertex
100
AcDb2dVertex
 10
2.401234
 20
13.497881
 30
0.0
  0
VERTEX
  5
531
330
29C
100
AcDbEntity
  8
MO_001_VIEW_PV
  6
C_SOLID_M
100
AcDbVertex
100
AcDb2dVertex
 10
2.617302999999999
 20
13.450277
 30
0.0
  0
VERTEX
  5
532
330
29C
100
AcDbEntity
  8
MO_001_VIEW_PV
  6
C_SOLID_M
100
AcDbVertex
100
AcDb2dVertex
 10
2.964138999999999
 20
13.39551
 30
0.0
  0
VERTEX
  5
533
330
29C
100
AcDbEntity
  8
MO_001_VIEW_PV
  6
C_SOLID_M
100
AcDbVertex
100
AcDb2dVertex
 10
3.330258999999999
 20
13.361927
 30
0.0
  0
VERTEX
  5
534
330
29C
100
AcDbEntity
  8
MO_001_VIEW_PV
  6
C_SOLID_M
100
AcDbVertex
100
AcDb2dVertex
 10
3.712222
 20
13.350389
 30
0.0
  0
VERTEX
  5
535
330
29C
100
AcDbEntity
  8
MO_001_VIEW_PV
  6
C_SOLID_M
100
AcDbVertex
100
AcDb2dVertex
 10
3.999254
 20
13.356874
 30
0.0
  0
VERTEX
  5
536
330
29C
100
AcDbEntity
  8
MO_001_VIEW_PV
  6
C_SOLID_M
100
AcDbVertex
100
AcDb2dVertex
 10
4.42042
 20
13.39068
 30
0.0
  0
VERTEX
  5
537
330
29C
100
AcDbEntity
  8
MO_001_VIEW_PV
  6
C_SOLID_M
100
AcDbVertex
100
AcDb2dVertex
 10
4.622930999999999
 20
13.418121
 30
0.0
  0
VERTEX
  5
538
330
29C
100
AcDbEntity
  8
MO_001_VIEW_PV
  6
C_SOLID_M
100
AcDbVertex
100
AcDb2dVertex
 10
4.817768
 20
13.45229899999999
 30
0.0
  0
SEQEND
  5
539
330
29C
100
AcDbEntity
  8
MO_001_VIEW_PV
  6
C_SOLID_M
  0
POLYLINE
  5
2A9
330
1E
100
AcDbEntity
  8
MO_001_VIEW_PV
  6
C_SOLID_M
100
AcDb2dPolyline
 66
     1
 10
0.0
 20
0.0
 30
0.0
  0
VERTEX
  5
53A
330
2A9
100
AcDbEntity
  8
MO_001_VIEW_PV
  6
C_SOLID_M
100
AcDbVertex
100
AcDb2dVertex
 10
4.817769
 20
11.92878099999999
 30
0.0
  0
VERTEX
  5
53B
330
2A9
100
AcDbEntity
  8
MO_001_VIEW_PV
  6
C_SOLID_M
100
AcDbVertex
100
AcDb2dVertex
 10
4.466001
 20
11.984896
 30
0.0
  0
VERTEX
  5
53C
330
2A9
100
AcDbEntity
  8
MO_001_VIEW_PV
  6
C_SOLID_M
100
AcDbVertex
100
AcDb2dVertex
 10
4.188487
 20
12.01270899999999
 30
0.0
  0
VERTEX
  5
53D
330
2A9
100
AcDbEntity
  8
MO_001_VIEW_PV
  6
C_SOLID_M
100
AcDbVertex
100
AcDb2dVertex
 10
3.760177999999999
 20
12.03051199999999
 30
0.0
  0
VERTEX
  5
53E
330
2A9
100
AcDbEntity
  8
MO_001_VIEW_PV
  6
C_SOLID_M
100
AcDbVertex
100
AcDb2dVertex
 10
3.330261
 20
12.019153
 30
0.0
  0
VERTEX
  5
53F
330
2A9
100
AcDbEntity
  8
MO_001_VIEW_PV
  6
C_SOLID_M
100
AcDbVertex
100
AcDb2dVertex
 10
2.958461
 20
11.984863
 30
0.0
  0
VERTEX
  5
540
330
2A9
100
AcDbEntity
  8
MO_001_VIEW_PV
  6
C_SOLID_M
100
AcDbVertex
100
AcDb2dVertex
 10
2.692245
 20
11.94474
 30
0.0
  0
VERTEX
  5
541
330
2A9
100
AcDbEntity
  8
MO_001_VIEW_PV
  6
C_SOLID_M
100
AcDbVertex
100
AcDb2dVertex
 10
2.502399
 20
11.906933
 30
0.0
  0
VERTEX
  5
542
330
2A9
100
AcDbEntity
  8
MO_001_VIEW_PV
  6
C_SOLID_M
100
AcDbVertex
100
AcDb2dVertex
 10
2.237225999999999
 20
11.838591
 30
0.0
  0
VERTEX
  5
543
330
2A9
100
AcDbEntity
  8
MO_001_VIEW_PV
  6
C_SOLID_M
100
AcDbVertex
100
AcDb2dVertex
 10
2.0
 20
11.757461
 30
0.0
  0
SEQEND
  5
544
330
2A9
100
AcDbEntity
  8
MO_001_VIEW_PV
  6
C_SOLID_M
  0
POLYLINE
  5
2B5
330
1E
100
AcDbEntity
  8
MO_001_VIEW_PV
  6
C_SOLID_M
100
AcDb2dPolyline
 66
     1
 10
0.0
 20
0.0
 30
0.0
  0
VERTEX
  5
545
330
2B5
100
AcDbEntity
  8
MO_001_VIEW_PV
  6
C_SOLID_M
100
AcDbVertex
100
AcDb2dVertex
 10
4.817770999999999
 20
11.92877899999999
 30
0.0
  0
VERTEX
  5
546
330
2B5
100
AcDbEntity
  8
MO_001_VIEW_PV
  6
C_SOLID_M
100
AcDbVertex
100
AcDb2dVertex
 10
4.973113999999999
 20
11.907766
 30
0.0
  0
VERTEX
  5
547
330
2B5
100
AcDbEntity
  8
MO_001_VIEW_PV
  6
C_SOLID_M
100
AcDbVertex
100
AcDb2dVertex
 10
5.220301999999999
 20
11.907254
 30
0.0
  0
VERTEX
  5
548
330
2B5
100
AcDbEntity
  8
MO_001_VIEW_PV
  6
C_SOLID_M
100
AcDbVertex
100
AcDb2dVertex
 10
5.338808999999999
 20
11.92104799999999
 30
0.0
  0
VERTEX
  5
549
330
2B5
100
AcDbEntity
  8
MO_001_VIEW_PV
  6
C_SOLID_M
100
AcDbVertex
100
AcDb2dVertex
 10
5.447072
 20
11.94355399999999
 30
0.0
  0
VERTEX
  5
54A
330
2B5
100
AcDbEntity
  8
MO_001_VIEW_PV
  6
C_SOLID_M
100
AcDbVertex
100
AcDb2dVertex
 10
5.567550999999999
 20
11.985394
 30
0.0
  0
VERTEX
  5
54B
330
2B5
100
AcDbEntity
  8
MO_001_VIEW_PV
  6
C_SOLID_M
100
AcDbVertex
100
AcDb2dVertex
 10
5.634983
 20
12.023904
 30
0.0
  0
VERTEX
  5
54C
330
2B5
100
AcDbEntity
  8
MO_001_VIEW_PV
  6
C_SOLID_M
100
AcDbVertex
100
AcDb2dVertex
 10
5.670619999999999
 20
12.05570599999999
 30
0.0
  0
VERTEX
  5
54D
330
2B5
100
AcDbEntity
  8
MO_001_VIEW_PV
  6
C_SOLID_M
100
AcDbVertex
100
AcDb2dVertex
 10
5.698042
 20
12.106257
 30
0.0
  0
VERTEX
  5
54E
330
2B5
100
AcDbEntity
  8
MO_001_VIEW_PV
  6
C_SOLID_M
100
AcDbVertex
100
AcDb2dVertex
 10
5.693029
 20
12.157778
 30
0.0
  0
SEQEND
  5
54F
330
2B5
100
AcDbEntity
  8
MO_001_VIEW_PV
  6
C_SOLID_M
  0
POLYLINE
  5
2C1
330
1E
100
AcDbEntity
  8
MO_001_VIEW_PV
  6
C_SOLID_M
100
AcDb2dPolyline
 66
     1
 10
0.0
 20
0.0
 30
0.0
  0
VERTEX
  5
550
330
2C1
100
AcDbEntity
  8
MO_001_VIEW_PV
  6
C_SOLID_M
100
AcDbVertex
100
AcDb2dVertex
 10
4.817769
 20
11.059969
 30
0.0
  0
VERTEX
  5
551
330
2C1
100
AcDbEntity
  8
MO_001_VIEW_PV
  6
C_SOLID_M
100
AcDbVertex
100
AcDb2dVertex
 10
4.466001
 20
11.11608399999999
 30
0.0
  0
VERTEX
  5
552
330
2C1
100
AcDbEntity
  8
MO_001_VIEW_PV
  6
C_SOLID_M
100
AcDbVertex
100
AcDb2dVertex
 10
4.188487
 20
11.143898
 30
0.0
  0
VERTEX
  5
553
330
2C1
100
AcDbEntity
  8
MO_001_VIEW_PV
  6
C_SOLID_M
100
AcDbVertex
100
AcDb2dVertex
 10
3.760177999999999
 20
11.1617
 30
0.0
  0
VERTEX
  5
554
330
2C1
100
AcDbEntity
  8
MO_001_VIEW_PV
  6
C_SOLID_M
100
AcDbVertex
100
AcDb2dVertex
 10
3.330261
 20
11.150341
 30
0.0
  0
VERTEX
  5
555
330
2C1
100
AcDbEntity
  8
MO_001_VIEW_PV
  6
C_SOLID_M
100
AcDbVertex
100
AcDb2dVertex
 10
2.958461
 20
11.116051
 30
0.0
  0
VERTEX
  5
556
330
2C1
100
AcDbEntity
  8
MO_001_VIEW_PV
  6
C_SOLID_M
100
AcDbVertex
100
AcDb2dVertex
 10
2.692245
 20
11.07592799999999
 30
0.0
  0
VERTEX
  5
557
330
2C1
100
AcDbEntity
  8
MO_001_VIEW_PV
  6
C_SOLID_M
100
AcDbVertex
100
AcDb2dVertex
 10
2.502399
 20
11.038121
 30
0.0
  0
VERTEX
  5
558
330
2C1
100
AcDbEntity
  8
MO_001_VIEW_PV
  6
C_SOLID_M
100
AcDbVertex
100
AcDb2dVertex
 10
2.237225999999999
 20
10.96977899999999
 30
0.0
  0
VERTEX
  5
559
330
2C1
100
AcDbEntity
  8
MO_001_VIEW_PV
  6
C_SOLID_M
100
AcDbVertex
100
AcDb2dVertex
 10
2.0
 20
10.88864999999999
 30
0.0
  0
SEQEND
  5
55A
330
2C1
100
AcDbEntity
  8
MO_001_VIEW_PV
  6
C_SOLID_M
  0
POLYLINE
  5
2CD
330
1E
100
AcDbEntity
  8
MO_001_VIEW_PV
  6
C_SOLID_M
100
AcDb2dPolyline
 66
     1
 10
0.0
 20
0.0
 30
0.0
  0
VERTEX
  5
55B
330
2CD
100
AcDbEntity
  8
MO_001_VIEW_PV
  6
C_SOLID_M
100
AcDbVertex
100
AcDb2dVertex
 10
4.817770999999999
 20
11.059967
 30
0.0
  0
VERTEX
  5
55C
330
2CD
100
AcDbEntity
  8
MO_001_VIEW_PV
  6
C_SOLID_M
100
AcDbVertex
100
AcDb2dVertex
 10
4.961951999999999
 20
11.03988599999999
 30
0.0
  0
VERTEX
  5
55D
330
2CD
100
AcDbEntity
  8
MO_001_VIEW_PV
  6
C_SOLID_M
100
AcDbVertex
100
AcDb2dVertex
 10
5.192147
 20
11.03657299999999
 30
0.0
  0
VERTEX
  5
55E
330
2CD
100
AcDbEntity
  8
MO_001_VIEW_PV
  6
C_SOLID_M
100
AcDbVertex
100
AcDb2dVertex
 10
5.304250999999999
 20
11.047168
 30
0.0
  0
VERTEX
  5
55F
330
2CD
100
AcDbEntity
  8
MO_001_VIEW_PV
  6
C_SOLID_M
100
AcDbVertex
100
AcDb2dVertex
 10
5.408756999999999
 20
11.065507
 30
0.0
  0
VERTEX
  5
560
330
2CD
100
AcDbEntity
  8
MO_001_VIEW_PV
  6
C_SOLID_M
100
AcDbVertex
100
AcDb2dVertex
 10
5.529619
 20
11.100786
 30
0.0
  0
VERTEX
  5
561
330
2CD
100
AcDbEntity
  8
MO_001_VIEW_PV
  6
C_SOLID_M
100
AcDbVertex
100
AcDb2dVertex
 10
5.602034999999999
 20
11.13408999999999
 30
0.0
  0
VERTEX
  5
562
330
2CD
100
AcDbEntity
  8
MO_001_VIEW_PV
  6
C_SOLID_M
100
AcDbVertex
100
AcDb2dVertex
 10
5.644212999999999
 20
11.162102
 30
0.0
  0
VERTEX
  5
563
330
2CD
100
AcDbEntity
  8
MO_001_VIEW_PV
  6
C_SOLID_M
100
AcDbVertex
100
AcDb2dVertex
 10
5.685887999999999
 20
11.207588
 30
0.0
  0
VERTEX
  5
564
330
2CD
100
AcDbEntity
  8
MO_001_VIEW_PV
  6
C_SOLID_M
100
AcDbVertex
100
AcDb2dVertex
 10
5.700001
 20
11.255319
 30
0.0
  0
SEQEND
  5
565
330
2CD
100
AcDbEntity
  8
MO_001_VIEW_PV
  6
C_SOLID_M
  0
POLYLINE
  5
2D9
330
1E
100
AcDbEntity
  8
MO_001_VIEW_PV
  6
C_SOLID_M
100
AcDb2dPolyline
 66
     1
 10
0.0
 20
0.0
 30
0.0
  0
VERTEX
  5
566
330
2D9
100
AcDbEntity
  8
MO_001_VIEW_PV
  6
C_SOLID_M
100
AcDbVertex
100
AcDb2dVertex
 10
5.693031999999999
 20
12.354488
 30
0.0
  0
VERTEX
  5
567
330
2D9
100
AcDbEntity
  8
MO_001_VIEW_PV
  6
C_SOLID_M
100
AcDbVertex
100
AcDb2dVertex
 10
5.673517999999999
 20
12.305358
 30
0.0
  0
VERTEX
  5
568
330
2D9
100
AcDbEntity
  8
MO_001_VIEW_PV
  6
C_SOLID_M
100
AcDbVertex
100
AcDb2dVertex
 10
5.655892999999999
 20
12.256131
 30
0.0
  0
SEQEND
  5
569
330
2D9
100
AcDbEntity
  8
MO_001_VIEW_PV
  6
C_SOLID_M
  0
POLYLINE
  5
2DE
330
1E
100
AcDbEntity
  8
MO_001_VIEW_PV
  6
C_SOLID_M
100
AcDb2dPolyline
 66
     1
 10
0.0
 20
0.0
 30
0.0
  0
VERTEX
  5
56A
330
2DE
100
AcDbEntity
  8
MO_001_VIEW_PV
  6
C_SOLID_M
100
AcDbVertex
100
AcDb2dVertex
 10
5.693024999999999
 20
12.354491
 30
0.0
  0
VERTEX
  5
56B
330
2DE
100
AcDbEntity
  8
MO_001_VIEW_PV
  6
C_SOLID_M
100
AcDbVertex
100
AcDb2dVertex
 10
5.698252
 20
12.371266
 30
0.0
  0
VERTEX
  5
56C
330
2DE
100
AcDbEntity
  8
MO_001_VIEW_PV
  6
C_SOLID_M
100
AcDbVertex
100
AcDb2dVertex
 10
5.699996999999999
 20
12.388139
 30
0.0
  0
SEQEND
  5
56D
330
2DE
100
AcDbEntity
  8
MO_001_VIEW_PV
  6
C_SOLID_M
  0
LINE
  5
2E3
330
1E
100
AcDbEntity
  8
MO_001_VIEW_PV
  6
C_SOLID_M
100
AcDbLine
 10
5.699996999999999
 20
12.388139
 30
0.0
 11
5.699996999999999
 21
13.25695
 31
0.0
  0
LINE
  5
2E4
330
1E
100
AcDbEntity
  8
MO_001_VIEW_PV
  6
C_SOLID_M
100
AcDbLine
 10
5.700001
 20
12.12413
 30
0.0
 11
5.700001
 21
11.255319
 31
0.0
  0
POLYLINE
  5
2E5
330
1E
100
AcDbEntity
  8
MO_001_VIEW_PV
  6
C_SOLID_M
100
AcDb2dPolyline
 66
     1
 10
0.0
 20
0.0
 30
0.0
  0
VERTEX
  5
56E
330
2E5
100
AcDbEntity
  8
MO_001_VIEW_PV
  6
C_SOLID_M
100
AcDbVertex
100
AcDb2dVertex
 10
4.817769
 20
4.476376999999999
 30
0.0
  0
VERTEX
  5
56F
330
2E5
100
AcDbEntity
  8
MO_001_VIEW_PV
  6
C_SOLID_M
100
AcDbVertex
100
AcDb2dVertex
 10
4.644989999999999
 20
4.554132
 30
0.0
  0
VERTEX
  5
570
330
2E5
100
AcDbEntity
  8
MO_001_VIEW_PV
  6
C_SOLID_M
100
AcDbVertex
100
AcDb2dVertex
 10
4.488673999999999
 20
4.611174
 30
0.0
  0
VERTEX
  5
571
330
2E5
100
AcDbEntity
  8
MO_001_VIEW_PV
  6
C_SOLID_M
100
AcDbVertex
100
AcDb2dVertex
 10
4.206083999999999
 20
4.685423999999999
 30
0.0
  0
VERTEX
  5
572
330
2E5
100
AcDbEntity
  8
MO_001_VIEW_PV
  6
C_SOLID_M
100
AcDbVertex
100
AcDb2dVertex
 10
3.98884
 20
4.719176
 30
0.0
  0
VERTEX
  5
573
330
2E5
100
AcDbEntity
  8
MO_001_VIEW_PV
  6
C_SOLID_M
100
AcDbVertex
100
AcDb2dVertex
 10
3.824208
 20
4.731935
 30
0.0
  0
VERTEX
  5
574
330
2E5
100
AcDbEntity
  8
MO_001_VIEW_PV
  6
C_SOLID_M
100
AcDbVertex
100
AcDb2dVertex
 10
3.57648
 20
4.730749999999999
 30
0.0
  0
VERTEX
  5
575
330
2E5
100
AcDbEntity
  8
MO_001_VIEW_PV
  6
C_SOLID_M
100
AcDbVertex
100
AcDb2dVertex
 10
3.330261
 20
4.705207999999999
 30
0.0
  0
VERTEX
  5
576
330
2E5
100
AcDbEntity
  8
MO_001_VIEW_PV
  6
C_SOLID_M
100
AcDbVertex
100
AcDb2dVertex
 10
3.142463
 20
4.668887
 30
0.0
  0
VERTEX
  5
577
330
2E5
100
AcDbEntity
  8
MO_001_VIEW_PV
  6
C_SOLID_M
100
AcDbVertex
100
AcDb2dVertex
 10
2.981211
 20
4.625459999999999
 30
0.0
  0
VERTEX
  5
578
330
2E5
100
AcDbEntity
  8
MO_001_VIEW_PV
  6
C_SOLID_M
100
AcDbVertex
100
AcDb2dVertex
 10
2.708475999999999
 20
4.524023
 30
0.0
  0
VERTEX
  5
579
330
2E5
100
AcDbEntity
  8
MO_001_VIEW_PV
  6
C_SOLID_M
100
AcDbVertex
100
AcDb2dVertex
 10
2.513981
 20
4.427512999999999
 30
0.0
  0
VERTEX
  5
57A
330
2E5
100
AcDbEntity
  8
MO_001_VIEW_PV
  6
C_SOLID_M
100
AcDbVertex
100
AcDb2dVertex
 10
2.374927
 20
4.344195
 30
0.0
  0
VERTEX
  5
57B
330
2E5
100
AcDbEntity
  8
MO_001_VIEW_PV
  6
C_SOLID_M
100
AcDbVertex
100
AcDb2dVertex
 10
2.178942999999999
 20
4.202632
 30
0.0
  0
VERTEX
  5
57C
330
2E5
100
AcDbEntity
  8
MO_001_VIEW_PV
  6
C_SOLID_M
100
AcDbVertex
100
AcDb2dVertex
 10
2.0
 20
4.042582
 30
0.0
  0
SEQEND
  5
57D
330
2E5
100
AcDbEntity
  8
MO_001_VIEW_PV
  6
C_SOLID_M
  0
POLYLINE
  5
2F6
330
1E
100
AcDbEntity
  8
MO_001_VIEW_PV
  6
C_SOLID_M
100
AcDb2dPolyline
 66
     1
 10
0.0
 20
0.0
 30
0.0
  0
VERTEX
  5
57E
330
2F6
100
AcDbEntity
  8
MO_001_VIEW_PV
  6
C_SOLID_M
100
AcDbVertex
100
AcDb2dVertex
 10
4.817770999999999
 20
4.476373
 30
0.0
  0
VERTEX
  5
57F
330
2F6
100
AcDbEntity
  8
MO_001_VIEW_PV
  6
C_SOLID_M
100
AcDbVertex
100
AcDb2dVertex
 10
4.961953
 20
4.425527999999999
 30
0.0
  0
VERTEX
  5
580
330
2F6
100
AcDbEntity
  8
MO_001_VIEW_PV
  6
C_SOLID_M
100
AcDbVertex
100
AcDb2dVertex
 10
5.076615
 20
4.410915
 30
0.0
  0
VERTEX
  5
581
330
2F6
100
AcDbEntity
  8
MO_001_VIEW_PV
  6
C_SOLID_M
100
AcDbVertex
100
AcDb2dVertex
 10
5.163419
 20
4.413629
 30
0.0
  0
VERTEX
  5
582
330
2F6
100
AcDbEntity
  8
MO_001_VIEW_PV
  6
C_SOLID_M
100
AcDbVertex
100
AcDb2dVertex
 10
5.290570999999999
 20
4.439512999999999
 30
0.0
  0
VERTEX
  5
583
330
2F6
100
AcDbEntity
  8
MO_001_VIEW_PV
  6
C_SOLID_M
100
AcDbVertex
100
AcDb2dVertex
 10
5.408757999999999
 20
4.490401999999999
 30
0.0
  0
VERTEX
  5
584
330
2F6
100
AcDbEntity
  8
MO_001_VIEW_PV
  6
C_SOLID_M
100
AcDbVertex
100
AcDb2dVertex
 10
5.529619999999999
 20
4.579730999999999
 30
0.0
  0
VERTEX
  5
585
330
2F6
100
AcDbEntity
  8
MO_001_VIEW_PV
  6
C_SOLID_M
100
AcDbVertex
100
AcDb2dVertex
 10
5.602034999999999
 20
4.664058999999999
 30
0.0
  0
VERTEX
  5
586
330
2F6
100
AcDbEntity
  8
MO_001_VIEW_PV
  6
C_SOLID_M
100
AcDbVertex
100
AcDb2dVertex
 10
5.644212999999999
 20
4.734987999999999
 30
0.0
  0
VERTEX
  5
587
330
2F6
100
AcDbEntity
  8
MO_001_VIEW_PV
  6
C_SOLID_M
100
AcDbVertex
100
AcDb2dVertex
 10
5.685887999999999
 20
4.850160999999999
 30
0.0
  0
VERTEX
  5
588
330
2F6
100
AcDbEntity
  8
MO_001_VIEW_PV
  6
C_SOLID_M
100
AcDbVertex
100
AcDb2dVertex
 10
5.700001
 20
4.971019
 30
0.0
  0
SEQEND
  5
589
330
2F6
100
AcDbEntity
  8
MO_001_VIEW_PV
  6
C_SOLID_M
  0
POLYLINE
  5
303
330
1E
100
AcDbEntity
  8
MO_001_VIEW_PV
  6
C_SOLID_M
100
AcDb2dPolyline
 66
     1
 10
0.0
 20
0.0
 30
0.0
  0
VERTEX
  5
58A
330
303
100
AcDbEntity
  8
MO_001_VIEW_PV
  6
C_SOLID_M
100
AcDbVertex
100
AcDb2dVertex
 10
5.693031999999999
 20
7.754207
 30
0.0
  0
VERTEX
  5
58B
330
303
100
AcDbEntity
  8
MO_001_VIEW_PV
  6
C_SOLID_M
100
AcDbVertex
100
AcDb2dVertex
 10
5.650210999999999
 20
7.461796
 30
0.0
  0
VERTEX
  5
58C
330
303
100
AcDbEntity
  8
MO_001_VIEW_PV
  6
C_SOLID_M
100
AcDbVertex
100
AcDb2dVertex
 10
5.617822
 20
7.168216999999999
 30
0.0
  0
VERTEX
  5
58D
330
303
100
AcDbEntity
  8
MO_001_VIEW_PV
  6
C_SOLID_M
100
AcDbVertex
100
AcDb2dVertex
 10
5.595899
 20
6.873794999999999
 30
0.0
  0
VERTEX
  5
58E
330
303
100
AcDbEntity
  8
MO_001_VIEW_PV
  6
C_SOLID_M
100
AcDbVertex
100
AcDb2dVertex
 10
5.584468
 20
6.578853999999999
 30
0.0
  0
SEQEND
  5
58F
330
303
100
AcDbEntity
  8
MO_001_VIEW_PV
  6
C_SOLID_M
  0
POLYLINE
  5
30A
330
1E
100
AcDbEntity
  8
MO_001_VIEW_PV
  6
C_SOLID_M
100
AcDb2dPolyline
 66
     1
 10
0.0
 20
0.0
 30
0.0
  0
VERTEX
  5
590
330
30A
100
AcDbEntity
  8
MO_001_VIEW_PV
  6
C_SOLID_M
100
AcDbVertex
100
AcDb2dVertex
 10
5.693024999999999
 20
7.754213
 30
0.0
  0
VERTEX
  5
591
330
30A
100
AcDbEntity
  8
MO_001_VIEW_PV
  6
C_SOLID_M
100
AcDbVertex
100
AcDb2dVertex
 10
5.698252
 20
7.796688
 30
0.0
  0
VERTEX
  5
592
330
30A
100
AcDbEntity
  8
MO_001_VIEW_PV
  6
C_SOLID_M
100
AcDbVertex
100
AcDb2dVertex
 10
5.699996999999999
 20
7.839413
 30
0.0
  0
SEQEND
  5
593
330
30A
100
AcDbEntity
  8
MO_001_VIEW_PV
  6
C_SOLID_M
  0
LINE
  5
30F
330
1E
100
AcDbEntity
  8
MO_001_VIEW_PV
  6
C_SOLID_M
100
AcDbLine
 10
5.700001
 20
5.318299999999999
 30
0.0
 11
5.700001
 21
4.971019
 31
0.0
  0
LINE
  5
310
330
1E
100
AcDbEntity
  8
MO_001_VIEW_PV
  6
C_SOLID_M
100
AcDbLine
 10
5.699996999999999
 20
8.186691999999998
 30
0.0
 11
5.699996999999999
 21
7.839413
 31
0.0
  0
POLYLINE
  5
311
330
1E
100
AcDbEntity
  8
MO_001_VIEW_PV
  6
C_SOLID_M
100
AcDb2dPolyline
 66
     1
 10
0.0
 20
0.0
 30
0.0
  0
VERTEX
  5
594
330
311
100
AcDbEntity
  8
MO_001_VIEW_PV
  6
C_SOLID_M
100
AcDbVertex
100
AcDb2dVertex
 10
2.0
 20
-7.944741999999999
 30
0.0
  0
VERTEX
  5
595
330
311
100
AcDbEntity
  8
MO_001_VIEW_PV
  6
C_SOLID_M
100
AcDbVertex
100
AcDb2dVertex
 10
2.136937
 20
-8.037843999999999
 30
0.0
  0
VERTEX
  5
596
330
311
100
AcDbEntity
  8
MO_001_VIEW_PV
  6
C_SOLID_M
100
AcDbVertex
100
AcDb2dVertex
 10
2.401234999999999
 20
-8.181052000000001
 30
0.0
  0
VERTEX
  5
597
330
311
100
AcDbEntity
  8
MO_001_VIEW_PV
  6
C_SOLID_M
100
AcDbVertex
100
AcDb2dVertex
 10
2.617304
 20
-8.270517999999999
 30
0.0
  0
VERTEX
  5
598
330
311
100
AcDbEntity
  8
MO_001_VIEW_PV
  6
C_SOLID_M
100
AcDbVertex
100
AcDb2dVertex
 10
2.787738
 20
-8.326814999999999
 30
0.0
  0
VERTEX
  5
599
330
311
100
AcDbEntity
  8
MO_001_VIEW_PV
  6
C_SOLID_M
100
AcDbVertex
100
AcDb2dVertex
 10
3.054224
 20
-8.393038
 30
0.0
  0
VERTEX
  5
59A
330
311
100
AcDbEntity
  8
MO_001_VIEW_PV
  6
C_SOLID_M
100
AcDbVertex
100
AcDb2dVertex
 10
3.330258999999999
 20
-8.436560999999999
 30
0.0
  0
VERTEX
  5
59B
330
311
100
AcDbEntity
  8
MO_001_VIEW_PV
  6
C_SOLID_M
100
AcDbVertex
100
AcDb2dVertex
 10
3.520601999999999
 20
-8.452811999999999
 30
0.0
  0
VERTEX
  5
59C
330
311
100
AcDbEntity
  8
MO_001_VIEW_PV
  6
C_SOLID_M
100
AcDbVertex
100
AcDb2dVertex
 10
3.856006999999999
 20
-8.455199
 30
0.0
  0
VERTEX
  5
59D
330
311
100
AcDbEntity
  8
MO_001_VIEW_PV
  6
C_SOLID_M
100
AcDbVertex
100
AcDb2dVertex
 10
4.106012999999999
 20
-8.435221999999999
 30
0.0
  0
VERTEX
  5
59E
330
311
100
AcDbEntity
  8
MO_001_VIEW_PV
  6
C_SOLID_M
100
AcDbVertex
100
AcDb2dVertex
 10
4.290709999999999
 20
-8.408127999999999
 30
0.0
  0
VERTEX
  5
59F
330
311
100
AcDbEntity
  8
MO_001_VIEW_PV
  6
C_SOLID_M
100
AcDbVertex
100
AcDb2dVertex
 10
4.560391
 20
-8.348449
 30
0.0
  0
VERTEX
  5
5A0
330
311
100
AcDbEntity
  8
MO_001_VIEW_PV
  6
C_SOLID_M
100
AcDbVertex
100
AcDb2dVertex
 10
4.817766
 20
-8.266717999999999
 30
0.0
  0
SEQEND
  5
5A1
330
311
100
AcDbEntity
  8
MO_001_VIEW_PV
  6
C_SOLID_M
  0
POLYLINE
  5
320
330
1E
100
AcDbEntity
  8
MO_001_VIEW_PV
  6
C_SOLID_M
100
AcDb2dPolyline
 66
     1
 10
0.0
 20
0.0
 30
0.0
  0
VERTEX
  5
5A2
330
320
100
AcDbEntity
  8
MO_001_VIEW_PV
  6
C_SOLID_M
100
AcDbVertex
100
AcDb2dVertex
 10
5.699996999999999
 20
-8.633853999999999
 30
0.0
  0
VERTEX
  5
5A3
330
320
100
AcDbEntity
  8
MO_001_VIEW_PV
  6
C_SOLID_M
100
AcDbVertex
100
AcDb2dVertex
 10
5.694941
 20
-8.579957999999999
 30
0.0
  0
VERTEX
  5
5A4
330
320
100
AcDbEntity
  8
MO_001_VIEW_PV
  6
C_SOLID_M
100
AcDbVertex
100
AcDb2dVertex
 10
5.662113999999999
 20
-8.488364999999999
 30
0.0
  0
VERTEX
  5
5A5
330
320
100
AcDbEntity
  8
MO_001_VIEW_PV
  6
C_SOLID_M
100
AcDbVertex
100
AcDb2dVertex
 10
5.618361
 20
-8.424336999999999
 30
0.0
  0
VERTEX
  5
5A6
330
320
100
AcDbEntity
  8
MO_001_VIEW_PV
  6
C_SOLID_M
100
AcDbVertex
100
AcDb2dVertex
 10
5.525058999999999
 20
-8.340222999999999
 30
0.0
  0
VERTEX
  5
5A7
330
320
100
AcDbEntity
  8
MO_001_VIEW_PV
  6
C_SOLID_M
100
AcDbVertex
100
AcDb2dVertex
 10
5.404105
 20
-8.275211999999999
 30
0.0
  0
VERTEX
  5
5A8
330
320
100
AcDbEntity
  8
MO_001_VIEW_PV
  6
C_SOLID_M
100
AcDbVertex
100
AcDb2dVertex
 10
5.261022
 20
-8.233075999999998
 30
0.0
  0
VERTEX
  5
5A9
330
320
100
AcDbEntity
  8
MO_001_VIEW_PV
  6
C_SOLID_M
100
AcDbVertex
100
AcDb2dVertex
 10
5.146056999999999
 20
-8.219041
 30
0.0
  0
VERTEX
  5
5AA
330
320
100
AcDbEntity
  8
MO_001_VIEW_PV
  6
C_SOLID_M
100
AcDbVertex
100
AcDb2dVertex
 10
4.971722999999999
 20
-8.227432999999999
 30
0.0
  0
VERTEX
  5
5AB
330
320
100
AcDbEntity
  8
MO_001_VIEW_PV
  6
C_SOLID_M
100
AcDbVertex
100
AcDb2dVertex
 10
4.808270999999999
 20
-8.270300999999999
 30
0.0
  0
SEQEND
  5
5AC
330
320
100
AcDbEntity
  8
MO_001_VIEW_PV
  6
C_SOLID_M
  0
POLYLINE
  5
32C
330
1E
100
AcDbEntity
  8
MO_001_VIEW_PV
  6
C_SOLID_M
100
AcDb2dPolyline
 66
     1
 10
0.0
 20
0.0
 30
0.0
  0
VERTEX
  5
5AD
330
32C
100
AcDbEntity
  8
MO_001_VIEW_PV
  6
C_SOLID_M
100
AcDbVertex
100
AcDb2dVertex
 10
5.594113
 20
-10.02187599999999
 30
0.0
  0
VERTEX
  5
5AE
330
32C
100
AcDbEntity
  8
MO_001_VIEW_PV
  6
C_SOLID_M
100
AcDbVertex
100
AcDb2dVertex
 10
5.63093
 20
-10.361634
 30
0.0
  0
VERTEX
  5
5AF
330
32C
100
AcDbEntity
  8
MO_001_VIEW_PV
  6
C_SOLID_M
100
AcDbVertex
100
AcDb2dVertex
 10
5.693032999999999
 20
-10.699617
 30
0.0
  0
SEQEND
  5
5B0
330
32C
100
AcDbEntity
  8
MO_001_VIEW_PV
  6
C_SOLID_M
  0
POLYLINE
  5
331
330
1E
100
AcDbEntity
  8
MO_001_VIEW_PV
  6
C_SOLID_M
100
AcDb2dPolyline
 66
     1
 10
0.0
 20
0.0
 30
0.0
  0
VERTEX
  5
5B1
330
331
100
AcDbEntity
  8
MO_001_VIEW_PV
  6
C_SOLID_M
100
AcDbVertex
100
AcDb2dVertex
 10
5.700001
 20
-10.762856
 30
0.0
  0
VERTEX
  5
5B2
330
331
100
AcDbEntity
  8
MO_001_VIEW_PV
  6
C_SOLID_M
100
AcDbVertex
100
AcDb2dVertex
 10
5.698255
 20
-10.73114499999999
 30
0.0
  0
VERTEX
  5
5B3
330
331
100
AcDbEntity
  8
MO_001_VIEW_PV
  6
C_SOLID_M
100
AcDbVertex
100
AcDb2dVertex
 10
5.693029
 20
-10.69961799999999
 30
0.0
  0
SEQEND
  5
5B4
330
331
100
AcDbEntity
  8
MO_001_VIEW_PV
  6
C_SOLID_M
  0
LINE
  5
336
330
1E
100
AcDbEntity
  8
MO_001_VIEW_PV
  6
C_SOLID_M
100
AcDbLine
 10
5.700001
 20
-10.762856
 30
0.0
 11
5.700001
 21
-11.409924
 31
0.0
  0
LINE
  5
337
330
1E
100
AcDbEntity
  8
MO_001_VIEW_PV
  6
C_SOLID_M
100
AcDbLine
 10
5.699996999999999
 20
-9.280922
 30
0.0
 11
5.699996999999999
 21
-8.633853999999999
 31
0.0
  0
LINE
  5
338
330
1E
100
AcDbEntity
  8
MO_001_VIEW_PV
  6
C_SOLID_M
100
AcDbLine
 10
5.799999999999999
 20
12.7
 30
0.0
 11
5.799999999999999
 21
-12.7
 31
0.0
  0
LINE
  5
339
330
1E
100
AcDbEntity
  8
MO_001_VIEW_PV
  6
C_SOLID_M
100
AcDbLine
 10
5.699996999999999
 20
12.7
 30
0.0
 11
5.799999999999999
 21
12.7
 31
0.0
  0
LINE
  5
33A
330
1E
100
AcDbEntity
  8
MO_001_VIEW_PV
  6
C_SOLID_M
100
AcDbLine
 10
5.700001
 20
-12.7
 30
0.0
 11
5.799999999999999
 21
-12.7
 31
0.0
  0
LINE
  5
33B
330
1E
100
AcDbEntity
  8
MO_001_VIEW_PV
  6
C_SOLID_M
100
AcDbLine
 10
8.627500999999998
 20
5.565
 30
0.0
 11
8.627500999999998
 21
-5.565
 31
0.0
  0
LINE
  5
33C
330
1E
100
AcDbEntity
  8
MO_001_VIEW_PV
  6
C_SOLID_M
100
AcDbLine
 10
7.341603999999999
 20
-5.964999999999999
 30
0.0
 11
7.999166999999999
 21
-5.964999999999999
 31
0.0
  0
LINE
  5
33D
330
1E
100
AcDbEntity
  8
MO_001_VIEW_PV
  6
C_SOLID_M
100
AcDbLine
 10
7.715161999999999
 20
5.964999999999999
 30
0.0
 11
8.313333999999999
 21
5.964999999999999
 31
0.0
  0
LINE
  5
33E
330
1E
100
AcDbEntity
  8
MO_001_VIEW_PV
  6
C_SOLID_M
100
AcDbLine
 10
7.081625999999999
 20
7.232
 30
0.0
 11
7.684999999999999
 21
7.232
 31
0.0
  0
LINE
  5
33F
330
1E
100
AcDbEntity
  8
MO_001_VIEW_PV
  6
C_SOLID_M
100
AcDbLine
 10
6.449620999999999
 20
8.499
 30
0.0
 11
7.056667
 21
8.499
 31
0.0
  0
LINE
  5
340
330
1E
100
AcDbEntity
  8
MO_001_VIEW_PV
  6
C_SOLID_M
100
AcDbLine
 10
5.818558
 20
9.766000999999999
 30
0.0
 11
6.428333
 21
9.766000999999999
 31
0.0
  0
LINE
  5
341
330
1E
100
AcDbEntity
  8
MO_001_VIEW_PV
  6
C_SOLID_M
100
AcDbLine
 10
6.717571
 20
-7.44875
 30
0.0
 11
7.370833
 21
-7.44875
 31
0.0
  0
LINE
  5
342
330
1E
100
AcDbEntity
  8
MO_001_VIEW_PV
  6
C_SOLID_M
100
AcDbLine
 10
6.092433999999999
 20
-8.932499999999999
 30
0.0
 11
6.742499999999999
 21
-8.932499999999999
 31
0.0
  0
LINE
  5
343
330
1E
100
AcDbEntity
  8
MO_001_VIEW_PV
  6
C_SOLID_M
100
AcDbLine
 10
5.799999999999999
 20
-10.41625
 30
0.0
 11
6.114167
 21
-10.41625
 31
0.0
  0
LINE
  5
344
330
1E
100
AcDbEntity
  8
MO_001_VIEW_PV
  6
C_SOLID_M
100
AcDbLine
 10
5.799999999999999
 20
11.033001
 30
0.0
 11
6.114167
 21
-10.41625099999999
 31
0.0
  0
LINE
  5
345
330
1E
100
AcDbEntity
  8
MO_001_VIEW_PV
  6
C_SOLID_M
100
AcDbLine
 10
6.742499999999999
 20
-8.932499999999999
 30
0.0
 11
6.428333
 21
9.766
 31
0.0
  0
LINE
  5
346
330
1E
100
AcDbEntity
  8
MO_001_VIEW_PV
  6
C_SOLID_M
100
AcDbLine
 10
7.370833
 20
-7.44875
 30
0.0
 11
7.056666
 21
8.498999000000001
 31
0.0
  0
LINE
  5
347
330
1E
100
AcDbEntity
  8
MO_001_VIEW_PV
  6
C_SOLID_M
100
AcDbLine
 10
7.684999999999999
 20
7.232
 30
0.0
 11
7.999166999999999
 21
-5.964999999999999
 31
0.0
  0
LINE
  5
348
330
1E
100
AcDbEntity
  8
MO_001_VIEW_PV
  6
C_SOLID_M
100
AcDbLine
 10
7.989644999999999
 20
-5.565
 30
0.0
 11
8.627500999999998
 21
-5.565
 31
0.0
  0
LINE
  5
349
330
1E
100
AcDbEntity
  8
MO_001_VIEW_PV
  6
C_SOLID_M
100
AcDbLine
 10
8.627499
 20
-5.564998999999999
 30
0.0
 11
8.313333
 21
5.964998999999999
 31
0.0
  0
LINE
  5
34A
330
1E
100
AcDbEntity
  8
MO_001_VIEW_PV
  6
C_SOLID_M
100
AcDbLine
 10
8.324232
 20
5.565
 30
0.0
 11
8.627500999999998
 21
5.565
 31
0.0
  0
LINE
  5
34B
330
1E
100
AcDbEntity
  8
MO_001_VIEW_PV
  6
C_CENTER_L
100
AcDbLine
 10
58.75
 20
-6.0
 30
0.0
 11
58.75
 21
6.0
 31
0.0
  0
LINE
  5
34C
330
1E
100
AcDbEntity
  8
MO_001_VIEW_PV
  6
C_CENTER_L
100
AcDbLine
 10
103.2499999999999
 20
-6.0
 30
0.0
 11
103.2499999999999
 21
6.0
 31
0.0
  0
LINE
  5
34D
330
1E
100
AcDbEntity
  8
MO_001_VIEW_PV
  6
C_SOLID_L
100
AcDbLine
 10
-0.634719
 20
-48.0
 30
0.0
 11
32.49476599999999
 21
-48.0
 31
0.0
  0
TEXT
  5
34E
330
1E
100
AcDbEntity
  8
MO_001_VIEW_PV
  6
C_SOLID_L
100
AcDbText
 10
127.5
 20
-31.07142899999999
 30
0.0
 40
3.0
  1
(UL1430 AWG20)
 50
90.0
100
AcDbText
  0
TEXT
  5
34F
330
1E
100
AcDbEntity
  8
MO_001_VIEW_PV
  6
C_SOLID_L
100
AcDbText
 10
3.397641999999999
 20
-47.075401
 30
0.0
 40
3.0
  1
2-M6 P1.0
100
AcDbText
  0
TEXT
  5
350
330
1E
100
AcDbEntity
  8
MO_001_VIEW_PV
  6
C_SOLID_L
100
AcDbText
 10
-48.327148
 20
-80.49849499999998
 30
0.0
 40
4.167187
  1
7S X3・X4・X9付
100
AcDbText
  0
TEXT
  5
351
330
1E
100
AcDbEntity
  8
MO_001_VIEW_PV
  6
C_SOLID_L
100
AcDbText
 10
83.67285200000001
 20
-86.498495
 30
0.0
 40
4.167187
  1
単位：mm
100
AcDbText
  0
TEXT
  5
352
330
1E
100
AcDbEntity
  8
MO_001_VIEW_PV
  6
C_SOLID_L
100
AcDbText
 10
83.67285200000001
 20
-92.74927599999999
 30
0.0
 40
4.167187
  1
無励磁時
100
AcDbText
  0
POLYLINE
  5
353
330
1E
100
AcDbEntity
  8
MO_001_NOSHOW
  6
C_SOLID_M
100
AcDb2dPolyline
 66
     1
 10
0.0
 20
0.0
 30
0.0
 70
     4
 75
     6
  0
VERTEX
  5
354
330
353
100
AcDbEntity
  8
MO_001_NOSHOW
  6
C_SOLID_M
100
AcDbVertex
100
AcDb2dVertex
 10
-40.58161199999999
 20
19.724848
 30
0.0
 50
28.870078
  0
VERTEX
  5
355
330
353
100
AcDbEntity
  8
MO_001_NOSHOW
  6
C_SOLID_M
100
AcDbVertex
100
AcDb2dVertex
 10
-34.504463
 20
22.220724
 30
0.0
 50
8.413416999999999
  0
VERTEX
  5
356
330
353
100
AcDbEntity
  8
MO_001_NOSHOW
  6
C_SOLID_M
100
AcDbVertex
100
AcDb2dVertex
 10
-30.518528
 20
23.032232
 30
0.0
 50
34.478495
  0
VERTEX
  5
357
330
353
100
AcDbEntity
  8
MO_001_NOSHOW
  6
C_SOLID_M
100
AcDbVertex
100
AcDb2dVertex
 10
-28.418156
 20
27.54326199999999
 30
0.0
 50
72.84236999999999
  0
VERTEX
  5
358
330
353
100
AcDbEntity
  8
MO_001_NOSHOW
  6
C_SOLID_M
100
AcDbVertex
100
AcDb2dVertex
 10
-27.200893
 20
31.099575
 30
0.0
 50
73.98661099999999
  0
VERTEX
  5
359
330
353
100
AcDbEntity
  8
MO_001_NOSHOW
  6
C_SOLID_M
100
AcDbVertex
100
AcDb2dVertex
 10
-26.508726
 20
35.37192499999999
 30
0.0
 50
85.907368
  0
SEQEND
  5
35A
330
353
100
AcDbEntity
  8
0
  0
DIMENSION
  5
35C
330
1E
100
AcDbEntity
  8
MO_001_VIEW_PV
  6
C_SOLID_M
100
AcDbDimension
  2
*D0
 10
-52.52847299999999
 20
39.0
 30
0.0
 11
-52.52847299999999
 21
39.0
 31
0.0
  3
STANDARD
100
AcDbAlignedDimension
 13
-39.07249799999999
 23
30.550003
 33
0.0
 14
-42.120377
 24
16.079056
 34
0.0
100
AcDbRotatedDimension
  0
DIMENSION
  5
35E
330
1E
100
AcDbEntity
  8
MO_001_VIEW_PV
  6
C_SOLID_M
100
AcDbDimension
  2
*D1
 10
-23.71304299999999
 20
39.0
 30
0.0
 11
-23.71304299999999
 21
39.0
 31
0.0
  3
STANDARD
100
AcDbAlignedDimension
 13
-35.57249799999999
 23
30.549999
 33
0.0
 14
-39.07249799999999
 24
30.550003
 34
0.0
100
AcDbRotatedDimension
  0
DIMENSION
  5
360
330
1E
100
AcDbEntity
  8
MO_001_VIEW_PV
  6
C_SOLID_M
100
AcDbDimension
  2
*D2
 10
-20.060188
 20
45.0
 30
0.0
 11
-20.060188
 21
45.0
 31
0.0
  1
45以下
  3
STANDARD
100
AcDbAlignedDimension
 13
-42.120377
 23
16.079056
 33
0.0
 14
2.0
 24
28.6
 34
0.0
100
AcDbRotatedDimension
  0
DIMENSION
  5
362
330
1E
100
AcDbEntity
  8
MO_001_VIEW_PV
  6
C_SOLID_M
100
AcDbDimension
  2
*D3
 10
-28.686249
 20
51.0
 30
0.0
 11
-28.686249
 21
51.0
 31
0.0
  3
STANDARD
100
AcDbAlignedDimension
 13
-59.372498
 23
4.619412
 33
0.0
 14
2.0
 24
28.6
 34
0.0
100
AcDbRotatedDimension
  0
DIMENSION
  5
364
330
1E
100
AcDbEntity
  8
MO_001_VIEW_PV
  6
C_SOLID_M
100
AcDbDimension
  2
*D4
 10
33.016739
 20
51.0
 30
0.0
 11
33.016739
 21
51.0
 31
0.0
  3
STANDARD
100
AcDbAlignedDimension
 13
23.4275
 23
4.465000999999999
 33
0.0
 14
2.0
 24
28.6
 34
0.0
100
AcDbRotatedDimension
  0
DIMENSION
  5
366
330
1E
100
AcDbEntity
  8
MO_001_VIEW_PV
  6
C_SOLID_M
100
AcDbDimension
  2
*D5
 10
33.376877
 20
45.0
 30
0.0
 11
33.376877
 21
45.0
 31
0.0
  3
STANDARD
100
AcDbAlignedDimension
 13
24.0
 23
24.25
 33
0.0
 14
2.0
 24
28.6
 34
0.0
 50
179.97571
100
AcDbRotatedDimension
  0
DIMENSION
  5
368
330
1E
100
AcDbEntity
  8
MO_001_VIEW_PV
  6
C_SOLID_M
100
AcDbDimension
  2
*D6
 10
33.0
 20
19.89448199999999
 30
0.0
 11
33.0
 21
19.89448199999999
 31
0.0
  3
STANDARD
100
AcDbAlignedDimension
 13
23.127501
 23
-4.764999999999999
 33
0.0
 14
23.127501
 24
4.764999999999999
 34
0.0
 50
89.999523
100
AcDbRotatedDimension
  0
DIMENSION
  5
36A
330
1E
100
AcDbEntity
  8
MO_001_VIEW_PV
  6
C_SOLID_M
100
AcDbDimension
  2
*D7
 10
33.0
 20
-39.0
 30
0.0
 11
33.0
 21
-39.0
 31
0.0
  1
14.2以上
  3
STANDARD
100
AcDbAlignedDimension
 13
8.9275
 23
3.464999999999999
 33
0.0
 14
23.4275
 24
-4.465000999999999
 34
0.0
100
AcDbRotatedDimension
  0
DIMENSION
  5
36C
330
1E
100
AcDbEntity
  8
MO_001_VIEW_PV
  6
C_SOLID_M
100
AcDbDimension
  2
*D8
 10
82.0
 20
51.0
 30
0.0
 11
82.0
 21
51.0
 31
0.0
  1
%%C70以下
  3
STANDARD
100
AcDbAlignedDimension
 13
116.0
 23
0.0
 33
0.0
 14
46.0
 24
0.0
 34
0.0
100
AcDbRotatedDimension
  0
DIMENSION
  5
36E
330
1E
100
AcDbEntity
  8
MO_001_VIEW_PV
  6
C_SOLID_M
100
AcDbDimension
  2
*D9
 10
82.0
 20
45.0
 30
0.0
 11
82.0
 21
45.0
 31
0.0
  1
%%C30以下
  3
STANDARD
100
AcDbAlignedDimension
 13
94.699997
 23
0.0
 33
0.0
 14
68.300003
 24
0.0
 34
0.0
100
AcDbRotatedDimension
  0
DIMENSION
  5
370
330
1E
100
AcDbEntity
  8
MO_001_VIEW_PV
  6
C_SOLID_M
100
AcDbDimension
  2
*D10
 10
123.0
 20
-3.0
 30
0.0
 11
123.0
 21
-3.0
 31
0.0
  1
長さ250以上
  3
STANDARD
100
AcDbAlignedDimension
 13
94.350006
 23
-32.353939
 33
0.0
 14
93.15000899999999
 24
-65.5
 34
0.0
 50
89.999523
100
AcDbRotatedDimension
  0
DIMENSION
  5
372
330
1E
100
AcDbEntity
  8
MO_001_VIEW_PV
  6
C_SOLID_M
100
AcDbDimension
  2
*D11
 10
42.0
 20
0.0
 30
0.0
 11
42.0
 21
0.0
 31
0.0
  3
STANDARD
100
AcDbAlignedDimension
 13
75.0
 23
-22.25
 33
0.0
 14
75.0
 24
22.25
 34
0.0
 50
89.999523
100
AcDbRotatedDimension
  0
LINE
  5
373
330
1E
100
AcDbEntity
  8
MO_001_VIEW_PV
  6
C_SOLID_L
100
AcDbLine
 10
12.499999
 20
-25.25
 30
0.0
 11
-0.634719
 21
-47.999998
 31
0.0
  0
POLYLINE
  5
374
330
1E
100
AcDbEntity
  8
MO_001_VIEW_PV
  6
C_SOLID_L
100
AcDb2dPolyline
 66
     1
 10
0.0
 20
0.0
 30
0.0
 70
     1
  0
VERTEX
  5
5B5
330
374
100
AcDbEntity
  8
MO_001_VIEW_PV
  6
C_SOLID_L
100
AcDbVertex
100
AcDb2dVertex
 10
11.346205
 20
-28.415453
 30
0.0
  0
VERTEX
  5
5B6
330
374
100
AcDbEntity
  8
MO_001_VIEW_PV
  6
C_SOLID_L
100
AcDbVertex
100
AcDb2dVertex
 10
12.245999
 20
-25.689941
 30
0.0
  0
VERTEX
  5
5B7
330
374
100
AcDbEntity
  8
MO_001_VIEW_PV
  6
C_SOLID_L
100
AcDbVertex
100
AcDb2dVertex
 10
10.335533
 20
-27.831942
 30
0.0
  0
SEQEND
  5
5B8
330
374
100
AcDbEntity
  8
MO_001_VIEW_PV
  6
C_SOLID_L
  0
ENDSEC
  0
SECTION
  2
OBJECTS
  0
DICTIONARY
  5
1A
330
0
100
AcDbDictionary
  3
ACAD_GROUP
350
1B
  3
ACAD_MLINESTYLE
350
1C
  3
ACAD_LAYOUT
350
3F1
  3
ACAD_PLOTSETTINGS
350
3F2
1001
ACAD
1000
TREAT_AS_HARD
1070
     0
  0
DICTIONARY
  5
3F7
330
1E
100
AcDbDictionary
  3
ACAD_LAYOUTSELFREF
350
3F8
  0
DICTIONARY
  5
3F9
330
1F
100
AcDbDictionary
  3
ACAD_LAYOUTSELFREF
350
3FA
  0
DICTIONARY
  5
1B
102
{ACAD_REACTORS
330
1A
102
}
330
1A
100
AcDbDictionary
1001
ACAD
1000
TREAT_AS_HARD
1070
     0
  0
DICTIONARY
  5
1C
102
{ACAD_REACTORS
330
1A
102
}
330
1A
100
AcDbDictionary
  3
STANDARD
350
1D
1001
ACAD
1000
TREAT_AS_HARD
1070
     0
  0
DICTIONARY
  5
3F1
102
{ACAD_REACTORS
330
1A
102
}
330
1A
100
AcDbDictionary
1001
ACAD
1000
TREAT_AS_HARD
1070
     0
  0
DICTIONARY
  5
3F2
102
{ACAD_REACTORS
330
1A
102
}
330
1A
100
AcDbDictionary
1001
ACAD
1000
TREAT_AS_HARD
1070
     0
  0
XRECORD
  5
3F8
102
{ACAD_REACTORS
330
3F7
102
}
330
3F7
100
AcDbXrecord
340
1E
  0
XRECORD
  5
3FA
102
{ACAD_REACTORS
330
3F9
102
}
330
3F9
100
AcDbXrecord
340
1F
  0
MLINESTYLE
  5
1D
102
{ACAD_REACTORS
330
1C
102
}
330
1C
100
AcDbMlineStyle
  2
STANDARD
 70
     0
  3

 62
     0
 51
90.0
 52
90.0
 71
     2
 49
0.5
 62
   256
  6
BYLAYER
 49
-0.5
 62
   256
  6
BYLAYER
  0
ENDSEC
  0
EOF
