  0
SECTION
  2
HEADER
  9
$ACADVER
  1
AC1014
  9
$ACADMAINTVER
 70
     9
  9
$DWGCODEPAGE
  3
ANSI_932
  9
$INSBASE
 10
0.0
 20
0.0
 30
0.0
  9
$EXTMIN
 10
-63.13432662191957
 20
-87.95133788333334
 30
0.0
  9
$EXTMAX
 10
364.7683703333331
 20
51.91495399999999
 30
0.0
  9
$LIMMIN
 10
-57.885445
 20
-91.146179
  9
$LIMMAX
 10
57.272854
 20
54.264954
  9
$ORTHOMODE
 70
     0
  9
$REGENMODE
 70
     1
  9
$FILLMODE
 70
     1
  9
$QTEXTMODE
 70
     0
  9
$MIRRTEXT
 70
     1
  9
$DRAGMODE
 70
     2
  9
$LTSCALE
 40
1.0
  9
$OSMODE
 70
   511
  9
$ATTMODE
 70
     1
  9
$TEXTSIZE
 40
4.1672
  9
$TRACEWID
 40
0.05
  9
$TEXTSTYLE
  7
STANDARD
  9
$CLAYER
  8
1
  9
$CELTYPE
  6
CONTINUOUS
  9
$CECOLOR
 62
   256
  9
$CELTSCALE
 40
1.0
  9
$DELOBJ
 70
     1
  9
$DISPSILH
 70
     0
  9
$DIMSCALE
 40
1.0
  9
$DIMASZ
 40
2.0
  9
$DIMEXO
 40
0.0625
  9
$DIMDLI
 40
0.38
  9
$DIMRND
 40
0.0
  9
$DIMDLE
 40
0.0
  9
$DIMEXE
 40
0.18
  9
$DIMTP
 40
0.1
  9
$DIMTM
 40
0.1
  9
$DIMTXT
 40
0.18
  9
$DIMCEN
 40
0.09
  9
$DIMTSZ
 40
0.0
  9
$DIMTOL
 70
     0
  9
$DIMLIM
 70
     0
  9
$DIMTIH
 70
     0
  9
$DIMTOH
 70
     0
  9
$DIMSE1
 70
     0
  9
$DIMSE2
 70
     0
  9
$DIMTAD
 70
     1
  9
$DIMZIN
 70
     0
  9
$DIMBLK
  1

  9
$DIMASO
 70
     1
  9
$DIMSHO
 70
     1
  9
$DIMPOST
  1

  9
$DIMAPOST
  1

  9
$DIMALT
 70
     0
  9
$DIMALTD
 70
     2
  9
$DIMALTF
 40
25.4
  9
$DIMLFAC
 40
1.0
  9
$DIMTOFL
 70
     0
  9
$DIMTVP
 40
0.0
  9
$DIMTIX
 70
     0
  9
$DIMSOXD
 70
     0
  9
$DIMSAH
 70
     0
  9
$DIMBLK1
  1

  9
$DIMBLK2
  1

  9
$DIMSTYLE
  2
STANDARD
  9
$DIMCLRD
 70
     0
  9
$DIMCLRE
 70
     0
  9
$DIMCLRT
 70
     0
  9
$DIMTFAC
 40
0.5
  9
$DIMGAP
 40
0.09
  9
$DIMJUST
 70
     0
  9
$DIMSD1
 70
     0
  9
$DIMSD2
 70
     0
  9
$DIMTOLJ
 70
     2
  9
$DIMTZIN
 70
     0
  9
$DIMALTZ
 70
     0
  9
$DIMALTTZ
 70
     0
  9
$DIMFIT
 70
     5
  9
$DIMUPT
 70
     0
  9
$DIMUNIT
 70
     2
  9
$DIMDEC
 70
     1
  9
$DIMTDEC
 70
     1
  9
$DIMALTU
 70
     2
  9
$DIMALTTD
 70
     2
  9
$DIMTXSTY
  7
STANDARD
  9
$DIMAUNIT
 70
     0
  9
$LUNITS
 70
     2
  9
$LUPREC
 70
     6
  9
$SKETCHINC
 40
0.1
  9
$FILLETRAD
 40
0.0
  9
$AUNITS
 70
     0
  9
$AUPREC
 70
     4
  9
$MENU
  1
acad
  9
$ELEVATION
 40
0.0
  9
$PELEVATION
 40
0.0
  9
$THICKNESS
 40
0.0
  9
$LIMCHECK
 70
     0
  9
$CHAMFERA
 40
0.0
  9
$CHAMFERB
 40
0.0
  9
$CHAMFERC
 40
0.0
  9
$CHAMFERD
 40
0.0
  9
$SKPOLY
 70
     0
  9
$TDCREATE
 40
2305814.569090359
  9
$TDUPDATE
 40
2457319.808558912
  9
$TDINDWG
 40
0.0089658681
  9
$TDUSRTIMER
 40
2457319.433520116
  9
$USRTIMER
 70
     1
  9
$ANGBASE
 50
0.0
  9
$ANGDIR
 70
     0
  9
$PDMODE
 70
     0
  9
$PDSIZE
 40
0.0
  9
$PLINEWID
 40
0.0
  9
$COORDS
 70
     1
  9
$SPLFRAME
 70
     0
  9
$SPLINETYPE
 70
     6
  9
$SPLINESEGS
 70
     8
  9
$ATTDIA
 70
     0
  9
$ATTREQ
 70
     1
  9
$HANDLING
 70
     1
  9
$HANDSEED
  5
28A
  9
$SURFTAB1
 70
     6
  9
$SURFTAB2
 70
     6
  9
$SURFTYPE
 70
     6
  9
$SURFU
 70
     6
  9
$SURFV
 70
     6
  9
$UCSNAME
  2

  9
$UCSORG
 10
0.0
 20
0.0
 30
0.0
  9
$UCSXDIR
 10
1.0
 20
0.0
 30
0.0
  9
$UCSYDIR
 10
0.0
 20
1.0
 30
0.0
  9
$PUCSNAME
  2

  9
$PUCSORG
 10
0.0
 20
0.0
 30
0.0
  9
$PUCSXDIR
 10
1.0
 20
0.0
 30
0.0
  9
$PUCSYDIR
 10
0.0
 20
1.0
 30
0.0
  9
$USERI1
 70
     0
  9
$USERI2
 70
     0
  9
$USERI3
 70
     0
  9
$USERI4
 70
     0
  9
$USERI5
 70
     0
  9
$USERR1
 40
0.0
  9
$USERR2
 40
0.0
  9
$USERR3
 40
0.0
  9
$USERR4
 40
0.0
  9
$USERR5
 40
0.0
  9
$WORLDVIEW
 70
     1
  9
$SHADEDGE
 70
     3
  9
$SHADEDIF
 70
    70
  9
$TILEMODE
 70
     1
  9
$MAXACTVP
 70
    16
  9
$PINSBASE
 10
0.0
 20
0.0
 30
0.0
  9
$PLIMCHECK
 70
     0
  9
$PEXTMIN
 10
-57.885445
 20
-91.146179
 30
1.000000000000000E+20
  9
$PEXTMAX
 10
57.272854
 20
54.264954
 30
-1.000000000000000E+20
  9
$PLIMMIN
 10
0.0
 20
0.0
  9
$PLIMMAX
 10
0.0
 20
0.0
  9
$UNITMODE
 70
     0
  9
$VISRETAIN
 70
     0
  9
$PLINEGEN
 70
     0
  9
$PSLTSCALE
 70
     1
  9
$TREEDEPTH
 70
  3020
  9
$PICKSTYLE
 70
     1
  9
$CMLSTYLE
  2
STANDARD
  9
$CMLJUST
 70
     0
  9
$CMLSCALE
 40
1.0
  9
$PROXYGRAPHICS
 70
     1
  9
$MEASUREMENT
 70
     0
  0
ENDSEC
  0
SECTION
  2
CLASSES
  0
CLASS
  1
ACDBDICTIONARYWDFLT
  2
AcDbDictionaryWithDefault
  3
ObjectDBX Classes
 90
        0
280
     0
281
     0
  0
CLASS
  1
ACDBPLACEHOLDER
  2
AcDbPlaceHolder
  3
ObjectDBX Classes
 90
        0
280
     0
281
     0
  0
CLASS
  1
LAYOUT
  2
AcDbLayout
  3
ObjectDBX Classes
 90
        0
280
     0
281
     0
  0
CLASS
  1
LONG_TRANSACTION
  2
AcDbLongTransaction
  3
ObjectDBX Classes
 90
        0
280
     0
281
     0
  0
CLASS
  1
LWPOLYLINE
  2
AcDbPolyline
  3
ObjectDBX Classes
 90
        0
280
     0
281
     1
  0
CLASS
  1
HATCH
  2
AcDbHatch
  3
ObjectDBX Classes
 90
        0
280
     0
281
     1
  0
CLASS
  1
XRECORD
  2
AcDbXrecord
  3
ObjectDBX Classes
 90
        0
280
     0
281
     0
  0
CLASS
  1
LONG_TRANSACTION
  2
AcDbLongTransaction
  3
ObjectDBX Classes
 90
        0
280
     0
281
     0
  0
CLASS
  1
LWPOLYLINE
  2
AcDbPolyline
  3
ObjectDBX Classes
 90
        0
280
     0
281
     1
  0
CLASS
  1
HATCH
  2
AcDbHatch
  3
ObjectDBX Classes
 90
        0
280
     0
281
     1
  0
CLASS
  1
XRECORD
  2
AcDbXrecord
  3
ObjectDBX Classes
 90
        0
280
     0
281
     0
  0
CLASS
  1
LONG_TRANSACTION
  2
AcDbLongTransaction
  3
ObjectDBX Classes
 90
        0
280
     0
281
     0
  0
CLASS
  1
LWPOLYLINE
  2
AcDbPolyline
  3
ObjectDBX Classes
 90
        0
280
     0
281
     1
  0
CLASS
  1
HATCH
  2
AcDbHatch
  3
ObjectDBX Classes
 90
        0
280
     0
281
     1
  0
CLASS
  1
XRECORD
  2
AcDbXrecord
  3
ObjectDBX Classes
 90
        0
280
     0
281
     0
  0
CLASS
  1
LONG_TRANSACTION
  2
AcDbLongTransaction
  3
ObjectDBX Classes
 90
        0
280
     0
281
     0
  0
CLASS
  1
LWPOLYLINE
  2
AcDbPolyline
  3
ObjectDBX Classes
 90
        0
280
     0
281
     1
  0
CLASS
  1
HATCH
  2
AcDbHatch
  3
ObjectDBX Classes
 90
        0
280
     0
281
     1
  0
CLASS
  1
XRECORD
  2
AcDbXrecord
  3
ObjectDBX Classes
 90
        0
280
     0
281
     0
  0
CLASS
  1
SCALE
  2
AcDbScale
  3
ObjectDBX Classes
 90
     1153
280
     0
281
     0
  0
CLASS
  1
VISUALSTYLE
  2
AcDbVisualStyle
  3
ObjectDBX Classes
 90
     4095
280
     0
281
     0
  0
CLASS
  1
MATERIAL
  2
AcDbMaterial
  3
ObjectDBX Classes
 90
     1153
280
     0
281
     0
  0
CLASS
  1
TABLESTYLE
  2
AcDbTableStyle
  3
ObjectDBX Classes
 90
     4095
280
     0
281
     0
  0
CLASS
  1
MLEADERSTYLE
  2
AcDbMLeaderStyle
  3
ACDB_MLEADERSTYLE_CLASS
 90
     4095
280
     0
281
     0
  0
CLASS
  1
SUN
  2
AcDbSun
  3
SCENEOE
 90
     1153
280
     0
281
     0
  0
CLASS
  1
RASTERVARIABLES
  2
AcDbRasterVariables
  3
ISM
 90
        0
280
     0
281
     0
  0
CLASS
  1
DIMASSOC
  2
AcDbDimAssoc
  3
"AcDbDimAssoc|Product Desc:     AcDim ARX App For Dimension|Company:          Autodesk, Inc.|WEB Address:      www.autodesk.com"
 90
        0
280
     0
281
     0
  0
CLASS
  1
DICTIONARYVAR
  2
AcDbDictionaryVar
  3
ObjectDBX Classes
 90
        0
280
     0
281
     0
  0
ENDSEC
  0
SECTION
  2
TABLES
  0
TABLE
  2
VPORT
  5
7
330
0
100
AcDbSymbolTable
 70
     1
  0
VPORT
  5
188
330
7
100
AcDbSymbolTableRecord
100
AcDbViewportTableRecord
  2
*ACTIVE
 70
     0
 10
0.0
 20
0.0
 11
1.0
 21
1.0
 12
13.93701740400134
 22
-12.8701056845739
 13
0.0
 23
0.0
 14
6.349999999999997
 24
6.349999999999997
 15
6.349999999999997
 25
6.349999999999997
 16
0.0
 26
0.0
 36
1.0
 17
0.0
 27
0.0
 37
0.0
 40
154.8301147236831
 41
1.248717948717949
 42
50.0
 43
0.0
 44
0.0
 50
0.0
 51
0.0
 71
    16
 72
   100
 73
     1
 74
     3
 75
     0
 76
     0
 77
     0
 78
     0
  0
ENDTAB
  0
TABLE
  2
LTYPE
  5
4
330
0
100
AcDbSymbolTable
 70
    37
  0
LTYPE
  5
12
330
4
100
AcDbSymbolTableRecord
100
AcDbLinetypeTableRecord
  2
BYBLOCK
 70
     0
  3

 72
    65
 73
     0
 40
0.0
  0
LTYPE
  5
13
330
4
100
AcDbSymbolTableRecord
100
AcDbLinetypeTableRecord
  2
BYLAYER
 70
     0
  3

 72
    65
 73
     0
 40
0.0
  0
LTYPE
  5
14
330
4
100
AcDbSymbolTableRecord
100
AcDbLinetypeTableRecord
  2
CONTINUOUS
 70
     0
  3
DXF Default line type
 72
    65
 73
     0
 40
0.0
  0
LTYPE
  5
20
330
4
100
AcDbSymbolTableRecord
100
AcDbLinetypeTableRecord
  2
DASHED
 70
     0
  3
DXF Dashed
 72
    65
 73
     2
 40
0.75
 49
0.5
 74
     0
 49
-0.25
 74
     0
  0
LTYPE
  5
21
330
4
100
AcDbSymbolTableRecord
100
AcDbLinetypeTableRecord
  2
HIDDEN
 70
     0
  3
DXF Hidden
 72
    65
 73
     2
 40
0.375
 49
0.25
 74
     0
 49
-0.125
 74
     0
  0
LTYPE
  5
22
330
4
100
AcDbSymbolTableRecord
100
AcDbLinetypeTableRecord
  2
CENTER
 70
     0
  3
DXF Center
 72
    65
 73
     4
 40
2.0
 49
1.25
 74
     0
 49
-0.25
 74
     0
 49
0.25
 74
     0
 49
-0.25
 74
     0
  0
LTYPE
  5
23
330
4
100
AcDbSymbolTableRecord
100
AcDbLinetypeTableRecord
  2
PHANTOM
 70
     0
  3
DXF Phantom
 72
    65
 73
     6
 40
2.5
 49
1.25
 74
     0
 49
-0.25
 74
     0
 49
0.25
 74
     0
 49
-0.25
 74
     0
 49
0.25
 74
     0
 49
-0.25
 74
     0
  0
LTYPE
  5
24
330
4
100
AcDbSymbolTableRecord
100
AcDbLinetypeTableRecord
  2
DOT
 70
     0
  3
DXF DOT
 72
    65
 73
     2
 40
0.25
 49
0.0
 74
     0
 49
-0.25
 74
     0
  0
LTYPE
  5
25
330
4
100
AcDbSymbolTableRecord
100
AcDbLinetypeTableRecord
  2
DASHDOT
 70
     0
  3
DXF Dash Dot
 72
    65
 73
     4
 40
1.0
 49
0.5
 74
     0
 49
-0.25
 74
     0
 49
0.0
 74
     0
 49
-0.25
 74
     0
  0
LTYPE
  5
26
330
4
100
AcDbSymbolTableRecord
100
AcDbLinetypeTableRecord
  2
BORDER
 70
     0
  3
DXF Border
 72
    65
 73
     6
 40
1.75
 49
0.5
 74
     0
 49
-0.25
 74
     0
 49
0.5
 74
     0
 49
-0.25
 74
     0
 49
0.0
 74
     0
 49
-0.25
 74
     0
  0
LTYPE
  5
27
330
4
100
AcDbSymbolTableRecord
100
AcDbLinetypeTableRecord
  2
DIVIDE
 70
     0
  3
DXF Divide
 72
    65
 73
     6
 40
1.25
 49
0.5
 74
     0
 49
-0.25
 74
     0
 49
0.0
 74
     0
 49
-0.25
 74
     0
 49
0.0
 74
     0
 49
-0.25
 74
     0
  0
LTYPE
  5
28
330
4
100
AcDbSymbolTableRecord
100
AcDbLinetypeTableRecord
  2
C_SOLID_L
 70
     0
  3
CADAM Solid Light
 72
    65
 73
     0
 40
0.0
  0
LTYPE
  5
29
330
4
100
AcDbSymbolTableRecord
100
AcDbLinetypeTableRecord
  2
C_SOLID_M
 70
     0
  3
CADAM Solid Medium
 72
    65
 73
     0
 40
0.0
  0
LTYPE
  5
2A
330
4
100
AcDbSymbolTableRecord
100
AcDbLinetypeTableRecord
  2
C_SOLID_H
 70
     0
  3
CADAM Solid Heavy
 72
    65
 73
     0
 40
0.0
  0
LTYPE
  5
2B
330
4
100
AcDbSymbolTableRecord
100
AcDbLinetypeTableRecord
  2
C_DASHED_L
 70
     0
  3
CADAM Dashed Light
 72
    65
 73
     2
 40
0.375
 49
0.25
 74
     0
 49
-0.125
 74
     0
  0
LTYPE
  5
2C
330
4
100
AcDbSymbolTableRecord
100
AcDbLinetypeTableRecord
  2
C_DASHED_M
 70
     0
  3
CADAM Dashed Medium
 72
    65
 73
     2
 40
0.5
 49
0.375
 74
     0
 49
-0.125
 74
     0
  0
LTYPE
  5
2D
330
4
100
AcDbSymbolTableRecord
100
AcDbLinetypeTableRecord
  2
C_CENTER_L
 70
     0
  3
CADAM Center Light
 72
    65
 73
     4
 40
2.0
 49
1.25
 74
     0
 49
-0.25
 74
     0
 49
0.25
 74
     0
 49
-0.25
 74
     0
  0
LTYPE
  5
2E
330
4
100
AcDbSymbolTableRecord
100
AcDbLinetypeTableRecord
  2
C_PHANTOM_L
 70
     0
  3
CADAM Phantom Light
 72
    65
 73
     6
 40
2.5
 49
1.25
 74
     0
 49
-0.25
 74
     0
 49
0.25
 74
     0
 49
-0.25
 74
     0
 49
0.25
 74
     0
 49
-0.25
 74
     0
  0
LTYPE
  5
2F
330
4
100
AcDbSymbolTableRecord
100
AcDbLinetypeTableRecord
  2
C_BREAK_M
 70
     0
  3
CADAM Break Medium
 72
    65
 73
     4
 40
1.0
 49
0.5
 74
     0
 49
-0.25
 74
     0
 49
0.0
 74
     0
 49
-0.25
 74
     0
  0
LTYPE
  5
30
330
4
100
AcDbSymbolTableRecord
100
AcDbLinetypeTableRecord
  2
C_NC
 70
     0
  3
CADAM NC
 72
    65
 73
     0
 40
0.0
  0
LTYPE
  5
31
330
4
100
AcDbSymbolTableRecord
100
AcDbLinetypeTableRecord
  2
DSH1
 70
     0
  3
CADAM Style2 Type 1 Dashed Line
 72
    65
 73
     2
 40
0.075
 49
0.04
 74
     0
 49
-0.035
 74
     0
  0
LTYPE
  5
32
330
4
100
AcDbSymbolTableRecord
100
AcDbLinetypeTableRecord
  2
DSH2
 70
     0
  3
CADAM Style2 Type 2 Dashed Line
 72
    65
 73
     2
 40
0.15
 49
0.11
 74
     0
 49
-0.04
 74
     0
  0
LTYPE
  5
33
330
4
100
AcDbSymbolTableRecord
100
AcDbLinetypeTableRecord
  2
DSH3
 70
     0
  3
CADAM Style2 Type 3 Dashed Line
 72
    65
 73
     2
 40
0.2
 49
0.15
 74
     0
 49
-0.05
 74
     0
  0
LTYPE
  5
34
330
4
100
AcDbSymbolTableRecord
100
AcDbLinetypeTableRecord
  2
DSH4
 70
     0
  3
CADAM Style2 Type 4 Dashed Line
 72
    65
 73
     2
 40
0.36
 49
0.28
 74
     0
 49
-0.08
 74
     0
  0
LTYPE
  5
35
330
4
100
AcDbSymbolTableRecord
100
AcDbLinetypeTableRecord
  2
DSH5
 70
     0
  3
CADAM Style2 Type 5 Dashed Line
 72
    65
 73
     2
 40
0.47
 49
0.39
 74
     0
 49
-0.08
 74
     0
  0
LTYPE
  5
36
330
4
100
AcDbSymbolTableRecord
100
AcDbLinetypeTableRecord
  2
DSH6
 70
     0
  3
CADAM Style2 Type 6 Dashed Line
 72
    65
 73
     2
 40
0.9
 49
0.81
 74
     0
 49
-0.09
 74
     0
  0
LTYPE
  5
37
330
4
100
AcDbSymbolTableRecord
100
AcDbLinetypeTableRecord
  2
PL1
 70
     0
  3
Style 2 Type 1 Phantom Line
 72
    65
 73
     6
 40
1.0
 49
0.6
 74
     0
 49
-0.08
 74
     0
 49
0.08
 74
     0
 49
-0.08
 74
     0
 49
0.08
 74
     0
 49
-0.08
 74
     0
  0
LTYPE
  5
38
330
4
100
AcDbSymbolTableRecord
100
AcDbLinetypeTableRecord
  2
PL2
 70
     0
  3
Style 2 Type 2 Phantom Line
 72
    65
 73
     6
 40
1.08
 49
0.6
 74
     0
 49
-0.08
 74
     0
 49
0.12
 74
     0
 49
-0.08
 74
     0
 49
0.12
 74
     0
 49
-0.08
 74
     0
  0
LTYPE
  5
39
330
4
100
AcDbSymbolTableRecord
100
AcDbLinetypeTableRecord
  2
PL3
 70
     0
  3
Style 2 Type 3 Phantom Line
 72
    65
 73
     6
 40
2.0
 49
1.439999999999999
 74
     0
 49
-0.08
 74
     0
 49
0.16
 74
     0
 49
-0.08
 74
     0
 49
0.16
 74
     0
 49
-0.08
 74
     0
  0
LTYPE
  5
3A
330
4
100
AcDbSymbolTableRecord
100
AcDbLinetypeTableRecord
  2
CL1
 70
     0
  3
CADAM Style 2 Type 1 Center Line
 72
    65
 73
     4
 40
0.7
 49
0.45
 74
     0
 49
-0.06
 74
     0
 49
0.13
 74
     0
 49
-0.06
 74
     0
  0
LTYPE
  5
3B
330
4
100
AcDbSymbolTableRecord
100
AcDbLinetypeTableRecord
  2
CL2
 70
     0
  3
CADAM Style 2 Type 2 Center Line
 72
    65
 73
     4
 40
1.199999999999999
 49
1.01
 74
     0
 49
-0.06
 74
     0
 49
0.11
 74
     0
 49
-0.06
 74
     0
  0
LTYPE
  5
3C
330
4
100
AcDbSymbolTableRecord
100
AcDbLinetypeTableRecord
  2
CL3
 70
     0
  3
CADAM Style 2 Type 3 Center Line
 72
    65
 73
     4
 40
1.199999999999999
 49
0.98
 74
     0
 49
-0.06
 74
     0
 49
0.1
 74
     0
 49
-0.06
 74
     0
  0
LTYPE
  5
3D
330
4
100
AcDbSymbolTableRecord
100
AcDbLinetypeTableRecord
  2
CL4
 70
     0
  3
CADAM Style 2 Type 4 Center Line
 72
    65
 73
     4
 40
2.2
 49
1.929999999999999
 74
     0
 49
-0.07
 74
     0
 49
0.13
 74
     0
 49
-0.07
 74
     0
  0
LTYPE
  5
3E
330
4
100
AcDbSymbolTableRecord
100
AcDbLinetypeTableRecord
  2
CL5
 70
     0
  3
CADAM Style 2 Type 5 Center Line
 72
    65
 73
     4
 40
2.2
 49
1.879999999999999
 74
     0
 49
-0.07
 74
     0
 49
0.18
 74
     0
 49
-0.07
 74
     0
  0
LTYPE
  5
3F
330
4
100
AcDbSymbolTableRecord
100
AcDbLinetypeTableRecord
  2
SBK1
 70
     0
  3
CADAM Style 2 Type 1 SetBack Line
 72
    65
 73
     8
 40
2.7
 49
0.1
 74
     0
 49
-0.08
 74
     0
 49
0.1
 74
     0
 49
-0.8
 74
     0
 49
0.0
 74
     0
 49
0.0
 74
     0
 49
0.0
 74
     0
 49
0.0
 74
     0
  0
LTYPE
  5
40
330
4
100
AcDbSymbolTableRecord
100
AcDbLinetypeTableRecord
  2
SBK2
 70
     0
  3
CADAM Style 2 Type 2 SetBack Line
 72
    65
 73
     8
 40
3.709999999999998
 49
0.13
 74
     0
 49
-0.08
 74
     0
 49
0.13
 74
     0
 49
-0.8
 74
     0
 49
0.0
 74
     0
 49
0.0
 74
     0
 49
0.0
 74
     0
 49
0.0
 74
     0
  0
LTYPE
  5
41
330
4
100
AcDbSymbolTableRecord
100
AcDbLinetypeTableRecord
  2
STCH
 70
     0
  3
CADAM Style2 Stitch Line
 72
    65
 73
     2
 40
0.25
 49
0.0
 74
     0
 49
-0.25
 74
     0
  0
LTYPE
  5
42
330
4
100
AcDbSymbolTableRecord
100
AcDbLinetypeTableRecord
  2
MTCH
 70
     0
  3
CADAM Style2 Match Line
 72
    65
 73
     6
 40
2.0
 49
1.439999999999999
 74
     0
 49
-0.8
 74
     0
 49
0.16
 74
     0
 49
-0.08
 74
     0
 49
0.16
 74
     0
 49
-0.08
 74
     0
  0
LTYPE
  5
43
330
4
100
AcDbSymbolTableRecord
100
AcDbLinetypeTableRecord
  2
SLD
 70
     0
  3
CADAM Solid_EXT2
 72
    65
 73
     0
 40
0.0
  0
ENDTAB
  0
TABLE
  2
LAYER
  5
2
102
{ACAD_XDICTIONARY
360
1FD
102
}
330
0
100
AcDbSymbolTable
 70
     9
  0
LAYER
  5
15
330
2
100
AcDbSymbolTableRecord
100
AcDbLayerTableRecord
  2
0
 70
     0
 62
     7
  6
CONTINUOUS
  0
LAYER
  5
44
330
2
100
AcDbSymbolTableRecord
100
AcDbLayerTableRecord
  2
MO_001_NOSHOW
 70
     1
 62
     7
  6
CONTINUOUS
  0
LAYER
  5
45
330
2
100
AcDbSymbolTableRecord
100
AcDbLayerTableRecord
  2
MO_001_VIEW_PV
 70
     0
 62
     7
  6
CONTINUOUS
  0
LAYER
  5
46
330
2
100
AcDbSymbolTableRecord
100
AcDbLayerTableRecord
  2
OVERLAY_MAP
 70
     1
 62
     7
  6
CONTINUOUS
  0
LAYER
  5
47
330
2
100
AcDbSymbolTableRecord
100
AcDbLayerTableRecord
  2
DITTOS
 70
     0
 62
     7
  6
CONTINUOUS
  0
LAYER
  5
48
330
2
100
AcDbSymbolTableRecord
100
AcDbLayerTableRecord
  2
SYMBOLS
 70
     0
 62
     7
  6
CONTINUOUS
  0
LAYER
  5
49
330
2
100
AcDbSymbolTableRecord
100
AcDbLayerTableRecord
  2
SETS
 70
     0
 62
     7
  6
CONTINUOUS
  0
LAYER
  5
DA
330
2
100
AcDbSymbolTableRecord
100
AcDbLayerTableRecord
  2
DEFPOINTS
 70
     0
 62
     7
  6
CONTINUOUS
  0
LAYER
  5
200
330
2
100
AcDbSymbolTableRecord
100
AcDbLayerTableRecord
  2
1
 70
     0
 62
     7
  6
CONTINUOUS
1001
ACAECLAYERSTANDARD
1000

1000

  0
ENDTAB
  0
TABLE
  2
STYLE
  5
3
330
0
100
AcDbSymbolTable
 70
     1
  0
STYLE
  5
18
330
3
100
AcDbSymbolTableRecord
100
AcDbTextStyleTableRecord
  2
STANDARD
 70
     0
 40
3.0
 41
1.0
 50
0.0
 71
     0
 42
4.1672
  3
monotxt.shx
  4
BIGFONT.shx
  0
ENDTAB
  0
TABLE
  2
VIEW
  5
5
330
0
100
AcDbSymbolTable
 70
     0
  0
ENDTAB
  0
TABLE
  2
UCS
  5
6
330
0
100
AcDbSymbolTable
 70
     0
  0
ENDTAB
  0
TABLE
  2
APPID
  5
8
330
0
100
AcDbSymbolTable
 70
     2
  0
APPID
  5
17
330
8
100
AcDbSymbolTableRecord
100
AcDbRegAppTableRecord
  2
ACAD
 70
     0
  0
APPID
  5
201
330
8
100
AcDbSymbolTableRecord
100
AcDbRegAppTableRecord
  2
ACAECLAYERSTANDARD
 70
     0
  0
ENDTAB
  0
TABLE
  2
DIMSTYLE
  5
9
330
0
100
AcDbSymbolTable
 70
     1
  0
DIMSTYLE
105
19
102
{ACAD_REACTORS
330
11F
330
225
102
}
330
9
100
AcDbSymbolTableRecord
100
AcDbDimStyleTableRecord
  2
STANDARD
 70
     0
  3

  4

  5

  6

  7

 40
1.0
 41
2.0
 42
0.0625
 43
0.38
 44
0.18
 45
0.0
 46
0.0
 47
0.1
 48
0.1
140
0.18
141
0.09
142
0.0
143
25.4
144
1.0
145
0.0
146
0.5
147
0.09
 71
     0
 72
     0
 73
     0
 74
     0
 75
     0
 76
     0
 77
     1
 78
     0
170
     0
171
     2
172
     0
173
     0
174
     0
175
     0
176
     0
177
     0
178
     0
270
     2
271
     1
272
     1
273
     2
274
     2
340
18
275
     0
280
     0
281
     0
282
     0
283
     2
284
     0
285
     0
286
     0
287
     3
288
     0
  0
ENDTAB
  0
TABLE
  2
BLOCK_RECORD
  5
C
330
0
100
AcDbSymbolTable
 70
     6
  0
BLOCK_RECORD
  5
1E
102
{ACAD_XDICTIONARY
360
132
102
}
330
C
100
AcDbSymbolTableRecord
100
AcDbBlockTableRecord
  2
*MODEL_SPACE
  0
BLOCK_RECORD
  5
1F
102
{ACAD_XDICTIONARY
360
134
102
}
330
C
100
AcDbSymbolTableRecord
100
AcDbBlockTableRecord
  2
*PAPER_SPACE
  0
BLOCK_RECORD
  5
BA
330
C
100
AcDbSymbolTableRecord
100
AcDbBlockTableRecord
  2
*D0
  0
BLOCK_RECORD
  5
DB
330
C
100
AcDbSymbolTableRecord
100
AcDbBlockTableRecord
  2
*D1
  0
BLOCK_RECORD
  5
EA
330
C
100
AcDbSymbolTableRecord
100
AcDbBlockTableRecord
  2
*D2
  0
BLOCK_RECORD
  5
F9
330
C
100
AcDbSymbolTableRecord
100
AcDbBlockTableRecord
  2
*D3
  0
BLOCK_RECORD
  5
120
330
C
100
AcDbSymbolTableRecord
100
AcDbBlockTableRecord
  2
*D4
  0
BLOCK_RECORD
  5
228
330
C
100
AcDbSymbolTableRecord
100
AcDbBlockTableRecord
  2
*D5
  0
ENDTAB
  0
ENDSEC
  0
SECTION
  2
BLOCKS
  0
BLOCK
  5
E
330
1E
100
AcDbEntity
  8
0
100
AcDbBlockBegin
  2
*MODEL_SPACE
 70
     0
 10
0.0
 20
0.0
 30
0.0
  3
*MODEL_SPACE
  1

  0
ENDBLK
  5
F
330
1E
100
AcDbEntity
  8
0
100
AcDbBlockEnd
  0
BLOCK
  5
10
330
1F
100
AcDbEntity
 67
     1
  8
0
100
AcDbBlockBegin
  2
*PAPER_SPACE
 70
     0
 10
0.0
 20
0.0
 30
0.0
  3
*PAPER_SPACE
  1

  0
ENDBLK
  5
11
330
1F
100
AcDbEntity
 67
     1
  8
0
100
AcDbBlockEnd
  0
BLOCK
  5
C8
330
BA
100
AcDbEntity
  8
0
100
AcDbBlockBegin
  2
*D0
 70
     1
 10
0.0
 20
0.0
 30
0.0
  3
*D0
  1
*D0
  0
LINE
  5
C9
330
BA
100
AcDbEntity
  8
MO_001_VIEW_PV
  6
BYBLOCK
100
AcDbLine
 10
0.0
 20
0.0
 30
0.0
 11
-22.63172
 21
7.365146000000001
 31
0.0
  0
LINE
  5
CA
330
BA
100
AcDbEntity
  8
MO_001_VIEW_PV
  6
BYBLOCK
100
AcDbLine
 10
-22.63172
 20
7.365146000000001
 30
0.0
 11
-28.670014
 21
9.330216
 31
0.0
  0
SOLID
  5
CB
330
BA
100
AcDbEntity
  8
MO_001_VIEW_PV
  6
BYBLOCK
100
AcDbTrace
 10
-25.967668
 20
7.837146
 30
0.0
 11
-23.114783
 21
7.522350999999997
 31
0.0
 12
-25.606521
 22
8.946882999999996
 32
0.0
 13
-25.606521
 23
8.946882999999996
 33
0.0
  0
LINE
  5
CC
330
BA
100
AcDbEntity
  8
MO_001_VIEW_PV
  6
BYBLOCK
100
AcDbLine
 10
-22.63172
 20
7.365146000000001
 30
0.0
 11
-38.554338
 21
12.546917
 31
0.0
  0
ENDBLK
  5
CD
330
BA
100
AcDbEntity
  8
0
100
AcDbBlockEnd
  0
BLOCK
  5
E7
330
DB
100
AcDbEntity
  8
0
100
AcDbBlockBegin
  2
*D1
 70
     1
 10
0.0
 20
0.0
 30
0.0
  3
*D1
  1
*D1
  0
LINE
  5
DC
330
DB
100
AcDbEntity
  8
MO_001_VIEW_PV
  6
C_SOLID_M
 62
     0
100
AcDbLine
 10
11.18402937133357
 20
-46.08938914229296
 30
0.0
 11
6.084052954323332
 21
-25.07238445679165
 31
0.0
  0
MTEXT
  5
DD
330
DB
100
AcDbEntity
  8
MO_001_VIEW_PV
  6
C_SOLID_M
 62
     0
100
AcDbMText
 10
11.06961847798691
 20
-36.01889148203496
 30
0.0
 40
4.1672
 41
0.0
 71
     5
 72
     5
  1
\A2;R23.8
 11
0.2358159771616676
 21
-0.971797728395826
 31
0.0
  0
LINE
  5
DE
330
DB
100
AcDbEntity
  8
MO_001_VIEW_PV
  6
C_SOLID_M
 62
     0
100
AcDbLine
 10
6.643146704202293
 20
-26.99475647563875
 30
0.0
 11
11.2714911668892
 21
-46.0681657043484
 31
0.0
  0
LINE
  5
DF
330
DB
100
AcDbEntity
  8
MO_001_VIEW_PV
  6
C_SOLID_M
 62
     0
100
AcDbLine
 10
11.2714911668892
 20
-46.0681657043484
 30
0.0
 11
15.49609025177153
 21
-45.04302648843121
 31
0.0
  0
LINE
  5
E0
330
DB
100
AcDbEntity
  8
MO_001_VIEW_PV
  6
C_SOLID_M
 62
     0
100
AcDbLine
 10
15.49609025177153
 20
-45.04302648843121
 30
0.0
 11
10.86774578908463
 21
-25.96961725972155
 31
0.0
  0
LINE
  5
E1
330
DB
100
AcDbEntity
  8
MO_001_VIEW_PV
  6
C_SOLID_M
 62
     0
100
AcDbLine
 10
10.86774578908463
 20
-25.96961725972155
 30
0.0
 11
6.643146704202293
 21
-26.99475647563875
 31
0.0
  0
SOLID
  5
E2
330
DB
100
AcDbEntity
  8
MO_001_VIEW_PV
  6
C_SOLID_M
 62
     0
100
AcDbTrace
 10
6.407985530455277
 20
-24.99377913107107
 30
0.0
 11
5.760120378191392
 21
-25.1509897825122
 31
0.0
 12
5.612421
 22
-23.128789
 32
0.0
 13
5.612421
 23
-23.128789
 33
0.0
  0
LINE
  5
E3
330
DB
100
AcDbEntity
  8
MO_001_VIEW_PV
  6
C_SOLID_M
 62
     0
100
AcDbLine
 10
-0.09
 20
0.0
 30
0.0
 11
0.09
 21
0.0
 31
0.0
  0
LINE
  5
E4
330
DB
100
AcDbEntity
  8
MO_001_VIEW_PV
  6
C_SOLID_M
 62
     0
100
AcDbLine
 10
0.0
 20
-0.09
 30
0.0
 11
0.0
 21
0.09
 31
0.0
  0
POINT
  5
E5
330
DB
100
AcDbEntity
  8
DEFPOINTS
  6
C_SOLID_M
 62
     0
100
AcDbPoint
 10
5.612421
 20
-23.128789
 30
0.0
  0
POINT
  5
E6
330
DB
100
AcDbEntity
  8
DEFPOINTS
  6
C_SOLID_M
 62
     0
100
AcDbPoint
 10
0.0
 20
0.0
 30
0.0
  0
ENDBLK
  5
E8
330
DB
100
AcDbEntity
  8
0
100
AcDbBlockEnd
  0
BLOCK
  5
F6
330
EA
100
AcDbEntity
  8
0
100
AcDbBlockBegin
  2
*D2
 70
     1
 10
0.0
 20
0.0
 30
0.0
  3
*D2
  1
*D2
  0
LINE
  5
EB
330
EA
100
AcDbEntity
  8
0
  6
CONTINUOUS
 62
     0
100
AcDbLine
 10
-57.8149146791083
 20
28.01334905873305
 30
0.0
 11
-23.21806330474597
 21
11.2499640522455
 31
0.0
  0
MTEXT
  5
EC
330
EA
100
AcDbEntity
  8
0
  6
CONTINUOUS
 62
     0
100
AcDbMText
 10
-47.99650074580974
 20
25.77130516706038
 30
0.0
 40
4.1672
 41
0.0
 71
     5
 72
     5
  1
\A2;R23.8
 11
0.8999248296500582
 21
-0.4360450676011756
 31
0.0
  0
LINE
  5
ED
330
EA
100
AcDbEntity
  8
0
  6
CONTINUOUS
 62
     0
100
AcDbLine
 10
-57.77567062302419
 20
28.09434229340157
 30
0.0
 11
-40.11290598647113
 21
19.53611482126444
 31
0.0
  0
LINE
  5
EE
330
EA
100
AcDbEntity
  8
0
  6
CONTINUOUS
 62
     0
100
AcDbLine
 10
-40.11290598647113
 20
19.53611482126444
 30
0.0
 11
-38.21733086859529
 21
23.4482680407192
 31
0.0
  0
LINE
  5
EF
330
EA
100
AcDbEntity
  8
0
  6
CONTINUOUS
 62
     0
100
AcDbLine
 10
-38.21733086859529
 20
23.4482680407192
 30
0.0
 11
-55.88009550514836
 21
32.0064955128563
 31
0.0
  0
LINE
  5
F0
330
EA
100
AcDbEntity
  8
0
  6
CONTINUOUS
 62
     0
100
AcDbLine
 10
-55.88009550514836
 20
32.0064955128563
 30
0.0
 11
-57.77567062302419
 21
28.09434229340157
 31
0.0
  0
SOLID
  5
F1
330
EA
100
AcDbEntity
  8
0
  6
CONTINUOUS
 62
     0
100
AcDbTrace
 10
-23.07271494887893
 20
11.54993899546222
 30
0.0
 11
-23.36341166061305
 21
10.94998910902883
 31
0.0
 12
-21.41821364544587
 22
10.37787391704316
 32
0.0
 13
-21.41821364544587
 23
10.37787391704316
 33
0.0
  0
LINE
  5
F2
330
EA
100
AcDbEntity
  8
0
  6
CONTINUOUS
 62
     0
100
AcDbLine
 10
-0.09
 20
0.0
 30
0.0
 11
0.09
 21
0.0
 31
0.0
  0
LINE
  5
F3
330
EA
100
AcDbEntity
  8
0
  6
CONTINUOUS
 62
     0
100
AcDbLine
 10
0.0
 20
-0.09
 30
0.0
 11
0.0
 21
0.09
 31
0.0
  0
POINT
  5
F4
330
EA
100
AcDbEntity
  8
DEFPOINTS
  6
CONTINUOUS
 62
     0
100
AcDbPoint
 10
-21.41821364544587
 20
10.37787391704316
 30
0.0
  0
POINT
  5
F5
330
EA
100
AcDbEntity
  8
DEFPOINTS
  6
CONTINUOUS
 62
     0
100
AcDbPoint
 10
0.0
 20
0.0
 30
0.0
  0
ENDBLK
  5
F7
330
EA
100
AcDbEntity
  8
0
100
AcDbBlockEnd
  0
BLOCK
  5
109
330
F9
100
AcDbEntity
  8
0
100
AcDbBlockBegin
  2
*D3
 70
     1
 10
0.0
 20
0.0
 30
0.0
  3
*D3
  1
*D3
  0
LINE
  5
1AB
330
F9
100
AcDbEntity
  8
0
  6
CONTINUOUS
 62
     0
100
AcDbLine
 10
0.0
 20
38.0625
 30
0.0
 11
0.0000000000000036
 21
44.10769358839577
 31
0.0
  0
LINE
  5
1AC
330
F9
100
AcDbEntity
  8
0
  6
CONTINUOUS
 62
     0
100
AcDbLine
 10
-20.2866278155336
 20
18.58929240763807
 30
0.0
 11
-32.51958498571966
 21
29.79874201571341
 31
0.0
  0
ARC
  5
1AD
330
F9
100
AcDbEntity
  8
0
  6
CONTINUOUS
 62
     0
100
AcDbCircle
 10
0.000000000000001
 20
0.0000069999999997
 30
0.0
 40
43.92768658839577
100
AcDbArc
 50
92.60886624626207
 51
134.8911093057996
  0
SOLID
  5
1AE
330
F9
100
AcDbEntity
  8
0
  6
CONTINUOUS
 62
     0
100
AcDbTrace
 10
-2.007069930632878
 20
44.21541116634403
 30
0.0
 11
-1.991893473176485
 21
43.54891726570914
 31
0.0
 12
0.0000000000000071
 22
43.92769358839577
 32
0.0
 13
0.0000000000000071
 23
43.92769358839577
 33
0.0
  0
SOLID
  5
1AF
330
F9
100
AcDbEntity
  8
0
  6
CONTINUOUS
 62
     0
100
AcDbTrace
 10
-30.76190767600722
 20
30.8898153689763
 30
0.0
 11
-31.24304526111746
 21
31.35128158511648
 31
0.0
 12
-32.38687511698287
 22
29.67713572171568
 32
0.0
 13
-32.38687511698287
 23
29.67713572171568
 33
0.0
  0
POINT
  5
1B0
330
F9
100
AcDbEntity
  8
DEFPOINTS
  6
CONTINUOUS
 62
     0
100
AcDbPoint
 10
-23.06099605173565
 20
37.38759999701117
 30
0.0
  0
POINT
  5
1B1
330
F9
100
AcDbEntity
  8
DEFPOINTS
  6
CONTINUOUS
 62
     0
100
AcDbPoint
 10
0.0
 20
-38.0
 30
0.0
  0
POINT
  5
1B2
330
F9
100
AcDbEntity
  8
DEFPOINTS
  6
CONTINUOUS
 62
     0
100
AcDbPoint
 10
0.0
 20
0.000007
 30
0.0
  0
POINT
  5
1B3
330
F9
100
AcDbEntity
  8
DEFPOINTS
  6
CONTINUOUS
 62
     0
100
AcDbPoint
 10
-20.240548
 20
18.54706799999998
 30
0.0
  0
POINT
  5
1B4
330
F9
100
AcDbEntity
  8
DEFPOINTS
  6
CONTINUOUS
 62
     0
100
AcDbPoint
 10
0.0
 20
38.0
 30
0.0
  0
ENDBLK
  5
10A
330
F9
100
AcDbEntity
  8
0
100
AcDbBlockEnd
  0
BLOCK
  5
128
330
120
100
AcDbEntity
  8
0
100
AcDbBlockBegin
  2
*D4
 70
     1
 10
0.0
 20
0.0
 30
0.0
  3
*D4
  1
*D4
  0
LINE
  5
181
330
120
100
AcDbEntity
  8
0
  6
CONTINUOUS
 62
     0
100
AcDbLine
 10
-17.45562853506839
 20
19.06275942669433
 30
0.0
 11
-36.62635220726998
 21
40.04288434740926
 31
0.0
  0
MTEXT
  5
182
330
120
100
AcDbEntity
  8
0
  6
CONTINUOUS
 62
     0
100
AcDbMText
 10
-28.94082227552536
 20
35.33810635920859
 30
0.0
 40
3.0
 41
0.0
 71
     5
 72
     1
  1
\A2;R23.8{\H0.090000;%%p0.1}
 11
0.6745563388918822
 21
-0.7382233711152609
 31
0.0
  0
SOLID
  5
183
330
120
100
AcDbEntity
  8
0
 62
     0
100
AcDbTrace
 10
-17.70170299210681
 20
18.83790731373037
 30
0.0
 11
-17.20955407802996
 21
19.28761153965829
 31
0.0
 12
-16.10651585728462
 22
17.58631268446381
 32
0.0
 13
-16.10651585728462
 23
17.58631268446381
 33
0.0
  0
LINE
  5
184
330
120
100
AcDbEntity
  8
0
  6
CONTINUOUS
 62
     0
100
AcDbLine
 10
-0.1420729679888343
 20
0.0165942372505139
 30
0.0
 11
0.0379270320111657
 21
0.0165942372505139
 31
0.0
  0
LINE
  5
185
330
120
100
AcDbEntity
  8
0
  6
CONTINUOUS
 62
     0
100
AcDbLine
 10
-0.0520729679888343
 20
-0.0734057627494861
 30
0.0
 11
-0.0520729679888343
 21
0.1065942372505139
 31
0.0
  0
POINT
  5
186
330
120
100
AcDbEntity
  8
DEFPOINTS
 62
     0
100
AcDbPoint
 10
-16.10651585728462
 20
17.58631268446381
 30
0.0
  0
POINT
  5
187
330
120
100
AcDbEntity
  8
DEFPOINTS
 62
     0
100
AcDbPoint
 10
-0.0520729679888343
 20
0.0165942372505139
 30
0.0
  0
ENDBLK
  5
129
330
120
100
AcDbEntity
  8
0
100
AcDbBlockEnd
  0
BLOCK
  5
229
330
228
100
AcDbEntity
  8
0
100
AcDbBlockBegin
  2
*D5
 70
     1
 10
0.0
 20
0.0
 30
0.0
  3
*D5
  1
*D5
  0
LINE
  5
22B
330
228
100
AcDbEntity
  8
1
  6
CONTINUOUS
 62
     0
100
AcDbLine
 10
0.0
 20
38.0625
 30
0.0
 11
0.0000000000000009
 21
45.07603335947346
 31
0.0
  0
LINE
  5
22C
330
228
100
AcDbEntity
  8
1
  6
CONTINUOUS
 62
     0
100
AcDbLine
 10
-5.955484499922218
 20
26.86337749511299
 30
0.0
 11
-9.756262442280358
 21
44.00754690075852
 31
0.0
  0
ARC
  5
22D
330
228
100
AcDbEntity
  8
1
  6
CONTINUOUS
 62
     0
100
AcDbCircle
 10
0.0000000000000009
 20
-0.0000269730825302
 30
0.0
 40
44.89606033255599
100
AcDbArc
 50
92.55258558139539
 51
99.94743700234191
  0
SOLID
  5
22E
330
228
100
AcDbEntity
  8
1
 62
     0
100
AcDbTrace
 10
-1.992079265680517
 20
44.51823538388746
 30
0.0
 11
-2.006928378536489
 21
45.18473665792363
 31
0.0
 12
0.0000000000000009
 22
44.89603335947346
 32
0.0
 13
0.0000000000000009
 23
44.89603335947346
 33
0.0
  0
SOLID
  5
22F
330
228
100
AcDbEntity
  8
1
 62
     0
100
AcDbTrace
 10
-7.820434192735921
 20
44.54805306347526
 30
0.0
 11
-7.690673786136759
 21
43.89413664578591
 31
0.0
 12
-9.717303242504371
 22
43.8318136348331
 32
0.0
 13
-9.717303242504371
 23
43.8318136348331
 33
0.0
  0
MTEXT
  5
230
330
228
100
AcDbEntity
  8
1
  6
CONTINUOUS
 62
     0
100
AcDbMText
 10
-5.060801219618471
 20
46.20973494209665
 30
0.0
 40
3.0
 41
0.0
 71
     5
 72
     1
  1
 
 11
0.9940563167667853
 21
0.1088670707608706
 31
0.0
  0
POINT
  5
231
330
228
100
AcDbEntity
  8
DEFPOINTS
 62
     0
100
AcDbPoint
 10
-3.262062520364784
 20
44.77736890360663
 30
0.0
  0
POINT
  5
232
330
228
100
AcDbEntity
  8
DEFPOINTS
 62
     0
100
AcDbPoint
 10
-0.0000094517537699
 20
0.0000156609440509
 30
0.0
  0
POINT
  5
233
330
228
100
AcDbEntity
  8
DEFPOINTS
 62
     0
100
AcDbPoint
 10
0.0
 20
-38.0
 30
0.0
  0
POINT
  5
234
330
228
100
AcDbEntity
  8
DEFPOINTS
 62
     0
100
AcDbPoint
 10
0.0
 20
38.0
 30
0.0
  0
POINT
  5
235
330
228
100
AcDbEntity
  8
DEFPOINTS
 62
     0
100
AcDbPoint
 10
-5.941957
 20
26.802359
 30
0.0
  0
ENDBLK
  5
22A
330
228
100
AcDbEntity
  8
0
100
AcDbBlockEnd
  0
ENDSEC
  0
SECTION
  2
ENTITIES
  0
TEXT
  5
4B
330
1E
100
AcDbEntity
  8
OVERLAY_MAP
  6
C_SOLID_L
100
AcDbText
 10
0.0
 20
6.349999999999997
 30
0.0
 40
4.1672
  1
Model Overlay Name
100
AcDbText
  0
TEXT
  5
4C
330
1E
100
AcDbEntity
  8
OVERLAY_MAP
  6
C_SOLID_L
100
AcDbText
 10
126.999998
 20
0.0
 30
0.0
 40
4.1672
  1
Number
100
AcDbText
  0
TEXT
  5
4D
330
1E
100
AcDbEntity
  8
OVERLAY_MAP
  6
C_SOLID_L
100
AcDbText
 10
177.7999969999999
 20
0.0
 30
0.0
 40
4.1672
  1
File Text
100
AcDbText
  0
TEXT
  5
4E
330
1E
100
AcDbEntity
  8
OVERLAY_MAP
  6
C_SOLID_L
100
AcDbText
 10
0.0
 20
-6.349999999999997
 30
0.0
 40
4.1672
  1
rs 7s6 
100
AcDbText
  0
TEXT
  5
4F
330
1E
100
AcDbEntity
  8
OVERLAY_MAP
  6
C_SOLID_L
100
AcDbText
 10
126.999998
 20
-6.349999999999997
 30
0.0
 40
4.1672
  1
001
100
AcDbText
  0
TEXT
  5
50
330
1E
100
AcDbEntity
  8
OVERLAY_MAP
  6
C_SOLID_L
100
AcDbText
 10
177.7999969999999
 20
-6.349999999999997
 30
0.0
 40
4.1672
  1
                                                                   00139
100
AcDbText
  0
CIRCLE
  5
51
330
1E
100
AcDbEntity
  8
MO_001_VIEW_PV
  6
C_SOLID_M
100
AcDbCircle
 10
0.0
 20
0.0
 30
0.0
 40
30.550003
  0
LINE
  5
52
330
1E
100
AcDbEntity
  8
1
  6
C_CENTER_L
100
AcDbLine
 10
0.0
 20
-38.0
 30
0.0
 11
0.0
 21
38.0
 31
0.0
  0
CIRCLE
  5
53
330
1E
100
AcDbEntity
  8
1
  6
C_SOLID_M
100
AcDbCircle
 10
-17.547195
 20
-16.079056
 30
0.0
 40
2.149999999999999
  0
ARC
  5
54
330
1E
100
AcDbEntity
  8
1
  6
C_SOLID_M
100
AcDbCircle
 10
20.611404
 20
11.90000799999999
 30
0.0
 40
3.174999999999998
100
AcDbArc
 50
210.000085
 51
30.09774399999998
  0
ARC
  5
55
330
1E
100
AcDbEntity
  8
1
  6
C_SOLID_M
100
AcDbCircle
 10
13.651123
 20
19.49583399999998
 30
0.0
 40
3.174999999999998
100
AcDbArc
 50
54.90230699999999
 51
235.000011
  0
ARC
  5
56
330
1E
100
AcDbEntity
  8
1
  6
C_SOLID_M
100
AcDbCircle
 10
0.0
 20
0.0
 30
0.0
 40
20.625
100
AcDbArc
 50
29.99999100000027
 51
55.00002000000002
  0
ARC
  5
57
330
1E
100
AcDbEntity
  8
1
  6
C_SOLID_M
100
AcDbCircle
 10
0.0
 20
0.0
 30
0.0
 40
26.975006
100
AcDbArc
 50
29.99081100000006
 51
55.01149400000006
  0
LINE
  5
58
330
1E
100
AcDbEntity
  8
1
  6
C_CENTER_L
100
AcDbLine
 10
-38.0
 20
0.0
 30
0.0
 11
38.0
 21
0.0
 31
0.0
  0
ARC
  5
59
330
1E
100
AcDbEntity
  8
1
  6
C_SOLID_M
100
AcDbCircle
 10
0.000015
 20
-23.800014
 30
0.0
 40
3.174999999999998
100
AcDbArc
 50
90.00005399999998
 51
270.0977580000001
  0
ARC
  5
5A
330
1E
100
AcDbEntity
  8
1
  6
C_SOLID_M
100
AcDbCircle
 10
10.058319
 20
-21.570127
 30
0.0
 40
3.174999999999998
100
AcDbArc
 50
294.902334
 51
115.0000040000001
  0
ARC
  5
5B
330
1E
100
AcDbEntity
  8
1
  6
C_SOLID_M
100
AcDbCircle
 10
0.0
 20
0.0
 30
0.0
 40
20.625
100
AcDbArc
 50
270.000004
 51
295.000027
  0
ARC
  5
5C
330
1E
100
AcDbEntity
  8
1
  6
C_SOLID_M
100
AcDbCircle
 10
0.0
 20
0.0
 30
0.0
 40
26.975006
100
AcDbArc
 50
269.98853
 51
295.011501
  0
ARC
  5
5D
330
1E
100
AcDbEntity
  8
1
  6
C_SOLID_M
100
AcDbCircle
 10
-20.61142
 20
11.899995
 30
0.0
 40
3.174999999999998
100
AcDbArc
 50
330.00005
 51
150.097751
  0
ARC
  5
5E
330
1E
100
AcDbEntity
  8
1
  6
C_SOLID_M
100
AcDbCircle
 10
-23.709442
 20
2.074292999999999
 30
0.0
 40
3.174999999999998
100
AcDbArc
 50
174.902338
 51
355.000009
  0
ARC
  5
5F
330
1E
100
AcDbEntity
  8
1
  6
C_SOLID_M
100
AcDbCircle
 10
0.0
 20
0.0
 30
0.0
 40
20.625
100
AcDbArc
 50
149.9999970000001
 51
175.0000200000001
  0
ARC
  5
60
330
1E
100
AcDbEntity
  8
1
  6
C_SOLID_M
100
AcDbCircle
 10
0.0
 20
0.0
 30
0.0
 40
26.975006
100
AcDbArc
 50
149.988523
 51
175.011494
  0
ARC
  5
61
330
1E
100
AcDbEntity
  8
MO_001_VIEW_PV
  6
C_SOLID_M
100
AcDbCircle
 10
-11.129776
 20
2.467416999999999
 30
0.0
 40
3.2
100
AcDbArc
 50
118.109817
 51
216.890116
  0
CIRCLE
  5
62
330
1E
100
AcDbEntity
  8
MO_001_VIEW_PV
  6
C_SOLID_M
100
AcDbCircle
 10
0.0
 20
0.0
 30
0.0
 40
35.0
  0
CIRCLE
  5
63
330
1E
100
AcDbEntity
  8
MO_001_VIEW_PV
  6
C_SOLID_M
100
AcDbCircle
 10
0.0
 20
0.0
 30
0.0
 40
34.0
  0
CIRCLE
  5
64
330
1E
100
AcDbEntity
  8
MO_001_VIEW_PV
  6
C_SOLID_M
100
AcDbCircle
 10
0.0
 20
0.0
 30
0.0
 40
31.049999
  0
ARC
  5
65
330
1E
100
AcDbEntity
  8
MO_001_VIEW_PV
  6
C_SOLID_M
100
AcDbCircle
 10
0.0
 20
0.0
 30
0.0
 40
13.7
100
AcDbArc
 50
177.7137899999999
 51
217.286185
  0
ARC
  5
66
330
1E
100
AcDbEntity
  8
MO_001_VIEW_PV
  6
C_SOLID_M
100
AcDbCircle
 10
-15.32785
 20
3.398112
 30
0.0
 40
4.0
100
AcDbArc
 50
294.051197
 51
40.948729
  0
ARC
  5
67
330
1E
100
AcDbEntity
  8
MO_001_VIEW_PV
  6
C_SOLID_M
100
AcDbCircle
 10
-10.606781
 20
-11.57524299999999
 30
0.0
 40
4.0
100
AcDbArc
 50
354.0512049999998
 51
100.948727
  0
ARC
  5
68
330
1E
100
AcDbEntity
  8
MO_001_VIEW_PV
  6
C_SOLID_M
100
AcDbCircle
 10
-7.701736
 20
-8.404949
 30
0.0
 40
3.2
100
AcDbArc
 50
178.1098179999999
 51
276.8901319999999
  0
ARC
  5
69
330
1E
100
AcDbEntity
  8
MO_001_VIEW_PV
  6
C_SOLID_M
100
AcDbCircle
 10
0.0
 20
0.0
 30
0.0
 40
13.7
100
AcDbArc
 50
237.7137819999999
 51
277.286197
  0
ARC
  5
6A
330
1E
100
AcDbEntity
  8
MO_001_VIEW_PV
  6
C_SOLID_M
100
AcDbCircle
 10
4.721068999999999
 20
-14.973352
 30
0.0
 40
4.0
100
AcDbArc
 50
54.05120400000001
 51
160.9487359999999
  0
ARC
  5
6B
330
1E
100
AcDbEntity
  8
MO_001_VIEW_PV
  6
C_SOLID_M
100
AcDbCircle
 10
3.42804
 20
-10.872365
 30
0.0
 40
3.2
100
AcDbArc
 50
238.109824
 51
336.8901129999998
  0
ARC
  5
6C
330
1E
100
AcDbEntity
  8
MO_001_VIEW_PV
  6
C_SOLID_M
100
AcDbCircle
 10
0.0
 20
0.0
 30
0.0
 40
13.7
100
AcDbArc
 50
297.713777
 51
337.2861819999999
  0
ARC
  5
6D
330
1E
100
AcDbEntity
  8
MO_001_VIEW_PV
  6
C_SOLID_M
100
AcDbCircle
 10
15.327835
 20
-3.398108999999998
 30
0.0
 40
4.0
100
AcDbArc
 50
114.051202
 51
220.948738
  0
ARC
  5
6E
330
1E
100
AcDbEntity
  8
MO_001_VIEW_PV
  6
C_SOLID_M
100
AcDbCircle
 10
11.129776
 20
-2.467415
 30
0.0
 40
3.2
100
AcDbArc
 50
298.109819
 51
36.890108
  0
ARC
  5
6F
330
1E
100
AcDbEntity
  8
MO_001_VIEW_PV
  6
C_SOLID_M
100
AcDbCircle
 10
0.0
 20
0.0
 30
0.0
 40
13.7
100
AcDbArc
 50
357.713785
 51
37.28618699999999
  0
ARC
  5
70
330
1E
100
AcDbEntity
  8
MO_001_VIEW_PV
  6
C_SOLID_M
100
AcDbCircle
 10
10.606766
 20
11.575244
 30
0.0
 40
4.0
100
AcDbArc
 50
174.051211
 51
280.948739
  0
ARC
  5
71
330
1E
100
AcDbEntity
  8
MO_001_VIEW_PV
  6
C_SOLID_M
100
AcDbCircle
 10
7.701736
 20
8.40495
 30
0.0
 40
3.2
100
AcDbArc
 50
358.109826
 51
96.89010600000002
  0
ARC
  5
72
330
1E
100
AcDbEntity
  8
MO_001_VIEW_PV
  6
C_SOLID_M
100
AcDbCircle
 10
0.0
 20
0.0
 30
0.0
 40
13.7
100
AcDbArc
 50
57.71378699999998
 51
97.286182
  0
ARC
  5
73
330
1E
100
AcDbEntity
  8
MO_001_VIEW_PV
  6
C_SOLID_M
100
AcDbCircle
 10
-4.721068999999999
 20
14.973353
 30
0.0
 40
4.0
100
AcDbArc
 50
234.051202
 51
340.9487209999998
  0
ARC
  5
74
330
1E
100
AcDbEntity
  8
MO_001_VIEW_PV
  6
C_SOLID_M
100
AcDbCircle
 10
-3.42804
 20
10.87236599999999
 30
0.0
 40
3.2
100
AcDbArc
 50
58.109829
 51
156.8901009999999
  0
ARC
  5
75
330
1E
100
AcDbEntity
  8
MO_001_VIEW_PV
  6
C_SOLID_M
100
AcDbCircle
 10
0.0
 20
0.0
 30
0.0
 40
13.7
100
AcDbArc
 50
117.713789
 51
157.286184
  0
CIRCLE
  5
76
330
1E
100
AcDbEntity
  8
MO_001_VIEW_PV
  6
C_SOLID_M
100
AcDbCircle
 10
0.0
 20
0.0
 30
0.0
 40
4.764999999999997
  0
CIRCLE
  5
77
330
1E
100
AcDbEntity
  8
MO_001_VIEW_PV
  6
C_SOLID_M
100
AcDbCircle
 10
0.0
 20
0.0
 30
0.0
 40
4.619412
  0
LINE
  5
78
330
1E
100
AcDbEntity
  8
MO_001_VIEW_PV
  6
C_SOLID_M
100
AcDbLine
 10
13.350006
 20
-32.353939
 30
0.0
 11
13.350006
 21
-50.0
 31
0.0
  0
LINE
  5
79
330
1E
100
AcDbEntity
  8
MO_001_VIEW_PV
  6
C_SOLID_M
100
AcDbLine
 10
10.44999699999999
 20
-33.40355699999999
 30
0.0
 11
10.44999699999999
 21
-50.0
 31
0.0
  0
LINE
  5
7A
330
1E
100
AcDbEntity
  8
MO_001_VIEW_PV
  6
C_SOLID_M
100
AcDbLine
 10
10.44999699999999
 20
-50.0
 30
0.0
 11
13.350006
 21
-50.0
 31
0.0
  0
LINE
  5
7B
330
1E
100
AcDbEntity
  8
MO_001_VIEW_PV
  6
C_SOLID_M
100
AcDbLine
 10
12.80499299999999
 20
-56.0
 30
0.0
 11
12.80499299999999
 21
-60.5
 31
0.0
  0
LINE
  5
7C
330
1E
100
AcDbEntity
  8
MO_001_VIEW_PV
  6
C_SOLID_M
100
AcDbLine
 10
10.994995
 20
-56.0
 30
0.0
 11
10.994995
 21
-60.5
 31
0.0
  0
ARC
  5
7D
330
1E
100
AcDbEntity
  8
MO_001_VIEW_PV
  6
C_SOLID_M
100
AcDbCircle
 10
11.44751
 20
-55.35535
 30
0.0
 40
0.5753520000000001
100
AcDbArc
 50
38.142761
 51
141.8572369999999
  0
ARC
  5
7E
330
1E
100
AcDbEntity
  8
MO_001_VIEW_PV
  6
C_SOLID_M
100
AcDbCircle
 10
11.44751
 20
-54.64465
 30
0.0
 40
0.5753520000000001
100
AcDbArc
 50
218.1427629999999
 51
321.8572389999998
  0
ARC
  5
7F
330
1E
100
AcDbEntity
  8
MO_001_VIEW_PV
  6
C_SOLID_M
100
AcDbCircle
 10
12.352509
 20
-54.64465
 30
0.0
 40
0.5753520000000001
100
AcDbArc
 50
218.1427629999999
 51
321.8572389999998
  0
ARC
  5
80
330
1E
100
AcDbEntity
  8
MO_001_VIEW_PV
  6
C_SOLID_M
100
AcDbCircle
 10
11.44751
 20
-56.35535
 30
0.0
 40
0.5753520000000001
100
AcDbArc
 50
38.142761
 51
141.8572369999999
  0
ARC
  5
81
330
1E
100
AcDbEntity
  8
MO_001_VIEW_PV
  6
C_SOLID_M
100
AcDbCircle
 10
12.352509
 20
-56.35535
 30
0.0
 40
0.5753520000000001
100
AcDbArc
 50
38.142761
 51
141.8572369999999
  0
ARC
  5
82
330
1E
100
AcDbEntity
  8
MO_001_VIEW_PV
  6
C_SOLID_M
100
AcDbCircle
 10
12.352509
 20
-55.64465
 30
0.0
 40
0.5753520000000001
100
AcDbArc
 50
218.1427629999999
 51
321.8572389999998
  0
LINE
  5
83
330
1E
100
AcDbEntity
  8
MO_001_VIEW_PV
  6
C_SOLID_M
100
AcDbLine
 10
10.994995
 20
-50.0
 30
0.0
 11
10.994995
 21
-55.0
 31
0.0
  0
LINE
  5
84
330
1E
100
AcDbEntity
  8
MO_001_VIEW_PV
  6
C_SOLID_M
100
AcDbLine
 10
12.80499299999999
 20
-50.0
 30
0.0
 11
12.80499299999999
 21
-55.0
 31
0.0
  0
LINE
  5
85
330
1E
100
AcDbEntity
  8
MO_001_VIEW_PV
  6
C_SOLID_M
100
AcDbLine
 10
10.994995
 20
-60.5
 30
0.0
 11
12.80499299999999
 21
-60.5
 31
0.0
  0
LINE
  5
86
330
1E
100
AcDbEntity
  8
MO_001_VIEW_PV
  6
C_SOLID_M
100
AcDbLine
 10
12.14999399999999
 20
-60.5
 30
0.0
 11
12.14999399999999
 21
-65.5
 31
0.0
  0
LINE
  5
87
330
1E
100
AcDbEntity
  8
MO_001_VIEW_PV
  6
C_SOLID_M
100
AcDbLine
 10
11.64999399999999
 20
-60.5
 30
0.0
 11
11.64999399999999
 21
-65.5
 31
0.0
  0
LINE
  5
88
330
1E
100
AcDbEntity
  8
MO_001_VIEW_PV
  6
C_SOLID_M
100
AcDbLine
 10
11.64999399999999
 20
-65.5
 30
0.0
 11
12.14999399999999
 21
-65.5
 31
0.0
  0
LINE
  5
89
330
1E
100
AcDbEntity
  8
MO_001_VIEW_PV
  6
C_SOLID_M
100
AcDbLine
 10
-10.44999699999999
 20
-33.40355699999999
 30
0.0
 11
-10.44999699999999
 21
-50.0
 31
0.0
  0
LINE
  5
8A
330
1E
100
AcDbEntity
  8
MO_001_VIEW_PV
  6
C_SOLID_M
100
AcDbLine
 10
-13.350006
 20
-32.353939
 30
0.0
 11
-13.350006
 21
-50.0
 31
0.0
  0
LINE
  5
8B
330
1E
100
AcDbEntity
  8
MO_001_VIEW_PV
  6
C_SOLID_M
100
AcDbLine
 10
-13.350006
 20
-50.0
 30
0.0
 11
-10.45001199999999
 21
-50.0
 31
0.0
  0
LINE
  5
8C
330
1E
100
AcDbEntity
  8
MO_001_VIEW_PV
  6
C_SOLID_M
100
AcDbLine
 10
-10.994995
 20
-56.0
 30
0.0
 11
-10.994995
 21
-60.5
 31
0.0
  0
LINE
  5
8D
330
1E
100
AcDbEntity
  8
MO_001_VIEW_PV
  6
C_SOLID_M
100
AcDbLine
 10
-12.80499299999999
 20
-56.0
 30
0.0
 11
-12.80499299999999
 21
-60.5
 31
0.0
  0
ARC
  5
8E
330
1E
100
AcDbEntity
  8
MO_001_VIEW_PV
  6
C_SOLID_M
100
AcDbCircle
 10
-12.352509
 20
-55.35535
 30
0.0
 40
0.5753520000000001
100
AcDbArc
 50
38.142761
 51
141.8572369999999
  0
ARC
  5
8F
330
1E
100
AcDbEntity
  8
MO_001_VIEW_PV
  6
C_SOLID_M
100
AcDbCircle
 10
-12.352509
 20
-54.64465
 30
0.0
 40
0.5753520000000001
100
AcDbArc
 50
218.1427629999999
 51
321.8572389999998
  0
ARC
  5
90
330
1E
100
AcDbEntity
  8
MO_001_VIEW_PV
  6
C_SOLID_M
100
AcDbCircle
 10
-11.44751
 20
-54.64465
 30
0.0
 40
0.5753520000000001
100
AcDbArc
 50
218.1427629999999
 51
321.8572389999998
  0
ARC
  5
91
330
1E
100
AcDbEntity
  8
MO_001_VIEW_PV
  6
C_SOLID_M
100
AcDbCircle
 10
-12.352509
 20
-56.35535
 30
0.0
 40
0.5753520000000001
100
AcDbArc
 50
38.142761
 51
141.8572369999999
  0
ARC
  5
92
330
1E
100
AcDbEntity
  8
MO_001_VIEW_PV
  6
C_SOLID_M
100
AcDbCircle
 10
-11.44751
 20
-56.35535
 30
0.0
 40
0.5753520000000001
100
AcDbArc
 50
38.142761
 51
141.8572369999999
  0
ARC
  5
93
330
1E
100
AcDbEntity
  8
MO_001_VIEW_PV
  6
C_SOLID_M
100
AcDbCircle
 10
-11.44751
 20
-55.64465
 30
0.0
 40
0.5753520000000001
100
AcDbArc
 50
218.1427629999999
 51
321.8572389999998
  0
LINE
  5
94
330
1E
100
AcDbEntity
  8
MO_001_VIEW_PV
  6
C_SOLID_M
100
AcDbLine
 10
-12.80499299999999
 20
-50.0
 30
0.0
 11
-12.80499299999999
 21
-55.0
 31
0.0
  0
LINE
  5
95
330
1E
100
AcDbEntity
  8
MO_001_VIEW_PV
  6
C_SOLID_M
100
AcDbLine
 10
-10.994995
 20
-50.0
 30
0.0
 11
-10.994995
 21
-55.0
 31
0.0
  0
LINE
  5
96
330
1E
100
AcDbEntity
  8
MO_001_VIEW_PV
  6
C_SOLID_M
100
AcDbLine
 10
-12.80499299999999
 20
-60.5
 30
0.0
 11
-10.994995
 21
-60.5
 31
0.0
  0
LINE
  5
97
330
1E
100
AcDbEntity
  8
MO_001_VIEW_PV
  6
C_SOLID_M
100
AcDbLine
 10
-11.64999399999999
 20
-60.5
 30
0.0
 11
-11.64999399999999
 21
-65.5
 31
0.0
  0
LINE
  5
98
330
1E
100
AcDbEntity
  8
MO_001_VIEW_PV
  6
C_SOLID_M
100
AcDbLine
 10
-12.14999399999999
 20
-60.5
 30
0.0
 11
-12.14999399999999
 21
-65.5
 31
0.0
  0
LINE
  5
99
330
1E
100
AcDbEntity
  8
MO_001_VIEW_PV
  6
C_SOLID_M
100
AcDbLine
 10
-12.14999399999999
 20
-65.5
 30
0.0
 11
-11.64999399999999
 21
-65.5
 31
0.0
  0
CIRCLE
  5
9C
330
1E
100
AcDbEntity
  8
1
  6
C_SOLID_L
100
AcDbCircle
 10
-17.547195
 20
-16.079056
 30
0.0
 40
2.5
  0
CIRCLE
  5
9D
330
1E
100
AcDbEntity
  8
1
  6
C_SOLID_L
100
AcDbCircle
 10
-5.151276
 20
23.23584599999999
 30
0.0
 40
2.5
  0
CIRCLE
  5
9E
330
1E
100
AcDbEntity
  8
1
  6
C_SOLID_M
100
AcDbCircle
 10
-5.151276
 20
23.23584599999999
 30
0.0
 40
2.149999999999999
  0
CIRCLE
  5
9F
330
1E
100
AcDbEntity
  8
1
  6
C_SOLID_L
100
AcDbCircle
 10
22.69847099999999
 20
-7.156786999999997
 30
0.0
 40
2.5
  0
CIRCLE
  5
A0
330
1E
100
AcDbEntity
  8
1
  6
C_SOLID_M
100
AcDbCircle
 10
22.69847099999999
 20
-7.156786999999997
 30
0.0
 40
2.149999999999999
  0
LINE
  5
A1
330
1E
100
AcDbEntity
  8
1
  6
C_CENTER_L
100
AcDbLine
 10
-0.0000094517537699
 20
0.0000156609440509
 30
0.0
 11
-5.941957
 21
26.802359
 31
0.0
  0
ARC
  5
A2
330
1E
100
AcDbEntity
  8
1
  6
C_CENTER_L
100
AcDbCircle
 10
0.0
 20
0.0
 30
0.0
 40
23.800003
100
AcDbArc
 50
91.548024
 51
137.4999631276919
  0
LINE
  5
A3
330
1E
100
AcDbEntity
  8
1
  6
C_CENTER_L
100
AcDbLine
 10
17.692067
 20
-5.578273999999997
 30
0.0
 11
26.18251499999999
 21
-8.255297999999998
 31
0.0
  0
ARC
  5
A4
330
1E
100
AcDbEntity
  8
1
  6
C_CENTER_L
100
AcDbCircle
 10
0.0
 20
0.0
 30
0.0
 40
23.800003
100
AcDbArc
 50
331.548024
 51
353.777995
  0
LINE
  5
A5
330
1E
100
AcDbEntity
  8
MO_001_VIEW_PV
  6
C_SOLID_L
100
AcDbLine
 10
-63.13432662191957
 20
-26.65247957881321
 30
0.0
 11
-34.77869262191953
 21
-26.65247957881321
 31
0.0
  0
TEXT
  5
AA
330
1E
100
AcDbEntity
  8
MO_001_VIEW_PV
  6
C_SOLID_L
100
AcDbText
 10
-34.12782283885149
 20
47.36785828629354
 30
0.0
 40
3.0
  1
※1/2回転角度(%%P3%%D)
100
AcDbText
  0
TEXT
  5
AB
330
1E
100
AcDbEntity
  8
MO_001_VIEW_PV
  6
C_SOLID_L
100
AcDbText
 10
17.82858
 20
49.01495399999999
 30
0.0
 40
3.0
  1
※図は右回転を示し，
100
AcDbText
  0
TEXT
  5
AC
330
1E
100
AcDbEntity
  8
MO_001_VIEW_PV
  6
C_SOLID_L
100
AcDbText
 10
17.82858
 20
44.51495399999997
 30
0.0
 40
3.0
  1
 左回転の場合は反対
100
AcDbText
  0
TEXT
  5
AD
330
1E
100
AcDbEntity
  8
MO_001_VIEW_PV
  6
C_SOLID_L
100
AcDbText
 10
17.82858
 20
40.01495399999996
 30
0.0
 40
3.0
  1
 になります。
100
AcDbText
  0
TEXT
  5
AE
330
1E
100
AcDbEntity
  8
MO_001_VIEW_PV
  6
C_SOLID_L
100
AcDbText
 10
-62.11704062191954
 20
-25.67414757881321
 30
0.0
 40
3.0
  1
3-M5 P0.8
100
AcDbText
  0
TEXT
  5
AF
330
1E
100
AcDbEntity
  8
MO_001_VIEW_PV
  6
C_SOLID_L
100
AcDbText
 10
-45.04940799999999
 20
-75.77001
 30
0.0
 40
4.167187
  1
7S X6付
100
AcDbText
  0
TEXT
  5
B2
330
1E
100
AcDbEntity
  8
MO_001_VIEW_PV
  6
C_SOLID_L
100
AcDbText
 10
2.950591999999998
 20
-81.77001
 30
0.0
 40
4.167187
  1
単位：mm
100
AcDbText
  0
TEXT
  5
B3
330
1E
100
AcDbEntity
  8
MO_001_VIEW_PV
  6
C_SOLID_L
100
AcDbText
 10
2.950591999999998
 20
-88.020791
 30
0.0
 40
4.167187
  1
図は右回転、無励磁時を示す
100
AcDbText
  0
LINE
  5
B4
330
1E
100
AcDbEntity
  8
MO_001_VIEW_PV
  6
C_SOLID_L
100
AcDbLine
 10
-18.95044362191955
 20
-17.51403557881321
 30
0.0
 11
-34.77869262191953
 21
-26.65247957881321
 31
0.0
  0
LWPOLYLINE
  5
B5
330
1E
100
AcDbEntity
  8
MO_001_VIEW_PV
  6
C_SOLID_L
100
AcDbPolyline
 90
        3
 70
     1
 43
0.0
 10
-21.53238562191956
 20
-19.67850157881321
 10
-19.39038462191955
 20
-17.76803557881321
 10
-22.11589662191955
 20
-18.66782957881321
  0
DIMENSION
  5
11F
330
1E
100
AcDbEntity
  8
0
  6
CONTINUOUS
100
AcDbDimension
  2
*D4
 10
-0.0520729679888343
 20
0.0165942372505139
 30
0.0
 11
-30.78638070331351
 21
33.65171551197889
 31
0.0
 70
   164
  3
STANDARD
100
AcDbRadialDimension
 15
-16.10651585728462
 25
17.58631268446381
 35
0.0
 40
0.0
1001
ACAD
1000
DSTYLE
1002
{
1070
   147
1040
1.0
1070
    48
1040
0.1
1070
    72
1070
     0
1070
    71
1070
     1
1070
   288
1070
     1
1002
}
  0
LINE
  5
20D
330
1E
100
AcDbEntity
  8
1
  6
C_CENTER_L
100
AcDbLine
 10
-13.67696049327024
 20
-12.53264246745634
 30
0.0
 11
-20.24055528381087
 21
-18.54707412496711
 31
0.0
  0
ARC
  5
20E
330
1E
100
AcDbEntity
  8
1
  6
C_CENTER_L
100
AcDbCircle
 10
0.0
 20
0.0
 30
0.0
 40
23.800003
100
AcDbArc
 50
211.5480239999999
 51
233.7779949999999
  0
DIMENSION
  5
225
330
1E
100
AcDbEntity
  8
1
  6
CONTINUOUS
100
AcDbDimension
  2
*D5
 10
-5.941957
 20
26.802359
 30
0.0
 11
-5.060801219618471
 21
46.20973494209665
 31
0.0
 70
    34
  1
 
  3
STANDARD
100
AcDb2LineAngularDimension
 13
0.0
 23
-38.0
 33
0.0
 14
0.0
 24
38.0
 34
0.0
 15
-0.0000094517537699
 25
0.0000156609440509
 35
0.0
 16
-3.262062520364784
 26
44.77736890360663
 36
0.0
1001
ACAD
1000
DSTYLE
1002
{
1070
   287
1070
     5
1070
   279
1070
     2
1002
}
  0
ENDSEC
  0
SECTION
  2
OBJECTS
  0
DICTIONARY
  5
1A
330
0
100
AcDbDictionary
  3
ACAD_DETAILVIEWSTYLE
350
23C
  3
ACAD_GROUP
350
1B
  3
ACAD_IMAGE_VARS
350
1FC
  3
ACAD_MLINESTYLE
350
1C
  3
ACAD_SCALELIST
350
23F
  3
ACAD_SECTIONVIEWSTYLE
350
23D
  3
ACDBVARIABLEDICTIONARY
350
237
  3
APPDATA
350
1FA
  3
DWGPROPS
350
289
1001
ACAD
1000
TREAT_AS_HARD
1070
     0
1000
TREAT_AS_HARD
1070
     0
1000
TREAT_AS_HARD
1070
     0
  0
DICTIONARY
  5
1FD
330
2
100
AcDbDictionary
280
     1
  3
ACAD_LAYERSTATES
360
1FE
  3
ACLYDICTIONARY
360
202
  0
DICTIONARY
  5
132
330
1E
100
AcDbDictionary
  3
ACAD_LAYOUTSELFREF
350
1A9
1001
ACAD
1000
TREAT_AS_HARD
1070
     0
1000
TREAT_AS_HARD
1070
     0
  0
DICTIONARY
  5
134
330
1F
100
AcDbDictionary
  3
ACAD_LAYOUTSELFREF
350
1AA
1001
ACAD
1000
TREAT_AS_HARD
1070
     0
1000
TREAT_AS_HARD
1070
     0
  0
DICTIONARY
  5
23C
102
{ACAD_REACTORS
330
1A
102
}
330
1A
100
AcDbDictionary
  0
DICTIONARY
  5
1B
102
{ACAD_REACTORS
330
1A
102
}
330
1A
100
AcDbDictionary
1001
ACAD
1000
TREAT_AS_HARD
1070
     0
1000
TREAT_AS_HARD
1070
     0
1000
TREAT_AS_HARD
1070
     0
  0
RASTERVARIABLES
  5
1FC
102
{ACAD_REACTORS
330
1A
102
}
330
1A
100
AcDbRasterVariables
 90
        0
 70
     1
 71
     1
 72
     0
  0
DICTIONARY
  5
1C
102
{ACAD_REACTORS
330
1A
102
}
330
1A
100
AcDbDictionary
  3
STANDARD
350
1D
1001
ACAD
1000
TREAT_AS_HARD
1070
     0
1000
TREAT_AS_HARD
1070
     0
1000
TREAT_AS_HARD
1070
     0
  0
DICTIONARY
  5
23F
102
{ACAD_REACTORS
330
1A
102
}
330
1A
100
AcDbDictionary
  0
DICTIONARY
  5
23D
102
{ACAD_REACTORS
330
1A
102
}
330
1A
100
AcDbDictionary
  0
DICTIONARY
  5
237
102
{ACAD_REACTORS
330
1A
102
}
330
1A
100
AcDbDictionary
  0
DICTIONARY
  5
1FA
102
{ACAD_REACTORS
330
1A
102
}
330
1A
100
AcDbDictionary
  0
XRECORD
  5
289
102
{ACAD_REACTORS
330
1A
102
}
330
1A
100
AcDbXrecord
  1
DWGPROPS COOKIE
  2

  3

  4

  6

  7

  8
SMT204
  9

300
=
301
=
302
=
303
=
304
=
305
=
306
=
307
=
308
=
309
=
 40
0.0
 41
2305814.194090359
 42
2457319.433558912
  1

 90
        0
  0
DICTIONARY
  5
1FE
102
{ACAD_REACTORS
330
1FD
102
}
330
1FD
100
AcDbDictionary
  0
DICTIONARY
  5
202
102
{ACAD_REACTORS
330
1FD
102
}
330
1FD
100
AcDbDictionary
1001
ACAD
1000
<All
  0
XRECORD
  5
1A9
102
{ACAD_REACTORS
330
132
102
}
330
132
100
AcDbXrecord
340
1E
  0
XRECORD
  5
1AA
102
{ACAD_REACTORS
330
134
102
}
330
134
100
AcDbXrecord
340
1F
  0
MLINESTYLE
  5
1D
102
{ACAD_REACTORS
330
1C
102
}
330
1C
100
AcDbMlineStyle
  2
STANDARD
 70
     0
  3

 62
     0
 51
90.0
 52
90.0
 71
     2
 49
0.5
 62
   256
  6
BYLAYER
 49
-0.5
 62
   256
  6
BYLAYER
  0
ENDSEC
  0
EOF
