  0
SECTION
  2
HEADER
  9
$ACADVER
  1
AC1012
  9
$DWGCODEPAGE
  3
dos932
  9
$INSBASE
 10
0.0
 20
0.0
 30
0.0
  9
$EXTMIN
 10
-114.7526714759213
 20
-88.26137637661322
 30
-0.0015258207003583
  9
$EXTMAX
 10
25.85689439066158
 20
51.75276395526925
 30
0.0000000349246037
  9
$LIMMIN
 10
-117.0
 20
-91.38488
  9
$LIMMAX
 10
24.889114
 20
54.0
  9
$ORTHOMODE
 70
     0
  9
$REGENMODE
 70
     1
  9
$FILLMODE
 70
     1
  9
$QTEXTMODE
 70
     0
  9
$MIRRTEXT
 70
     1
  9
$DRAGMODE
 70
     2
  9
$LTSCALE
 40
1.0
  9
$OSMODE
 70
    37
  9
$ATTMODE
 70
     1
  9
$TEXTSIZE
 40
4.1672
  9
$TRACEWID
 40
0.05
  9
$TEXTSTYLE
  7
STANDARD
  9
$CLAYER
  8
0
  9
$CELTYPE
  6
CONTINUOUS
  9
$CECOLOR
 62
   256
  9
$CELTSCALE
 40
1.0
  9
$DELOBJ
 70
     1
  9
$DISPSILH
 70
     0
  9
$DIMSCALE
 40
1.0
  9
$DIMASZ
 40
0.18
  9
$DIMEXO
 40
0.0625
  9
$DIMDLI
 40
0.38
  9
$DIMRND
 40
0.0
  9
$DIMDLE
 40
0.0
  9
$DIMEXE
 40
0.18
  9
$DIMTP
 40
0.0
  9
$DIMTM
 40
0.0
  9
$DIMTXT
 40
0.18
  9
$DIMCEN
 40
0.09
  9
$DIMTSZ
 40
0.0
  9
$DIMTOL
 70
     0
  9
$DIMLIM
 70
     0
  9
$DIMTIH
 70
     1
  9
$DIMTOH
 70
     1
  9
$DIMSE1
 70
     0
  9
$DIMSE2
 70
     0
  9
$DIMTAD
 70
     0
  9
$DIMZIN
 70
     0
  9
$DIMBLK
  1

  9
$DIMASO
 70
     1
  9
$DIMSHO
 70
     1
  9
$DIMPOST
  1

  9
$DIMAPOST
  1

  9
$DIMALT
 70
     0
  9
$DIMALTD
 70
     2
  9
$DIMALTF
 40
25.4
  9
$DIMLFAC
 40
1.0
  9
$DIMTOFL
 70
     0
  9
$DIMTVP
 40
0.0
  9
$DIMTIX
 70
     0
  9
$DIMSOXD
 70
     0
  9
$DIMSAH
 70
     0
  9
$DIMBLK1
  1

  9
$DIMBLK2
  1

  9
$DIMSTYLE
  2
STANDARD
  9
$DIMCLRD
 70
     0
  9
$DIMCLRE
 70
     0
  9
$DIMCLRT
 70
     0
  9
$DIMTFAC
 40
1.0
  9
$DIMGAP
 40
0.09
  9
$DIMJUST
 70
     0
  9
$DIMSD1
 70
     0
  9
$DIMSD2
 70
     0
  9
$DIMTOLJ
 70
     1
  9
$DIMTZIN
 70
     0
  9
$DIMALTZ
 70
     0
  9
$DIMALTTZ
 70
     0
  9
$DIMFIT
 70
     3
  9
$DIMUPT
 70
     0
  9
$DIMUNIT
 70
     2
  9
$DIMDEC
 70
     4
  9
$DIMTDEC
 70
     4
  9
$DIMALTU
 70
     2
  9
$DIMALTTD
 70
     2
  9
$DIMTXSTY
  7
STANDARD
  9
$DIMAUNIT
 70
     0
  9
$LUNITS
 70
     2
  9
$LUPREC
 70
     6
  9
$SKETCHINC
 40
0.1
  9
$FILLETRAD
 40
0.0
  9
$AUNITS
 70
     0
  9
$AUPREC
 70
     4
  9
$MENU
  1
acad
  9
$ELEVATION
 40
0.0
  9
$PELEVATION
 40
0.0
  9
$THICKNESS
 40
0.0
  9
$LIMCHECK
 70
     0
  9
$BLIPMODE
 70
     0
  9
$CHAMFERA
 40
0.0
  9
$CHAMFERB
 40
0.0
  9
$CHAMFERC
 40
0.0
  9
$CHAMFERD
 40
0.0
  9
$SKPOLY
 70
     0
  9
$TDCREATE
 40
2376122.594769050
  9
$TDUPDATE
 40
2451687.708912615
  9
$TDINDWG
 40
0.0006859954
  9
$TDUSRTIMER
 40
0.0006859954
  9
$USRTIMER
 70
     1
  9
$ANGBASE
 50
0.0
  9
$ANGDIR
 70
     0
  9
$PDMODE
 70
     0
  9
$PDSIZE
 40
0.0
  9
$PLINEWID
 40
0.0
  9
$COORDS
 70
     1
  9
$SPLFRAME
 70
     0
  9
$SPLINETYPE
 70
     6
  9
$SPLINESEGS
 70
     8
  9
$ATTDIA
 70
     0
  9
$ATTREQ
 70
     1
  9
$HANDLING
 70
 10241
  9
$HANDSEED
  5
487
  9
$SURFTAB1
 70
     6
  9
$SURFTAB2
 70
     6
  9
$SURFTYPE
 70
     6
  9
$SURFU
 70
     6
  9
$SURFV
 70
     6
  9
$UCSNAME
  2

  9
$UCSORG
 10
0.0
 20
0.0
 30
0.0
  9
$UCSXDIR
 10
1.0
 20
0.0
 30
0.0
  9
$UCSYDIR
 10
0.0
 20
1.0
 30
0.0
  9
$PUCSNAME
  2

  9
$PUCSORG
 10
0.0
 20
0.0
 30
0.0
  9
$PUCSXDIR
 10
1.0
 20
0.0
 30
0.0
  9
$PUCSYDIR
 10
0.0
 20
1.0
 30
0.0
  9
$USERI1
 70
     0
  9
$USERI2
 70
     0
  9
$USERI3
 70
     0
  9
$USERI4
 70
     0
  9
$USERI5
 70
     0
  9
$USERR1
 40
0.0
  9
$USERR2
 40
0.0
  9
$USERR3
 40
0.0
  9
$USERR4
 40
0.0
  9
$USERR5
 40
0.0
  9
$WORLDVIEW
 70
     1
  9
$SHADEDGE
 70
     3
  9
$SHADEDIF
 70
    70
  9
$TILEMODE
 70
     1
  9
$MAXACTVP
 70
    16
  9
$PINSBASE
 10
0.0
 20
0.0
 30
0.0
  9
$PLIMCHECK
 70
     0
  9
$PEXTMIN
 10
-117.0
 20
-91.38488
 30
1.000000000000000E+20
  9
$PEXTMAX
 10
24.889114
 20
54.0
 30
-1.000000000000000E+20
  9
$PLIMMIN
 10
0.0
 20
0.0
  9
$PLIMMAX
 10
12.0
 20
9.0
  9
$UNITMODE
 70
     0
  9
$VISRETAIN
 70
     0
  9
$PLINEGEN
 70
     0
  9
$PSLTSCALE
 70
     1
  9
$TREEDEPTH
 70
  3020
  9
$PICKSTYLE
 70
     1
  9
$CMLSTYLE
  2
STANDARD
  9
$CMLJUST
 70
     0
  9
$CMLSCALE
 40
1.0
  9
$SAVEIMAGES
 70
     1
  0
ENDSEC
  0
SECTION
  2
CLASSES
  0
CLASS
  1
ACDBDICTIONARYWDFLT
  2
AcDbDictionaryWithDefault
  3
AutoCAD 2000
 90
    32768
280
     0
281
     0
  0
CLASS
  1
ACDBPLACEHOLDER
  2
AcDbPlaceHolder
  3
AutoCAD 2000
 90
    32768
280
     0
281
     0
  0
CLASS
  1
LAYOUT
  2
AcDbLayout
  3
AutoCAD 2000
 90
    32768
280
     0
281
     0
  0
CLASS
  1
LONG_TRANSACTION
  2
AcDbLongTransaction
  3
AutoCAD 2000
 90
    32768
280
     0
281
     0
  0
CLASS
  1
LWPOLYLINE
  2
AcDbPolyline
  3
AutoCAD 2000
 90
    32768
280
     0
281
     1
  0
CLASS
  1
HATCH
  2
AcDbHatch
  3
AutoCAD 2000
 90
    32768
280
     0
281
     1
  0
CLASS
  1
XRECORD
  2
AcDbXrecord
  3
AutoCAD 2000
 90
    32768
280
     0
281
     0
  0
ENDSEC
  0
SECTION
  2
TABLES
  0
TABLE
  2
VPORT
  5
7
330
0
100
AcDbSymbolTable
 70
     2
  0
VPORT
  5
2BF
330
7
100
AcDbSymbolTableRecord
100
AcDbViewportTableRecord
  2
*ACTIVE
 70
     0
 10
0.0
 20
0.0
 11
1.0
 21
1.0
 12
-45.57155280466921
 22
-18.69244
 13
0.0
 23
0.0
 14
6.349999999999999
 24
6.349999999999999
 15
6.349999999999999
 25
6.349999999999999
 16
0.0
 26
0.0
 36
1.0
 17
0.0
 27
0.0
 37
0.0
 40
146.8888615172413
 41
1.644214162348877
 42
50.0
 43
0.0
 44
0.0
 50
0.0
 51
0.0
 71
     0
 72
   100
 73
     1
 74
     1
 75
     0
 76
     0
 77
     0
 78
     0
  0
ENDTAB
  0
TABLE
  2
LTYPE
  5
4
330
0
100
AcDbSymbolTable
 70
    37
  0
LTYPE
  5
12
330
4
100
AcDbSymbolTableRecord
100
AcDbLinetypeTableRecord
  2
BYBLOCK
 70
     0
  3

 72
    65
 73
     0
 40
0.0
  0
LTYPE
  5
13
330
4
100
AcDbSymbolTableRecord
100
AcDbLinetypeTableRecord
  2
BYLAYER
 70
     0
  3

 72
    65
 73
     0
 40
0.0
  0
LTYPE
  5
14
330
4
100
AcDbSymbolTableRecord
100
AcDbLinetypeTableRecord
  2
CONTINUOUS
 70
     0
  3
DXF Default line type
 72
    65
 73
     0
 40
0.0
  0
LTYPE
  5
20
330
4
100
AcDbSymbolTableRecord
100
AcDbLinetypeTableRecord
  2
DASHED
 70
     0
  3
DXF Dashed
 72
    65
 73
     2
 40
0.75
 49
0.5
 74
     0
 49
-0.25
 74
     0
  0
LTYPE
  5
21
330
4
100
AcDbSymbolTableRecord
100
AcDbLinetypeTableRecord
  2
HIDDEN
 70
     0
  3
DXF Hidden
 72
    65
 73
     2
 40
0.375
 49
0.25
 74
     0
 49
-0.125
 74
     0
  0
LTYPE
  5
22
330
4
100
AcDbSymbolTableRecord
100
AcDbLinetypeTableRecord
  2
CENTER
 70
     0
  3
DXF Center
 72
    65
 73
     4
 40
2.0
 49
1.25
 74
     0
 49
-0.25
 74
     0
 49
0.25
 74
     0
 49
-0.25
 74
     0
  0
LTYPE
  5
23
330
4
100
AcDbSymbolTableRecord
100
AcDbLinetypeTableRecord
  2
PHANTOM
 70
     0
  3
DXF Phantom
 72
    65
 73
     6
 40
2.5
 49
1.25
 74
     0
 49
-0.25
 74
     0
 49
0.25
 74
     0
 49
-0.25
 74
     0
 49
0.25
 74
     0
 49
-0.25
 74
     0
  0
LTYPE
  5
24
330
4
100
AcDbSymbolTableRecord
100
AcDbLinetypeTableRecord
  2
DOT
 70
     0
  3
DXF DOT
 72
    65
 73
     2
 40
0.25
 49
0.0
 74
     0
 49
-0.25
 74
     0
  0
LTYPE
  5
25
330
4
100
AcDbSymbolTableRecord
100
AcDbLinetypeTableRecord
  2
DASHDOT
 70
     0
  3
DXF Dash Dot
 72
    65
 73
     4
 40
1.0
 49
0.5
 74
     0
 49
-0.25
 74
     0
 49
0.0
 74
     0
 49
-0.25
 74
     0
  0
LTYPE
  5
26
330
4
100
AcDbSymbolTableRecord
100
AcDbLinetypeTableRecord
  2
BORDER
 70
     0
  3
DXF Border
 72
    65
 73
     6
 40
1.75
 49
0.5
 74
     0
 49
-0.25
 74
     0
 49
0.5
 74
     0
 49
-0.25
 74
     0
 49
0.0
 74
     0
 49
-0.25
 74
     0
  0
LTYPE
  5
27
330
4
100
AcDbSymbolTableRecord
100
AcDbLinetypeTableRecord
  2
DIVIDE
 70
     0
  3
DXF Divide
 72
    65
 73
     6
 40
1.25
 49
0.5
 74
     0
 49
-0.25
 74
     0
 49
0.0
 74
     0
 49
-0.25
 74
     0
 49
0.0
 74
     0
 49
-0.25
 74
     0
  0
LTYPE
  5
28
330
4
100
AcDbSymbolTableRecord
100
AcDbLinetypeTableRecord
  2
C_SOLID_L
 70
     0
  3
CADAM Solid Light
 72
    65
 73
     0
 40
0.0
  0
LTYPE
  5
29
330
4
100
AcDbSymbolTableRecord
100
AcDbLinetypeTableRecord
  2
C_SOLID_M
 70
     0
  3
CADAM Solid Medium
 72
    65
 73
     0
 40
0.0
  0
LTYPE
  5
2A
330
4
100
AcDbSymbolTableRecord
100
AcDbLinetypeTableRecord
  2
C_SOLID_H
 70
     0
  3
CADAM Solid Heavy
 72
    65
 73
     0
 40
0.0
  0
LTYPE
  5
2B
330
4
100
AcDbSymbolTableRecord
100
AcDbLinetypeTableRecord
  2
C_DASHED_L
 70
     0
  3
CADAM Dashed Light
 72
    65
 73
     2
 40
0.375
 49
0.25
 74
     0
 49
-0.125
 74
     0
  0
LTYPE
  5
2C
330
4
100
AcDbSymbolTableRecord
100
AcDbLinetypeTableRecord
  2
C_DASHED_M
 70
     0
  3
CADAM Dashed Medium
 72
    65
 73
     2
 40
0.5
 49
0.375
 74
     0
 49
-0.125
 74
     0
  0
LTYPE
  5
2D
330
4
100
AcDbSymbolTableRecord
100
AcDbLinetypeTableRecord
  2
C_CENTER_L
 70
     0
  3
CADAM Center Light
 72
    65
 73
     4
 40
2.0
 49
1.25
 74
     0
 49
-0.25
 74
     0
 49
0.25
 74
     0
 49
-0.25
 74
     0
  0
LTYPE
  5
2E
330
4
100
AcDbSymbolTableRecord
100
AcDbLinetypeTableRecord
  2
C_PHANTOM_L
 70
     0
  3
CADAM Phantom Light
 72
    65
 73
     6
 40
2.5
 49
1.25
 74
     0
 49
-0.25
 74
     0
 49
0.25
 74
     0
 49
-0.25
 74
     0
 49
0.25
 74
     0
 49
-0.25
 74
     0
  0
LTYPE
  5
2F
330
4
100
AcDbSymbolTableRecord
100
AcDbLinetypeTableRecord
  2
C_BREAK_M
 70
     0
  3
CADAM Break Medium
 72
    65
 73
     4
 40
1.0
 49
0.5
 74
     0
 49
-0.25
 74
     0
 49
0.0
 74
     0
 49
-0.25
 74
     0
  0
LTYPE
  5
30
330
4
100
AcDbSymbolTableRecord
100
AcDbLinetypeTableRecord
  2
C_NC
 70
     0
  3
CADAM NC
 72
    65
 73
     0
 40
0.0
  0
LTYPE
  5
31
330
4
100
AcDbSymbolTableRecord
100
AcDbLinetypeTableRecord
  2
DSH1
 70
     0
  3
CADAM Style2 Type 1 Dashed Line
 72
    65
 73
     2
 40
0.075
 49
0.04
 74
     0
 49
-0.035
 74
     0
  0
LTYPE
  5
32
330
4
100
AcDbSymbolTableRecord
100
AcDbLinetypeTableRecord
  2
DSH2
 70
     0
  3
CADAM Style2 Type 2 Dashed Line
 72
    65
 73
     2
 40
0.15
 49
0.11
 74
     0
 49
-0.04
 74
     0
  0
LTYPE
  5
33
330
4
100
AcDbSymbolTableRecord
100
AcDbLinetypeTableRecord
  2
DSH3
 70
     0
  3
CADAM Style2 Type 3 Dashed Line
 72
    65
 73
     2
 40
0.2
 49
0.15
 74
     0
 49
-0.05
 74
     0
  0
LTYPE
  5
34
330
4
100
AcDbSymbolTableRecord
100
AcDbLinetypeTableRecord
  2
DSH4
 70
     0
  3
CADAM Style2 Type 4 Dashed Line
 72
    65
 73
     2
 40
0.36
 49
0.28
 74
     0
 49
-0.08
 74
     0
  0
LTYPE
  5
35
330
4
100
AcDbSymbolTableRecord
100
AcDbLinetypeTableRecord
  2
DSH5
 70
     0
  3
CADAM Style2 Type 5 Dashed Line
 72
    65
 73
     2
 40
0.47
 49
0.39
 74
     0
 49
-0.08
 74
     0
  0
LTYPE
  5
36
330
4
100
AcDbSymbolTableRecord
100
AcDbLinetypeTableRecord
  2
DSH6
 70
     0
  3
CADAM Style2 Type 6 Dashed Line
 72
    65
 73
     2
 40
0.9
 49
0.8100000000000001
 74
     0
 49
-0.09
 74
     0
  0
LTYPE
  5
37
330
4
100
AcDbSymbolTableRecord
100
AcDbLinetypeTableRecord
  2
PL1
 70
     0
  3
Style 2 Type 1 Phantom Line
 72
    65
 73
     6
 40
1.0
 49
0.6
 74
     0
 49
-0.08
 74
     0
 49
0.08
 74
     0
 49
-0.08
 74
     0
 49
0.08
 74
     0
 49
-0.08
 74
     0
  0
LTYPE
  5
38
330
4
100
AcDbSymbolTableRecord
100
AcDbLinetypeTableRecord
  2
PL2
 70
     0
  3
Style 2 Type 2 Phantom Line
 72
    65
 73
     6
 40
1.08
 49
0.6
 74
     0
 49
-0.08
 74
     0
 49
0.12
 74
     0
 49
-0.08
 74
     0
 49
0.12
 74
     0
 49
-0.08
 74
     0
  0
LTYPE
  5
39
330
4
100
AcDbSymbolTableRecord
100
AcDbLinetypeTableRecord
  2
PL3
 70
     0
  3
Style 2 Type 3 Phantom Line
 72
    65
 73
     6
 40
2.0
 49
1.439999999999999
 74
     0
 49
-0.08
 74
     0
 49
0.16
 74
     0
 49
-0.08
 74
     0
 49
0.16
 74
     0
 49
-0.08
 74
     0
  0
LTYPE
  5
3A
330
4
100
AcDbSymbolTableRecord
100
AcDbLinetypeTableRecord
  2
CL1
 70
     0
  3
CADAM Style 2 Type 1 Center Line
 72
    65
 73
     4
 40
0.7
 49
0.45
 74
     0
 49
-0.06
 74
     0
 49
0.13
 74
     0
 49
-0.06
 74
     0
  0
LTYPE
  5
3B
330
4
100
AcDbSymbolTableRecord
100
AcDbLinetypeTableRecord
  2
CL2
 70
     0
  3
CADAM Style 2 Type 2 Center Line
 72
    65
 73
     4
 40
1.199999999999999
 49
1.01
 74
     0
 49
-0.06
 74
     0
 49
0.11
 74
     0
 49
-0.06
 74
     0
  0
LTYPE
  5
3C
330
4
100
AcDbSymbolTableRecord
100
AcDbLinetypeTableRecord
  2
CL3
 70
     0
  3
CADAM Style 2 Type 3 Center Line
 72
    65
 73
     4
 40
1.199999999999999
 49
0.98
 74
     0
 49
-0.06
 74
     0
 49
0.1
 74
     0
 49
-0.06
 74
     0
  0
LTYPE
  5
3D
330
4
100
AcDbSymbolTableRecord
100
AcDbLinetypeTableRecord
  2
CL4
 70
     0
  3
CADAM Style 2 Type 4 Center Line
 72
    65
 73
     4
 40
2.2
 49
1.929999999999999
 74
     0
 49
-0.07
 74
     0
 49
0.13
 74
     0
 49
-0.07
 74
     0
  0
LTYPE
  5
3E
330
4
100
AcDbSymbolTableRecord
100
AcDbLinetypeTableRecord
  2
CL5
 70
     0
  3
CADAM Style 2 Type 5 Center Line
 72
    65
 73
     4
 40
2.2
 49
1.879999999999999
 74
     0
 49
-0.07
 74
     0
 49
0.18
 74
     0
 49
-0.07
 74
     0
  0
LTYPE
  5
3F
330
4
100
AcDbSymbolTableRecord
100
AcDbLinetypeTableRecord
  2
SBK1
 70
     0
  3
CADAM Style 2 Type 1 SetBack Line
 72
    65
 73
     8
 40
2.7
 49
0.1
 74
     0
 49
-0.08
 74
     0
 49
0.1
 74
     0
 49
-0.8
 74
     0
 49
0.0
 74
     0
 49
0.0
 74
     0
 49
0.0
 74
     0
 49
0.0
 74
     0
  0
LTYPE
  5
40
330
4
100
AcDbSymbolTableRecord
100
AcDbLinetypeTableRecord
  2
SBK2
 70
     0
  3
CADAM Style 2 Type 2 SetBack Line
 72
    65
 73
     8
 40
3.709999999999999
 49
0.13
 74
     0
 49
-0.08
 74
     0
 49
0.13
 74
     0
 49
-0.8
 74
     0
 49
0.0
 74
     0
 49
0.0
 74
     0
 49
0.0
 74
     0
 49
0.0
 74
     0
  0
LTYPE
  5
41
330
4
100
AcDbSymbolTableRecord
100
AcDbLinetypeTableRecord
  2
STCH
 70
     0
  3
CADAM Style2 Stitch Line
 72
    65
 73
     2
 40
0.25
 49
0.0
 74
     0
 49
-0.25
 74
     0
  0
LTYPE
  5
42
330
4
100
AcDbSymbolTableRecord
100
AcDbLinetypeTableRecord
  2
MTCH
 70
     0
  3
CADAM Style2 Match Line
 72
    65
 73
     6
 40
2.0
 49
1.439999999999999
 74
     0
 49
-0.8
 74
     0
 49
0.16
 74
     0
 49
-0.08
 74
     0
 49
0.16
 74
     0
 49
-0.08
 74
     0
  0
LTYPE
  5
43
330
4
100
AcDbSymbolTableRecord
100
AcDbLinetypeTableRecord
  2
SLD
 70
     0
  3
CADAM Solid_EXT2
 72
    65
 73
     0
 40
0.0
  0
ENDTAB
  0
TABLE
  2
LAYER
  5
2
330
0
100
AcDbSymbolTable
 70
     7
  0
LAYER
  5
15
330
2
100
AcDbSymbolTableRecord
100
AcDbLayerTableRecord
  2
0
 70
     0
 62
     7
  6
CONTINUOUS
  0
LAYER
  5
44
330
2
100
AcDbSymbolTableRecord
100
AcDbLayerTableRecord
  2
MO_001_NOSHOW
 70
     1
 62
     7
  6
CONTINUOUS
  0
LAYER
  5
45
330
2
100
AcDbSymbolTableRecord
100
AcDbLayerTableRecord
  2
MO_001_VIEW_PV
 70
     0
 62
     7
  6
CONTINUOUS
  0
LAYER
  5
46
330
2
100
AcDbSymbolTableRecord
100
AcDbLayerTableRecord
  2
OVERLAY_MAP
 70
     1
 62
     7
  6
CONTINUOUS
  0
LAYER
  5
47
330
2
100
AcDbSymbolTableRecord
100
AcDbLayerTableRecord
  2
DITTOS
 70
     0
 62
     7
  6
CONTINUOUS
  0
LAYER
  5
48
330
2
100
AcDbSymbolTableRecord
100
AcDbLayerTableRecord
  2
SYMBOLS
 70
     0
 62
     7
  6
CONTINUOUS
  0
LAYER
  5
49
330
2
100
AcDbSymbolTableRecord
100
AcDbLayerTableRecord
  2
SETS
 70
     0
 62
     7
  6
CONTINUOUS
  0
ENDTAB
  0
TABLE
  2
STYLE
  5
3
330
0
100
AcDbSymbolTable
 70
     1
  0
STYLE
  5
18
330
3
100
AcDbSymbolTableRecord
100
AcDbTextStyleTableRecord
  2
STANDARD
 70
     0
 40
4.1672
 41
1.0
 50
0.0
 71
     0
 42
4.1672
  3
monotxt
  4
BIGFONT
  0
ENDTAB
  0
TABLE
  2
VIEW
  5
5
330
0
100
AcDbSymbolTable
 70
     0
  0
ENDTAB
  0
TABLE
  2
UCS
  5
6
330
0
100
AcDbSymbolTable
 70
     1
  0
UCS
  5
4A
330
6
100
AcDbSymbolTableRecord
100
AcDbUCSTableRecord
  2
MO_001_VIEW_PV_P
 70
     0
 10
0.0
 20
0.0
 30
0.0
 11
1.0
 21
0.0
 31
0.0
 12
-0.0000000002051034
 22
1.0
 32
0.0
  0
ENDTAB
  0
TABLE
  2
APPID
  5
8
330
0
100
AcDbSymbolTable
 70
     1
  0
APPID
  5
17
330
8
100
AcDbSymbolTableRecord
100
AcDbRegAppTableRecord
  2
ACAD
 70
     0
  0
ENDTAB
  0
TABLE
  2
DIMSTYLE
  5
9
330
0
100
AcDbSymbolTable
 70
     1
  0
DIMSTYLE
105
19
102
{ACAD_REACTORS
330
295
330
297
330
299
102
}
330
9
100
AcDbSymbolTableRecord
100
AcDbDimStyleTableRecord
  2
STANDARD
 70
     0
  3

  4

  5

  6

  7

 40
1.0
 41
0.18
 42
0.0625
 43
0.38
 44
0.18
 45
0.0
 46
0.0
 47
0.0
 48
0.0
140
0.18
141
0.09
142
0.0
143
25.4
144
1.0
145
0.0
146
1.0
147
0.09
 71
     0
 72
     0
 73
     1
 74
     1
 75
     0
 76
     0
 77
     0
 78
     0
170
     0
171
     2
172
     0
173
     0
174
     0
175
     0
176
     0
177
     0
178
     0
270
     2
271
     4
272
     4
273
     2
274
     2
340
18
275
     0
280
     0
281
     0
282
     0
283
     1
284
     0
285
     0
286
     0
287
     3
288
     0
  0
ENDTAB
  0
TABLE
  2
BLOCK_RECORD
  5
C
330
0
100
AcDbSymbolTable
 70
     3
  0
BLOCK_RECORD
  5
1E
102
{ACAD_XDICTIONARY
360
2C0
102
}
330
C
100
AcDbSymbolTableRecord
100
AcDbBlockTableRecord
  2
*MODEL_SPACE
  0
BLOCK_RECORD
  5
1F
102
{ACAD_XDICTIONARY
360
2C2
102
}
330
C
100
AcDbSymbolTableRecord
100
AcDbBlockTableRecord
  2
*PAPER_SPACE
  0
BLOCK_RECORD
  5
294
330
C
100
AcDbSymbolTableRecord
100
AcDbBlockTableRecord
  2
*D0
  0
BLOCK_RECORD
  5
296
330
C
100
AcDbSymbolTableRecord
100
AcDbBlockTableRecord
  2
*D1
  0
BLOCK_RECORD
  5
298
330
C
100
AcDbSymbolTableRecord
100
AcDbBlockTableRecord
  2
*D2
  0
ENDTAB
  0
ENDSEC
  0
SECTION
  2
BLOCKS
  0
BLOCK
  5
E
330
1E
100
AcDbEntity
  8
0
100
AcDbBlockBegin
  2
*MODEL_SPACE
 70
     0
 10
0.0
 20
0.0
 30
0.0
  3
*MODEL_SPACE
  1

  0
ENDBLK
  5
F
330
1E
100
AcDbEntity
  8
0
100
AcDbBlockEnd
  0
BLOCK
  5
10
330
1F
100
AcDbEntity
 67
     1
  8
0
100
AcDbBlockBegin
  2
*PAPER_SPACE
 70
     0
 10
0.0
 20
0.0
 30
0.0
  3
*PAPER_SPACE
  1

  0
ENDBLK
  5
11
330
1F
100
AcDbEntity
 67
     1
  8
0
100
AcDbBlockEnd
  0
BLOCK
  5
29A
330
294
100
AcDbEntity
  8
0
100
AcDbBlockBegin
  2
*D0
 70
     1
 10
0.0
 20
0.0
 30
0.0
  3
*D0
  1

  0
TEXT
  5
29B
330
294
100
AcDbEntity
  8
MO_001_VIEW_PV
  6
BYBLOCK
100
AcDbText
 10
-52.571429
 20
48.75
 30
0.0
 40
3.0
  1
94以下
100
AcDbText
  0
LINE
  5
29C
330
294
100
AcDbEntity
  8
MO_001_VIEW_PV
  6
BYBLOCK
100
AcDbLine
 10
-94.0
 20
48.0
 30
0.0
 11
0.0
 21
48.0
 31
0.0
  0
SOLID
  5
29D
330
294
100
AcDbEntity
  8
MO_001_VIEW_PV
  6
BYBLOCK
100
AcDbTrace
 10
-90.68174
 20
48.583512
 30
0.0
 11
-93.49200000000001
 21
48.0
 31
0.0
 12
-90.68174
 22
47.416488
 32
0.0
 13
-90.68174
 23
47.416488
 33
0.0
  0
SOLID
  5
29E
330
294
100
AcDbEntity
  8
MO_001_VIEW_PV
  6
BYBLOCK
100
AcDbTrace
 10
-3.318259999999999
 20
47.416488
 30
0.0
 11
-0.508
 21
48.0
 31
0.0
 12
-3.318259999999999
 22
48.583512
 32
0.0
 13
-3.318259999999999
 23
48.583512
 33
0.0
  0
LINE
  5
29F
330
294
100
AcDbEntity
  8
MO_001_VIEW_PV
  6
BYBLOCK
100
AcDbLine
 10
-94.0
 20
29.35
 30
0.0
 11
-94.0
 21
50.28599899999999
 31
0.0
  0
LINE
  5
2A0
330
294
100
AcDbEntity
  8
MO_001_VIEW_PV
  6
BYBLOCK
100
AcDbLine
 10
0.0
 20
37.69999699999999
 30
0.0
 11
0.0
 21
50.28599899999999
 31
0.0
  0
ENDBLK
  5
2A1
330
294
100
AcDbEntity
  8
0
100
AcDbBlockEnd
  0
BLOCK
  5
2A2
330
296
100
AcDbEntity
  8
0
100
AcDbBlockBegin
  2
*D1
 70
     1
 10
0.0
 20
0.0
 30
0.0
  3
*D1
  1

  0
TEXT
  5
2A3
330
296
100
AcDbEntity
  8
MO_001_VIEW_PV
  6
BYBLOCK
100
AcDbText
 10
12.070951
 20
48.75
 30
0.0
 40
3.0
  1
11以下
100
AcDbText
  0
LINE
  5
2A4
330
296
100
AcDbEntity
  8
MO_001_VIEW_PV
  6
BYBLOCK
100
AcDbLine
 10
10.681992
 20
48.0
 30
0.0
 11
0.0
 21
48.0
 31
0.0
  0
SOLID
  5
2A5
330
296
100
AcDbEntity
  8
MO_001_VIEW_PV
  6
BYBLOCK
100
AcDbTrace
 10
7.363730999999999
 20
47.416488
 30
0.0
 11
10.173992
 21
48.0
 31
0.0
 12
7.363730999999999
 22
48.583512
 32
0.0
 13
7.363730999999999
 23
48.583512
 33
0.0
  0
SOLID
  5
2A6
330
296
100
AcDbEntity
  8
MO_001_VIEW_PV
  6
BYBLOCK
100
AcDbTrace
 10
3.318259999999999
 20
48.583512
 30
0.0
 11
0.508
 21
48.0
 31
0.0
 12
3.318259999999999
 22
47.416488
 32
0.0
 13
3.318259999999999
 23
47.416488
 33
0.0
  0
LINE
  5
2A7
330
296
100
AcDbEntity
  8
MO_001_VIEW_PV
  6
BYBLOCK
100
AcDbLine
 10
10.681992
 20
4.324996999999999
 30
0.0
 11
10.681992
 21
50.28599899999999
 31
0.0
  0
LINE
  5
2A8
330
296
100
AcDbEntity
  8
MO_001_VIEW_PV
  6
BYBLOCK
100
AcDbLine
 10
0.0
 20
37.69999699999999
 30
0.0
 11
0.0
 21
50.28599899999999
 31
0.0
  0
LINE
  5
2A9
330
296
100
AcDbEntity
  8
MO_001_VIEW_PV
  6
BYBLOCK
100
AcDbLine
 10
24.178095
 20
48.0
 30
0.0
 11
10.681992
 21
48.0
 31
0.0
  0
ENDBLK
  5
2AA
330
296
100
AcDbEntity
  8
0
100
AcDbBlockEnd
  0
BLOCK
  5
2AB
330
298
100
AcDbEntity
  8
0
100
AcDbBlockBegin
  2
*D2
 70
     1
 10
0.0
 20
0.0
 30
0.0
  3
*D2
  1

  0
TEXT
  5
2AC
330
298
100
AcDbEntity
  8
MO_001_VIEW_PV
  6
BYBLOCK
100
AcDbText
 10
-111.7499999999999
 20
-7.071428999999999
 30
0.0
 40
3.0
  1
%%C87以下
 50
90.0
100
AcDbText
  0
LINE
  5
2AD
330
298
100
AcDbEntity
  8
MO_001_VIEW_PV
  6
BYBLOCK
100
AcDbLine
 10
-111.0
 20
42.850006
 30
0.0
 11
-111.0
 21
-42.850006
 31
0.0
  0
SOLID
  5
2AE
330
298
100
AcDbEntity
  8
MO_001_VIEW_PV
  6
BYBLOCK
100
AcDbTrace
 10
-110.4164879999999
 20
39.531746
 30
0.0
 11
-111.0
 21
42.342006
 31
0.0
 12
-111.583512
 22
39.531746
 32
0.0
 13
-111.583512
 23
39.531746
 33
0.0
  0
SOLID
  5
2AF
330
298
100
AcDbEntity
  8
MO_001_VIEW_PV
  6
BYBLOCK
100
AcDbTrace
 10
-111.583512
 20
-39.531746
 30
0.0
 11
-111.0
 21
-42.342006
 31
0.0
 12
-110.4164879999999
 22
-39.531746
 32
0.0
 13
-110.4164879999999
 23
-39.531746
 33
0.0
  0
LINE
  5
2B0
330
298
100
AcDbEntity
  8
MO_001_VIEW_PV
  6
BYBLOCK
100
AcDbLine
 10
-73.150009
 20
42.850006
 30
0.0
 11
-113.286003
 21
42.850006
 31
0.0
  0
LINE
  5
2B1
330
298
100
AcDbEntity
  8
MO_001_VIEW_PV
  6
BYBLOCK
100
AcDbLine
 10
-73.150009
 20
-42.850006
 30
0.0
 11
-113.286003
 21
-42.850006
 31
0.0
  0
ENDBLK
  5
2B2
330
298
100
AcDbEntity
  8
0
100
AcDbBlockEnd
  0
ENDSEC
  0
SECTION
  2
ENTITIES
  0
TEXT
  5
4B
330
1E
100
AcDbEntity
  8
OVERLAY_MAP
  6
C_SOLID_L
100
AcDbText
 10
0.0
 20
6.349999999999999
 30
0.0
 40
4.1672
  1
Model Overlay Name
100
AcDbText
  0
TEXT
  5
4C
330
1E
100
AcDbEntity
  8
OVERLAY_MAP
  6
C_SOLID_L
100
AcDbText
 10
126.999998
 20
0.0
 30
0.0
 40
4.1672
  1
Number
100
AcDbText
  0
TEXT
  5
4D
330
1E
100
AcDbEntity
  8
OVERLAY_MAP
  6
C_SOLID_L
100
AcDbText
 10
177.7999969999999
 20
0.0
 30
0.0
 40
4.1672
  1
File Text
100
AcDbText
  0
TEXT
  5
4E
330
1E
100
AcDbEntity
  8
OVERLAY_MAP
  6
C_SOLID_L
100
AcDbText
 10
0.0
 20
-6.349999999999999
 30
0.0
 40
4.1672
  1
ro 8l489 
100
AcDbText
  0
TEXT
  5
4F
330
1E
100
AcDbEntity
  8
OVERLAY_MAP
  6
C_SOLID_L
100
AcDbText
 10
126.999998
 20
-6.349999999999999
 30
0.0
 40
4.1672
  1
001
100
AcDbText
  0
TEXT
  5
50
330
1E
100
AcDbEntity
  8
OVERLAY_MAP
  6
C_SOLID_L
100
AcDbText
 10
177.7999969999999
 20
-6.349999999999999
 30
0.0
 40
4.1672
  1
                                                                   00139
100
AcDbText
  0
LINE
  5
51
330
1E
100
AcDbEntity
  8
MO_001_VIEW_PV
  6
C_SOLID_M
100
AcDbLine
 10
-1.449996999999999
 20
42.050003
 30
0.0
 11
-1.449996999999999
 21
-42.050003
 31
0.0
  0
LINE
  5
52
330
1E
100
AcDbEntity
  8
MO_001_VIEW_PV
  6
C_SOLID_M
100
AcDbLine
 10
-73.150009
 20
42.850006
 30
0.0
 11
-2.25
 21
42.850006
 31
0.0
  0
LINE
  5
53
330
1E
100
AcDbEntity
  8
MO_001_VIEW_PV
  6
C_SOLID_M
100
AcDbLine
 10
-65.900002
 20
-42.850006
 30
0.0
 11
-2.25
 21
-42.850006
 31
0.0
  0
LINE
  5
54
330
1E
100
AcDbEntity
  8
MO_001_VIEW_PV
  6
C_SOLID_M
100
AcDbLine
 10
-1.449985
 20
42.04999799999999
 30
0.0
 11
-2.249989999999999
 21
42.850004
 31
0.0
  0
LINE
  5
55
330
1E
100
AcDbEntity
  8
MO_001_VIEW_PV
  6
C_SOLID_M
100
AcDbLine
 10
-1.450001
 20
-42.050001
 30
0.0
 11
-2.250005999999999
 21
-42.850007
 31
0.0
  0
LINE
  5
56
330
1E
100
AcDbEntity
  8
MO_001_VIEW_PV
  6
C_SOLID_M
100
AcDbLine
 10
-2.25
 20
42.850006
 30
0.0
 11
-2.25
 21
-42.850006
 31
0.0
  0
LINE
  5
57
330
1E
100
AcDbEntity
  8
MO_001_VIEW_PV
  6
C_SOLID_M
100
AcDbLine
 10
-73.150009
 20
42.850006
 30
0.0
 11
-73.150009
 21
-42.850006
 31
0.0
  0
LINE
  5
58
330
1E
100
AcDbEntity
  8
MO_001_VIEW_PV
  6
C_SOLID_M
100
AcDbLine
 10
-75.5
 20
41.800003
 30
0.0
 11
-73.349991
 21
41.800003
 31
0.0
  0
LINE
  5
59
330
1E
100
AcDbEntity
  8
MO_001_VIEW_PV
  6
C_SOLID_M
100
AcDbLine
 10
-75.5
 20
-41.800003
 30
0.0
 11
-73.349991
 21
-41.800003
 31
0.0
  0
ARC
  5
5A
330
1E
100
AcDbEntity
  8
MO_001_VIEW_PV
  6
C_SOLID_M
100
AcDbCircle
 10
-73.349991
 20
42.0
 30
0.0
 40
0.2
100
AcDbArc
 50
269.999998
 51
0.0
  0
ARC
  5
5B
330
1E
100
AcDbEntity
  8
MO_001_VIEW_PV
  6
C_SOLID_M
100
AcDbCircle
 10
-73.349991
 20
-42.0
 30
0.0
 40
0.2
100
AcDbArc
 50
0.0
 51
89.99998900000001
  0
LINE
  5
5C
330
1E
100
AcDbEntity
  8
MO_001_VIEW_PV
  6
C_SOLID_M
100
AcDbLine
 10
-1.0
 20
37.850006
 30
0.0
 11
-1.0
 21
-37.850006
 31
0.0
  0
LINE
  5
5D
330
1E
100
AcDbEntity
  8
MO_001_VIEW_PV
  6
C_SOLID_M
100
AcDbLine
 10
-1.449996999999999
 20
38.25
 30
0.0
 11
-1.400009
 21
38.25
 31
0.0
  0
LINE
  5
5E
330
1E
100
AcDbEntity
  8
MO_001_VIEW_PV
  6
C_SOLID_M
100
AcDbLine
 10
-1.449996999999999
 20
-38.25
 30
0.0
 11
-1.400009
 21
-38.25
 31
0.0
  0
LINE
  5
5F
330
1E
100
AcDbEntity
  8
MO_001_VIEW_PV
  6
C_SOLID_M
100
AcDbLine
 10
-1.399999999999999
 20
38.24998499999999
 30
0.0
 11
-1.000008999999999
 21
37.84999299999999
 31
0.0
  0
LINE
  5
60
330
1E
100
AcDbEntity
  8
MO_001_VIEW_PV
  6
C_SOLID_M
100
AcDbLine
 10
-1.399995
 20
-38.250001
 30
0.0
 11
-0.999993
 21
-37.849998
 31
0.0
  0
LINE
  5
61
330
1E
100
AcDbEntity
  8
MO_001_VIEW_PV
  6
C_SOLID_M
100
AcDbLine
 10
-1.399993999999999
 20
38.25
 30
0.0
 11
-1.399993999999999
 21
-38.25
 31
0.0
  0
LINE
  5
62
330
1E
100
AcDbEntity
  8
MO_001_VIEW_PV
  6
C_CENTER_L
100
AcDbLine
 10
-109.55349
 20
0.0
 30
0.0
 11
19.301743
 21
0.0
 31
0.0
  0
LINE
  5
63
330
1E
100
AcDbEntity
  8
MO_001_VIEW_PV
  6
C_SOLID_M
100
AcDbLine
 10
-106.818008
 20
-5.409408999999999
 30
0.0
 11
-106.818008
 21
5.409408999999999
 31
0.0
  0
LINE
  5
64
330
1E
100
AcDbEntity
  8
MO_001_VIEW_PV
  6
C_SOLID_M
100
AcDbLine
 10
-106.418008
 20
5.555000999999999
 30
0.0
 11
-106.818024
 21
5.409404
 31
0.0
  0
LINE
  5
65
330
1E
100
AcDbEntity
  8
MO_001_VIEW_PV
  6
C_SOLID_M
100
AcDbLine
 10
-106.418013
 20
-5.555015
 30
0.0
 11
-106.8180149999999
 21
-5.409423
 31
0.0
  0
LINE
  5
66
330
1E
100
AcDbEntity
  8
MO_001_VIEW_PV
  6
C_SOLID_M
100
AcDbLine
 10
-106.4179839999999
 20
-5.554992999999999
 30
0.0
 11
-106.4179839999999
 21
5.554992999999999
 31
0.0
  0
LINE
  5
67
330
1E
100
AcDbEntity
  8
MO_001_VIEW_PV
  6
C_SOLID_M
100
AcDbLine
 10
-106.4179839999999
 20
5.554992999999999
 30
0.0
 11
-94.0
 21
5.554992999999999
 31
0.0
  0
LINE
  5
68
330
1E
100
AcDbEntity
  8
MO_001_VIEW_PV
  6
C_SOLID_M
100
AcDbLine
 10
-106.4179839999999
 20
-5.554992999999999
 30
0.0
 11
-94.0
 21
-5.554992999999999
 31
0.0
  0
LINE
  5
69
330
1E
100
AcDbEntity
  8
MO_001_VIEW_PV
  6
C_SOLID_M
100
AcDbLine
 10
-1.0
 20
37.69999699999999
 30
0.0
 11
-1.0
 21
-37.69999699999999
 31
0.0
  0
LINE
  5
6A
330
1E
100
AcDbEntity
  8
MO_001_VIEW_PV
  6
C_SOLID_M
100
AcDbLine
 10
0.0
 20
37.69999699999999
 30
0.0
 11
0.0
 21
-37.69999699999999
 31
0.0
  0
LINE
  5
6B
330
1E
100
AcDbEntity
  8
MO_001_VIEW_PV
  6
C_SOLID_M
100
AcDbLine
 10
-1.0
 20
37.69999699999999
 30
0.0
 11
0.0
 21
37.69999699999999
 31
0.0
  0
LINE
  5
6C
330
1E
100
AcDbEntity
  8
MO_001_VIEW_PV
  6
C_SOLID_M
100
AcDbLine
 10
-1.0
 20
-37.69999699999999
 30
0.0
 11
0.0
 21
-37.69999699999999
 31
0.0
  0
LINE
  5
6D
330
1E
100
AcDbEntity
  8
MO_001_VIEW_PV
  6
C_SOLID_M
100
AcDbLine
 10
5.300003
 20
15.082169
 30
0.0
 11
5.300003
 21
14.132462
 31
0.0
  0
LINE
  5
6E
330
1E
100
AcDbEntity
  8
MO_001_VIEW_PV
  6
C_SOLID_M
100
AcDbLine
 10
0.800003
 20
-16.899994
 30
0.0
 11
5.300003
 21
-16.899994
 31
0.0
  0
LINE
  5
6F
330
1E
100
AcDbEntity
  8
MO_001_VIEW_PV
  6
C_SOLID_M
100
AcDbLine
 10
0.800003
 20
-16.73236099999999
 30
0.0
 11
5.300003
 21
-16.73236099999999
 31
0.0
  0
LINE
  5
70
330
1E
100
AcDbEntity
  8
MO_001_VIEW_PV
  6
C_SOLID_M
100
AcDbLine
 10
0.800003
 20
-15.721695
 30
0.0
 11
5.300003
 21
-15.721695
 31
0.0
  0
POLYLINE
  5
71
330
1E
100
AcDbEntity
  8
MO_001_VIEW_PV
  6
C_SOLID_M
100
AcDb2dPolyline
 66
     1
 10
0.0
 20
0.0
 30
0.0
  0
VERTEX
  5
2C4
330
71
100
AcDbEntity
  8
MO_001_VIEW_PV
  6
C_SOLID_M
100
AcDbVertex
100
AcDb2dVertex
 10
-0.000005
 20
-10.889761
 30
0.0
  0
VERTEX
  5
2C5
330
71
100
AcDbEntity
  8
MO_001_VIEW_PV
  6
C_SOLID_M
100
AcDbVertex
100
AcDb2dVertex
 10
0.202396
 20
-11.045271
 30
0.0
  0
VERTEX
  5
2C6
330
71
100
AcDbEntity
  8
MO_001_VIEW_PV
  6
C_SOLID_M
100
AcDbVertex
100
AcDb2dVertex
 10
0.397754
 20
-11.17061499999999
 30
0.0
  0
VERTEX
  5
2C7
330
71
100
AcDbEntity
  8
MO_001_VIEW_PV
  6
C_SOLID_M
100
AcDbVertex
100
AcDb2dVertex
 10
0.581549
 20
-11.271352
 30
0.0
  0
VERTEX
  5
2C8
330
71
100
AcDbEntity
  8
MO_001_VIEW_PV
  6
C_SOLID_M
100
AcDbVertex
100
AcDb2dVertex
 10
0.751404
 20
-11.352203
 30
0.0
  0
VERTEX
  5
2C9
330
71
100
AcDbEntity
  8
MO_001_VIEW_PV
  6
C_SOLID_M
100
AcDbVertex
100
AcDb2dVertex
 10
1.06675
 20
-11.47629299999999
 30
0.0
  0
VERTEX
  5
2CA
330
71
100
AcDbEntity
  8
MO_001_VIEW_PV
  6
C_SOLID_M
100
AcDbVertex
100
AcDb2dVertex
 10
1.316359
 20
-11.554043
 30
0.0
  0
VERTEX
  5
2CB
330
71
100
AcDbEntity
  8
MO_001_VIEW_PV
  6
C_SOLID_M
100
AcDbVertex
100
AcDb2dVertex
 10
1.707594999999999
 20
-11.644744
 30
0.0
  0
VERTEX
  5
2CC
330
71
100
AcDbEntity
  8
MO_001_VIEW_PV
  6
C_SOLID_M
100
AcDbVertex
100
AcDb2dVertex
 10
2.113472999999999
 20
-11.70309299999999
 30
0.0
  0
VERTEX
  5
2CD
330
71
100
AcDbEntity
  8
MO_001_VIEW_PV
  6
C_SOLID_M
100
AcDbVertex
100
AcDb2dVertex
 10
2.427024
 20
-11.725181
 30
0.0
  0
VERTEX
  5
2CE
330
71
100
AcDbEntity
  8
MO_001_VIEW_PV
  6
C_SOLID_M
100
AcDbVertex
100
AcDb2dVertex
 10
2.702995999999999
 20
-11.728643
 30
0.0
  0
VERTEX
  5
2CF
330
71
100
AcDbEntity
  8
MO_001_VIEW_PV
  6
C_SOLID_M
100
AcDbVertex
100
AcDb2dVertex
 10
2.944115
 20
-11.7195
 30
0.0
  0
VERTEX
  5
2D0
330
71
100
AcDbEntity
  8
MO_001_VIEW_PV
  6
C_SOLID_M
100
AcDbVertex
100
AcDb2dVertex
 10
3.361244
 20
-11.676344
 30
0.0
  0
VERTEX
  5
2D1
330
71
100
AcDbEntity
  8
MO_001_VIEW_PV
  6
C_SOLID_M
100
AcDbVertex
100
AcDb2dVertex
 10
3.666584999999999
 20
-11.62166699999999
 30
0.0
  0
VERTEX
  5
2D2
330
71
100
AcDbEntity
  8
MO_001_VIEW_PV
  6
C_SOLID_M
100
AcDbVertex
100
AcDb2dVertex
 10
3.889462
 20
-11.568433
 30
0.0
  0
VERTEX
  5
2D3
330
71
100
AcDbEntity
  8
MO_001_VIEW_PV
  6
C_SOLID_M
100
AcDbVertex
100
AcDb2dVertex
 10
4.211158999999999
 20
-11.469602
 30
0.0
  0
VERTEX
  5
2D4
330
71
100
AcDbEntity
  8
MO_001_VIEW_PV
  6
C_SOLID_M
100
AcDbVertex
100
AcDb2dVertex
 10
4.514391
 20
-11.34903699999999
 30
0.0
  0
SEQEND
  5
2D5
330
71
100
AcDbEntity
  8
MO_001_VIEW_PV
  6
C_SOLID_M
  0
POLYLINE
  5
84
330
1E
100
AcDbEntity
  8
MO_001_VIEW_PV
  6
C_SOLID_M
100
AcDb2dPolyline
 66
     1
 10
0.0
 20
0.0
 30
0.0
  0
VERTEX
  5
2D6
330
84
100
AcDbEntity
  8
MO_001_VIEW_PV
  6
C_SOLID_M
100
AcDbVertex
100
AcDb2dVertex
 10
4.514383999999999
 20
-14.286427
 30
0.0
  0
VERTEX
  5
2D7
330
84
100
AcDbEntity
  8
MO_001_VIEW_PV
  6
C_SOLID_M
100
AcDbVertex
100
AcDb2dVertex
 10
4.247167
 20
-14.178695
 30
0.0
  0
VERTEX
  5
2D8
330
84
100
AcDbEntity
  8
MO_001_VIEW_PV
  6
C_SOLID_M
100
AcDbVertex
100
AcDb2dVertex
 10
4.00114
 20
-14.098256
 30
0.0
  0
VERTEX
  5
2D9
330
84
100
AcDbEntity
  8
MO_001_VIEW_PV
  6
C_SOLID_M
100
AcDbVertex
100
AcDb2dVertex
 10
3.777933999999999
 20
-14.038927
 30
0.0
  0
VERTEX
  5
2DA
330
84
100
AcDbEntity
  8
MO_001_VIEW_PV
  6
C_SOLID_M
100
AcDbVertex
100
AcDb2dVertex
 10
3.373254
 20
-13.960895
 30
0.0
  0
VERTEX
  5
2DB
330
84
100
AcDbEntity
  8
MO_001_VIEW_PV
  6
C_SOLID_M
100
AcDbVertex
100
AcDb2dVertex
 10
3.06137
 20
-13.92455199999999
 30
0.0
  0
VERTEX
  5
2DC
330
84
100
AcDbEntity
  8
MO_001_VIEW_PV
  6
C_SOLID_M
100
AcDbVertex
100
AcDb2dVertex
 10
2.824683
 20
-13.91001499999999
 30
0.0
  0
VERTEX
  5
2DD
330
84
100
AcDbEntity
  8
MO_001_VIEW_PV
  6
C_SOLID_M
100
AcDbVertex
100
AcDb2dVertex
 10
2.468137
 20
-13.90882799999999
 30
0.0
  0
VERTEX
  5
2DE
330
84
100
AcDbEntity
  8
MO_001_VIEW_PV
  6
C_SOLID_M
100
AcDbVertex
100
AcDb2dVertex
 10
2.113472
 20
-13.932375
 30
0.0
  0
VERTEX
  5
2DF
330
84
100
AcDbEntity
  8
MO_001_VIEW_PV
  6
C_SOLID_M
100
AcDbVertex
100
AcDb2dVertex
 10
1.804634999999999
 20
-13.973606
 30
0.0
  0
VERTEX
  5
2E0
330
84
100
AcDbEntity
  8
MO_001_VIEW_PV
  6
C_SOLID_M
100
AcDbVertex
100
AcDb2dVertex
 10
1.540488999999999
 20
-14.025093
 30
0.0
  0
VERTEX
  5
2E1
330
84
100
AcDbEntity
  8
MO_001_VIEW_PV
  6
C_SOLID_M
100
AcDbVertex
100
AcDb2dVertex
 10
1.315547999999999
 20
-14.081651
 30
0.0
  0
VERTEX
  5
2E2
330
84
100
AcDbEntity
  8
MO_001_VIEW_PV
  6
C_SOLID_M
100
AcDbVertex
100
AcDb2dVertex
 10
0.939541
 20
-14.205497
 30
0.0
  0
VERTEX
  5
2E3
330
84
100
AcDbEntity
  8
MO_001_VIEW_PV
  6
C_SOLID_M
100
AcDbVertex
100
AcDb2dVertex
 10
0.675392
 20
-14.318111
 30
0.0
  0
VERTEX
  5
2E4
330
84
100
AcDbEntity
  8
MO_001_VIEW_PV
  6
C_SOLID_M
100
AcDbVertex
100
AcDb2dVertex
 10
0.488983
 20
-14.41298299999999
 30
0.0
  0
VERTEX
  5
2E5
330
84
100
AcDbEntity
  8
MO_001_VIEW_PV
  6
C_SOLID_M
100
AcDbVertex
100
AcDb2dVertex
 10
0.230489
 20
-14.57084
 30
0.0
  0
VERTEX
  5
2E6
330
84
100
AcDbEntity
  8
MO_001_VIEW_PV
  6
C_SOLID_M
100
AcDbVertex
100
AcDb2dVertex
 10
0.0
 20
-14.745702
 30
0.0
  0
SEQEND
  5
2E7
330
84
100
AcDbEntity
  8
MO_001_VIEW_PV
  6
C_SOLID_M
  0
POLYLINE
  5
97
330
1E
100
AcDbEntity
  8
MO_001_VIEW_PV
  6
C_SOLID_M
100
AcDb2dPolyline
 66
     1
 10
0.0
 20
0.0
 30
0.0
  0
VERTEX
  5
2E8
330
97
100
AcDbEntity
  8
MO_001_VIEW_PV
  6
C_SOLID_M
100
AcDbVertex
100
AcDb2dVertex
 10
5.293537
 20
-11.664333
 30
0.0
  0
VERTEX
  5
2E9
330
97
100
AcDbEntity
  8
MO_001_VIEW_PV
  6
C_SOLID_M
100
AcDbVertex
100
AcDb2dVertex
 10
5.230319999999999
 20
-11.951047
 30
0.0
  0
VERTEX
  5
2EA
330
97
100
AcDbEntity
  8
MO_001_VIEW_PV
  6
C_SOLID_M
100
AcDbVertex
100
AcDb2dVertex
 10
5.194708
 20
-12.167028
 30
0.0
  0
VERTEX
  5
2EB
330
97
100
AcDbEntity
  8
MO_001_VIEW_PV
  6
C_SOLID_M
100
AcDbVertex
100
AcDb2dVertex
 10
5.160330999999999
 20
-12.492048
 30
0.0
  0
VERTEX
  5
2EC
330
97
100
AcDbEntity
  8
MO_001_VIEW_PV
  6
C_SOLID_M
100
AcDbVertex
100
AcDb2dVertex
 10
5.148864999999999
 20
-12.817736
 30
0.0
  0
VERTEX
  5
2ED
330
97
100
AcDbEntity
  8
MO_001_VIEW_PV
  6
C_SOLID_M
100
AcDbVertex
100
AcDb2dVertex
 10
5.157924999999999
 20
-13.107256
 30
0.0
  0
VERTEX
  5
2EE
330
97
100
AcDbEntity
  8
MO_001_VIEW_PV
  6
C_SOLID_M
100
AcDbVertex
100
AcDb2dVertex
 10
5.176605
 20
-13.324115
 30
0.0
  0
VERTEX
  5
2EF
330
97
100
AcDbEntity
  8
MO_001_VIEW_PV
  6
C_SOLID_M
100
AcDbVertex
100
AcDb2dVertex
 10
5.223682
 20
-13.64847799999999
 30
0.0
  0
VERTEX
  5
2F0
330
97
100
AcDbEntity
  8
MO_001_VIEW_PV
  6
C_SOLID_M
100
AcDbVertex
100
AcDb2dVertex
 10
5.293537999999999
 20
-13.971139
 30
0.0
  0
SEQEND
  5
2F1
330
97
100
AcDbEntity
  8
MO_001_VIEW_PV
  6
C_SOLID_M
  0
POLYLINE
  5
A2
330
1E
100
AcDbEntity
  8
MO_001_VIEW_PV
  6
C_SOLID_M
100
AcDb2dPolyline
 66
     1
 10
0.0
 20
0.0
 30
0.0
  0
VERTEX
  5
2F2
330
A2
100
AcDbEntity
  8
MO_001_VIEW_PV
  6
C_SOLID_M
100
AcDbVertex
100
AcDb2dVertex
 10
4.514393
 20
-14.286414
 30
0.0
  0
VERTEX
  5
2F3
330
A2
100
AcDbEntity
  8
MO_001_VIEW_PV
  6
C_SOLID_M
100
AcDbVertex
100
AcDb2dVertex
 10
4.644842999999999
 20
-14.32814299999999
 30
0.0
  0
VERTEX
  5
2F4
330
A2
100
AcDbEntity
  8
MO_001_VIEW_PV
  6
C_SOLID_M
100
AcDbVertex
100
AcDb2dVertex
 10
4.751984999999999
 20
-14.342524
 30
0.0
  0
VERTEX
  5
2F5
330
A2
100
AcDbEntity
  8
MO_001_VIEW_PV
  6
C_SOLID_M
100
AcDbVertex
100
AcDb2dVertex
 10
4.915370999999999
 20
-14.33533699999999
 30
0.0
  0
VERTEX
  5
2F6
330
A2
100
AcDbEntity
  8
MO_001_VIEW_PV
  6
C_SOLID_M
100
AcDbVertex
100
AcDb2dVertex
 10
5.066380999999999
 20
-14.294601
 30
0.0
  0
VERTEX
  5
2F7
330
A2
100
AcDbEntity
  8
MO_001_VIEW_PV
  6
C_SOLID_M
100
AcDbVertex
100
AcDb2dVertex
 10
5.177063999999999
 20
-14.233685
 30
0.0
  0
VERTEX
  5
2F8
330
A2
100
AcDbEntity
  8
MO_001_VIEW_PV
  6
C_SOLID_M
100
AcDbVertex
100
AcDb2dVertex
 10
5.239479
 20
-14.17588999999999
 30
0.0
  0
VERTEX
  5
2F9
330
A2
100
AcDbEntity
  8
MO_001_VIEW_PV
  6
C_SOLID_M
100
AcDbVertex
100
AcDb2dVertex
 10
5.272597
 20
-14.127557
 30
0.0
  0
VERTEX
  5
2FA
330
A2
100
AcDbEntity
  8
MO_001_VIEW_PV
  6
C_SOLID_M
100
AcDbVertex
100
AcDb2dVertex
 10
5.298161
 20
-14.050175
 30
0.0
  0
VERTEX
  5
2FB
330
A2
100
AcDbEntity
  8
MO_001_VIEW_PV
  6
C_SOLID_M
100
AcDbVertex
100
AcDb2dVertex
 10
5.293543999999999
 20
-13.971122
 30
0.0
  0
SEQEND
  5
2FC
330
A2
100
AcDbEntity
  8
MO_001_VIEW_PV
  6
C_SOLID_M
  0
POLYLINE
  5
AE
330
1E
100
AcDbEntity
  8
MO_001_VIEW_PV
  6
C_SOLID_M
100
AcDb2dPolyline
 66
     1
 10
0.0
 20
0.0
 30
0.0
  0
VERTEX
  5
2FD
330
AE
100
AcDbEntity
  8
MO_001_VIEW_PV
  6
C_SOLID_M
100
AcDbVertex
100
AcDb2dVertex
 10
5.293543999999999
 20
-11.66433
 30
0.0
  0
VERTEX
  5
2FE
330
AE
100
AcDbEntity
  8
MO_001_VIEW_PV
  6
C_SOLID_M
100
AcDbVertex
100
AcDb2dVertex
 10
5.299948999999999
 20
-11.61755499999999
 30
0.0
  0
VERTEX
  5
2FF
330
AE
100
AcDbEntity
  8
MO_001_VIEW_PV
  6
C_SOLID_M
100
AcDbVertex
100
AcDb2dVertex
 10
5.285524999999999
 20
-11.536058
 30
0.0
  0
VERTEX
  5
300
330
AE
100
AcDbEntity
  8
MO_001_VIEW_PV
  6
C_SOLID_M
100
AcDbVertex
100
AcDb2dVertex
 10
5.253824999999999
 20
-11.47793599999999
 30
0.0
  0
VERTEX
  5
301
330
AE
100
AcDbEntity
  8
MO_001_VIEW_PV
  6
C_SOLID_M
100
AcDbVertex
100
AcDb2dVertex
 10
5.175558999999999
 20
-11.400661
 30
0.0
  0
VERTEX
  5
302
330
AE
100
AcDbEntity
  8
MO_001_VIEW_PV
  6
C_SOLID_M
100
AcDbVertex
100
AcDb2dVertex
 10
5.066380999999999
 20
-11.34085099999999
 30
0.0
  0
VERTEX
  5
303
330
AE
100
AcDbEntity
  8
MO_001_VIEW_PV
  6
C_SOLID_M
100
AcDbVertex
100
AcDb2dVertex
 10
4.933074999999999
 20
-11.303035
 30
0.0
  0
VERTEX
  5
304
330
AE
100
AcDbEntity
  8
MO_001_VIEW_PV
  6
C_SOLID_M
100
AcDbVertex
100
AcDb2dVertex
 10
4.825015
 20
-11.291845
 30
0.0
  0
VERTEX
  5
305
330
AE
100
AcDbEntity
  8
MO_001_VIEW_PV
  6
C_SOLID_M
100
AcDbVertex
100
AcDb2dVertex
 10
4.662317999999999
 20
-11.303869
 30
0.0
  0
VERTEX
  5
306
330
AE
100
AcDbEntity
  8
MO_001_VIEW_PV
  6
C_SOLID_M
100
AcDbVertex
100
AcDb2dVertex
 10
4.514391999999999
 20
-11.349039
 30
0.0
  0
SEQEND
  5
307
330
AE
100
AcDbEntity
  8
MO_001_VIEW_PV
  6
C_SOLID_M
  0
POLYLINE
  5
BA
330
1E
100
AcDbEntity
  8
MO_001_VIEW_PV
  6
C_SOLID_M
100
AcDb2dPolyline
 66
     1
 10
0.0
 20
0.0
 30
0.0
  0
VERTEX
  5
308
330
BA
100
AcDbEntity
  8
MO_001_VIEW_PV
  6
C_SOLID_M
100
AcDbVertex
100
AcDb2dVertex
 10
0.0
 20
0.048277
 30
0.0
  0
VERTEX
  5
309
330
BA
100
AcDbEntity
  8
MO_001_VIEW_PV
  6
C_SOLID_M
100
AcDbVertex
100
AcDb2dVertex
 10
0.2024
 20
-0.189975
 30
0.0
  0
VERTEX
  5
30A
330
BA
100
AcDbEntity
  8
MO_001_VIEW_PV
  6
C_SOLID_M
100
AcDbVertex
100
AcDb2dVertex
 10
0.397758
 20
-0.382012
 30
0.0
  0
VERTEX
  5
30B
330
BA
100
AcDbEntity
  8
MO_001_VIEW_PV
  6
C_SOLID_M
100
AcDbVertex
100
AcDb2dVertex
 10
0.581553
 20
-0.5363470000000001
 30
0.0
  0
VERTEX
  5
30C
330
BA
100
AcDbEntity
  8
MO_001_VIEW_PV
  6
C_SOLID_M
100
AcDbVertex
100
AcDb2dVertex
 10
0.751407
 20
-0.6602180000000001
 30
0.0
  0
VERTEX
  5
30D
330
BA
100
AcDbEntity
  8
MO_001_VIEW_PV
  6
C_SOLID_M
100
AcDbVertex
100
AcDb2dVertex
 10
0.9063739999999999
 20
-0.7596280000000001
 30
0.0
  0
VERTEX
  5
30E
330
BA
100
AcDbEntity
  8
MO_001_VIEW_PV
  6
C_SOLID_M
100
AcDbVertex
100
AcDb2dVertex
 10
1.190285
 20
-0.912476
 30
0.0
  0
VERTEX
  5
30F
330
BA
100
AcDbEntity
  8
MO_001_VIEW_PV
  6
C_SOLID_M
100
AcDbVertex
100
AcDb2dVertex
 10
1.412452
 20
-1.008731
 30
0.0
  0
VERTEX
  5
310
330
BA
100
AcDbEntity
  8
MO_001_VIEW_PV
  6
C_SOLID_M
100
AcDbVertex
100
AcDb2dVertex
 10
1.757659999999999
 20
-1.122333999999999
 30
0.0
  0
VERTEX
  5
311
330
BA
100
AcDbEntity
  8
MO_001_VIEW_PV
  6
C_SOLID_M
100
AcDbVertex
100
AcDb2dVertex
 10
2.113472
 20
-1.197807
 30
0.0
  0
VERTEX
  5
312
330
BA
100
AcDbEntity
  8
MO_001_VIEW_PV
  6
C_SOLID_M
100
AcDbVertex
100
AcDb2dVertex
 10
2.427022
 20
-1.231647999999999
 30
0.0
  0
VERTEX
  5
313
330
BA
100
AcDbEntity
  8
MO_001_VIEW_PV
  6
C_SOLID_M
100
AcDbVertex
100
AcDb2dVertex
 10
2.702993999999999
 20
-1.236952999999999
 30
0.0
  0
VERTEX
  5
314
330
BA
100
AcDbEntity
  8
MO_001_VIEW_PV
  6
C_SOLID_M
100
AcDbVertex
100
AcDb2dVertex
 10
2.944112
 20
-1.222945
 30
0.0
  0
VERTEX
  5
315
330
BA
100
AcDbEntity
  8
MO_001_VIEW_PV
  6
C_SOLID_M
100
AcDbVertex
100
AcDb2dVertex
 10
3.153750999999999
 20
-1.196466999999999
 30
0.0
  0
VERTEX
  5
316
330
BA
100
AcDbEntity
  8
MO_001_VIEW_PV
  6
C_SOLID_M
100
AcDbVertex
100
AcDb2dVertex
 10
3.335449999999999
 20
-1.162495999999999
 30
0.0
  0
VERTEX
  5
317
330
BA
100
AcDbEntity
  8
MO_001_VIEW_PV
  6
C_SOLID_M
100
AcDbVertex
100
AcDb2dVertex
 10
3.647747
 20
-1.079137
 30
0.0
  0
VERTEX
  5
318
330
BA
100
AcDbEntity
  8
MO_001_VIEW_PV
  6
C_SOLID_M
100
AcDbVertex
100
AcDb2dVertex
 10
3.875705
 20
-0.9970600000000001
 30
0.0
  0
VERTEX
  5
319
330
BA
100
AcDbEntity
  8
MO_001_VIEW_PV
  6
C_SOLID_M
100
AcDbVertex
100
AcDb2dVertex
 10
4.204625
 20
-0.843585
 30
0.0
  0
VERTEX
  5
31A
330
BA
100
AcDbEntity
  8
MO_001_VIEW_PV
  6
C_SOLID_M
100
AcDbVertex
100
AcDb2dVertex
 10
4.514383
 20
-0.65537
 30
0.0
  0
SEQEND
  5
31B
330
BA
100
AcDbEntity
  8
MO_001_VIEW_PV
  6
C_SOLID_M
  0
POLYLINE
  5
CF
330
1E
100
AcDbEntity
  8
MO_001_VIEW_PV
  6
C_SOLID_M
100
AcDb2dPolyline
 66
     1
 10
0.0
 20
0.0
 30
0.0
  0
VERTEX
  5
31C
330
CF
100
AcDbEntity
  8
MO_001_VIEW_PV
  6
C_SOLID_M
100
AcDbVertex
100
AcDb2dVertex
 10
4.514383999999999
 20
-5.155711
 30
0.0
  0
VERTEX
  5
31D
330
CF
100
AcDbEntity
  8
MO_001_VIEW_PV
  6
C_SOLID_M
100
AcDbVertex
100
AcDb2dVertex
 10
4.247167
 20
-4.990656999999999
 30
0.0
  0
VERTEX
  5
31E
330
CF
100
AcDbEntity
  8
MO_001_VIEW_PV
  6
C_SOLID_M
100
AcDbVertex
100
AcDb2dVertex
 10
4.00114
 20
-4.867417999999999
 30
0.0
  0
VERTEX
  5
31F
330
CF
100
AcDbEntity
  8
MO_001_VIEW_PV
  6
C_SOLID_M
100
AcDbVertex
100
AcDb2dVertex
 10
3.777932999999999
 20
-4.776520999999999
 30
0.0
  0
VERTEX
  5
320
330
CF
100
AcDbEntity
  8
MO_001_VIEW_PV
  6
C_SOLID_M
100
AcDbVertex
100
AcDb2dVertex
 10
3.577537999999999
 20
-4.710359999999999
 30
0.0
  0
VERTEX
  5
321
330
CF
100
AcDbEntity
  8
MO_001_VIEW_PV
  6
C_SOLID_M
100
AcDbVertex
100
AcDb2dVertex
 10
3.398973
 20
-4.662937
 30
0.0
  0
VERTEX
  5
322
330
CF
100
AcDbEntity
  8
MO_001_VIEW_PV
  6
C_SOLID_M
100
AcDbVertex
100
AcDb2dVertex
 10
3.081008999999999
 20
-4.603901999999999
 30
0.0
  0
VERTEX
  5
323
330
CF
100
AcDbEntity
  8
MO_001_VIEW_PV
  6
C_SOLID_M
100
AcDbVertex
100
AcDb2dVertex
 10
2.839517999999999
 20
-4.579916
 30
0.0
  0
VERTEX
  5
324
330
CF
100
AcDbEntity
  8
MO_001_VIEW_PV
  6
C_SOLID_M
100
AcDbVertex
100
AcDb2dVertex
 10
2.475559999999999
 20
-4.576849
 30
0.0
  0
VERTEX
  5
325
330
CF
100
AcDbEntity
  8
MO_001_VIEW_PV
  6
C_SOLID_M
100
AcDbVertex
100
AcDb2dVertex
 10
2.113472
 20
-4.613273999999999
 30
0.0
  0
VERTEX
  5
326
330
CF
100
AcDbEntity
  8
MO_001_VIEW_PV
  6
C_SOLID_M
100
AcDbVertex
100
AcDb2dVertex
 10
1.804634999999999
 20
-4.676442999999999
 30
0.0
  0
VERTEX
  5
327
330
CF
100
AcDbEntity
  8
MO_001_VIEW_PV
  6
C_SOLID_M
100
AcDbVertex
100
AcDb2dVertex
 10
1.540488999999999
 20
-4.755325
 30
0.0
  0
VERTEX
  5
328
330
CF
100
AcDbEntity
  8
MO_001_VIEW_PV
  6
C_SOLID_M
100
AcDbVertex
100
AcDb2dVertex
 10
1.315547999999999
 20
-4.841976999999999
 30
0.0
  0
VERTEX
  5
329
330
CF
100
AcDbEntity
  8
MO_001_VIEW_PV
  6
C_SOLID_M
100
AcDbVertex
100
AcDb2dVertex
 10
1.124457999999999
 20
-4.930916
 30
0.0
  0
VERTEX
  5
32A
330
CF
100
AcDbEntity
  8
MO_001_VIEW_PV
  6
C_SOLID_M
100
AcDbVertex
100
AcDb2dVertex
 10
0.962292
 20
-5.018483999999999
 30
0.0
  0
VERTEX
  5
32B
330
CF
100
AcDbEntity
  8
MO_001_VIEW_PV
  6
C_SOLID_M
100
AcDbVertex
100
AcDb2dVertex
 10
0.6913970000000001
 20
-5.192744999999999
 30
0.0
  0
VERTEX
  5
32C
330
CF
100
AcDbEntity
  8
MO_001_VIEW_PV
  6
C_SOLID_M
100
AcDbVertex
100
AcDb2dVertex
 10
0.5003180000000001
 20
-5.340136
 30
0.0
  0
VERTEX
  5
32D
330
CF
100
AcDbEntity
  8
MO_001_VIEW_PV
  6
C_SOLID_M
100
AcDbVertex
100
AcDb2dVertex
 10
0.235599
 20
-5.586141
 30
0.0
  0
VERTEX
  5
32E
330
CF
100
AcDbEntity
  8
MO_001_VIEW_PV
  6
C_SOLID_M
100
AcDbVertex
100
AcDb2dVertex
 10
0.0
 20
-5.859358999999999
 30
0.0
  0
SEQEND
  5
32F
330
CF
100
AcDbEntity
  8
MO_001_VIEW_PV
  6
C_SOLID_M
  0
POLYLINE
  5
E4
330
1E
100
AcDbEntity
  8
MO_001_VIEW_PV
  6
C_SOLID_M
100
AcDb2dPolyline
 66
     1
 10
0.0
 20
0.0
 30
0.0
  0
VERTEX
  5
330
330
E4
100
AcDbEntity
  8
MO_001_VIEW_PV
  6
C_SOLID_M
100
AcDbVertex
100
AcDb2dVertex
 10
5.293537
 20
-1.138437999999999
 30
0.0
  0
VERTEX
  5
331
330
E4
100
AcDbEntity
  8
MO_001_VIEW_PV
  6
C_SOLID_M
100
AcDbVertex
100
AcDb2dVertex
 10
5.230319999999999
 20
-1.577709
 30
0.0
  0
VERTEX
  5
332
330
E4
100
AcDbEntity
  8
MO_001_VIEW_PV
  6
C_SOLID_M
100
AcDbVertex
100
AcDb2dVertex
 10
5.194708
 20
-1.908609999999999
 30
0.0
  0
VERTEX
  5
333
330
E4
100
AcDbEntity
  8
MO_001_VIEW_PV
  6
C_SOLID_M
100
AcDbVertex
100
AcDb2dVertex
 10
5.160330999999999
 20
-2.406569999999999
 30
0.0
  0
VERTEX
  5
334
330
E4
100
AcDbEntity
  8
MO_001_VIEW_PV
  6
C_SOLID_M
100
AcDbVertex
100
AcDb2dVertex
 10
5.148864999999999
 20
-2.905550999999999
 30
0.0
  0
VERTEX
  5
335
330
E4
100
AcDbEntity
  8
MO_001_VIEW_PV
  6
C_SOLID_M
100
AcDbVertex
100
AcDb2dVertex
 10
5.157924999999999
 20
-3.349121999999999
 30
0.0
  0
VERTEX
  5
336
330
E4
100
AcDbEntity
  8
MO_001_VIEW_PV
  6
C_SOLID_M
100
AcDbVertex
100
AcDb2dVertex
 10
5.176605
 20
-3.681367999999999
 30
0.0
  0
VERTEX
  5
337
330
E4
100
AcDbEntity
  8
MO_001_VIEW_PV
  6
C_SOLID_M
100
AcDbVertex
100
AcDb2dVertex
 10
5.223681
 20
-4.178319
 30
0.0
  0
VERTEX
  5
338
330
E4
100
AcDbEntity
  8
MO_001_VIEW_PV
  6
C_SOLID_M
100
AcDbVertex
100
AcDb2dVertex
 10
5.293537999999999
 20
-4.672664
 30
0.0
  0
SEQEND
  5
339
330
E4
100
AcDbEntity
  8
MO_001_VIEW_PV
  6
C_SOLID_M
  0
POLYLINE
  5
EF
330
1E
100
AcDbEntity
  8
MO_001_VIEW_PV
  6
C_SOLID_M
100
AcDb2dPolyline
 66
     1
 10
0.0
 20
0.0
 30
0.0
  0
VERTEX
  5
33A
330
EF
100
AcDbEntity
  8
MO_001_VIEW_PV
  6
C_SOLID_M
100
AcDbVertex
100
AcDb2dVertex
 10
4.514387
 20
-5.155711
 30
0.0
  0
VERTEX
  5
33B
330
EF
100
AcDbEntity
  8
MO_001_VIEW_PV
  6
C_SOLID_M
100
AcDbVertex
100
AcDb2dVertex
 10
4.577233999999999
 20
-5.192383
 30
0.0
  0
VERTEX
  5
33C
330
EF
100
AcDbEntity
  8
MO_001_VIEW_PV
  6
C_SOLID_M
100
AcDbVertex
100
AcDb2dVertex
 10
4.697794
 20
-5.233558999999999
 30
0.0
  0
VERTEX
  5
33D
330
EF
100
AcDbEntity
  8
MO_001_VIEW_PV
  6
C_SOLID_M
100
AcDbVertex
100
AcDb2dVertex
 10
4.793033
 20
-5.243909999999999
 30
0.0
  0
VERTEX
  5
33E
330
EF
100
AcDbEntity
  8
MO_001_VIEW_PV
  6
C_SOLID_M
100
AcDbVertex
100
AcDb2dVertex
 10
4.864823
 20
-5.239802
 30
0.0
  0
VERTEX
  5
33F
330
EF
100
AcDbEntity
  8
MO_001_VIEW_PV
  6
C_SOLID_M
100
AcDbVertex
100
AcDb2dVertex
 10
4.969536999999999
 20
-5.214787999999999
 30
0.0
  0
VERTEX
  5
340
330
EF
100
AcDbEntity
  8
MO_001_VIEW_PV
  6
C_SOLID_M
100
AcDbVertex
100
AcDb2dVertex
 10
5.066378
 20
-5.16826
 30
0.0
  0
VERTEX
  5
341
330
EF
100
AcDbEntity
  8
MO_001_VIEW_PV
  6
C_SOLID_M
100
AcDbVertex
100
AcDb2dVertex
 10
5.125189999999999
 20
-5.125587
 30
0.0
  0
VERTEX
  5
342
330
EF
100
AcDbEntity
  8
MO_001_VIEW_PV
  6
C_SOLID_M
100
AcDbVertex
100
AcDb2dVertex
 10
5.210738
 20
-5.032343
 30
0.0
  0
VERTEX
  5
343
330
EF
100
AcDbEntity
  8
MO_001_VIEW_PV
  6
C_SOLID_M
100
AcDbVertex
100
AcDb2dVertex
 10
5.257583999999999
 20
-4.950026999999999
 30
0.0
  0
VERTEX
  5
344
330
EF
100
AcDbEntity
  8
MO_001_VIEW_PV
  6
C_SOLID_M
100
AcDbVertex
100
AcDb2dVertex
 10
5.281762999999999
 20
-4.883328999999999
 30
0.0
  0
VERTEX
  5
345
330
EF
100
AcDbEntity
  8
MO_001_VIEW_PV
  6
C_SOLID_M
100
AcDbVertex
100
AcDb2dVertex
 10
5.299246
 20
-4.778618999999999
 30
0.0
  0
VERTEX
  5
346
330
EF
100
AcDbEntity
  8
MO_001_VIEW_PV
  6
C_SOLID_M
100
AcDbVertex
100
AcDb2dVertex
 10
5.293544999999999
 20
-4.672651999999999
 30
0.0
  0
SEQEND
  5
347
330
EF
100
AcDbEntity
  8
MO_001_VIEW_PV
  6
C_SOLID_M
  0
POLYLINE
  5
FE
330
1E
100
AcDbEntity
  8
MO_001_VIEW_PV
  6
C_SOLID_M
100
AcDb2dPolyline
 66
     1
 10
0.0
 20
0.0
 30
0.0
  0
VERTEX
  5
348
330
FE
100
AcDbEntity
  8
MO_001_VIEW_PV
  6
C_SOLID_M
100
AcDbVertex
100
AcDb2dVertex
 10
5.293544999999999
 20
-1.138444
 30
0.0
  0
VERTEX
  5
349
330
FE
100
AcDbEntity
  8
MO_001_VIEW_PV
  6
C_SOLID_M
100
AcDbVertex
100
AcDb2dVertex
 10
5.299948999999999
 20
-1.066778
 30
0.0
  0
VERTEX
  5
34A
330
FE
100
AcDbEntity
  8
MO_001_VIEW_PV
  6
C_SOLID_M
100
AcDbVertex
100
AcDb2dVertex
 10
5.285524999999999
 20
-0.9419159999999999
 30
0.0
  0
VERTEX
  5
34B
330
FE
100
AcDbEntity
  8
MO_001_VIEW_PV
  6
C_SOLID_M
100
AcDbVertex
100
AcDb2dVertex
 10
5.253824999999999
 20
-0.8528669999999999
 30
0.0
  0
VERTEX
  5
34C
330
FE
100
AcDbEntity
  8
MO_001_VIEW_PV
  6
C_SOLID_M
100
AcDbVertex
100
AcDb2dVertex
 10
5.219025
 20
-0.7908910000000001
 30
0.0
  0
VERTEX
  5
34D
330
FE
100
AcDbEntity
  8
MO_001_VIEW_PV
  6
C_SOLID_M
100
AcDbVertex
100
AcDb2dVertex
 10
5.150849
 20
-0.7087180000000001
 30
0.0
  0
VERTEX
  5
34E
330
FE
100
AcDbEntity
  8
MO_001_VIEW_PV
  6
C_SOLID_M
100
AcDbVertex
100
AcDb2dVertex
 10
5.06638
 20
-0.6428370000000001
 30
0.0
  0
VERTEX
  5
34F
330
FE
100
AcDbEntity
  8
MO_001_VIEW_PV
  6
C_SOLID_M
100
AcDbVertex
100
AcDb2dVertex
 10
5.001881
 20
-0.6090600000000001
 30
0.0
  0
VERTEX
  5
350
330
FE
100
AcDbEntity
  8
MO_001_VIEW_PV
  6
C_SOLID_M
100
AcDbVertex
100
AcDb2dVertex
 10
4.879521999999999
 20
-0.5734060000000002
 30
0.0
  0
VERTEX
  5
351
330
FE
100
AcDbEntity
  8
MO_001_VIEW_PV
  6
C_SOLID_M
100
AcDbVertex
100
AcDb2dVertex
 10
4.7839
 20
-0.567394
 30
0.0
  0
VERTEX
  5
352
330
FE
100
AcDbEntity
  8
MO_001_VIEW_PV
  6
C_SOLID_M
100
AcDbVertex
100
AcDb2dVertex
 10
4.712379
 20
-0.5747590000000001
 30
0.0
  0
VERTEX
  5
353
330
FE
100
AcDbEntity
  8
MO_001_VIEW_PV
  6
C_SOLID_M
100
AcDbVertex
100
AcDb2dVertex
 10
4.608948999999999
 20
-0.6045050000000001
 30
0.0
  0
VERTEX
  5
354
330
FE
100
AcDbEntity
  8
MO_001_VIEW_PV
  6
C_SOLID_M
100
AcDbVertex
100
AcDb2dVertex
 10
4.514391
 20
-0.655383
 30
0.0
  0
SEQEND
  5
355
330
FE
100
AcDbEntity
  8
MO_001_VIEW_PV
  6
C_SOLID_M
  0
POLYLINE
  5
10D
330
1E
100
AcDbEntity
  8
MO_001_VIEW_PV
  6
C_SOLID_M
100
AcDb2dPolyline
 66
     1
 10
0.0
 20
0.0
 30
0.0
  0
VERTEX
  5
356
330
10D
100
AcDbEntity
  8
MO_001_VIEW_PV
  6
C_SOLID_M
100
AcDbVertex
100
AcDb2dVertex
 10
-0.000001
 20
10.963719
 30
0.0
  0
VERTEX
  5
357
330
10D
100
AcDbEntity
  8
MO_001_VIEW_PV
  6
C_SOLID_M
100
AcDbVertex
100
AcDb2dVertex
 10
0.2024
 20
10.754204
 30
0.0
  0
VERTEX
  5
358
330
10D
100
AcDbEntity
  8
MO_001_VIEW_PV
  6
C_SOLID_M
100
AcDbVertex
100
AcDb2dVertex
 10
0.397757
 20
10.585329
 30
0.0
  0
VERTEX
  5
359
330
10D
100
AcDbEntity
  8
MO_001_VIEW_PV
  6
C_SOLID_M
100
AcDbVertex
100
AcDb2dVertex
 10
0.5815520000000002
 20
10.44960899999999
 30
0.0
  0
VERTEX
  5
35A
330
10D
100
AcDbEntity
  8
MO_001_VIEW_PV
  6
C_SOLID_M
100
AcDbVertex
100
AcDb2dVertex
 10
0.751407
 20
10.34067899999999
 30
0.0
  0
VERTEX
  5
35B
330
10D
100
AcDbEntity
  8
MO_001_VIEW_PV
  6
C_SOLID_M
100
AcDbVertex
100
AcDb2dVertex
 10
1.066752
 20
10.173494
 30
0.0
  0
VERTEX
  5
35C
330
10D
100
AcDbEntity
  8
MO_001_VIEW_PV
  6
C_SOLID_M
100
AcDbVertex
100
AcDb2dVertex
 10
1.316359999999999
 20
10.06874299999999
 30
0.0
  0
VERTEX
  5
35D
330
10D
100
AcDbEntity
  8
MO_001_VIEW_PV
  6
C_SOLID_M
100
AcDbVertex
100
AcDb2dVertex
 10
1.509751999999999
 20
10.00229999999999
 30
0.0
  0
VERTEX
  5
35E
330
10D
100
AcDbEntity
  8
MO_001_VIEW_PV
  6
C_SOLID_M
100
AcDbVertex
100
AcDb2dVertex
 10
1.80794
 20
9.922742999999998
 30
0.0
  0
VERTEX
  5
35F
330
10D
100
AcDbEntity
  8
MO_001_VIEW_PV
  6
C_SOLID_M
100
AcDbVertex
100
AcDb2dVertex
 10
2.113471
 20
9.867931
 30
0.0
  0
VERTEX
  5
360
330
10D
100
AcDbEntity
  8
MO_001_VIEW_PV
  6
C_SOLID_M
100
AcDbVertex
100
AcDb2dVertex
 10
2.427022
 20
9.838171
 30
0.0
  0
VERTEX
  5
361
330
10D
100
AcDbEntity
  8
MO_001_VIEW_PV
  6
C_SOLID_M
100
AcDbVertex
100
AcDb2dVertex
 10
2.702993
 20
9.833505999999999
 30
0.0
  0
VERTEX
  5
362
330
10D
100
AcDbEntity
  8
MO_001_VIEW_PV
  6
C_SOLID_M
100
AcDbVertex
100
AcDb2dVertex
 10
2.944110999999999
 20
9.845824
 30
0.0
  0
VERTEX
  5
363
330
10D
100
AcDbEntity
  8
MO_001_VIEW_PV
  6
C_SOLID_M
100
AcDbVertex
100
AcDb2dVertex
 10
3.15375
 20
9.869108999999999
 30
0.0
  0
VERTEX
  5
364
330
10D
100
AcDbEntity
  8
MO_001_VIEW_PV
  6
C_SOLID_M
100
AcDbVertex
100
AcDb2dVertex
 10
3.51493
 20
9.937624000000001
 30
0.0
  0
VERTEX
  5
365
330
10D
100
AcDbEntity
  8
MO_001_VIEW_PV
  6
C_SOLID_M
100
AcDbVertex
100
AcDb2dVertex
 10
3.778762999999999
 20
10.01175399999999
 30
0.0
  0
VERTEX
  5
366
330
10D
100
AcDbEntity
  8
MO_001_VIEW_PV
  6
C_SOLID_M
100
AcDbVertex
100
AcDb2dVertex
 10
3.971408
 20
10.079806
 30
0.0
  0
VERTEX
  5
367
330
10D
100
AcDbEntity
  8
MO_001_VIEW_PV
  6
C_SOLID_M
100
AcDbVertex
100
AcDb2dVertex
 10
4.25014
 20
10.201246
 30
0.0
  0
VERTEX
  5
368
330
10D
100
AcDbEntity
  8
MO_001_VIEW_PV
  6
C_SOLID_M
100
AcDbVertex
100
AcDb2dVertex
 10
4.514383
 20
10.344941
 30
0.0
  0
SEQEND
  5
369
330
10D
100
AcDbEntity
  8
MO_001_VIEW_PV
  6
C_SOLID_M
  0
POLYLINE
  5
122
330
1E
100
AcDbEntity
  8
MO_001_VIEW_PV
  6
C_SOLID_M
100
AcDb2dPolyline
 66
     1
 10
0.0
 20
0.0
 30
0.0
  0
VERTEX
  5
36A
330
122
100
AcDbEntity
  8
MO_001_VIEW_PV
  6
C_SOLID_M
100
AcDbVertex
100
AcDb2dVertex
 10
4.514383
 20
6.387419
 30
0.0
  0
VERTEX
  5
36B
330
122
100
AcDbEntity
  8
MO_001_VIEW_PV
  6
C_SOLID_M
100
AcDbVertex
100
AcDb2dVertex
 10
4.247167
 20
6.532564999999999
 30
0.0
  0
VERTEX
  5
36C
330
122
100
AcDbEntity
  8
MO_001_VIEW_PV
  6
C_SOLID_M
100
AcDbVertex
100
AcDb2dVertex
 10
4.00114
 20
6.640939999999999
 30
0.0
  0
VERTEX
  5
36D
330
122
100
AcDbEntity
  8
MO_001_VIEW_PV
  6
C_SOLID_M
100
AcDbVertex
100
AcDb2dVertex
 10
3.777932999999999
 20
6.720874
 30
0.0
  0
VERTEX
  5
36E
330
122
100
AcDbEntity
  8
MO_001_VIEW_PV
  6
C_SOLID_M
100
AcDbVertex
100
AcDb2dVertex
 10
3.577537999999999
 20
6.779053999999999
 30
0.0
  0
VERTEX
  5
36F
330
122
100
AcDbEntity
  8
MO_001_VIEW_PV
  6
C_SOLID_M
100
AcDbVertex
100
AcDb2dVertex
 10
3.217991
 20
6.853733
 30
0.0
  0
VERTEX
  5
370
330
122
100
AcDbEntity
  8
MO_001_VIEW_PV
  6
C_SOLID_M
100
AcDbVertex
100
AcDb2dVertex
 10
2.943229999999999
 20
6.886610000000001
 30
0.0
  0
VERTEX
  5
371
330
122
100
AcDbEntity
  8
MO_001_VIEW_PV
  6
C_SOLID_M
100
AcDbVertex
100
AcDb2dVertex
 10
2.735597999999999
 20
6.898085
 30
0.0
  0
VERTEX
  5
372
330
122
100
AcDbEntity
  8
MO_001_VIEW_PV
  6
C_SOLID_M
100
AcDbVertex
100
AcDb2dVertex
 10
2.423615999999999
 20
6.894007000000001
 30
0.0
  0
VERTEX
  5
373
330
122
100
AcDbEntity
  8
MO_001_VIEW_PV
  6
C_SOLID_M
100
AcDbVertex
100
AcDb2dVertex
 10
2.113472999999999
 20
6.86443
 30
0.0
  0
VERTEX
  5
374
330
122
100
AcDbEntity
  8
MO_001_VIEW_PV
  6
C_SOLID_M
100
AcDbVertex
100
AcDb2dVertex
 10
1.804636
 20
6.808880999999999
 30
0.0
  0
VERTEX
  5
375
330
122
100
AcDbEntity
  8
MO_001_VIEW_PV
  6
C_SOLID_M
100
AcDbVertex
100
AcDb2dVertex
 10
1.540488999999999
 20
6.739513
 30
0.0
  0
VERTEX
  5
376
330
122
100
AcDbEntity
  8
MO_001_VIEW_PV
  6
C_SOLID_M
100
AcDbVertex
100
AcDb2dVertex
 10
1.315547999999999
 20
6.663313
 30
0.0
  0
VERTEX
  5
377
330
122
100
AcDbEntity
  8
MO_001_VIEW_PV
  6
C_SOLID_M
100
AcDbVertex
100
AcDb2dVertex
 10
1.124457999999999
 20
6.585100999999999
 30
0.0
  0
VERTEX
  5
378
330
122
100
AcDbEntity
  8
MO_001_VIEW_PV
  6
C_SOLID_M
100
AcDbVertex
100
AcDb2dVertex
 10
0.805362
 20
6.423341999999999
 30
0.0
  0
VERTEX
  5
379
330
122
100
AcDbEntity
  8
MO_001_VIEW_PV
  6
C_SOLID_M
100
AcDbVertex
100
AcDb2dVertex
 10
0.580858
 20
6.282276999999999
 30
0.0
  0
VERTEX
  5
37A
330
122
100
AcDbEntity
  8
MO_001_VIEW_PV
  6
C_SOLID_M
100
AcDbVertex
100
AcDb2dVertex
 10
0.4218939999999999
 20
6.166030999999999
 30
0.0
  0
VERTEX
  5
37B
330
122
100
AcDbEntity
  8
MO_001_VIEW_PV
  6
C_SOLID_M
100
AcDbVertex
100
AcDb2dVertex
 10
0.200089
 20
5.975983
 30
0.0
  0
VERTEX
  5
37C
330
122
100
AcDbEntity
  8
MO_001_VIEW_PV
  6
C_SOLID_M
100
AcDbVertex
100
AcDb2dVertex
 10
0.0
 20
5.768641999999999
 30
0.0
  0
SEQEND
  5
37D
330
122
100
AcDbEntity
  8
MO_001_VIEW_PV
  6
C_SOLID_M
  0
POLYLINE
  5
137
330
1E
100
AcDbEntity
  8
MO_001_VIEW_PV
  6
C_SOLID_M
100
AcDb2dPolyline
 66
     1
 10
0.0
 20
0.0
 30
0.0
  0
VERTEX
  5
37E
330
137
100
AcDbEntity
  8
MO_001_VIEW_PV
  6
C_SOLID_M
100
AcDbVertex
100
AcDb2dVertex
 10
5.293537999999999
 20
9.920150999999998
 30
0.0
  0
VERTEX
  5
37F
330
137
100
AcDbEntity
  8
MO_001_VIEW_PV
  6
C_SOLID_M
100
AcDbVertex
100
AcDb2dVertex
 10
5.230319999999999
 20
9.533863
 30
0.0
  0
VERTEX
  5
380
330
137
100
AcDbEntity
  8
MO_001_VIEW_PV
  6
C_SOLID_M
100
AcDbVertex
100
AcDb2dVertex
 10
5.194708
 20
9.242872999999999
 30
0.0
  0
VERTEX
  5
381
330
137
100
AcDbEntity
  8
MO_001_VIEW_PV
  6
C_SOLID_M
100
AcDbVertex
100
AcDb2dVertex
 10
5.160330999999999
 20
8.804975
 30
0.0
  0
VERTEX
  5
382
330
137
100
AcDbEntity
  8
MO_001_VIEW_PV
  6
C_SOLID_M
100
AcDbVertex
100
AcDb2dVertex
 10
5.148864999999999
 20
8.366177999999999
 30
0.0
  0
VERTEX
  5
383
330
137
100
AcDbEntity
  8
MO_001_VIEW_PV
  6
C_SOLID_M
100
AcDbVertex
100
AcDb2dVertex
 10
5.157924999999999
 20
7.976107999999999
 30
0.0
  0
VERTEX
  5
384
330
137
100
AcDbEntity
  8
MO_001_VIEW_PV
  6
C_SOLID_M
100
AcDbVertex
100
AcDb2dVertex
 10
5.176605
 20
7.683936
 30
0.0
  0
VERTEX
  5
385
330
137
100
AcDbEntity
  8
MO_001_VIEW_PV
  6
C_SOLID_M
100
AcDbVertex
100
AcDb2dVertex
 10
5.223682
 20
7.246924
 30
0.0
  0
VERTEX
  5
386
330
137
100
AcDbEntity
  8
MO_001_VIEW_PV
  6
C_SOLID_M
100
AcDbVertex
100
AcDb2dVertex
 10
5.293538999999999
 20
6.812203999999999
 30
0.0
  0
SEQEND
  5
387
330
137
100
AcDbEntity
  8
MO_001_VIEW_PV
  6
C_SOLID_M
  0
POLYLINE
  5
142
330
1E
100
AcDbEntity
  8
MO_001_VIEW_PV
  6
C_SOLID_M
100
AcDb2dPolyline
 66
     1
 10
0.0
 20
0.0
 30
0.0
  0
VERTEX
  5
388
330
142
100
AcDbEntity
  8
MO_001_VIEW_PV
  6
C_SOLID_M
100
AcDbVertex
100
AcDb2dVertex
 10
4.514393
 20
6.387426999999999
 30
0.0
  0
VERTEX
  5
389
330
142
100
AcDbEntity
  8
MO_001_VIEW_PV
  6
C_SOLID_M
100
AcDbVertex
100
AcDb2dVertex
 10
4.644842999999999
 20
6.331207
 30
0.0
  0
VERTEX
  5
38A
330
142
100
AcDbEntity
  8
MO_001_VIEW_PV
  6
C_SOLID_M
100
AcDbVertex
100
AcDb2dVertex
 10
4.751984999999999
 20
6.311830999999999
 30
0.0
  0
VERTEX
  5
38B
330
142
100
AcDbEntity
  8
MO_001_VIEW_PV
  6
C_SOLID_M
100
AcDbVertex
100
AcDb2dVertex
 10
4.834138999999999
 20
6.310839999999999
 30
0.0
  0
VERTEX
  5
38C
330
142
100
AcDbEntity
  8
MO_001_VIEW_PV
  6
C_SOLID_M
100
AcDbVertex
100
AcDb2dVertex
 10
4.954953999999999
 20
6.331148
 30
0.0
  0
VERTEX
  5
38D
330
142
100
AcDbEntity
  8
MO_001_VIEW_PV
  6
C_SOLID_M
100
AcDbVertex
100
AcDb2dVertex
 10
5.066380999999999
 20
6.376398
 30
0.0
  0
VERTEX
  5
38E
330
142
100
AcDbEntity
  8
MO_001_VIEW_PV
  6
C_SOLID_M
100
AcDbVertex
100
AcDb2dVertex
 10
5.177063999999999
 20
6.458467999999999
 30
0.0
  0
VERTEX
  5
38F
330
142
100
AcDbEntity
  8
MO_001_VIEW_PV
  6
C_SOLID_M
100
AcDbVertex
100
AcDb2dVertex
 10
5.23948
 20
6.536336
 30
0.0
  0
VERTEX
  5
390
330
142
100
AcDbEntity
  8
MO_001_VIEW_PV
  6
C_SOLID_M
100
AcDbVertex
100
AcDb2dVertex
 10
5.272597
 20
6.601453999999999
 30
0.0
  0
VERTEX
  5
391
330
142
100
AcDbEntity
  8
MO_001_VIEW_PV
  6
C_SOLID_M
100
AcDbVertex
100
AcDb2dVertex
 10
5.298161
 20
6.705710999999999
 30
0.0
  0
VERTEX
  5
392
330
142
100
AcDbEntity
  8
MO_001_VIEW_PV
  6
C_SOLID_M
100
AcDbVertex
100
AcDb2dVertex
 10
5.293543999999999
 20
6.812216999999999
 30
0.0
  0
SEQEND
  5
393
330
142
100
AcDbEntity
  8
MO_001_VIEW_PV
  6
C_SOLID_M
  0
POLYLINE
  5
14F
330
1E
100
AcDbEntity
  8
MO_001_VIEW_PV
  6
C_SOLID_M
100
AcDb2dPolyline
 66
     1
 10
0.0
 20
0.0
 30
0.0
  0
VERTEX
  5
394
330
14F
100
AcDbEntity
  8
MO_001_VIEW_PV
  6
C_SOLID_M
100
AcDbVertex
100
AcDb2dVertex
 10
5.293543999999999
 20
9.920144
 30
0.0
  0
VERTEX
  5
395
330
14F
100
AcDbEntity
  8
MO_001_VIEW_PV
  6
C_SOLID_M
100
AcDbVertex
100
AcDb2dVertex
 10
5.299948999999999
 20
9.983164
 30
0.0
  0
VERTEX
  5
396
330
14F
100
AcDbEntity
  8
MO_001_VIEW_PV
  6
C_SOLID_M
100
AcDbVertex
100
AcDb2dVertex
 10
5.285524999999999
 20
10.092963
 30
0.0
  0
VERTEX
  5
397
330
14F
100
AcDbEntity
  8
MO_001_VIEW_PV
  6
C_SOLID_M
100
AcDbVertex
100
AcDb2dVertex
 10
5.253824999999999
 20
10.17127
 30
0.0
  0
VERTEX
  5
398
330
14F
100
AcDbEntity
  8
MO_001_VIEW_PV
  6
C_SOLID_M
100
AcDbVertex
100
AcDb2dVertex
 10
5.175558999999999
 20
10.275382
 30
0.0
  0
VERTEX
  5
399
330
14F
100
AcDbEntity
  8
MO_001_VIEW_PV
  6
C_SOLID_M
100
AcDbVertex
100
AcDb2dVertex
 10
5.066380999999999
 20
10.35596399999999
 30
0.0
  0
VERTEX
  5
39A
330
14F
100
AcDbEntity
  8
MO_001_VIEW_PV
  6
C_SOLID_M
100
AcDbVertex
100
AcDb2dVertex
 10
4.933074999999999
 20
10.406914
 30
0.0
  0
VERTEX
  5
39B
330
14F
100
AcDbEntity
  8
MO_001_VIEW_PV
  6
C_SOLID_M
100
AcDbVertex
100
AcDb2dVertex
 10
4.825015
 20
10.421989
 30
0.0
  0
VERTEX
  5
39C
330
14F
100
AcDbEntity
  8
MO_001_VIEW_PV
  6
C_SOLID_M
100
AcDbVertex
100
AcDb2dVertex
 10
4.742896
 20
10.419698
 30
0.0
  0
VERTEX
  5
39D
330
14F
100
AcDbEntity
  8
MO_001_VIEW_PV
  6
C_SOLID_M
100
AcDbVertex
100
AcDb2dVertex
 10
4.623291
 20
10.394586
 30
0.0
  0
VERTEX
  5
39E
330
14F
100
AcDbEntity
  8
MO_001_VIEW_PV
  6
C_SOLID_M
100
AcDbVertex
100
AcDb2dVertex
 10
4.514391999999999
 20
10.344933
 30
0.0
  0
SEQEND
  5
39F
330
14F
100
AcDbEntity
  8
MO_001_VIEW_PV
  6
C_SOLID_M
  0
POLYLINE
  5
15C
330
1E
100
AcDbEntity
  8
MO_001_VIEW_PV
  6
C_SOLID_M
100
AcDb2dPolyline
 66
     1
 10
0.0
 20
0.0
 30
0.0
  0
VERTEX
  5
3A0
330
15C
100
AcDbEntity
  8
MO_001_VIEW_PV
  6
C_SOLID_M
100
AcDbVertex
100
AcDb2dVertex
 10
0.000011
 20
16.74913399999999
 30
0.0
  0
VERTEX
  5
3A1
330
15C
100
AcDbEntity
  8
MO_001_VIEW_PV
  6
C_SOLID_M
100
AcDbVertex
100
AcDb2dVertex
 10
0.20241
 20
16.666392
 30
0.0
  0
VERTEX
  5
3A2
330
15C
100
AcDbEntity
  8
MO_001_VIEW_PV
  6
C_SOLID_M
100
AcDbVertex
100
AcDb2dVertex
 10
0.397767
 20
16.59969899999999
 30
0.0
  0
VERTEX
  5
3A3
330
15C
100
AcDbEntity
  8
MO_001_VIEW_PV
  6
C_SOLID_M
100
AcDbVertex
100
AcDb2dVertex
 10
0.581561
 20
16.54609999999999
 30
0.0
  0
VERTEX
  5
3A4
330
15C
100
AcDbEntity
  8
MO_001_VIEW_PV
  6
C_SOLID_M
100
AcDbVertex
100
AcDb2dVertex
 10
0.9289719999999999
 20
16.46386899999999
 30
0.0
  0
VERTEX
  5
3A5
330
15C
100
AcDbEntity
  8
MO_001_VIEW_PV
  6
C_SOLID_M
100
AcDbVertex
100
AcDb2dVertex
 10
1.20815
 20
16.412537
 30
0.0
  0
VERTEX
  5
3A6
330
15C
100
AcDbEntity
  8
MO_001_VIEW_PV
  6
C_SOLID_M
100
AcDbVertex
100
AcDb2dVertex
 10
1.650662999999999
 20
16.35328299999999
 30
0.0
  0
VERTEX
  5
3A7
330
15C
100
AcDbEntity
  8
MO_001_VIEW_PV
  6
C_SOLID_M
100
AcDbVertex
100
AcDb2dVertex
 10
2.113471
 20
16.316382
 30
0.0
  0
VERTEX
  5
3A8
330
15C
100
AcDbEntity
  8
MO_001_VIEW_PV
  6
C_SOLID_M
100
AcDbVertex
100
AcDb2dVertex
 10
2.427017999999999
 20
16.304629
 30
0.0
  0
VERTEX
  5
3A9
330
15C
100
AcDbEntity
  8
MO_001_VIEW_PV
  6
C_SOLID_M
100
AcDbVertex
100
AcDb2dVertex
 10
2.978441999999999
 20
16.308838
 30
0.0
  0
VERTEX
  5
3AA
330
15C
100
AcDbEntity
  8
MO_001_VIEW_PV
  6
C_SOLID_M
100
AcDbVertex
100
AcDb2dVertex
 10
3.386444999999999
 20
16.332611
 30
0.0
  0
VERTEX
  5
3AB
330
15C
100
AcDbEntity
  8
MO_001_VIEW_PV
  6
C_SOLID_M
100
AcDbVertex
100
AcDb2dVertex
 10
3.684978
 20
16.36181
 30
0.0
  0
VERTEX
  5
3AC
330
15C
100
AcDbEntity
  8
MO_001_VIEW_PV
  6
C_SOLID_M
100
AcDbVertex
100
AcDb2dVertex
 10
4.114448999999999
 20
16.42325699999999
 30
0.0
  0
VERTEX
  5
3AD
330
15C
100
AcDbEntity
  8
MO_001_VIEW_PV
  6
C_SOLID_M
100
AcDbVertex
100
AcDb2dVertex
 10
4.514366
 20
16.504763
 30
0.0
  0
SEQEND
  5
3AE
330
15C
100
AcDbEntity
  8
MO_001_VIEW_PV
  6
C_SOLID_M
  0
POLYLINE
  5
16C
330
1E
100
AcDbEntity
  8
MO_001_VIEW_PV
  6
C_SOLID_M
100
AcDb2dPolyline
 66
     1
 10
0.0
 20
0.0
 30
0.0
  0
VERTEX
  5
3AF
330
16C
100
AcDbEntity
  8
MO_001_VIEW_PV
  6
C_SOLID_M
100
AcDbVertex
100
AcDb2dVertex
 10
4.514383999999999
 20
14.941794
 30
0.0
  0
VERTEX
  5
3B0
330
16C
100
AcDbEntity
  8
MO_001_VIEW_PV
  6
C_SOLID_M
100
AcDbVertex
100
AcDb2dVertex
 10
4.247167
 20
14.999117
 30
0.0
  0
VERTEX
  5
3B1
330
16C
100
AcDbEntity
  8
MO_001_VIEW_PV
  6
C_SOLID_M
100
AcDbVertex
100
AcDb2dVertex
 10
4.00114
 20
15.041918
 30
0.0
  0
VERTEX
  5
3B2
330
16C
100
AcDbEntity
  8
MO_001_VIEW_PV
  6
C_SOLID_M
100
AcDbVertex
100
AcDb2dVertex
 10
3.548573
 20
15.09938599999999
 30
0.0
  0
VERTEX
  5
3B3
330
16C
100
AcDbEntity
  8
MO_001_VIEW_PV
  6
C_SOLID_M
100
AcDbVertex
100
AcDb2dVertex
 10
3.195691
 20
15.127313
 30
0.0
  0
VERTEX
  5
3B4
330
16C
100
AcDbEntity
  8
MO_001_VIEW_PV
  6
C_SOLID_M
100
AcDbVertex
100
AcDb2dVertex
 10
2.654927
 20
15.14402399999999
 30
0.0
  0
VERTEX
  5
3B5
330
16C
100
AcDbEntity
  8
MO_001_VIEW_PV
  6
C_SOLID_M
100
AcDbVertex
100
AcDb2dVertex
 10
2.113471
 20
15.130182
 30
0.0
  0
VERTEX
  5
3B6
330
16C
100
AcDbEntity
  8
MO_001_VIEW_PV
  6
C_SOLID_M
100
AcDbVertex
100
AcDb2dVertex
 10
1.804634
 20
15.108243
 30
0.0
  0
VERTEX
  5
3B7
330
16C
100
AcDbEntity
  8
MO_001_VIEW_PV
  6
C_SOLID_M
100
AcDbVertex
100
AcDb2dVertex
 10
1.540487
 20
15.080847
 30
0.0
  0
VERTEX
  5
3B8
330
16C
100
AcDbEntity
  8
MO_001_VIEW_PV
  6
C_SOLID_M
100
AcDbVertex
100
AcDb2dVertex
 10
1.097642999999999
 20
15.015113
 30
0.0
  0
VERTEX
  5
3B9
330
16C
100
AcDbEntity
  8
MO_001_VIEW_PV
  6
C_SOLID_M
100
AcDbVertex
100
AcDb2dVertex
 10
0.7865280000000001
 20
14.95167699999999
 30
0.0
  0
VERTEX
  5
3BA
330
16C
100
AcDbEntity
  8
MO_001_VIEW_PV
  6
C_SOLID_M
100
AcDbVertex
100
AcDb2dVertex
 10
0.567565
 20
14.896651
 30
0.0
  0
VERTEX
  5
3BB
330
16C
100
AcDbEntity
  8
MO_001_VIEW_PV
  6
C_SOLID_M
100
AcDbVertex
100
AcDb2dVertex
 10
0.265767
 20
14.803037
 30
0.0
  0
VERTEX
  5
3BC
330
16C
100
AcDbEntity
  8
MO_001_VIEW_PV
  6
C_SOLID_M
100
AcDbVertex
100
AcDb2dVertex
 10
-0.000002
 20
14.69741799999999
 30
0.0
  0
SEQEND
  5
3BD
330
16C
100
AcDbEntity
  8
MO_001_VIEW_PV
  6
C_SOLID_M
  0
POLYLINE
  5
17C
330
1E
100
AcDbEntity
  8
MO_001_VIEW_PV
  6
C_SOLID_M
100
AcDb2dPolyline
 66
     1
 10
0.0
 20
0.0
 30
0.0
  0
VERTEX
  5
3BE
330
17C
100
AcDbEntity
  8
MO_001_VIEW_PV
  6
C_SOLID_M
100
AcDbVertex
100
AcDb2dVertex
 10
5.295194
 20
16.34046099999999
 30
0.0
  0
VERTEX
  5
3BF
330
17C
100
AcDbEntity
  8
MO_001_VIEW_PV
  6
C_SOLID_M
100
AcDbVertex
100
AcDb2dVertex
 10
5.231409999999999
 20
16.18748599999999
 30
0.0
  0
VERTEX
  5
3C0
330
17C
100
AcDbEntity
  8
MO_001_VIEW_PV
  6
C_SOLID_M
100
AcDbVertex
100
AcDb2dVertex
 10
5.195439
 20
16.072245
 30
0.0
  0
VERTEX
  5
3C1
330
17C
100
AcDbEntity
  8
MO_001_VIEW_PV
  6
C_SOLID_M
100
AcDbVertex
100
AcDb2dVertex
 10
5.160631999999999
 20
15.89881799999999
 30
0.0
  0
VERTEX
  5
3C2
330
17C
100
AcDbEntity
  8
MO_001_VIEW_PV
  6
C_SOLID_M
100
AcDbVertex
100
AcDb2dVertex
 10
5.148865999999999
 20
15.72503
 30
0.0
  0
VERTEX
  5
3C3
330
17C
100
AcDbEntity
  8
MO_001_VIEW_PV
  6
C_SOLID_M
100
AcDbVertex
100
AcDb2dVertex
 10
5.157769999999999
 20
15.57053699999999
 30
0.0
  0
VERTEX
  5
3C4
330
17C
100
AcDbEntity
  8
MO_001_VIEW_PV
  6
C_SOLID_M
100
AcDbVertex
100
AcDb2dVertex
 10
5.176401
 20
15.454816
 30
0.0
  0
VERTEX
  5
3C5
330
17C
100
AcDbEntity
  8
MO_001_VIEW_PV
  6
C_SOLID_M
100
AcDbVertex
100
AcDb2dVertex
 10
5.223513999999999
 20
15.28172999999999
 30
0.0
  0
VERTEX
  5
3C6
330
17C
100
AcDbEntity
  8
MO_001_VIEW_PV
  6
C_SOLID_M
100
AcDbVertex
100
AcDb2dVertex
 10
5.293537999999999
 20
15.10955199999999
 30
0.0
  0
SEQEND
  5
3C7
330
17C
100
AcDbEntity
  8
MO_001_VIEW_PV
  6
C_SOLID_M
  0
POLYLINE
  5
187
330
1E
100
AcDbEntity
  8
MO_001_VIEW_PV
  6
C_SOLID_M
100
AcDb2dPolyline
 66
     1
 10
0.0
 20
0.0
 30
0.0
  0
VERTEX
  5
3C8
330
187
100
AcDbEntity
  8
MO_001_VIEW_PV
  6
C_SOLID_M
100
AcDbVertex
100
AcDb2dVertex
 10
4.514408
 20
14.941804
 30
0.0
  0
VERTEX
  5
3C9
330
187
100
AcDbEntity
  8
MO_001_VIEW_PV
  6
C_SOLID_M
100
AcDbVertex
100
AcDb2dVertex
 10
4.644858
 20
14.919604
 30
0.0
  0
VERTEX
  5
3CA
330
187
100
AcDbEntity
  8
MO_001_VIEW_PV
  6
C_SOLID_M
100
AcDbVertex
100
AcDb2dVertex
 10
4.861442
 20
14.912459
 30
0.0
  0
VERTEX
  5
3CB
330
187
100
AcDbEntity
  8
MO_001_VIEW_PV
  6
C_SOLID_M
100
AcDbVertex
100
AcDb2dVertex
 10
4.96794
 20
14.921097
 30
0.0
  0
VERTEX
  5
3CC
330
187
100
AcDbEntity
  8
MO_001_VIEW_PV
  6
C_SOLID_M
100
AcDbVertex
100
AcDb2dVertex
 10
5.06639
 20
14.937454
 30
0.0
  0
VERTEX
  5
3CD
330
187
100
AcDbEntity
  8
MO_001_VIEW_PV
  6
C_SOLID_M
100
AcDbVertex
100
AcDb2dVertex
 10
5.177069
 20
14.969866
 30
0.0
  0
VERTEX
  5
3CE
330
187
100
AcDbEntity
  8
MO_001_VIEW_PV
  6
C_SOLID_M
100
AcDbVertex
100
AcDb2dVertex
 10
5.239482999999999
 20
15.000617
 30
0.0
  0
VERTEX
  5
3CF
330
187
100
AcDbEntity
  8
MO_001_VIEW_PV
  6
C_SOLID_M
100
AcDbVertex
100
AcDb2dVertex
 10
5.272598999999999
 20
15.026333
 30
0.0
  0
VERTEX
  5
3D0
330
187
100
AcDbEntity
  8
MO_001_VIEW_PV
  6
C_SOLID_M
100
AcDbVertex
100
AcDb2dVertex
 10
5.298162
 20
15.06750499999999
 30
0.0
  0
VERTEX
  5
3D1
330
187
100
AcDbEntity
  8
MO_001_VIEW_PV
  6
C_SOLID_M
100
AcDbVertex
100
AcDb2dVertex
 10
5.293543999999999
 20
15.109566
 30
0.0
  0
SEQEND
  5
3D2
330
187
100
AcDbEntity
  8
MO_001_VIEW_PV
  6
C_SOLID_M
  0
POLYLINE
  5
193
330
1E
100
AcDbEntity
  8
MO_001_VIEW_PV
  6
C_SOLID_M
100
AcDb2dPolyline
 66
     1
 10
0.0
 20
0.0
 30
0.0
  0
VERTEX
  5
3D3
330
193
100
AcDbEntity
  8
MO_001_VIEW_PV
  6
C_SOLID_M
100
AcDbVertex
100
AcDb2dVertex
 10
5.293544999999999
 20
16.33698199999999
 30
0.0
  0
VERTEX
  5
3D4
330
193
100
AcDbEntity
  8
MO_001_VIEW_PV
  6
C_SOLID_M
100
AcDbVertex
100
AcDb2dVertex
 10
5.299948999999999
 20
16.361872
 30
0.0
  0
VERTEX
  5
3D5
330
193
100
AcDbEntity
  8
MO_001_VIEW_PV
  6
C_SOLID_M
100
AcDbVertex
100
AcDb2dVertex
 10
5.285523999999999
 20
16.405238
 30
0.0
  0
VERTEX
  5
3D6
330
193
100
AcDbEntity
  8
MO_001_VIEW_PV
  6
C_SOLID_M
100
AcDbVertex
100
AcDb2dVertex
 10
5.253823
 20
16.436165
 30
0.0
  0
VERTEX
  5
3D7
330
193
100
AcDbEntity
  8
MO_001_VIEW_PV
  6
C_SOLID_M
100
AcDbVertex
100
AcDb2dVertex
 10
5.175557
 20
16.477284
 30
0.0
  0
VERTEX
  5
3D8
330
193
100
AcDbEntity
  8
MO_001_VIEW_PV
  6
C_SOLID_M
100
AcDbVertex
100
AcDb2dVertex
 10
5.066378
 20
16.50910999999999
 30
0.0
  0
VERTEX
  5
3D9
330
193
100
AcDbEntity
  8
MO_001_VIEW_PV
  6
C_SOLID_M
100
AcDbVertex
100
AcDb2dVertex
 10
4.933072
 20
16.52923299999999
 30
0.0
  0
VERTEX
  5
3DA
330
193
100
AcDbEntity
  8
MO_001_VIEW_PV
  6
C_SOLID_M
100
AcDbVertex
100
AcDb2dVertex
 10
4.715753
 20
16.53295499999999
 30
0.0
  0
VERTEX
  5
3DB
330
193
100
AcDbEntity
  8
MO_001_VIEW_PV
  6
C_SOLID_M
100
AcDbVertex
100
AcDb2dVertex
 10
4.610532
 20
16.52264599999999
 30
0.0
  0
VERTEX
  5
3DC
330
193
100
AcDbEntity
  8
MO_001_VIEW_PV
  6
C_SOLID_M
100
AcDbVertex
100
AcDb2dVertex
 10
4.51439
 20
16.50475199999999
 30
0.0
  0
SEQEND
  5
3DD
330
193
100
AcDbEntity
  8
MO_001_VIEW_PV
  6
C_SOLID_M
  0
LINE
  5
19F
330
1E
100
AcDbEntity
  8
MO_001_VIEW_PV
  6
C_SOLID_M
100
AcDbLine
 10
5.300003
 20
-16.899994
 30
0.0
 11
5.300003
 21
-15.721695
 31
0.0
  0
ARC
  5
1A0
330
1E
100
AcDbEntity
  8
MO_001_VIEW_PV
  6
C_SOLID_M
100
AcDbCircle
 10
0.800003
 20
-17.699997
 30
0.0
 40
0.8
100
AcDbArc
 50
90.000002
 51
180.000005
  0
ARC
  5
1A1
330
1E
100
AcDbEntity
  8
MO_001_VIEW_PV
  6
C_SOLID_M
100
AcDbCircle
 10
0.800003
 20
-17.532364
 30
0.0
 40
0.8
100
AcDbArc
 50
90.000002
 51
180.000005
  0
ARC
  5
1A2
330
1E
100
AcDbEntity
  8
MO_001_VIEW_PV
  6
C_SOLID_M
100
AcDbCircle
 10
0.800003
 20
-17.532364
 30
0.0
 40
1.810658
100
AcDbArc
 50
90.000002
 51
116.220559
  0
POLYLINE
  5
1A3
330
1E
100
AcDbEntity
  8
MO_001_VIEW_PV
  6
C_SOLID_M
100
AcDb2dPolyline
 66
     1
 10
0.0
 20
0.0
 30
0.0
  0
VERTEX
  5
3DE
330
1A3
100
AcDbEntity
  8
MO_001_VIEW_PV
  6
C_SOLID_M
100
AcDbVertex
100
AcDb2dVertex
 10
5.300003
 20
-10.838623
 30
0.0
  0
VERTEX
  5
3DF
330
1A3
100
AcDbEntity
  8
MO_001_VIEW_PV
  6
C_SOLID_M
100
AcDbVertex
100
AcDb2dVertex
 10
5.281573999999999
 20
-10.752169
 30
0.0
  0
VERTEX
  5
3E0
330
1A3
100
AcDbEntity
  8
MO_001_VIEW_PV
  6
C_SOLID_M
100
AcDbVertex
100
AcDb2dVertex
 10
5.244280999999999
 20
-10.691176
 30
0.0
  0
VERTEX
  5
3E1
330
1A3
100
AcDbEntity
  8
MO_001_VIEW_PV
  6
C_SOLID_M
100
AcDbVertex
100
AcDb2dVertex
 10
5.204073999999999
 20
-10.649325
 30
0.0
  0
VERTEX
  5
3E2
330
1A3
100
AcDbEntity
  8
MO_001_VIEW_PV
  6
C_SOLID_M
100
AcDbVertex
100
AcDb2dVertex
 10
5.126373
 20
-10.595139
 30
0.0
  0
VERTEX
  5
3E3
330
1A3
100
AcDbEntity
  8
MO_001_VIEW_PV
  6
C_SOLID_M
100
AcDbVertex
100
AcDb2dVertex
 10
5.031513999999999
 20
-10.553755
 30
0.0
  0
VERTEX
  5
3E4
330
1A3
100
AcDbEntity
  8
MO_001_VIEW_PV
  6
C_SOLID_M
100
AcDbVertex
100
AcDb2dVertex
 10
4.903769
 20
-10.524225
 30
0.0
  0
VERTEX
  5
3E5
330
1A3
100
AcDbEntity
  8
MO_001_VIEW_PV
  6
C_SOLID_M
100
AcDbVertex
100
AcDb2dVertex
 10
4.802398
 20
-10.517231
 30
0.0
  0
VERTEX
  5
3E6
330
1A3
100
AcDbEntity
  8
MO_001_VIEW_PV
  6
C_SOLID_M
100
AcDbVertex
100
AcDb2dVertex
 10
4.651478
 20
-10.531734
 30
0.0
  0
VERTEX
  5
3E7
330
1A3
100
AcDbEntity
  8
MO_001_VIEW_PV
  6
C_SOLID_M
100
AcDbVertex
100
AcDb2dVertex
 10
4.514391999999999
 20
-10.57482299999999
 30
0.0
  0
SEQEND
  5
3E8
330
1A3
100
AcDbEntity
  8
MO_001_VIEW_PV
  6
C_SOLID_M
  0
POLYLINE
  5
1AF
330
1E
100
AcDbEntity
  8
MO_001_VIEW_PV
  6
C_SOLID_M
100
AcDb2dPolyline
 66
     1
 10
0.0
 20
0.0
 30
0.0
  0
VERTEX
  5
3E9
330
1AF
100
AcDbEntity
  8
MO_001_VIEW_PV
  6
C_SOLID_M
100
AcDbVertex
100
AcDb2dVertex
 10
-0.000001
 20
-10.11554899999999
 30
0.0
  0
VERTEX
  5
3EA
330
1AF
100
AcDbEntity
  8
MO_001_VIEW_PV
  6
C_SOLID_M
100
AcDbVertex
100
AcDb2dVertex
 10
0.2024
 20
-10.27105799999999
 30
0.0
  0
VERTEX
  5
3EB
330
1AF
100
AcDbEntity
  8
MO_001_VIEW_PV
  6
C_SOLID_M
100
AcDbVertex
100
AcDb2dVertex
 10
0.397757
 20
-10.396402
 30
0.0
  0
VERTEX
  5
3EC
330
1AF
100
AcDbEntity
  8
MO_001_VIEW_PV
  6
C_SOLID_M
100
AcDbVertex
100
AcDb2dVertex
 10
0.5815520000000002
 20
-10.49713799999999
 30
0.0
  0
VERTEX
  5
3ED
330
1AF
100
AcDbEntity
  8
MO_001_VIEW_PV
  6
C_SOLID_M
100
AcDbVertex
100
AcDb2dVertex
 10
0.751407
 20
-10.577989
 30
0.0
  0
VERTEX
  5
3EE
330
1AF
100
AcDbEntity
  8
MO_001_VIEW_PV
  6
C_SOLID_M
100
AcDbVertex
100
AcDb2dVertex
 10
1.066752
 20
-10.702078
 30
0.0
  0
VERTEX
  5
3EF
330
1AF
100
AcDbEntity
  8
MO_001_VIEW_PV
  6
C_SOLID_M
100
AcDbVertex
100
AcDb2dVertex
 10
1.316359999999999
 20
-10.779828
 30
0.0
  0
VERTEX
  5
3F0
330
1AF
100
AcDbEntity
  8
MO_001_VIEW_PV
  6
C_SOLID_M
100
AcDbVertex
100
AcDb2dVertex
 10
1.707595999999999
 20
-10.870528
 30
0.0
  0
VERTEX
  5
3F1
330
1AF
100
AcDbEntity
  8
MO_001_VIEW_PV
  6
C_SOLID_M
100
AcDbVertex
100
AcDb2dVertex
 10
2.113472
 20
-10.928877
 30
0.0
  0
VERTEX
  5
3F2
330
1AF
100
AcDbEntity
  8
MO_001_VIEW_PV
  6
C_SOLID_M
100
AcDbVertex
100
AcDb2dVertex
 10
2.427022
 20
-10.950965
 30
0.0
  0
VERTEX
  5
3F3
330
1AF
100
AcDbEntity
  8
MO_001_VIEW_PV
  6
C_SOLID_M
100
AcDbVertex
100
AcDb2dVertex
 10
2.702993999999999
 20
-10.954428
 30
0.0
  0
VERTEX
  5
3F4
330
1AF
100
AcDbEntity
  8
MO_001_VIEW_PV
  6
C_SOLID_M
100
AcDbVertex
100
AcDb2dVertex
 10
2.944112
 20
-10.945285
 30
0.0
  0
VERTEX
  5
3F5
330
1AF
100
AcDbEntity
  8
MO_001_VIEW_PV
  6
C_SOLID_M
100
AcDbVertex
100
AcDb2dVertex
 10
3.361238999999999
 20
-10.90212899999999
 30
0.0
  0
VERTEX
  5
3F6
330
1AF
100
AcDbEntity
  8
MO_001_VIEW_PV
  6
C_SOLID_M
100
AcDbVertex
100
AcDb2dVertex
 10
3.666579
 20
-10.847452
 30
0.0
  0
VERTEX
  5
3F7
330
1AF
100
AcDbEntity
  8
MO_001_VIEW_PV
  6
C_SOLID_M
100
AcDbVertex
100
AcDb2dVertex
 10
3.889455999999999
 20
-10.794219
 30
0.0
  0
VERTEX
  5
3F8
330
1AF
100
AcDbEntity
  8
MO_001_VIEW_PV
  6
C_SOLID_M
100
AcDbVertex
100
AcDb2dVertex
 10
4.211151999999999
 20
-10.695388
 30
0.0
  0
VERTEX
  5
3F9
330
1AF
100
AcDbEntity
  8
MO_001_VIEW_PV
  6
C_SOLID_M
100
AcDbVertex
100
AcDb2dVertex
 10
4.514383
 20
-10.574825
 30
0.0
  0
SEQEND
  5
3FA
330
1AF
100
AcDbEntity
  8
MO_001_VIEW_PV
  6
C_SOLID_M
  0
LINE
  5
1C2
330
1E
100
AcDbEntity
  8
MO_001_VIEW_PV
  6
C_SOLID_M
100
AcDbLine
 10
5.300003
 20
-10.838623
 30
0.0
 11
5.300003
 21
-11.61283899999999
 31
0.0
  0
POLYLINE
  5
1C3
330
1E
100
AcDbEntity
  8
MO_001_VIEW_PV
  6
C_SOLID_M
100
AcDb2dPolyline
 66
     1
 10
0.0
 20
0.0
 30
0.0
  0
VERTEX
  5
3FB
330
1C3
100
AcDbEntity
  8
MO_001_VIEW_PV
  6
C_SOLID_M
100
AcDbVertex
100
AcDb2dVertex
 10
0.0
 20
0.223769
 30
0.0
  0
VERTEX
  5
3FC
330
1C3
100
AcDbEntity
  8
MO_001_VIEW_PV
  6
C_SOLID_M
100
AcDbVertex
100
AcDb2dVertex
 10
0.2024
 20
-0.014484
 30
0.0
  0
VERTEX
  5
3FD
330
1C3
100
AcDbEntity
  8
MO_001_VIEW_PV
  6
C_SOLID_M
100
AcDbVertex
100
AcDb2dVertex
 10
0.397758
 20
-0.206521
 30
0.0
  0
VERTEX
  5
3FE
330
1C3
100
AcDbEntity
  8
MO_001_VIEW_PV
  6
C_SOLID_M
100
AcDbVertex
100
AcDb2dVertex
 10
0.581553
 20
-0.360856
 30
0.0
  0
VERTEX
  5
3FF
330
1C3
100
AcDbEntity
  8
MO_001_VIEW_PV
  6
C_SOLID_M
100
AcDbVertex
100
AcDb2dVertex
 10
0.751407
 20
-0.4847260000000001
 30
0.0
  0
VERTEX
  5
400
330
1C3
100
AcDbEntity
  8
MO_001_VIEW_PV
  6
C_SOLID_M
100
AcDbVertex
100
AcDb2dVertex
 10
0.9063739999999999
 20
-0.5841370000000001
 30
0.0
  0
VERTEX
  5
401
330
1C3
100
AcDbEntity
  8
MO_001_VIEW_PV
  6
C_SOLID_M
100
AcDbVertex
100
AcDb2dVertex
 10
1.190285
 20
-0.736985
 30
0.0
  0
VERTEX
  5
402
330
1C3
100
AcDbEntity
  8
MO_001_VIEW_PV
  6
C_SOLID_M
100
AcDbVertex
100
AcDb2dVertex
 10
1.412452
 20
-0.8332399999999999
 30
0.0
  0
VERTEX
  5
403
330
1C3
100
AcDbEntity
  8
MO_001_VIEW_PV
  6
C_SOLID_M
100
AcDbVertex
100
AcDb2dVertex
 10
1.757659999999999
 20
-0.9468429999999999
 30
0.0
  0
VERTEX
  5
404
330
1C3
100
AcDbEntity
  8
MO_001_VIEW_PV
  6
C_SOLID_M
100
AcDbVertex
100
AcDb2dVertex
 10
2.113472
 20
-1.022314999999999
 30
0.0
  0
VERTEX
  5
405
330
1C3
100
AcDbEntity
  8
MO_001_VIEW_PV
  6
C_SOLID_M
100
AcDbVertex
100
AcDb2dVertex
 10
2.427022
 20
-1.056157
 30
0.0
  0
VERTEX
  5
406
330
1C3
100
AcDbEntity
  8
MO_001_VIEW_PV
  6
C_SOLID_M
100
AcDbVertex
100
AcDb2dVertex
 10
2.702993999999999
 20
-1.061462
 30
0.0
  0
VERTEX
  5
407
330
1C3
100
AcDbEntity
  8
MO_001_VIEW_PV
  6
C_SOLID_M
100
AcDbVertex
100
AcDb2dVertex
 10
2.944112
 20
-1.047454
 30
0.0
  0
VERTEX
  5
408
330
1C3
100
AcDbEntity
  8
MO_001_VIEW_PV
  6
C_SOLID_M
100
AcDbVertex
100
AcDb2dVertex
 10
3.153750999999999
 20
-1.020974999999999
 30
0.0
  0
VERTEX
  5
409
330
1C3
100
AcDbEntity
  8
MO_001_VIEW_PV
  6
C_SOLID_M
100
AcDbVertex
100
AcDb2dVertex
 10
3.335449999999999
 20
-0.9870049999999999
 30
0.0
  0
VERTEX
  5
40A
330
1C3
100
AcDbEntity
  8
MO_001_VIEW_PV
  6
C_SOLID_M
100
AcDbVertex
100
AcDb2dVertex
 10
3.647747
 20
-0.903645
 30
0.0
  0
VERTEX
  5
40B
330
1C3
100
AcDbEntity
  8
MO_001_VIEW_PV
  6
C_SOLID_M
100
AcDbVertex
100
AcDb2dVertex
 10
3.875705
 20
-0.821568
 30
0.0
  0
VERTEX
  5
40C
330
1C3
100
AcDbEntity
  8
MO_001_VIEW_PV
  6
C_SOLID_M
100
AcDbVertex
100
AcDb2dVertex
 10
4.204625
 20
-0.668093
 30
0.0
  0
VERTEX
  5
40D
330
1C3
100
AcDbEntity
  8
MO_001_VIEW_PV
  6
C_SOLID_M
100
AcDbVertex
100
AcDb2dVertex
 10
4.514383
 20
-0.4798790000000001
 30
0.0
  0
SEQEND
  5
40E
330
1C3
100
AcDbEntity
  8
MO_001_VIEW_PV
  6
C_SOLID_M
  0
POLYLINE
  5
1D8
330
1E
100
AcDbEntity
  8
MO_001_VIEW_PV
  6
C_SOLID_M
100
AcDb2dPolyline
 66
     1
 10
0.0
 20
0.0
 30
0.0
  0
VERTEX
  5
40F
330
1D8
100
AcDbEntity
  8
MO_001_VIEW_PV
  6
C_SOLID_M
100
AcDbVertex
100
AcDb2dVertex
 10
5.300003
 20
-0.8840479999999999
 30
0.0
  0
VERTEX
  5
410
330
1D8
100
AcDbEntity
  8
MO_001_VIEW_PV
  6
C_SOLID_M
100
AcDbVertex
100
AcDb2dVertex
 10
5.281573999999999
 20
-0.7515950000000001
 30
0.0
  0
VERTEX
  5
411
330
1D8
100
AcDbEntity
  8
MO_001_VIEW_PV
  6
C_SOLID_M
100
AcDbVertex
100
AcDb2dVertex
 10
5.244280999999999
 20
-0.6581500000000001
 30
0.0
  0
VERTEX
  5
412
330
1D8
100
AcDbEntity
  8
MO_001_VIEW_PV
  6
C_SOLID_M
100
AcDbVertex
100
AcDb2dVertex
 10
5.204073999999999
 20
-0.5940300000000001
 30
0.0
  0
VERTEX
  5
413
330
1D8
100
AcDbEntity
  8
MO_001_VIEW_PV
  6
C_SOLID_M
100
AcDbVertex
100
AcDb2dVertex
 10
5.126373
 20
-0.5110140000000002
 30
0.0
  0
VERTEX
  5
414
330
1D8
100
AcDbEntity
  8
MO_001_VIEW_PV
  6
C_SOLID_M
100
AcDbVertex
100
AcDb2dVertex
 10
5.031513999999999
 20
-0.4476100000000001
 30
0.0
  0
VERTEX
  5
415
330
1D8
100
AcDbEntity
  8
MO_001_VIEW_PV
  6
C_SOLID_M
100
AcDbVertex
100
AcDb2dVertex
 10
4.903769999999999
 20
-0.402368
 30
0.0
  0
VERTEX
  5
416
330
1D8
100
AcDbEntity
  8
MO_001_VIEW_PV
  6
C_SOLID_M
100
AcDbVertex
100
AcDb2dVertex
 10
4.802398999999999
 20
-0.391653
 30
0.0
  0
VERTEX
  5
417
330
1D8
100
AcDbEntity
  8
MO_001_VIEW_PV
  6
C_SOLID_M
100
AcDbVertex
100
AcDb2dVertex
 10
4.726073
 20
-0.39706
 30
0.0
  0
VERTEX
  5
418
330
1D8
100
AcDbEntity
  8
MO_001_VIEW_PV
  6
C_SOLID_M
100
AcDbVertex
100
AcDb2dVertex
 10
4.615378999999999
 20
-0.426445
 30
0.0
  0
VERTEX
  5
419
330
1D8
100
AcDbEntity
  8
MO_001_VIEW_PV
  6
C_SOLID_M
100
AcDbVertex
100
AcDb2dVertex
 10
4.514391999999999
 20
-0.4798880000000001
 30
0.0
  0
SEQEND
  5
41A
330
1D8
100
AcDbEntity
  8
MO_001_VIEW_PV
  6
C_SOLID_M
  0
LINE
  5
1E5
330
1E
100
AcDbEntity
  8
MO_001_VIEW_PV
  6
C_SOLID_M
100
AcDbLine
 10
5.300003
 20
-0.8840479999999999
 30
0.0
 11
5.300003
 21
-1.059555
 31
0.0
  0
POLYLINE
  5
1E6
330
1E
100
AcDbEntity
  8
MO_001_VIEW_PV
  6
C_SOLID_M
100
AcDb2dPolyline
 66
     1
 10
0.0
 20
0.0
 30
0.0
  0
VERTEX
  5
41B
330
1E6
100
AcDbEntity
  8
MO_001_VIEW_PV
  6
C_SOLID_M
100
AcDbVertex
100
AcDb2dVertex
 10
4.514383
 20
5.882094
 30
0.0
  0
VERTEX
  5
41C
330
1E6
100
AcDbEntity
  8
MO_001_VIEW_PV
  6
C_SOLID_M
100
AcDbVertex
100
AcDb2dVertex
 10
4.247167
 20
6.027239999999999
 30
0.0
  0
VERTEX
  5
41D
330
1E6
100
AcDbEntity
  8
MO_001_VIEW_PV
  6
C_SOLID_M
100
AcDbVertex
100
AcDb2dVertex
 10
4.00114
 20
6.135615
 30
0.0
  0
VERTEX
  5
41E
330
1E6
100
AcDbEntity
  8
MO_001_VIEW_PV
  6
C_SOLID_M
100
AcDbVertex
100
AcDb2dVertex
 10
3.777932999999999
 20
6.215548
 30
0.0
  0
VERTEX
  5
41F
330
1E6
100
AcDbEntity
  8
MO_001_VIEW_PV
  6
C_SOLID_M
100
AcDbVertex
100
AcDb2dVertex
 10
3.577537999999999
 20
6.273729
 30
0.0
  0
VERTEX
  5
420
330
1E6
100
AcDbEntity
  8
MO_001_VIEW_PV
  6
C_SOLID_M
100
AcDbVertex
100
AcDb2dVertex
 10
3.217991
 20
6.348406999999999
 30
0.0
  0
VERTEX
  5
421
330
1E6
100
AcDbEntity
  8
MO_001_VIEW_PV
  6
C_SOLID_M
100
AcDbVertex
100
AcDb2dVertex
 10
2.943229999999999
 20
6.381283999999999
 30
0.0
  0
VERTEX
  5
422
330
1E6
100
AcDbEntity
  8
MO_001_VIEW_PV
  6
C_SOLID_M
100
AcDbVertex
100
AcDb2dVertex
 10
2.735597999999999
 20
6.392759999999999
 30
0.0
  0
VERTEX
  5
423
330
1E6
100
AcDbEntity
  8
MO_001_VIEW_PV
  6
C_SOLID_M
100
AcDbVertex
100
AcDb2dVertex
 10
2.423615999999999
 20
6.388682
 30
0.0
  0
VERTEX
  5
424
330
1E6
100
AcDbEntity
  8
MO_001_VIEW_PV
  6
C_SOLID_M
100
AcDbVertex
100
AcDb2dVertex
 10
2.113472999999999
 20
6.359105
 30
0.0
  0
VERTEX
  5
425
330
1E6
100
AcDbEntity
  8
MO_001_VIEW_PV
  6
C_SOLID_M
100
AcDbVertex
100
AcDb2dVertex
 10
1.804636
 20
6.303555999999999
 30
0.0
  0
VERTEX
  5
426
330
1E6
100
AcDbEntity
  8
MO_001_VIEW_PV
  6
C_SOLID_M
100
AcDbVertex
100
AcDb2dVertex
 10
1.540488999999999
 20
6.234187999999999
 30
0.0
  0
VERTEX
  5
427
330
1E6
100
AcDbEntity
  8
MO_001_VIEW_PV
  6
C_SOLID_M
100
AcDbVertex
100
AcDb2dVertex
 10
1.315547999999999
 20
6.157987
 30
0.0
  0
VERTEX
  5
428
330
1E6
100
AcDbEntity
  8
MO_001_VIEW_PV
  6
C_SOLID_M
100
AcDbVertex
100
AcDb2dVertex
 10
1.124457999999999
 20
6.079775999999999
 30
0.0
  0
VERTEX
  5
429
330
1E6
100
AcDbEntity
  8
MO_001_VIEW_PV
  6
C_SOLID_M
100
AcDbVertex
100
AcDb2dVertex
 10
0.805362
 20
5.918016999999999
 30
0.0
  0
VERTEX
  5
42A
330
1E6
100
AcDbEntity
  8
MO_001_VIEW_PV
  6
C_SOLID_M
100
AcDbVertex
100
AcDb2dVertex
 10
0.580858
 20
5.776951
 30
0.0
  0
VERTEX
  5
42B
330
1E6
100
AcDbEntity
  8
MO_001_VIEW_PV
  6
C_SOLID_M
100
AcDbVertex
100
AcDb2dVertex
 10
0.4218939999999999
 20
5.660705
 30
0.0
  0
VERTEX
  5
42C
330
1E6
100
AcDbEntity
  8
MO_001_VIEW_PV
  6
C_SOLID_M
100
AcDbVertex
100
AcDb2dVertex
 10
0.200089
 20
5.470657
 30
0.0
  0
VERTEX
  5
42D
330
1E6
100
AcDbEntity
  8
MO_001_VIEW_PV
  6
C_SOLID_M
100
AcDbVertex
100
AcDb2dVertex
 10
0.0
 20
5.263316999999999
 30
0.0
  0
SEQEND
  5
42E
330
1E6
100
AcDbEntity
  8
MO_001_VIEW_PV
  6
C_SOLID_M
  0
POLYLINE
  5
1FB
330
1E
100
AcDbEntity
  8
MO_001_VIEW_PV
  6
C_SOLID_M
100
AcDb2dPolyline
 66
     1
 10
0.0
 20
0.0
 30
0.0
  0
VERTEX
  5
42F
330
1FB
100
AcDbEntity
  8
MO_001_VIEW_PV
  6
C_SOLID_M
100
AcDbVertex
100
AcDb2dVertex
 10
4.514393
 20
5.882101999999999
 30
0.0
  0
VERTEX
  5
430
330
1FB
100
AcDbEntity
  8
MO_001_VIEW_PV
  6
C_SOLID_M
100
AcDbVertex
100
AcDb2dVertex
 10
4.635315
 20
5.828667
 30
0.0
  0
VERTEX
  5
431
330
1FB
100
AcDbEntity
  8
MO_001_VIEW_PV
  6
C_SOLID_M
100
AcDbVertex
100
AcDb2dVertex
 10
4.734500999999999
 20
5.808235999999999
 30
0.0
  0
VERTEX
  5
432
330
1FB
100
AcDbEntity
  8
MO_001_VIEW_PV
  6
C_SOLID_M
100
AcDbVertex
100
AcDb2dVertex
 10
4.810908999999999
 20
5.804606999999999
 30
0.0
  0
VERTEX
  5
433
330
1FB
100
AcDbEntity
  8
MO_001_VIEW_PV
  6
C_SOLID_M
100
AcDbVertex
100
AcDb2dVertex
 10
4.924483999999999
 20
5.818138999999999
 30
0.0
  0
VERTEX
  5
434
330
1FB
100
AcDbEntity
  8
MO_001_VIEW_PV
  6
C_SOLID_M
100
AcDbVertex
100
AcDb2dVertex
 10
5.031513999999999
 20
5.853717999999999
 30
0.0
  0
VERTEX
  5
435
330
1FB
100
AcDbEntity
  8
MO_001_VIEW_PV
  6
C_SOLID_M
100
AcDbVertex
100
AcDb2dVertex
 10
5.142191999999999
 20
5.921795999999999
 30
0.0
  0
VERTEX
  5
436
330
1FB
100
AcDbEntity
  8
MO_001_VIEW_PV
  6
C_SOLID_M
100
AcDbVertex
100
AcDb2dVertex
 10
5.209027999999999
 20
5.988470999999999
 30
0.0
  0
VERTEX
  5
437
330
1FB
100
AcDbEntity
  8
MO_001_VIEW_PV
  6
C_SOLID_M
100
AcDbVertex
100
AcDb2dVertex
 10
5.248121
 20
6.045441999999999
 30
0.0
  0
VERTEX
  5
438
330
1FB
100
AcDbEntity
  8
MO_001_VIEW_PV
  6
C_SOLID_M
100
AcDbVertex
100
AcDb2dVertex
 10
5.286859999999999
 20
6.138887999999999
 30
0.0
  0
VERTEX
  5
439
330
1FB
100
AcDbEntity
  8
MO_001_VIEW_PV
  6
C_SOLID_M
100
AcDbVertex
100
AcDb2dVertex
 10
5.300003
 20
6.237517999999999
 30
0.0
  0
SEQEND
  5
43A
330
1FB
100
AcDbEntity
  8
MO_001_VIEW_PV
  6
C_SOLID_M
  0
LINE
  5
208
330
1E
100
AcDbEntity
  8
MO_001_VIEW_PV
  6
C_SOLID_M
100
AcDbLine
 10
5.300003
 20
6.742843999999999
 30
0.0
 11
5.300003
 21
6.237517999999999
 31
0.0
  0
POLYLINE
  5
209
330
1E
100
AcDbEntity
  8
MO_001_VIEW_PV
  6
C_SOLID_M
100
AcDb2dPolyline
 66
     1
 10
0.0
 20
0.0
 30
0.0
  0
VERTEX
  5
43B
330
209
100
AcDbEntity
  8
MO_001_VIEW_PV
  6
C_SOLID_M
100
AcDbVertex
100
AcDb2dVertex
 10
4.514383999999999
 20
13.99208699999999
 30
0.0
  0
VERTEX
  5
43C
330
209
100
AcDbEntity
  8
MO_001_VIEW_PV
  6
C_SOLID_M
100
AcDbVertex
100
AcDb2dVertex
 10
4.247167
 20
14.04940999999999
 30
0.0
  0
VERTEX
  5
43D
330
209
100
AcDbEntity
  8
MO_001_VIEW_PV
  6
C_SOLID_M
100
AcDbVertex
100
AcDb2dVertex
 10
4.00114
 20
14.09221099999999
 30
0.0
  0
VERTEX
  5
43E
330
209
100
AcDbEntity
  8
MO_001_VIEW_PV
  6
C_SOLID_M
100
AcDbVertex
100
AcDb2dVertex
 10
3.548573
 20
14.149679
 30
0.0
  0
VERTEX
  5
43F
330
209
100
AcDbEntity
  8
MO_001_VIEW_PV
  6
C_SOLID_M
100
AcDbVertex
100
AcDb2dVertex
 10
3.195691
 20
14.177606
 30
0.0
  0
VERTEX
  5
440
330
209
100
AcDbEntity
  8
MO_001_VIEW_PV
  6
C_SOLID_M
100
AcDbVertex
100
AcDb2dVertex
 10
2.654927
 20
14.194317
 30
0.0
  0
VERTEX
  5
441
330
209
100
AcDbEntity
  8
MO_001_VIEW_PV
  6
C_SOLID_M
100
AcDbVertex
100
AcDb2dVertex
 10
2.113471
 20
14.180475
 30
0.0
  0
VERTEX
  5
442
330
209
100
AcDbEntity
  8
MO_001_VIEW_PV
  6
C_SOLID_M
100
AcDbVertex
100
AcDb2dVertex
 10
1.804634
 20
14.15853599999999
 30
0.0
  0
VERTEX
  5
443
330
209
100
AcDbEntity
  8
MO_001_VIEW_PV
  6
C_SOLID_M
100
AcDbVertex
100
AcDb2dVertex
 10
1.540487
 20
14.13114
 30
0.0
  0
VERTEX
  5
444
330
209
100
AcDbEntity
  8
MO_001_VIEW_PV
  6
C_SOLID_M
100
AcDbVertex
100
AcDb2dVertex
 10
1.097642999999999
 20
14.065406
 30
0.0
  0
VERTEX
  5
445
330
209
100
AcDbEntity
  8
MO_001_VIEW_PV
  6
C_SOLID_M
100
AcDbVertex
100
AcDb2dVertex
 10
0.7865280000000001
 20
14.00197
 30
0.0
  0
VERTEX
  5
446
330
209
100
AcDbEntity
  8
MO_001_VIEW_PV
  6
C_SOLID_M
100
AcDbVertex
100
AcDb2dVertex
 10
0.567565
 20
13.946944
 30
0.0
  0
VERTEX
  5
447
330
209
100
AcDbEntity
  8
MO_001_VIEW_PV
  6
C_SOLID_M
100
AcDbVertex
100
AcDb2dVertex
 10
0.265767
 20
13.85333
 30
0.0
  0
VERTEX
  5
448
330
209
100
AcDbEntity
  8
MO_001_VIEW_PV
  6
C_SOLID_M
100
AcDbVertex
100
AcDb2dVertex
 10
-0.000002
 20
13.747711
 30
0.0
  0
SEQEND
  5
449
330
209
100
AcDbEntity
  8
MO_001_VIEW_PV
  6
C_SOLID_M
  0
POLYLINE
  5
219
330
1E
100
AcDbEntity
  8
MO_001_VIEW_PV
  6
C_SOLID_M
100
AcDb2dPolyline
 66
     1
 10
0.0
 20
0.0
 30
0.0
  0
VERTEX
  5
44A
330
219
100
AcDbEntity
  8
MO_001_VIEW_PV
  6
C_SOLID_M
100
AcDbVertex
100
AcDb2dVertex
 10
4.514408
 20
13.992097
 30
0.0
  0
VERTEX
  5
44B
330
219
100
AcDbEntity
  8
MO_001_VIEW_PV
  6
C_SOLID_M
100
AcDbVertex
100
AcDb2dVertex
 10
4.63533
 20
13.970997
 30
0.0
  0
VERTEX
  5
44C
330
219
100
AcDbEntity
  8
MO_001_VIEW_PV
  6
C_SOLID_M
100
AcDbVertex
100
AcDb2dVertex
 10
4.836422999999999
 20
13.961911
 30
0.0
  0
VERTEX
  5
44D
330
219
100
AcDbEntity
  8
MO_001_VIEW_PV
  6
C_SOLID_M
100
AcDbVertex
100
AcDb2dVertex
 10
5.031521999999999
 20
13.980893
 30
0.0
  0
VERTEX
  5
44E
330
219
100
AcDbEntity
  8
MO_001_VIEW_PV
  6
C_SOLID_M
100
AcDbVertex
100
AcDb2dVertex
 10
5.142197
 20
14.007779
 30
0.0
  0
VERTEX
  5
44F
330
219
100
AcDbEntity
  8
MO_001_VIEW_PV
  6
C_SOLID_M
100
AcDbVertex
100
AcDb2dVertex
 10
5.209030999999999
 20
14.03411
 30
0.0
  0
VERTEX
  5
450
330
219
100
AcDbEntity
  8
MO_001_VIEW_PV
  6
C_SOLID_M
100
AcDbVertex
100
AcDb2dVertex
 10
5.248122
 20
14.05660799999999
 30
0.0
  0
VERTEX
  5
451
330
219
100
AcDbEntity
  8
MO_001_VIEW_PV
  6
C_SOLID_M
100
AcDbVertex
100
AcDb2dVertex
 10
5.286859999999999
 20
14.093511
 30
0.0
  0
VERTEX
  5
452
330
219
100
AcDbEntity
  8
MO_001_VIEW_PV
  6
C_SOLID_M
100
AcDbVertex
100
AcDb2dVertex
 10
5.300003
 20
14.132462
 30
0.0
  0
SEQEND
  5
453
330
219
100
AcDbEntity
  8
MO_001_VIEW_PV
  6
C_SOLID_M
  0
LINE
  5
224
330
1E
100
AcDbEntity
  8
MO_001_VIEW_PV
  6
C_SOLID_M
100
AcDbLine
 10
5.399994
 20
15.89999399999999
 30
0.0
 11
5.399994
 21
-15.89999399999999
 31
0.0
  0
LINE
  5
225
330
1E
100
AcDbEntity
  8
MO_001_VIEW_PV
  6
C_SOLID_M
100
AcDbLine
 10
6.281998
 20
-7.054992999999999
 30
0.0
 11
6.281998
 21
6.554992999999999
 31
0.0
  0
LINE
  5
226
330
1E
100
AcDbEntity
  8
MO_001_VIEW_PV
  6
C_SOLID_M
100
AcDbLine
 10
5.160782
 20
15.89999399999999
 30
0.0
 11
5.399994
 21
15.89999399999999
 31
0.0
  0
LINE
  5
227
330
1E
100
AcDbEntity
  8
MO_001_VIEW_PV
  6
C_SOLID_M
100
AcDbLine
 10
5.300003
 20
-15.89999399999999
 30
0.0
 11
5.399994
 21
-15.89999399999999
 31
0.0
  0
LINE
  5
228
330
1E
100
AcDbEntity
  8
MO_001_VIEW_PV
  6
C_SOLID_M
100
AcDbLine
 10
5.399994
 20
13.231003
 30
0.0
 11
5.473327999999999
 21
13.231003
 31
0.0
  0
LINE
  5
229
330
1E
100
AcDbEntity
  8
MO_001_VIEW_PV
  6
C_SOLID_M
100
AcDbLine
 10
5.55545
 20
-12.938751
 30
0.0
 11
5.742888999999999
 21
-12.938751
 31
0.0
  0
LINE
  5
22A
330
1E
100
AcDbEntity
  8
MO_001_VIEW_PV
  6
C_SOLID_M
100
AcDbLine
 10
5.735687
 20
-10.977493
 30
0.0
 11
5.922591999999999
 21
-10.977493
 31
0.0
  0
LINE
  5
22B
330
1E
100
AcDbEntity
  8
MO_001_VIEW_PV
  6
C_SOLID_M
100
AcDbLine
 10
5.914138999999999
 20
-9.016250999999998
 30
0.0
 11
6.114212
 21
-9.016250999999998
 31
0.0
  0
LINE
  5
22C
330
1E
100
AcDbEntity
  8
MO_001_VIEW_PV
  6
C_SOLID_M
100
AcDbLine
 10
6.091766
 20
-7.054992999999999
 30
0.0
 11
6.102294999999999
 21
-7.054992999999999
 31
0.0
  0
LINE
  5
22D
330
1E
100
AcDbEntity
  8
MO_001_VIEW_PV
  6
C_SOLID_M
100
AcDbLine
 10
5.479065
 20
11.561996
 30
0.0
 11
5.65303
 21
11.561996
 31
0.0
  0
LINE
  5
22E
330
1E
100
AcDbEntity
  8
MO_001_VIEW_PV
  6
C_SOLID_M
100
AcDbLine
 10
5.659149
 20
9.893005
 30
0.0
 11
5.832733
 21
9.893005
 31
0.0
  0
LINE
  5
22F
330
1E
100
AcDbEntity
  8
MO_001_VIEW_PV
  6
C_SOLID_M
100
AcDbLine
 10
5.842071999999999
 20
7.723999
 30
0.0
 11
6.012436
 21
7.723999
 31
0.0
  0
LINE
  5
230
330
1E
100
AcDbEntity
  8
MO_001_VIEW_PV
  6
C_SOLID_M
100
AcDbLine
 10
6.016036999999999
 20
7.054992999999999
 30
0.0
 11
6.192139
 21
7.054992999999999
 31
0.0
  0
LINE
  5
231
330
1E
100
AcDbEntity
  8
MO_001_VIEW_PV
  6
C_SOLID_M
100
AcDbLine
 10
6.195327999999999
 20
6.554992999999999
 30
0.0
 11
6.281998
 21
6.554992999999999
 31
0.0
  0
LINE
  5
232
330
1E
100
AcDbEntity
  8
MO_001_VIEW_PV
  6
C_SOLID_M
100
AcDbLine
 10
6.102294999999999
 20
-7.054992999999999
 30
0.0
 11
6.281998
 21
-7.054992999999999
 31
0.0
  0
LINE
  5
233
330
1E
100
AcDbEntity
  8
MO_001_VIEW_PV
  6
C_SOLID_M
100
AcDbLine
 10
5.399994
 20
-15.399994
 30
0.0
 11
5.563187
 21
-15.399994
 31
0.0
  0
LINE
  5
234
330
1E
100
AcDbEntity
  8
MO_001_VIEW_PV
  6
C_SOLID_M
100
AcDbLine
 10
5.563176
 20
-15.39998599999999
 30
0.0
 11
5.473323999999999
 21
13.23102099999999
 31
0.0
  0
LINE
  5
235
330
1E
100
AcDbEntity
  8
MO_001_VIEW_PV
  6
C_SOLID_M
100
AcDbLine
 10
5.653037
 20
11.56198999999999
 30
0.0
 11
5.742888999999999
 21
-12.938746
 31
0.0
  0
LINE
  5
236
330
1E
100
AcDbEntity
  8
MO_001_VIEW_PV
  6
C_SOLID_M
100
AcDbLine
 10
5.922587999999999
 20
-10.97751399999999
 30
0.0
 11
5.832735999999999
 21
9.893005999999999
 31
0.0
  0
LINE
  5
237
330
1E
100
AcDbEntity
  8
MO_001_VIEW_PV
  6
C_SOLID_M
100
AcDbLine
 10
6.01245
 20
7.724008999999999
 30
0.0
 11
6.102301999999999
 21
-9.016242999999999
 31
0.0
  0
LINE
  5
238
330
1E
100
AcDbEntity
  8
MO_001_VIEW_PV
  6
C_SOLID_M
100
AcDbLine
 10
6.192142999999999
 20
7.054985
 30
0.0
 11
6.281994999999999
 21
-7.054989999999999
 31
0.0
  0
POLYLINE
  5
239
330
1E
100
AcDbEntity
  8
MO_001_VIEW_PV
  6
C_SOLID_M
100
AcDb2dPolyline
 66
     1
 10
0.0
 20
0.0
 30
0.0
  0
VERTEX
  5
454
330
239
100
AcDbEntity
  8
MO_001_VIEW_PV
  6
C_SOLID_M
100
AcDbVertex
100
AcDb2dVertex
 10
-65.900002
 20
-41.19375499999999
 30
0.0
  0
VERTEX
  5
455
330
239
100
AcDbEntity
  8
MO_001_VIEW_PV
  6
C_SOLID_M
100
AcDbVertex
100
AcDb2dVertex
 10
-65.752524
 20
-41.13689199999999
 30
0.0
  0
VERTEX
  5
456
330
239
100
AcDbEntity
  8
MO_001_VIEW_PV
  6
C_SOLID_M
100
AcDbVertex
100
AcDb2dVertex
 10
-65.62039
 20
-41.07780499999999
 30
0.0
  0
VERTEX
  5
457
330
239
100
AcDbEntity
  8
MO_001_VIEW_PV
  6
C_SOLID_M
100
AcDbVertex
100
AcDb2dVertex
 10
-65.503128
 20
-41.01710599999999
 30
0.0
  0
VERTEX
  5
458
330
239
100
AcDbEntity
  8
MO_001_VIEW_PV
  6
C_SOLID_M
100
AcDbVertex
100
AcDb2dVertex
 10
-65.400168
 20
-40.95534699999999
 30
0.0
  0
VERTEX
  5
459
330
239
100
AcDbEntity
  8
MO_001_VIEW_PV
  6
C_SOLID_M
100
AcDbVertex
100
AcDb2dVertex
 10
-65.310867
 20
-40.893017
 30
0.0
  0
VERTEX
  5
45A
330
239
100
AcDbEntity
  8
MO_001_VIEW_PV
  6
C_SOLID_M
100
AcDbVertex
100
AcDb2dVertex
 10
-65.23453100000001
 20
-40.830548
 30
0.0
  0
VERTEX
  5
45B
330
239
100
AcDbEntity
  8
MO_001_VIEW_PV
  6
C_SOLID_M
100
AcDbVertex
100
AcDb2dVertex
 10
-65.170426
 20
-40.76831699999999
 30
0.0
  0
VERTEX
  5
45C
330
239
100
AcDbEntity
  8
MO_001_VIEW_PV
  6
C_SOLID_M
100
AcDbVertex
100
AcDb2dVertex
 10
-65.07469799999999
 20
-40.643852
 30
0.0
  0
VERTEX
  5
45D
330
239
100
AcDbEntity
  8
MO_001_VIEW_PV
  6
C_SOLID_M
100
AcDbVertex
100
AcDb2dVertex
 10
-65.02005200000001
 20
-40.523845
 30
0.0
  0
VERTEX
  5
45E
330
239
100
AcDbEntity
  8
MO_001_VIEW_PV
  6
C_SOLID_M
100
AcDbVertex
100
AcDb2dVertex
 10
-65.00031400000001
 20
-40.409804
 30
0.0
  0
VERTEX
  5
45F
330
239
100
AcDbEntity
  8
MO_001_VIEW_PV
  6
C_SOLID_M
100
AcDbVertex
100
AcDb2dVertex
 10
-65.009699
 20
-40.302701
 30
0.0
  0
VERTEX
  5
460
330
239
100
AcDbEntity
  8
MO_001_VIEW_PV
  6
C_SOLID_M
100
AcDbVertex
100
AcDb2dVertex
 10
-65.042934
 20
-40.203081
 30
0.0
  0
VERTEX
  5
461
330
239
100
AcDbEntity
  8
MO_001_VIEW_PV
  6
C_SOLID_M
100
AcDbVertex
100
AcDb2dVertex
 10
-65.095314
 20
-40.111163
 30
0.0
  0
VERTEX
  5
462
330
239
100
AcDbEntity
  8
MO_001_VIEW_PV
  6
C_SOLID_M
100
AcDbVertex
100
AcDb2dVertex
 10
-65.162716
 20
-40.026922
 30
0.0
  0
VERTEX
  5
463
330
239
100
AcDbEntity
  8
MO_001_VIEW_PV
  6
C_SOLID_M
100
AcDbVertex
100
AcDb2dVertex
 10
-65.24157999999999
 20
-39.950155
 30
0.0
  0
VERTEX
  5
464
330
239
100
AcDbEntity
  8
MO_001_VIEW_PV
  6
C_SOLID_M
100
AcDbVertex
100
AcDb2dVertex
 10
-65.32887399999999
 20
-39.880536
 30
0.0
  0
VERTEX
  5
465
330
239
100
AcDbEntity
  8
MO_001_VIEW_PV
  6
C_SOLID_M
100
AcDbVertex
100
AcDb2dVertex
 10
-65.422048
 20
-39.817662
 30
0.0
  0
VERTEX
  5
466
330
239
100
AcDbEntity
  8
MO_001_VIEW_PV
  6
C_SOLID_M
100
AcDbVertex
100
AcDb2dVertex
 10
-65.62478399999999
 20
-39.707012
 30
0.0
  0
VERTEX
  5
467
330
239
100
AcDbEntity
  8
MO_001_VIEW_PV
  6
C_SOLID_M
100
AcDbVertex
100
AcDb2dVertex
 10
-65.830021
 20
-39.61909099999999
 30
0.0
  0
VERTEX
  5
468
330
239
100
AcDbEntity
  8
MO_001_VIEW_PV
  6
C_SOLID_M
100
AcDbVertex
100
AcDb2dVertex
 10
-66.028874
 20
-39.549861
 30
0.0
  0
VERTEX
  5
469
330
239
100
AcDbEntity
  8
MO_001_VIEW_PV
  6
C_SOLID_M
100
AcDbVertex
100
AcDb2dVertex
 10
-66.216105
 20
-39.495719
 30
0.0
  0
VERTEX
  5
46A
330
239
100
AcDbEntity
  8
MO_001_VIEW_PV
  6
C_SOLID_M
100
AcDbVertex
100
AcDb2dVertex
 10
-66.569266
 20
-39.416602
 30
0.0
  0
VERTEX
  5
46B
330
239
100
AcDbEntity
  8
MO_001_VIEW_PV
  6
C_SOLID_M
100
AcDbVertex
100
AcDb2dVertex
 10
-66.851507
 20
-39.371189
 30
0.0
  0
VERTEX
  5
46C
330
239
100
AcDbEntity
  8
MO_001_VIEW_PV
  6
C_SOLID_M
100
AcDbVertex
100
AcDb2dVertex
 10
-67.29446
 20
-39.326772
 30
0.0
  0
VERTEX
  5
46D
330
239
100
AcDbEntity
  8
MO_001_VIEW_PV
  6
C_SOLID_M
100
AcDbVertex
100
AcDb2dVertex
 10
-67.75
 20
-39.31182899999999
 30
0.0
  0
VERTEX
  5
46E
330
239
100
AcDbEntity
  8
MO_001_VIEW_PV
  6
C_SOLID_M
100
AcDbVertex
100
AcDb2dVertex
 10
-68.161585
 20
-39.32401199999999
 30
0.0
  0
VERTEX
  5
46F
330
239
100
AcDbEntity
  8
MO_001_VIEW_PV
  6
C_SOLID_M
100
AcDbVertex
100
AcDb2dVertex
 10
-68.53919799999999
 20
-39.357326
 30
0.0
  0
VERTEX
  5
470
330
239
100
AcDbEntity
  8
MO_001_VIEW_PV
  6
C_SOLID_M
100
AcDbVertex
100
AcDb2dVertex
 10
-68.879153
 20
-39.40721299999999
 30
0.0
  0
VERTEX
  5
471
330
239
100
AcDbEntity
  8
MO_001_VIEW_PV
  6
C_SOLID_M
100
AcDbVertex
100
AcDb2dVertex
 10
-69.18011599999999
 20
-39.469595
 30
0.0
  0
VERTEX
  5
472
330
239
100
AcDbEntity
  8
MO_001_VIEW_PV
  6
C_SOLID_M
100
AcDbVertex
100
AcDb2dVertex
 10
-69.442474
 20
-39.54094099999999
 30
0.0
  0
VERTEX
  5
473
330
239
100
AcDbEntity
  8
MO_001_VIEW_PV
  6
C_SOLID_M
100
AcDbVertex
100
AcDb2dVertex
 10
-69.66781999999999
 20
-39.618263
 30
0.0
  0
VERTEX
  5
474
330
239
100
AcDbEntity
  8
MO_001_VIEW_PV
  6
C_SOLID_M
100
AcDbVertex
100
AcDb2dVertex
 10
-69.85853099999999
 20
-39.69909799999999
 30
0.0
  0
VERTEX
  5
475
330
239
100
AcDbEntity
  8
MO_001_VIEW_PV
  6
C_SOLID_M
100
AcDbVertex
100
AcDb2dVertex
 10
-70.01745200000001
 20
-39.781452
 30
0.0
  0
VERTEX
  5
476
330
239
100
AcDbEntity
  8
MO_001_VIEW_PV
  6
C_SOLID_M
100
AcDbVertex
100
AcDb2dVertex
 10
-70.14765099999999
 20
-39.863752
 30
0.0
  0
VERTEX
  5
477
330
239
100
AcDbEntity
  8
MO_001_VIEW_PV
  6
C_SOLID_M
100
AcDbVertex
100
AcDb2dVertex
 10
-70.25224099999999
 20
-39.94478499999999
 30
0.0
  0
VERTEX
  5
478
330
239
100
AcDbEntity
  8
MO_001_VIEW_PV
  6
C_SOLID_M
100
AcDbVertex
100
AcDb2dVertex
 10
-70.334265
 20
-40.023641
 30
0.0
  0
VERTEX
  5
479
330
239
100
AcDbEntity
  8
MO_001_VIEW_PV
  6
C_SOLID_M
100
AcDbVertex
100
AcDb2dVertex
 10
-70.396608
 20
-40.099662
 30
0.0
  0
VERTEX
  5
47A
330
239
100
AcDbEntity
  8
MO_001_VIEW_PV
  6
C_SOLID_M
100
AcDbVertex
100
AcDb2dVertex
 10
-70.44195000000001
 20
-40.17239599999999
 30
0.0
  0
VERTEX
  5
47B
330
239
100
AcDbEntity
  8
MO_001_VIEW_PV
  6
C_SOLID_M
100
AcDbVertex
100
AcDb2dVertex
 10
-70.47274300000001
 20
-40.241552
 30
0.0
  0
VERTEX
  5
47C
330
239
100
AcDbEntity
  8
MO_001_VIEW_PV
  6
C_SOLID_M
100
AcDbVertex
100
AcDb2dVertex
 10
-70.49119399999999
 20
-40.30697299999999
 30
0.0
  0
VERTEX
  5
47D
330
239
100
AcDbEntity
  8
MO_001_VIEW_PV
  6
C_SOLID_M
100
AcDbVertex
100
AcDb2dVertex
 10
-70.498404
 20
-40.430309
 30
0.0
  0
VERTEX
  5
47E
330
239
100
AcDbEntity
  8
MO_001_VIEW_PV
  6
C_SOLID_M
100
AcDbVertex
100
AcDb2dVertex
 10
-70.475374
 20
-40.53789
 30
0.0
  0
VERTEX
  5
47F
330
239
100
AcDbEntity
  8
MO_001_VIEW_PV
  6
C_SOLID_M
100
AcDbVertex
100
AcDb2dVertex
 10
-70.432936
 20
-40.630879
 30
0.0
  0
VERTEX
  5
480
330
239
100
AcDbEntity
  8
MO_001_VIEW_PV
  6
C_SOLID_M
100
AcDbVertex
100
AcDb2dVertex
 10
-70.378997
 20
-40.71078299999999
 30
0.0
  0
VERTEX
  5
481
330
239
100
AcDbEntity
  8
MO_001_VIEW_PV
  6
C_SOLID_M
100
AcDbVertex
100
AcDb2dVertex
 10
-70.31918799999999
 20
-40.779193
 30
0.0
  0
VERTEX
  5
482
330
239
100
AcDbEntity
  8
MO_001_VIEW_PV
  6
C_SOLID_M
100
AcDbVertex
100
AcDb2dVertex
 10
-70.18705899999999
 20
-40.89457999999999
 30
0.0
  0
VERTEX
  5
483
330
239
100
AcDbEntity
  8
MO_001_VIEW_PV
  6
C_SOLID_M
100
AcDbVertex
100
AcDb2dVertex
 10
-70.06595400000001
 20
-40.976702
 30
0.0
  0
VERTEX
  5
484
330
239
100
AcDbEntity
  8
MO_001_VIEW_PV
  6
C_SOLID_M
100
AcDbVertex
100
AcDb2dVertex
 10
-69.851171
 20
-41.09127199999999
 30
0.0
  0
VERTEX
  5
485
330
239
100
AcDbEntity
  8
MO_001_VIEW_PV
  6
C_SOLID_M
100
AcDbVertex
100
AcDb2dVertex
 10
-69.599997
 20
-41.19375499999999
 30
0.0
  0
SEQEND
  5
486
330
239
100
AcDbEntity
  8
MO_001_VIEW_PV
  6
C_SOLID_M
  0
LINE
  5
26D
330
1E
100
AcDbEntity
  8
MO_001_VIEW_PV
  6
C_SOLID_M
100
AcDbLine
 10
-73.150009
 20
-42.850006
 30
0.0
 11
-69.599998
 21
-42.850006
 31
0.0
  0
LINE
  5
26E
330
1E
100
AcDbEntity
  8
MO_001_VIEW_PV
  6
C_SOLID_M
100
AcDbLine
 10
6.281998
 20
-11.100006
 30
0.0
 11
6.281998
 21
11.100006
 31
0.0
  0
LINE
  5
26F
330
1E
100
AcDbEntity
  8
MO_001_VIEW_PV
  6
C_SOLID_M
100
AcDbLine
 10
10.681992
 20
-4.324996999999999
 30
0.0
 11
10.681992
 21
4.324996999999999
 31
0.0
  0
LINE
  5
270
330
1E
100
AcDbEntity
  8
MO_001_VIEW_PV
  6
C_SOLID_M
100
AcDbLine
 10
9.281997999999999
 20
4.324996999999999
 30
0.0
 11
10.681992
 21
4.324996999999999
 31
0.0
  0
LINE
  5
271
330
1E
100
AcDbEntity
  8
MO_001_VIEW_PV
  6
C_SOLID_M
100
AcDbLine
 10
9.281997999999999
 20
-4.324996999999999
 30
0.0
 11
10.681992
 21
-4.324996999999999
 31
0.0
  0
LINE
  5
272
330
1E
100
AcDbEntity
  8
MO_001_VIEW_PV
  6
C_SOLID_M
100
AcDbLine
 10
9.281997999999999
 20
-11.100006
 30
0.0
 11
9.281997999999999
 21
11.100006
 31
0.0
  0
LINE
  5
273
330
1E
100
AcDbEntity
  8
MO_001_VIEW_PV
  6
C_SOLID_M
100
AcDbLine
 10
6.281998
 20
11.100006
 30
0.0
 11
9.281997999999999
 21
11.100006
 31
0.0
  0
LINE
  5
274
330
1E
100
AcDbEntity
  8
MO_001_VIEW_PV
  6
C_SOLID_M
100
AcDbLine
 10
6.281998
 20
-11.100006
 30
0.0
 11
9.281997999999999
 21
-11.100006
 31
0.0
  0
LINE
  5
275
330
1E
100
AcDbEntity
  8
MO_001_VIEW_PV
  6
C_SOLID_M
100
AcDbLine
 10
-75.5
 20
42.70000099999999
 30
0.0
 11
-75.5
 21
-42.70000099999999
 31
0.0
  0
LINE
  5
276
330
1E
100
AcDbEntity
  8
MO_001_VIEW_PV
  6
C_SOLID_M
100
AcDbLine
 10
-94.0
 20
29.35
 30
0.0
 11
-94.0
 21
-29.35
 31
0.0
  0
LINE
  5
277
330
1E
100
AcDbEntity
  8
MO_001_VIEW_PV
  6
C_SOLID_M
100
AcDbLine
 10
-84.09999799999999
 20
-42.70000099999999
 30
0.0
 11
-75.5
 21
-42.70000099999999
 31
0.0
  0
ARC
  5
278
330
1E
100
AcDbEntity
  8
MO_001_VIEW_PV
  6
C_SOLID_M
100
AcDbCircle
 10
-84.09999799999999
 20
-38.5
 30
0.0
 40
4.2
100
AcDbArc
 50
214.997789
 51
269.999998
  0
LINE
  5
279
330
1E
100
AcDbEntity
  8
MO_001_VIEW_PV
  6
C_SOLID_M
100
AcDbLine
 10
-92.66189200000001
 20
-33.594234
 30
0.0
 11
-87.540536
 21
-40.908889
 31
0.0
  0
ARC
  5
27A
330
1E
100
AcDbEntity
  8
MO_001_VIEW_PV
  6
C_SOLID_M
100
AcDbCircle
 10
-86.59999799999999
 20
-29.35
 30
0.0
 40
7.4
100
AcDbArc
 50
180.000009
 51
214.997789
  0
ARC
  5
27B
330
1E
100
AcDbEntity
  8
MO_001_VIEW_PV
  6
C_SOLID_M
100
AcDbCircle
 10
-86.59999799999999
 20
29.35
 30
0.0
 40
7.4
100
AcDbArc
 50
145.002211
 51
179.9999909999999
  0
LINE
  5
27C
330
1E
100
AcDbEntity
  8
MO_001_VIEW_PV
  6
C_SOLID_M
100
AcDbLine
 10
-92.66189200000001
 20
33.594234
 30
0.0
 11
-87.540536
 21
40.908889
 31
0.0
  0
ARC
  5
27D
330
1E
100
AcDbEntity
  8
MO_001_VIEW_PV
  6
C_SOLID_M
100
AcDbCircle
 10
-84.09999799999999
 20
38.5
 30
0.0
 40
4.2
100
AcDbArc
 50
90.000002
 51
145.002211
  0
LINE
  5
27E
330
1E
100
AcDbEntity
  8
MO_001_VIEW_PV
  6
C_SOLID_M
100
AcDbLine
 10
-84.09999799999999
 20
42.70000099999999
 30
0.0
 11
-75.5
 21
42.70000099999999
 31
0.0
  0
LINE
  5
27F
330
1E
100
AcDbEntity
  8
MO_001_VIEW_PV
  6
C_SOLID_M
100
AcDbLine
 10
-84.09999799999999
 20
39.104694
 30
0.0
 11
-84.09999799999999
 21
-39.81967199999999
 31
0.0
  0
LINE
  5
280
330
1E
100
AcDbEntity
  8
MO_001_VIEW_PV
  6
C_SOLID_M
100
AcDbLine
 10
-65.900002
 20
-39.59317
 30
0.0
 11
-65.900002
 21
-62.850006
 31
0.0
  0
LINE
  5
281
330
1E
100
AcDbEntity
  8
MO_001_VIEW_PV
  6
C_SOLID_M
100
AcDbLine
 10
-69.599998
 20
-39.59317
 30
0.0
 11
-69.599998
 21
-62.850006
 31
0.0
  0
LINE
  5
282
330
1E
100
AcDbEntity
  8
MO_001_VIEW_PV
  6
C_SOLID_M
100
AcDbLine
 10
-69.599998
 20
-62.850006
 30
0.0
 11
-65.900002
 21
-62.850006
 31
0.0
  0
LINE
  5
283
330
1E
100
AcDbEntity
  8
MO_001_VIEW_PV
  6
C_SOLID_M
100
AcDbLine
 10
-66.714996
 20
-62.850006
 30
0.0
 11
-66.714996
 21
-67.850014
 31
0.0
  0
LINE
  5
284
330
1E
100
AcDbEntity
  8
MO_001_VIEW_PV
  6
C_SOLID_M
100
AcDbLine
 10
-68.785004
 20
-62.850006
 30
0.0
 11
-68.785004
 21
-67.850014
 31
0.0
  0
ARC
  5
285
330
1E
100
AcDbEntity
  8
MO_001_VIEW_PV
  6
C_SOLID_M
100
AcDbCircle
 10
-67.23249799999999
 20
-68.26061999999999
 30
0.0
 40
0.660612
100
AcDbArc
 50
38.430596
 51
141.569399
  0
ARC
  5
286
330
1E
100
AcDbEntity
  8
MO_001_VIEW_PV
  6
C_SOLID_M
100
AcDbCircle
 10
-68.26750200000001
 20
-67.43939199999999
 30
0.0
 40
0.660612
100
AcDbArc
 50
218.4306009999999
 51
321.569404
  0
ARC
  5
287
330
1E
100
AcDbEntity
  8
MO_001_VIEW_PV
  6
C_SOLID_M
100
AcDbCircle
 10
-67.23249799999999
 20
-67.43939199999999
 30
0.0
 40
0.660612
100
AcDbArc
 50
218.4306009999999
 51
321.569404
  0
ARC
  5
288
330
1E
100
AcDbEntity
  8
MO_001_VIEW_PV
  6
C_SOLID_M
100
AcDbCircle
 10
-68.26750200000001
 20
-69.26061999999999
 30
0.0
 40
0.660612
100
AcDbArc
 50
38.430596
 51
141.569399
  0
ARC
  5
289
330
1E
100
AcDbEntity
  8
MO_001_VIEW_PV
  6
C_SOLID_M
100
AcDbCircle
 10
-68.26750200000001
 20
-68.439392
 30
0.0
 40
0.660612
100
AcDbArc
 50
218.4306009999999
 51
321.569404
  0
ARC
  5
28A
330
1E
100
AcDbEntity
  8
MO_001_VIEW_PV
  6
C_SOLID_M
100
AcDbCircle
 10
-67.23249799999999
 20
-69.26061999999999
 30
0.0
 40
0.660612
100
AcDbArc
 50
38.430596
 51
141.569399
  0
LINE
  5
28B
330
1E
100
AcDbEntity
  8
MO_001_VIEW_PV
  6
C_SOLID_M
100
AcDbLine
 10
-68.78499599999999
 20
-68.85000600000001
 30
0.0
 11
-68.78499599999999
 21
-73.350006
 31
0.0
  0
LINE
  5
28C
330
1E
100
AcDbEntity
  8
MO_001_VIEW_PV
  6
C_SOLID_M
100
AcDbLine
 10
-66.71500400000001
 20
-68.85000600000001
 30
0.0
 11
-66.71500400000001
 21
-73.350006
 31
0.0
  0
LINE
  5
28D
330
1E
100
AcDbEntity
  8
MO_001_VIEW_PV
  6
C_SOLID_M
100
AcDbLine
 10
-68.78499599999999
 20
-73.350006
 30
0.0
 11
-66.71500400000001
 21
-73.350006
 31
0.0
  0
LINE
  5
28E
330
1E
100
AcDbEntity
  8
MO_001_VIEW_PV
  6
C_SOLID_M
100
AcDbLine
 10
-67.25
 20
-73.350006
 30
0.0
 11
-67.25
 21
-78.350006
 31
0.0
  0
LINE
  5
28F
330
1E
100
AcDbEntity
  8
MO_001_VIEW_PV
  6
C_SOLID_M
100
AcDbLine
 10
-68.25
 20
-73.350006
 30
0.0
 11
-68.25
 21
-78.350006
 31
0.0
  0
LINE
  5
290
330
1E
100
AcDbEntity
  8
MO_001_VIEW_PV
  6
C_SOLID_M
100
AcDbLine
 10
-68.25
 20
-78.350006
 30
0.0
 11
-67.25
 21
-78.350006
 31
0.0
  0
TEXT
  5
291
330
1E
100
AcDbEntity
  8
MO_001_VIEW_PV
  6
C_SOLID_L
100
AcDbText
 10
-62.09565
 20
-76.008711
 30
0.0
 40
4.167187
  1
8L X4・X8・X9付
100
AcDbText
  0
TEXT
  5
292
330
1E
100
AcDbEntity
  8
MO_001_VIEW_PV
  6
C_SOLID_L
100
AcDbText
 10
3.904349999999999
 20
-82.008711
 30
0.0
 40
4.167187
  1
単位：mm
100
AcDbText
  0
TEXT
  5
293
330
1E
100
AcDbEntity
  8
MO_001_VIEW_PV
  6
C_SOLID_L
100
AcDbText
 10
3.904349999999999
 20
-88.25949200000001
 30
0.0
 40
4.167187
  1
無励磁時
100
AcDbText
  0
DIMENSION
  5
295
330
1E
100
AcDbEntity
  8
MO_001_VIEW_PV
  6
C_SOLID_M
100
AcDbDimension
  2
*D0
 10
-47.0
 20
48.0
 30
0.0
 11
-47.0
 21
48.0
 31
0.0
  1
94以下
  3
STANDARD
100
AcDbAlignedDimension
 13
-94.0
 23
29.35
 33
0.0
 14
0.0
 24
37.69999699999999
 34
0.0
100
AcDbRotatedDimension
  0
DIMENSION
  5
297
330
1E
100
AcDbEntity
  8
MO_001_VIEW_PV
  6
C_SOLID_M
100
AcDbDimension
  2
*D1
 10
17.64237999999999
 20
48.0
 30
0.0
 11
17.64237999999999
 21
48.0
 31
0.0
  1
11以下
  3
STANDARD
100
AcDbAlignedDimension
 13
10.681992
 23
4.324996999999999
 33
0.0
 14
0.0
 24
37.69999699999999
 34
0.0
 50
179.97571
100
AcDbRotatedDimension
  0
DIMENSION
  5
299
330
1E
100
AcDbEntity
  8
MO_001_VIEW_PV
  6
C_SOLID_M
100
AcDbDimension
  2
*D2
 10
-111.0
 20
0.0
 30
0.0
 11
-111.0
 21
0.0
 31
0.0
  1
%%C87以下
  3
STANDARD
100
AcDbAlignedDimension
 13
-73.150009
 23
42.850006
 33
0.0
 14
-73.150009
 24
-42.850006
 34
0.0
 50
270.012145
100
AcDbRotatedDimension
  0
ENDSEC
  0
SECTION
  2
OBJECTS
  0
DICTIONARY
  5
1A
330
0
100
AcDbDictionary
  3
ACAD_GROUP
350
1B
  3
ACAD_MLINESTYLE
350
1C
  3
ACAD_LAYOUT
350
2BA
  3
ACAD_PLOTSETTINGS
350
2BB
1001
ACAD
1000
TREAT_AS_HARD
1070
     0
  0
DICTIONARY
  5
2C0
330
1E
100
AcDbDictionary
  3
ACAD_LAYOUTSELFREF
350
2C1
  0
DICTIONARY
  5
2C2
330
1F
100
AcDbDictionary
  3
ACAD_LAYOUTSELFREF
350
2C3
  0
DICTIONARY
  5
1B
102
{ACAD_REACTORS
330
1A
102
}
330
1A
100
AcDbDictionary
1001
ACAD
1000
TREAT_AS_HARD
1070
     0
  0
DICTIONARY
  5
1C
102
{ACAD_REACTORS
330
1A
102
}
330
1A
100
AcDbDictionary
  3
STANDARD
350
1D
1001
ACAD
1000
TREAT_AS_HARD
1070
     0
  0
DICTIONARY
  5
2BA
102
{ACAD_REACTORS
330
1A
102
}
330
1A
100
AcDbDictionary
1001
ACAD
1000
TREAT_AS_HARD
1070
     0
  0
DICTIONARY
  5
2BB
102
{ACAD_REACTORS
330
1A
102
}
330
1A
100
AcDbDictionary
1001
ACAD
1000
TREAT_AS_HARD
1070
     0
  0
XRECORD
  5
2C1
102
{ACAD_REACTORS
330
2C0
102
}
330
2C0
100
AcDbXrecord
340
1E
  0
XRECORD
  5
2C3
102
{ACAD_REACTORS
330
2C2
102
}
330
2C2
100
AcDbXrecord
340
1F
  0
MLINESTYLE
  5
1D
102
{ACAD_REACTORS
330
1C
102
}
330
1C
100
AcDbMlineStyle
  2
STANDARD
 70
     0
  3

 62
     0
 51
90.0
 52
90.0
 71
     2
 49
0.5
 62
   256
  6
BYLAYER
 49
-0.5
 62
   256
  6
BYLAYER
  0
ENDSEC
  0
EOF
