  0
SECTION
  2
HEADER
  9
$ACADVER
  1
AC1012
  9
$DWGCODEPAGE
  3
dos932
  9
$INSBASE
 10
0.0
 20
0.0
 30
0.0
  9
$EXTMIN
 10
-87.08650973032735
 20
-77.0844675612955
 30
-0.0015258207003583
  9
$EXTMAX
 10
80.14197311235045
 20
28.12831752749264
 30
0.0000000349246037
  9
$LIMMIN
 10
-87.06930300000001
 20
-80.208984
  9
$LIMMAX
 10
74.02853399999999
 20
30.0
  9
$ORTHOMODE
 70
     0
  9
$REGENMODE
 70
     1
  9
$FILLMODE
 70
     1
  9
$QTEXTMODE
 70
     0
  9
$MIRRTEXT
 70
     1
  9
$DRAGMODE
 70
     2
  9
$LTSCALE
 40
1.0
  9
$OSMODE
 70
    37
  9
$ATTMODE
 70
     1
  9
$TEXTSIZE
 40
4.1672
  9
$TRACEWID
 40
0.05
  9
$TEXTSTYLE
  7
STANDARD
  9
$CLAYER
  8
0
  9
$CELTYPE
  6
CONTINUOUS
  9
$CECOLOR
 62
   256
  9
$CELTSCALE
 40
1.0
  9
$DELOBJ
 70
     1
  9
$DISPSILH
 70
     0
  9
$DIMSCALE
 40
1.0
  9
$DIMASZ
 40
0.18
  9
$DIMEXO
 40
0.0625
  9
$DIMDLI
 40
0.38
  9
$DIMRND
 40
0.0
  9
$DIMDLE
 40
0.0
  9
$DIMEXE
 40
0.18
  9
$DIMTP
 40
0.0
  9
$DIMTM
 40
0.0
  9
$DIMTXT
 40
0.18
  9
$DIMCEN
 40
0.09
  9
$DIMTSZ
 40
0.0
  9
$DIMTOL
 70
     0
  9
$DIMLIM
 70
     0
  9
$DIMTIH
 70
     1
  9
$DIMTOH
 70
     1
  9
$DIMSE1
 70
     0
  9
$DIMSE2
 70
     0
  9
$DIMTAD
 70
     0
  9
$DIMZIN
 70
     0
  9
$DIMBLK
  1

  9
$DIMASO
 70
     1
  9
$DIMSHO
 70
     1
  9
$DIMPOST
  1

  9
$DIMAPOST
  1

  9
$DIMALT
 70
     0
  9
$DIMALTD
 70
     2
  9
$DIMALTF
 40
25.4
  9
$DIMLFAC
 40
1.0
  9
$DIMTOFL
 70
     0
  9
$DIMTVP
 40
0.0
  9
$DIMTIX
 70
     0
  9
$DIMSOXD
 70
     0
  9
$DIMSAH
 70
     0
  9
$DIMBLK1
  1

  9
$DIMBLK2
  1

  9
$DIMSTYLE
  2
STANDARD
  9
$DIMCLRD
 70
     0
  9
$DIMCLRE
 70
     0
  9
$DIMCLRT
 70
     0
  9
$DIMTFAC
 40
1.0
  9
$DIMGAP
 40
0.09
  9
$DIMJUST
 70
     0
  9
$DIMSD1
 70
     0
  9
$DIMSD2
 70
     0
  9
$DIMTOLJ
 70
     1
  9
$DIMTZIN
 70
     0
  9
$DIMALTZ
 70
     0
  9
$DIMALTTZ
 70
     0
  9
$DIMFIT
 70
     3
  9
$DIMUPT
 70
     0
  9
$DIMUNIT
 70
     2
  9
$DIMDEC
 70
     4
  9
$DIMTDEC
 70
     4
  9
$DIMALTU
 70
     2
  9
$DIMALTTD
 70
     2
  9
$DIMTXSTY
  7
STANDARD
  9
$DIMAUNIT
 70
     0
  9
$LUNITS
 70
     2
  9
$LUPREC
 70
     6
  9
$SKETCHINC
 40
0.1
  9
$FILLETRAD
 40
0.0
  9
$AUNITS
 70
     0
  9
$AUPREC
 70
     4
  9
$MENU
  1
acad
  9
$ELEVATION
 40
0.0
  9
$PELEVATION
 40
0.0
  9
$THICKNESS
 40
0.0
  9
$LIMCHECK
 70
     0
  9
$BLIPMODE
 70
     0
  9
$CHAMFERA
 40
0.0
  9
$CHAMFERB
 40
0.0
  9
$CHAMFERC
 40
0.0
  9
$CHAMFERD
 40
0.0
  9
$SKPOLY
 70
     0
  9
$TDCREATE
 40
2376123.569117940
  9
$TDUPDATE
 40
2451663.751305092
  9
$TDINDWG
 40
0.0010788194
  9
$TDUSRTIMER
 40
0.0010788194
  9
$USRTIMER
 70
     1
  9
$ANGBASE
 50
0.0
  9
$ANGDIR
 70
     0
  9
$PDMODE
 70
     0
  9
$PDSIZE
 40
0.0
  9
$PLINEWID
 40
0.0
  9
$COORDS
 70
     1
  9
$SPLFRAME
 70
     0
  9
$SPLINETYPE
 70
     6
  9
$SPLINESEGS
 70
     8
  9
$ATTDIA
 70
     0
  9
$ATTREQ
 70
     1
  9
$HANDLING
 70
 10241
  9
$HANDSEED
  5
21F
  9
$SURFTAB1
 70
     6
  9
$SURFTAB2
 70
     6
  9
$SURFTYPE
 70
     6
  9
$SURFU
 70
     6
  9
$SURFV
 70
     6
  9
$UCSNAME
  2
MO_001_VIEW_PV_P
  9
$UCSORG
 10
0.0
 20
0.0
 30
0.0
  9
$UCSXDIR
 10
1.0
 20
0.0
 30
0.0
  9
$UCSYDIR
 10
-0.0000000002051034
 20
1.0
 30
0.0
  9
$PUCSNAME
  2

  9
$PUCSORG
 10
0.0
 20
0.0
 30
0.0
  9
$PUCSXDIR
 10
1.0
 20
0.0
 30
0.0
  9
$PUCSYDIR
 10
0.0
 20
1.0
 30
0.0
  9
$USERI1
 70
     0
  9
$USERI2
 70
     0
  9
$USERI3
 70
     0
  9
$USERI4
 70
     0
  9
$USERI5
 70
     0
  9
$USERR1
 40
0.0
  9
$USERR2
 40
0.0
  9
$USERR3
 40
0.0
  9
$USERR4
 40
0.0
  9
$USERR5
 40
0.0
  9
$WORLDVIEW
 70
     1
  9
$SHADEDGE
 70
     3
  9
$SHADEDIF
 70
    70
  9
$TILEMODE
 70
     1
  9
$MAXACTVP
 70
    16
  9
$PINSBASE
 10
0.0
 20
0.0
 30
0.0
  9
$PLIMCHECK
 70
     0
  9
$PEXTMIN
 10
-87.06930300000001
 20
-80.208984
 30
1.000000000000000E+20
  9
$PEXTMAX
 10
74.02853399999999
 20
30.0
 30
-1.000000000000000E+20
  9
$PLIMMIN
 10
0.0
 20
0.0
  9
$PLIMMAX
 10
12.0
 20
9.0
  9
$UNITMODE
 70
     0
  9
$VISRETAIN
 70
     0
  9
$PLINEGEN
 70
     0
  9
$PSLTSCALE
 70
     1
  9
$TREEDEPTH
 70
  3020
  9
$PICKSTYLE
 70
     1
  9
$CMLSTYLE
  2
STANDARD
  9
$CMLJUST
 70
     0
  9
$CMLSCALE
 40
1.0
  9
$SAVEIMAGES
 70
     1
  0
ENDSEC
  0
SECTION
  2
CLASSES
  0
CLASS
  1
ACDBDICTIONARYWDFLT
  2
AcDbDictionaryWithDefault
  3
AutoCAD 2000
 90
    32768
280
     0
281
     0
  0
CLASS
  1
ACDBPLACEHOLDER
  2
AcDbPlaceHolder
  3
AutoCAD 2000
 90
    32768
280
     0
281
     0
  0
CLASS
  1
LAYOUT
  2
AcDbLayout
  3
AutoCAD 2000
 90
    32768
280
     0
281
     0
  0
CLASS
  1
LONG_TRANSACTION
  2
AcDbLongTransaction
  3
AutoCAD 2000
 90
    32768
280
     0
281
     0
  0
CLASS
  1
LWPOLYLINE
  2
AcDbPolyline
  3
AutoCAD 2000
 90
    32768
280
     0
281
     1
  0
CLASS
  1
HATCH
  2
AcDbHatch
  3
AutoCAD 2000
 90
    32768
280
     0
281
     1
  0
CLASS
  1
XRECORD
  2
AcDbXrecord
  3
AutoCAD 2000
 90
    32768
280
     0
281
     0
  0
ENDSEC
  0
SECTION
  2
TABLES
  0
TABLE
  2
VPORT
  5
7
330
0
100
AcDbSymbolTable
 70
     2
  0
VPORT
  5
20E
330
7
100
AcDbSymbolTableRecord
100
AcDbViewportTableRecord
  2
*ACTIVE
 70
     0
 10
0.0
 20
0.0
 11
1.0
 21
1.0
 12
-0.4419409883864489
 22
-21.585682535665
 13
0.0
 23
0.0
 14
6.349999999999999
 24
6.349999999999999
 15
6.349999999999999
 25
6.349999999999999
 16
0.0
 26
0.0
 36
1.0
 17
0.0
 27
0.0
 37
0.0
 40
160.4055363250926
 41
1.691964285714285
 42
50.0
 43
0.0
 44
0.0
 50
0.0
 51
0.0
 71
     0
 72
   100
 73
     1
 74
     1
 75
     0
 76
     0
 77
     0
 78
     0
  0
ENDTAB
  0
TABLE
  2
LTYPE
  5
4
330
0
100
AcDbSymbolTable
 70
    37
  0
LTYPE
  5
12
330
4
100
AcDbSymbolTableRecord
100
AcDbLinetypeTableRecord
  2
BYBLOCK
 70
     0
  3

 72
    65
 73
     0
 40
0.0
  0
LTYPE
  5
13
330
4
100
AcDbSymbolTableRecord
100
AcDbLinetypeTableRecord
  2
BYLAYER
 70
     0
  3

 72
    65
 73
     0
 40
0.0
  0
LTYPE
  5
14
330
4
100
AcDbSymbolTableRecord
100
AcDbLinetypeTableRecord
  2
CONTINUOUS
 70
     0
  3
DXF Default line type
 72
    65
 73
     0
 40
0.0
  0
LTYPE
  5
20
330
4
100
AcDbSymbolTableRecord
100
AcDbLinetypeTableRecord
  2
DASHED
 70
     0
  3
DXF Dashed
 72
    65
 73
     2
 40
0.75
 49
0.5
 74
     0
 49
-0.25
 74
     0
  0
LTYPE
  5
21
330
4
100
AcDbSymbolTableRecord
100
AcDbLinetypeTableRecord
  2
HIDDEN
 70
     0
  3
DXF Hidden
 72
    65
 73
     2
 40
0.375
 49
0.25
 74
     0
 49
-0.125
 74
     0
  0
LTYPE
  5
22
330
4
100
AcDbSymbolTableRecord
100
AcDbLinetypeTableRecord
  2
CENTER
 70
     0
  3
DXF Center
 72
    65
 73
     4
 40
2.0
 49
1.25
 74
     0
 49
-0.25
 74
     0
 49
0.25
 74
     0
 49
-0.25
 74
     0
  0
LTYPE
  5
23
330
4
100
AcDbSymbolTableRecord
100
AcDbLinetypeTableRecord
  2
PHANTOM
 70
     0
  3
DXF Phantom
 72
    65
 73
     6
 40
2.5
 49
1.25
 74
     0
 49
-0.25
 74
     0
 49
0.25
 74
     0
 49
-0.25
 74
     0
 49
0.25
 74
     0
 49
-0.25
 74
     0
  0
LTYPE
  5
24
330
4
100
AcDbSymbolTableRecord
100
AcDbLinetypeTableRecord
  2
DOT
 70
     0
  3
DXF DOT
 72
    65
 73
     2
 40
0.25
 49
0.0
 74
     0
 49
-0.25
 74
     0
  0
LTYPE
  5
25
330
4
100
AcDbSymbolTableRecord
100
AcDbLinetypeTableRecord
  2
DASHDOT
 70
     0
  3
DXF Dash Dot
 72
    65
 73
     4
 40
1.0
 49
0.5
 74
     0
 49
-0.25
 74
     0
 49
0.0
 74
     0
 49
-0.25
 74
     0
  0
LTYPE
  5
26
330
4
100
AcDbSymbolTableRecord
100
AcDbLinetypeTableRecord
  2
BORDER
 70
     0
  3
DXF Border
 72
    65
 73
     6
 40
1.75
 49
0.5
 74
     0
 49
-0.25
 74
     0
 49
0.5
 74
     0
 49
-0.25
 74
     0
 49
0.0
 74
     0
 49
-0.25
 74
     0
  0
LTYPE
  5
27
330
4
100
AcDbSymbolTableRecord
100
AcDbLinetypeTableRecord
  2
DIVIDE
 70
     0
  3
DXF Divide
 72
    65
 73
     6
 40
1.25
 49
0.5
 74
     0
 49
-0.25
 74
     0
 49
0.0
 74
     0
 49
-0.25
 74
     0
 49
0.0
 74
     0
 49
-0.25
 74
     0
  0
LTYPE
  5
28
330
4
100
AcDbSymbolTableRecord
100
AcDbLinetypeTableRecord
  2
C_SOLID_L
 70
     0
  3
CADAM Solid Light
 72
    65
 73
     0
 40
0.0
  0
LTYPE
  5
29
330
4
100
AcDbSymbolTableRecord
100
AcDbLinetypeTableRecord
  2
C_SOLID_M
 70
     0
  3
CADAM Solid Medium
 72
    65
 73
     0
 40
0.0
  0
LTYPE
  5
2A
330
4
100
AcDbSymbolTableRecord
100
AcDbLinetypeTableRecord
  2
C_SOLID_H
 70
     0
  3
CADAM Solid Heavy
 72
    65
 73
     0
 40
0.0
  0
LTYPE
  5
2B
330
4
100
AcDbSymbolTableRecord
100
AcDbLinetypeTableRecord
  2
C_DASHED_L
 70
     0
  3
CADAM Dashed Light
 72
    65
 73
     2
 40
0.375
 49
0.25
 74
     0
 49
-0.125
 74
     0
  0
LTYPE
  5
2C
330
4
100
AcDbSymbolTableRecord
100
AcDbLinetypeTableRecord
  2
C_DASHED_M
 70
     0
  3
CADAM Dashed Medium
 72
    65
 73
     2
 40
0.5
 49
0.375
 74
     0
 49
-0.125
 74
     0
  0
LTYPE
  5
2D
330
4
100
AcDbSymbolTableRecord
100
AcDbLinetypeTableRecord
  2
C_CENTER_L
 70
     0
  3
CADAM Center Light
 72
    65
 73
     4
 40
2.0
 49
1.25
 74
     0
 49
-0.25
 74
     0
 49
0.25
 74
     0
 49
-0.25
 74
     0
  0
LTYPE
  5
2E
330
4
100
AcDbSymbolTableRecord
100
AcDbLinetypeTableRecord
  2
C_PHANTOM_L
 70
     0
  3
CADAM Phantom Light
 72
    65
 73
     6
 40
2.5
 49
1.25
 74
     0
 49
-0.25
 74
     0
 49
0.25
 74
     0
 49
-0.25
 74
     0
 49
0.25
 74
     0
 49
-0.25
 74
     0
  0
LTYPE
  5
2F
330
4
100
AcDbSymbolTableRecord
100
AcDbLinetypeTableRecord
  2
C_BREAK_M
 70
     0
  3
CADAM Break Medium
 72
    65
 73
     4
 40
1.0
 49
0.5
 74
     0
 49
-0.25
 74
     0
 49
0.0
 74
     0
 49
-0.25
 74
     0
  0
LTYPE
  5
30
330
4
100
AcDbSymbolTableRecord
100
AcDbLinetypeTableRecord
  2
C_NC
 70
     0
  3
CADAM NC
 72
    65
 73
     0
 40
0.0
  0
LTYPE
  5
31
330
4
100
AcDbSymbolTableRecord
100
AcDbLinetypeTableRecord
  2
DSH1
 70
     0
  3
CADAM Style2 Type 1 Dashed Line
 72
    65
 73
     2
 40
0.075
 49
0.04
 74
     0
 49
-0.035
 74
     0
  0
LTYPE
  5
32
330
4
100
AcDbSymbolTableRecord
100
AcDbLinetypeTableRecord
  2
DSH2
 70
     0
  3
CADAM Style2 Type 2 Dashed Line
 72
    65
 73
     2
 40
0.15
 49
0.11
 74
     0
 49
-0.04
 74
     0
  0
LTYPE
  5
33
330
4
100
AcDbSymbolTableRecord
100
AcDbLinetypeTableRecord
  2
DSH3
 70
     0
  3
CADAM Style2 Type 3 Dashed Line
 72
    65
 73
     2
 40
0.2
 49
0.15
 74
     0
 49
-0.05
 74
     0
  0
LTYPE
  5
34
330
4
100
AcDbSymbolTableRecord
100
AcDbLinetypeTableRecord
  2
DSH4
 70
     0
  3
CADAM Style2 Type 4 Dashed Line
 72
    65
 73
     2
 40
0.36
 49
0.28
 74
     0
 49
-0.08
 74
     0
  0
LTYPE
  5
35
330
4
100
AcDbSymbolTableRecord
100
AcDbLinetypeTableRecord
  2
DSH5
 70
     0
  3
CADAM Style2 Type 5 Dashed Line
 72
    65
 73
     2
 40
0.47
 49
0.39
 74
     0
 49
-0.08
 74
     0
  0
LTYPE
  5
36
330
4
100
AcDbSymbolTableRecord
100
AcDbLinetypeTableRecord
  2
DSH6
 70
     0
  3
CADAM Style2 Type 6 Dashed Line
 72
    65
 73
     2
 40
0.9
 49
0.8100000000000001
 74
     0
 49
-0.09
 74
     0
  0
LTYPE
  5
37
330
4
100
AcDbSymbolTableRecord
100
AcDbLinetypeTableRecord
  2
PL1
 70
     0
  3
Style 2 Type 1 Phantom Line
 72
    65
 73
     6
 40
1.0
 49
0.6
 74
     0
 49
-0.08
 74
     0
 49
0.08
 74
     0
 49
-0.08
 74
     0
 49
0.08
 74
     0
 49
-0.08
 74
     0
  0
LTYPE
  5
38
330
4
100
AcDbSymbolTableRecord
100
AcDbLinetypeTableRecord
  2
PL2
 70
     0
  3
Style 2 Type 2 Phantom Line
 72
    65
 73
     6
 40
1.08
 49
0.6
 74
     0
 49
-0.08
 74
     0
 49
0.12
 74
     0
 49
-0.08
 74
     0
 49
0.12
 74
     0
 49
-0.08
 74
     0
  0
LTYPE
  5
39
330
4
100
AcDbSymbolTableRecord
100
AcDbLinetypeTableRecord
  2
PL3
 70
     0
  3
Style 2 Type 3 Phantom Line
 72
    65
 73
     6
 40
2.0
 49
1.439999999999999
 74
     0
 49
-0.08
 74
     0
 49
0.16
 74
     0
 49
-0.08
 74
     0
 49
0.16
 74
     0
 49
-0.08
 74
     0
  0
LTYPE
  5
3A
330
4
100
AcDbSymbolTableRecord
100
AcDbLinetypeTableRecord
  2
CL1
 70
     0
  3
CADAM Style 2 Type 1 Center Line
 72
    65
 73
     4
 40
0.7
 49
0.45
 74
     0
 49
-0.06
 74
     0
 49
0.13
 74
     0
 49
-0.06
 74
     0
  0
LTYPE
  5
3B
330
4
100
AcDbSymbolTableRecord
100
AcDbLinetypeTableRecord
  2
CL2
 70
     0
  3
CADAM Style 2 Type 2 Center Line
 72
    65
 73
     4
 40
1.199999999999999
 49
1.01
 74
     0
 49
-0.06
 74
     0
 49
0.11
 74
     0
 49
-0.06
 74
     0
  0
LTYPE
  5
3C
330
4
100
AcDbSymbolTableRecord
100
AcDbLinetypeTableRecord
  2
CL3
 70
     0
  3
CADAM Style 2 Type 3 Center Line
 72
    65
 73
     4
 40
1.199999999999999
 49
0.98
 74
     0
 49
-0.06
 74
     0
 49
0.1
 74
     0
 49
-0.06
 74
     0
  0
LTYPE
  5
3D
330
4
100
AcDbSymbolTableRecord
100
AcDbLinetypeTableRecord
  2
CL4
 70
     0
  3
CADAM Style 2 Type 4 Center Line
 72
    65
 73
     4
 40
2.2
 49
1.929999999999999
 74
     0
 49
-0.07
 74
     0
 49
0.13
 74
     0
 49
-0.07
 74
     0
  0
LTYPE
  5
3E
330
4
100
AcDbSymbolTableRecord
100
AcDbLinetypeTableRecord
  2
CL5
 70
     0
  3
CADAM Style 2 Type 5 Center Line
 72
    65
 73
     4
 40
2.2
 49
1.879999999999999
 74
     0
 49
-0.07
 74
     0
 49
0.18
 74
     0
 49
-0.07
 74
     0
  0
LTYPE
  5
3F
330
4
100
AcDbSymbolTableRecord
100
AcDbLinetypeTableRecord
  2
SBK1
 70
     0
  3
CADAM Style 2 Type 1 SetBack Line
 72
    65
 73
     8
 40
2.7
 49
0.1
 74
     0
 49
-0.08
 74
     0
 49
0.1
 74
     0
 49
-0.8
 74
     0
 49
0.0
 74
     0
 49
0.0
 74
     0
 49
0.0
 74
     0
 49
0.0
 74
     0
  0
LTYPE
  5
40
330
4
100
AcDbSymbolTableRecord
100
AcDbLinetypeTableRecord
  2
SBK2
 70
     0
  3
CADAM Style 2 Type 2 SetBack Line
 72
    65
 73
     8
 40
3.709999999999999
 49
0.13
 74
     0
 49
-0.08
 74
     0
 49
0.13
 74
     0
 49
-0.8
 74
     0
 49
0.0
 74
     0
 49
0.0
 74
     0
 49
0.0
 74
     0
 49
0.0
 74
     0
  0
LTYPE
  5
41
330
4
100
AcDbSymbolTableRecord
100
AcDbLinetypeTableRecord
  2
STCH
 70
     0
  3
CADAM Style2 Stitch Line
 72
    65
 73
     2
 40
0.25
 49
0.0
 74
     0
 49
-0.25
 74
     0
  0
LTYPE
  5
42
330
4
100
AcDbSymbolTableRecord
100
AcDbLinetypeTableRecord
  2
MTCH
 70
     0
  3
CADAM Style2 Match Line
 72
    65
 73
     6
 40
2.0
 49
1.439999999999999
 74
     0
 49
-0.8
 74
     0
 49
0.16
 74
     0
 49
-0.08
 74
     0
 49
0.16
 74
     0
 49
-0.08
 74
     0
  0
LTYPE
  5
43
330
4
100
AcDbSymbolTableRecord
100
AcDbLinetypeTableRecord
  2
SLD
 70
     0
  3
CADAM Solid_EXT2
 72
    65
 73
     0
 40
0.0
  0
ENDTAB
  0
TABLE
  2
LAYER
  5
2
330
0
100
AcDbSymbolTable
 70
     7
  0
LAYER
  5
15
330
2
100
AcDbSymbolTableRecord
100
AcDbLayerTableRecord
  2
0
 70
     0
 62
     7
  6
CONTINUOUS
  0
LAYER
  5
44
330
2
100
AcDbSymbolTableRecord
100
AcDbLayerTableRecord
  2
MO_001_NOSHOW
 70
     1
 62
     7
  6
CONTINUOUS
  0
LAYER
  5
45
330
2
100
AcDbSymbolTableRecord
100
AcDbLayerTableRecord
  2
MO_001_VIEW_PV
 70
     0
 62
     7
  6
CONTINUOUS
  0
LAYER
  5
46
330
2
100
AcDbSymbolTableRecord
100
AcDbLayerTableRecord
  2
OVERLAY_MAP
 70
     1
 62
     7
  6
CONTINUOUS
  0
LAYER
  5
47
330
2
100
AcDbSymbolTableRecord
100
AcDbLayerTableRecord
  2
DITTOS
 70
     0
 62
     7
  6
CONTINUOUS
  0
LAYER
  5
48
330
2
100
AcDbSymbolTableRecord
100
AcDbLayerTableRecord
  2
SYMBOLS
 70
     0
 62
     7
  6
CONTINUOUS
  0
LAYER
  5
49
330
2
100
AcDbSymbolTableRecord
100
AcDbLayerTableRecord
  2
SETS
 70
     0
 62
     7
  6
CONTINUOUS
  0
ENDTAB
  0
TABLE
  2
STYLE
  5
3
330
0
100
AcDbSymbolTable
 70
     1
  0
STYLE
  5
18
330
3
100
AcDbSymbolTableRecord
100
AcDbTextStyleTableRecord
  2
STANDARD
 70
     0
 40
4.1672
 41
1.0
 50
0.0
 71
     0
 42
4.1672
  3
monotxt
  4
BIGFONT
  0
ENDTAB
  0
TABLE
  2
VIEW
  5
5
330
0
100
AcDbSymbolTable
 70
     0
  0
ENDTAB
  0
TABLE
  2
UCS
  5
6
330
0
100
AcDbSymbolTable
 70
     1
  0
UCS
  5
4A
330
6
100
AcDbSymbolTableRecord
100
AcDbUCSTableRecord
  2
MO_001_VIEW_PV_P
 70
     0
 10
0.0
 20
0.0
 30
0.0
 11
1.0
 21
0.0
 31
0.0
 12
-0.0000000002051034
 22
1.0
 32
0.0
  0
ENDTAB
  0
TABLE
  2
APPID
  5
8
330
0
100
AcDbSymbolTable
 70
     1
  0
APPID
  5
17
330
8
100
AcDbSymbolTableRecord
100
AcDbRegAppTableRecord
  2
ACAD
 70
     0
  0
ENDTAB
  0
TABLE
  2
DIMSTYLE
  5
9
330
0
100
AcDbSymbolTable
 70
     1
  0
DIMSTYLE
105
19
102
{ACAD_REACTORS
330
12A
330
12C
330
12E
330
130
330
132
330
134
330
136
330
138
330
13A
330
13C
330
13E
330
140
330
142
330
144
330
146
102
}
330
9
100
AcDbSymbolTableRecord
100
AcDbDimStyleTableRecord
  2
STANDARD
 70
     0
  3

  4

  5

  6

  7

 40
1.0
 41
0.18
 42
0.0625
 43
0.38
 44
0.18
 45
0.0
 46
0.0
 47
0.0
 48
0.0
140
0.18
141
0.09
142
0.0
143
25.4
144
1.0
145
0.0
146
1.0
147
0.09
 71
     0
 72
     0
 73
     1
 74
     1
 75
     0
 76
     0
 77
     0
 78
     0
170
     0
171
     2
172
     0
173
     0
174
     0
175
     0
176
     0
177
     0
178
     0
270
     2
271
     4
272
     4
273
     2
274
     2
340
18
275
     0
280
     0
281
     0
282
     0
283
     1
284
     0
285
     0
286
     0
287
     3
288
     0
  0
ENDTAB
  0
TABLE
  2
BLOCK_RECORD
  5
C
330
0
100
AcDbSymbolTable
 70
    15
  0
BLOCK_RECORD
  5
1E
102
{ACAD_XDICTIONARY
360
20F
102
}
330
C
100
AcDbSymbolTableRecord
100
AcDbBlockTableRecord
  2
*MODEL_SPACE
  0
BLOCK_RECORD
  5
1F
102
{ACAD_XDICTIONARY
360
211
102
}
330
C
100
AcDbSymbolTableRecord
100
AcDbBlockTableRecord
  2
*PAPER_SPACE
  0
BLOCK_RECORD
  5
129
330
C
100
AcDbSymbolTableRecord
100
AcDbBlockTableRecord
  2
*D0
  0
BLOCK_RECORD
  5
12B
330
C
100
AcDbSymbolTableRecord
100
AcDbBlockTableRecord
  2
*D1
  0
BLOCK_RECORD
  5
12D
330
C
100
AcDbSymbolTableRecord
100
AcDbBlockTableRecord
  2
*D2
  0
BLOCK_RECORD
  5
12F
330
C
100
AcDbSymbolTableRecord
100
AcDbBlockTableRecord
  2
*D3
  0
BLOCK_RECORD
  5
131
330
C
100
AcDbSymbolTableRecord
100
AcDbBlockTableRecord
  2
*D4
  0
BLOCK_RECORD
  5
133
330
C
100
AcDbSymbolTableRecord
100
AcDbBlockTableRecord
  2
*D5
  0
BLOCK_RECORD
  5
135
330
C
100
AcDbSymbolTableRecord
100
AcDbBlockTableRecord
  2
*D6
  0
BLOCK_RECORD
  5
137
330
C
100
AcDbSymbolTableRecord
100
AcDbBlockTableRecord
  2
*D7
  0
BLOCK_RECORD
  5
139
330
C
100
AcDbSymbolTableRecord
100
AcDbBlockTableRecord
  2
*D8
  0
BLOCK_RECORD
  5
13B
330
C
100
AcDbSymbolTableRecord
100
AcDbBlockTableRecord
  2
*D9
  0
BLOCK_RECORD
  5
13D
330
C
100
AcDbSymbolTableRecord
100
AcDbBlockTableRecord
  2
*D10
  0
BLOCK_RECORD
  5
13F
330
C
100
AcDbSymbolTableRecord
100
AcDbBlockTableRecord
  2
*D11
  0
BLOCK_RECORD
  5
141
330
C
100
AcDbSymbolTableRecord
100
AcDbBlockTableRecord
  2
*D12
  0
BLOCK_RECORD
  5
143
330
C
100
AcDbSymbolTableRecord
100
AcDbBlockTableRecord
  2
*D13
  0
BLOCK_RECORD
  5
145
330
C
100
AcDbSymbolTableRecord
100
AcDbBlockTableRecord
  2
*D14
  0
ENDTAB
  0
ENDSEC
  0
SECTION
  2
BLOCKS
  0
BLOCK
  5
E
330
1E
100
AcDbEntity
  8
0
100
AcDbBlockBegin
  2
*MODEL_SPACE
 70
     0
 10
0.0
 20
0.0
 30
0.0
  3
*MODEL_SPACE
  1

  0
ENDBLK
  5
F
330
1E
100
AcDbEntity
  8
0
100
AcDbBlockEnd
  0
BLOCK
  5
10
330
1F
100
AcDbEntity
 67
     1
  8
0
100
AcDbBlockBegin
  2
*PAPER_SPACE
 70
     0
 10
0.0
 20
0.0
 30
0.0
  3
*PAPER_SPACE
  1

  0
ENDBLK
  5
11
330
1F
100
AcDbEntity
 67
     1
  8
0
100
AcDbBlockEnd
  0
BLOCK
  5
159
330
129
100
AcDbEntity
  8
0
100
AcDbBlockBegin
  2
*D0
 70
     1
 10
0.0
 20
0.0
 30
0.0
  3
*D0
  1

  0
TEXT
  5
15A
330
129
100
AcDbEntity
  8
MO_001_VIEW_PV
  6
BYBLOCK
100
AcDbText
 10
8.25
 20
-17.571429
 30
0.0
 40
3.0
  1
t1
 50
90.0
100
AcDbText
  0
LINE
  5
15B
330
129
100
AcDbEntity
  8
MO_001_VIEW_PV
  6
BYBLOCK
100
AcDbLine
 10
9.0
 20
-5.0
 30
0.0
 11
9.0
 21
-6.0
 31
0.0
  0
LINE
  5
15C
330
129
100
AcDbEntity
  8
MO_001_VIEW_PV
  6
BYBLOCK
100
AcDbLine
 10
9.0
 20
-5.0
 30
0.0
 11
9.0
 21
1.35
 31
0.0
  0
LINE
  5
15D
330
129
100
AcDbEntity
  8
MO_001_VIEW_PV
  6
BYBLOCK
100
AcDbLine
 10
9.0
 20
-6.0
 30
0.0
 11
9.0
 21
-12.35
 31
0.0
  0
SOLID
  5
15E
330
129
100
AcDbEntity
  8
MO_001_VIEW_PV
  6
BYBLOCK
100
AcDbTrace
 10
8.416488000000001
 20
-1.68174
 30
0.0
 11
9.0
 21
-4.491999999999999
 31
0.0
 12
9.583511999999998
 22
-1.68174
 32
0.0
 13
9.583511999999998
 23
-1.68174
 33
0.0
  0
SOLID
  5
15F
330
129
100
AcDbEntity
  8
MO_001_VIEW_PV
  6
BYBLOCK
100
AcDbTrace
 10
9.583511999999998
 20
-9.31826
 30
0.0
 11
9.0
 21
-6.507999999999999
 31
0.0
 12
8.416488000000001
 22
-9.31826
 32
0.0
 13
8.416488000000001
 23
-9.31826
 33
0.0
  0
LINE
  5
160
330
129
100
AcDbEntity
  8
MO_001_VIEW_PV
  6
BYBLOCK
100
AcDbLine
 10
-1.199999999999999
 20
-5.0
 30
0.0
 11
11.286
 21
-5.0
 31
0.0
  0
LINE
  5
161
330
129
100
AcDbEntity
  8
MO_001_VIEW_PV
  6
BYBLOCK
100
AcDbLine
 10
-1.0
 20
-6.0
 30
0.0
 11
11.286
 21
-6.0
 31
0.0
  0
LINE
  5
162
330
129
100
AcDbEntity
  8
MO_001_VIEW_PV
  6
BYBLOCK
100
AcDbLine
 10
9.0
 20
-6.0
 30
0.0
 11
9.0
 21
-18.535713
 31
0.0
  0
ENDBLK
  5
163
330
129
100
AcDbEntity
  8
0
100
AcDbBlockEnd
  0
BLOCK
  5
164
330
12B
100
AcDbEntity
  8
0
100
AcDbBlockBegin
  2
*D1
 70
     1
 10
0.0
 20
0.0
 30
0.0
  3
*D1
  1

  0
TEXT
  5
165
330
12B
100
AcDbEntity
  8
MO_001_VIEW_PV
  6
BYBLOCK
100
AcDbText
 10
-39.022378
 20
20.625
 30
0.0
 40
1.5
  1
%%P0.2
100
AcDbText
  0
TEXT
  5
166
330
12B
100
AcDbEntity
  8
MO_001_VIEW_PV
  6
BYBLOCK
100
AcDbText
 10
-47.80809199999999
 20
18.75
 30
0.0
 40
3.0
  1
2.5
100
AcDbText
  0
LINE
  5
167
330
12B
100
AcDbEntity
  8
MO_001_VIEW_PV
  6
BYBLOCK
100
AcDbLine
 10
-27.5
 20
18.0
 30
0.0
 11
-30.0
 21
18.0
 31
0.0
  0
LINE
  5
168
330
12B
100
AcDbEntity
  8
MO_001_VIEW_PV
  6
BYBLOCK
100
AcDbLine
 10
-27.5
 20
18.0
 30
0.0
 11
-21.14999999999999
 21
18.0
 31
0.0
  0
LINE
  5
169
330
12B
100
AcDbEntity
  8
MO_001_VIEW_PV
  6
BYBLOCK
100
AcDbLine
 10
-30.0
 20
18.0
 30
0.0
 11
-36.35
 21
18.0
 31
0.0
  0
SOLID
  5
16A
330
12B
100
AcDbEntity
  8
MO_001_VIEW_PV
  6
BYBLOCK
100
AcDbTrace
 10
-24.18174
 20
18.58351199999999
 30
0.0
 11
-26.99199999999999
 21
18.0
 31
0.0
 12
-24.18174
 22
17.416488
 32
0.0
 13
-24.18174
 23
17.416488
 33
0.0
  0
SOLID
  5
16B
330
12B
100
AcDbEntity
  8
MO_001_VIEW_PV
  6
BYBLOCK
100
AcDbTrace
 10
-33.31825999999999
 20
17.416488
 30
0.0
 11
-30.508
 21
18.0
 31
0.0
 12
-33.31825999999999
 22
18.58351199999999
 32
0.0
 13
-33.31825999999999
 23
18.58351199999999
 33
0.0
  0
LINE
  5
16C
330
12B
100
AcDbEntity
  8
MO_001_VIEW_PV
  6
BYBLOCK
100
AcDbLine
 10
-27.5
 20
3.228061999999999
 30
0.0
 11
-27.5
 21
20.285999
 31
0.0
  0
LINE
  5
16D
330
12B
100
AcDbEntity
  8
MO_001_VIEW_PV
  6
BYBLOCK
100
AcDbLine
 10
-30.0
 20
2.299999
 30
0.0
 11
-30.0
 21
20.285999
 31
0.0
  0
LINE
  5
16E
330
12B
100
AcDbEntity
  8
MO_001_VIEW_PV
  6
BYBLOCK
100
AcDbLine
 10
-30.0
 20
18.0
 30
0.0
 11
-48.772377
 21
18.0
 31
0.0
  0
ENDBLK
  5
16F
330
12B
100
AcDbEntity
  8
0
100
AcDbBlockEnd
  0
BLOCK
  5
170
330
12D
100
AcDbEntity
  8
0
100
AcDbBlockBegin
  2
*D2
 70
     1
 10
0.0
 20
0.0
 30
0.0
  3
*D2
  1

  0
TEXT
  5
171
330
12D
100
AcDbEntity
  8
MO_001_VIEW_PV
  6
BYBLOCK
100
AcDbText
 10
-40.85098
 20
26.625
 30
0.0
 40
1.5
  1
%%P0.3
100
AcDbText
  0
TEXT
  5
172
330
12D
100
AcDbEntity
  8
MO_001_VIEW_PV
  6
BYBLOCK
100
AcDbText
 10
-43.636694
 20
24.75
 30
0.0
 40
3.0
  1
6
100
AcDbText
  0
LINE
  5
173
330
12D
100
AcDbEntity
  8
MO_001_VIEW_PV
  6
BYBLOCK
100
AcDbLine
 10
-24.0
 20
24.0
 30
0.0
 11
-30.0
 21
24.0
 31
0.0
  0
LINE
  5
174
330
12D
100
AcDbEntity
  8
MO_001_VIEW_PV
  6
BYBLOCK
100
AcDbLine
 10
-24.0
 20
24.0
 30
0.0
 11
-17.64999999999999
 21
24.0
 31
0.0
  0
LINE
  5
175
330
12D
100
AcDbEntity
  8
MO_001_VIEW_PV
  6
BYBLOCK
100
AcDbLine
 10
-30.0
 20
24.0
 30
0.0
 11
-36.35
 21
24.0
 31
0.0
  0
SOLID
  5
176
330
12D
100
AcDbEntity
  8
MO_001_VIEW_PV
  6
BYBLOCK
100
AcDbTrace
 10
-20.68173999999999
 20
24.583512
 30
0.0
 11
-23.49199999999999
 21
24.0
 31
0.0
 12
-20.68173999999999
 22
23.416488
 32
0.0
 13
-20.68173999999999
 23
23.416488
 33
0.0
  0
SOLID
  5
177
330
12D
100
AcDbEntity
  8
MO_001_VIEW_PV
  6
BYBLOCK
100
AcDbTrace
 10
-33.31825999999999
 20
23.416488
 30
0.0
 11
-30.508
 21
24.0
 31
0.0
 12
-33.31825999999999
 22
24.583512
 32
0.0
 13
-33.31825999999999
 23
24.583512
 33
0.0
  0
LINE
  5
178
330
12D
100
AcDbEntity
  8
MO_001_VIEW_PV
  6
BYBLOCK
100
AcDbLine
 10
-24.0
 20
6.0
 30
0.0
 11
-24.0
 21
26.285999
 31
0.0
  0
LINE
  5
179
330
12D
100
AcDbEntity
  8
MO_001_VIEW_PV
  6
BYBLOCK
100
AcDbLine
 10
-30.0
 20
2.299999
 30
0.0
 11
-30.0
 21
26.285999
 31
0.0
  0
LINE
  5
17A
330
12D
100
AcDbEntity
  8
MO_001_VIEW_PV
  6
BYBLOCK
100
AcDbLine
 10
-30.0
 20
24.0
 30
0.0
 11
-44.600979
 21
24.0
 31
0.0
  0
ENDBLK
  5
17B
330
12D
100
AcDbEntity
  8
0
100
AcDbBlockEnd
  0
BLOCK
  5
17C
330
12F
100
AcDbEntity
  8
0
100
AcDbBlockBegin
  2
*D3
 70
     1
 10
0.0
 20
0.0
 30
0.0
  3
*D3
  1

  0
TEXT
  5
17D
330
12F
100
AcDbEntity
  8
MO_001_VIEW_PV
  6
BYBLOCK
100
AcDbText
 10
-11.785714
 20
26.625
 30
0.0
 40
1.5
  1
%%P0.5
100
AcDbText
  0
TEXT
  5
17E
330
12F
100
AcDbEntity
  8
MO_001_VIEW_PV
  6
BYBLOCK
100
AcDbText
 10
-17.571429
 20
24.75
 30
0.0
 40
3.0
  1
24
100
AcDbText
  0
LINE
  5
17F
330
12F
100
AcDbEntity
  8
MO_001_VIEW_PV
  6
BYBLOCK
100
AcDbLine
 10
-24.0
 20
24.0
 30
0.0
 11
0.0
 21
24.0
 31
0.0
  0
SOLID
  5
180
330
12F
100
AcDbEntity
  8
MO_001_VIEW_PV
  6
BYBLOCK
100
AcDbTrace
 10
-20.68173999999999
 20
24.583512
 30
0.0
 11
-23.49199999999999
 21
24.0
 31
0.0
 12
-20.68173999999999
 22
23.416488
 32
0.0
 13
-20.68173999999999
 23
23.416488
 33
0.0
  0
SOLID
  5
181
330
12F
100
AcDbEntity
  8
MO_001_VIEW_PV
  6
BYBLOCK
100
AcDbTrace
 10
-3.318259999999999
 20
23.416488
 30
0.0
 11
-0.508
 21
24.0
 31
0.0
 12
-3.318259999999999
 22
24.583512
 32
0.0
 13
-3.318259999999999
 23
24.583512
 33
0.0
  0
LINE
  5
182
330
12F
100
AcDbEntity
  8
MO_001_VIEW_PV
  6
BYBLOCK
100
AcDbLine
 10
-24.0
 20
6.0
 30
0.0
 11
-24.0
 21
26.285999
 31
0.0
  0
LINE
  5
183
330
12F
100
AcDbEntity
  8
MO_001_VIEW_PV
  6
BYBLOCK
100
AcDbLine
 10
0.0
 20
5.0
 30
0.0
 11
0.0
 21
26.285999
 31
0.0
  0
ENDBLK
  5
184
330
12F
100
AcDbEntity
  8
0
100
AcDbBlockEnd
  0
BLOCK
  5
185
330
131
100
AcDbEntity
  8
0
100
AcDbBlockBegin
  2
*D4
 70
     1
 10
0.0
 20
0.0
 30
0.0
  3
*D4
  1

  0
TEXT
  5
186
330
131
100
AcDbEntity
  8
MO_001_VIEW_PV
  6
BYBLOCK
100
AcDbText
 10
4.670484
 20
24.75
 30
0.0
 40
3.0
  1
(0.5)
100
AcDbText
  0
LINE
  5
187
330
131
100
AcDbEntity
  8
MO_001_VIEW_PV
  6
BYBLOCK
100
AcDbLine
 10
0.5
 20
24.0
 30
0.0
 11
0.0
 21
24.0
 31
0.0
  0
LINE
  5
188
330
131
100
AcDbEntity
  8
MO_001_VIEW_PV
  6
BYBLOCK
100
AcDbLine
 10
0.5
 20
24.0
 30
0.0
 11
6.849999999999999
 21
24.0
 31
0.0
  0
LINE
  5
189
330
131
100
AcDbEntity
  8
MO_001_VIEW_PV
  6
BYBLOCK
100
AcDbLine
 10
0.0
 20
24.0
 30
0.0
 11
-6.349999999999999
 21
24.0
 31
0.0
  0
SOLID
  5
18A
330
131
100
AcDbEntity
  8
MO_001_VIEW_PV
  6
BYBLOCK
100
AcDbTrace
 10
3.81826
 20
24.583512
 30
0.0
 11
1.008
 21
24.0
 31
0.0
 12
3.81826
 22
23.416488
 32
0.0
 13
3.81826
 23
23.416488
 33
0.0
  0
SOLID
  5
18B
330
131
100
AcDbEntity
  8
MO_001_VIEW_PV
  6
BYBLOCK
100
AcDbTrace
 10
-3.318259999999999
 20
23.416488
 30
0.0
 11
-0.508
 21
24.0
 31
0.0
 12
-3.318259999999999
 22
24.583512
 32
0.0
 13
-3.318259999999999
 23
24.583512
 33
0.0
  0
LINE
  5
18C
330
131
100
AcDbEntity
  8
MO_001_VIEW_PV
  6
BYBLOCK
100
AcDbLine
 10
0.5
 20
2.0
 30
0.0
 11
0.5
 21
26.285999
 31
0.0
  0
LINE
  5
18D
330
131
100
AcDbEntity
  8
MO_001_VIEW_PV
  6
BYBLOCK
100
AcDbLine
 10
0.0
 20
5.0
 30
0.0
 11
0.0
 21
26.285999
 31
0.0
  0
LINE
  5
18E
330
131
100
AcDbEntity
  8
MO_001_VIEW_PV
  6
BYBLOCK
100
AcDbLine
 10
19.77762799999999
 20
24.0
 30
0.0
 11
0.5
 21
24.0
 31
0.0
  0
ENDBLK
  5
18F
330
131
100
AcDbEntity
  8
0
100
AcDbBlockEnd
  0
BLOCK
  5
190
330
133
100
AcDbEntity
  8
0
100
AcDbBlockBegin
  2
*D5
 70
     1
 10
0.0
 20
0.0
 30
0.0
  3
*D5
  1

  0
TEXT
  5
191
330
133
100
AcDbEntity
  8
MO_001_VIEW_PV
  6
BYBLOCK
100
AcDbText
 10
-41.625
 20
-10.285714
 30
0.0
 40
1.5
  1
%%P0.1
 50
90.0
100
AcDbText
  0
TEXT
  5
192
330
133
100
AcDbEntity
  8
MO_001_VIEW_PV
  6
BYBLOCK
100
AcDbText
 10
-39.75
 20
-19.071429
 30
0.0
 40
3.0
  1
1.5
 50
90.0
100
AcDbText
  0
LINE
  5
193
330
133
100
AcDbEntity
  8
MO_001_VIEW_PV
  6
BYBLOCK
100
AcDbLine
 10
-39.0
 20
0.75
 30
0.0
 11
-39.0
 21
-0.75
 31
0.0
  0
LINE
  5
194
330
133
100
AcDbEntity
  8
MO_001_VIEW_PV
  6
BYBLOCK
100
AcDbLine
 10
-39.0
 20
0.75
 30
0.0
 11
-39.0
 21
7.099999999999999
 31
0.0
  0
LINE
  5
195
330
133
100
AcDbEntity
  8
MO_001_VIEW_PV
  6
BYBLOCK
100
AcDbLine
 10
-39.0
 20
-0.75
 30
0.0
 11
-39.0
 21
-7.099999999999999
 31
0.0
  0
SOLID
  5
196
330
133
100
AcDbEntity
  8
MO_001_VIEW_PV
  6
BYBLOCK
100
AcDbTrace
 10
-39.583512
 20
4.068259999999999
 30
0.0
 11
-39.0
 21
1.258
 31
0.0
 12
-38.416488
 22
4.068259999999999
 32
0.0
 13
-38.416488
 23
4.068259999999999
 33
0.0
  0
SOLID
  5
197
330
133
100
AcDbEntity
  8
MO_001_VIEW_PV
  6
BYBLOCK
100
AcDbTrace
 10
-38.416488
 20
-4.068259999999999
 30
0.0
 11
-39.0
 21
-1.258
 31
0.0
 12
-39.583512
 22
-4.068259999999999
 32
0.0
 13
-39.583512
 23
-4.068259999999999
 33
0.0
  0
LINE
  5
198
330
133
100
AcDbEntity
  8
MO_001_VIEW_PV
  6
BYBLOCK
100
AcDbLine
 10
-30.0
 20
0.75
 30
0.0
 11
-41.285999
 21
0.75
 31
0.0
  0
LINE
  5
199
330
133
100
AcDbEntity
  8
MO_001_VIEW_PV
  6
BYBLOCK
100
AcDbLine
 10
-30.0
 20
-0.75
 30
0.0
 11
-41.285999
 21
-0.75
 31
0.0
  0
LINE
  5
19A
330
133
100
AcDbEntity
  8
MO_001_VIEW_PV
  6
BYBLOCK
100
AcDbLine
 10
-39.0
 20
-0.75
 30
0.0
 11
-39.0
 21
-20.035713
 31
0.0
  0
ENDBLK
  5
19B
330
133
100
AcDbEntity
  8
0
100
AcDbBlockEnd
  0
BLOCK
  5
19C
330
135
100
AcDbEntity
  8
0
100
AcDbBlockBegin
  2
*D6
 70
     1
 10
0.0
 20
0.0
 30
0.0
  3
*D6
  1

  0
TEXT
  5
19D
330
135
100
AcDbEntity
  8
MO_001_VIEW_PV
  6
BYBLOCK
100
AcDbText
 10
-47.625
 20
-11.785714
 30
0.0
 40
1.5
  1
%%P0.1
 50
90.0
100
AcDbText
  0
TEXT
  5
19E
330
135
100
AcDbEntity
  8
MO_001_VIEW_PV
  6
BYBLOCK
100
AcDbText
 10
-45.75
 20
-17.571429
 30
0.0
 40
3.0
  1
%%C5
 50
90.0
100
AcDbText
  0
LINE
  5
19F
330
135
100
AcDbEntity
  8
MO_001_VIEW_PV
  6
BYBLOCK
100
AcDbLine
 10
-45.0
 20
-2.5
 30
0.0
 11
-45.0
 21
2.5
 31
0.0
  0
LINE
  5
1A0
330
135
100
AcDbEntity
  8
MO_001_VIEW_PV
  6
BYBLOCK
100
AcDbLine
 10
-45.0
 20
-2.5
 30
0.0
 11
-45.0
 21
-8.849999999999999
 31
0.0
  0
LINE
  5
1A1
330
135
100
AcDbEntity
  8
MO_001_VIEW_PV
  6
BYBLOCK
100
AcDbLine
 10
-45.0
 20
2.5
 30
0.0
 11
-45.0
 21
8.849999999999999
 31
0.0
  0
SOLID
  5
1A2
330
135
100
AcDbEntity
  8
MO_001_VIEW_PV
  6
BYBLOCK
100
AcDbTrace
 10
-44.416488
 20
-5.818259999999999
 30
0.0
 11
-45.0
 21
-3.008
 31
0.0
 12
-45.58351199999999
 22
-5.818259999999999
 32
0.0
 13
-45.58351199999999
 23
-5.818259999999999
 33
0.0
  0
SOLID
  5
1A3
330
135
100
AcDbEntity
  8
MO_001_VIEW_PV
  6
BYBLOCK
100
AcDbTrace
 10
-45.58351199999999
 20
5.818259999999999
 30
0.0
 11
-45.0
 21
3.008
 31
0.0
 12
-44.416488
 22
5.818259999999999
 32
0.0
 13
-44.416488
 23
5.818259999999999
 33
0.0
  0
LINE
  5
1A4
330
135
100
AcDbEntity
  8
MO_001_VIEW_PV
  6
BYBLOCK
100
AcDbLine
 10
-29.799999
 20
-2.5
 30
0.0
 11
-47.28599899999999
 21
-2.5
 31
0.0
  0
LINE
  5
1A5
330
135
100
AcDbEntity
  8
MO_001_VIEW_PV
  6
BYBLOCK
100
AcDbLine
 10
-29.799999
 20
2.5
 30
0.0
 11
-47.28599899999999
 21
2.5
 31
0.0
  0
LINE
  5
1A6
330
135
100
AcDbEntity
  8
MO_001_VIEW_PV
  6
BYBLOCK
100
AcDbLine
 10
-45.0
 20
-18.535713
 30
0.0
 11
-45.0
 21
-2.5
 31
0.0
  0
ENDBLK
  5
1A7
330
135
100
AcDbEntity
  8
0
100
AcDbBlockEnd
  0
BLOCK
  5
1A8
330
137
100
AcDbEntity
  8
0
100
AcDbBlockBegin
  2
*D7
 70
     1
 10
0.0
 20
0.0
 30
0.0
  3
*D7
  1

  0
TEXT
  5
1A9
330
137
100
AcDbEntity
  8
MO_001_VIEW_PV
  6
BYBLOCK
100
AcDbText
 10
-16.285714
 20
-12.375
 30
0.0
 40
1.5
  1
%%P0.2
100
AcDbText
  0
TEXT
  5
1AA
330
137
100
AcDbEntity
  8
MO_001_VIEW_PV
  6
BYBLOCK
100
AcDbText
 10
-19.071429
 20
-14.25
 30
0.0
 40
3.0
  1
6
100
AcDbText
  0
LINE
  5
1AB
330
137
100
AcDbEntity
  8
MO_001_VIEW_PV
  6
BYBLOCK
100
AcDbLine
 10
-24.0
 20
-15.0
 30
0.0
 11
-30.0
 21
-15.0
 31
0.0
  0
LINE
  5
1AC
330
137
100
AcDbEntity
  8
MO_001_VIEW_PV
  6
BYBLOCK
100
AcDbLine
 10
-24.0
 20
-15.0
 30
0.0
 11
-17.64999999999999
 21
-15.0
 31
0.0
  0
LINE
  5
1AD
330
137
100
AcDbEntity
  8
MO_001_VIEW_PV
  6
BYBLOCK
100
AcDbLine
 10
-30.0
 20
-15.0
 30
0.0
 11
-36.35
 21
-15.0
 31
0.0
  0
SOLID
  5
1AE
330
137
100
AcDbEntity
  8
MO_001_VIEW_PV
  6
BYBLOCK
100
AcDbTrace
 10
-20.68173999999999
 20
-14.416488
 30
0.0
 11
-23.49199999999999
 21
-15.0
 31
0.0
 12
-20.68173999999999
 22
-15.58351199999999
 32
0.0
 13
-20.68173999999999
 23
-15.58351199999999
 33
0.0
  0
SOLID
  5
1AF
330
137
100
AcDbEntity
  8
MO_001_VIEW_PV
  6
BYBLOCK
100
AcDbTrace
 10
-33.31825999999999
 20
-15.58351199999999
 30
0.0
 11
-30.508
 21
-15.0
 31
0.0
 12
-33.31825999999999
 22
-14.416488
 32
0.0
 13
-33.31825999999999
 23
-14.416488
 33
0.0
  0
LINE
  5
1B0
330
137
100
AcDbEntity
  8
MO_001_VIEW_PV
  6
BYBLOCK
100
AcDbLine
 10
-24.0
 20
-0.75
 30
0.0
 11
-24.0
 21
-17.285999
 31
0.0
  0
LINE
  5
1B1
330
137
100
AcDbEntity
  8
MO_001_VIEW_PV
  6
BYBLOCK
100
AcDbLine
 10
-30.0
 20
-2.299999
 30
0.0
 11
-30.0
 21
-17.285999
 31
0.0
  0
LINE
  5
1B2
330
137
100
AcDbEntity
  8
MO_001_VIEW_PV
  6
BYBLOCK
100
AcDbLine
 10
-9.964285999999999
 20
-15.0
 30
0.0
 11
-24.0
 21
-15.0
 31
0.0
  0
ENDBLK
  5
1B3
330
137
100
AcDbEntity
  8
0
100
AcDbBlockEnd
  0
BLOCK
  5
1B4
330
139
100
AcDbEntity
  8
0
100
AcDbBlockBegin
  2
*D8
 70
     1
 10
0.0
 20
0.0
 30
0.0
  3
*D8
  1

  0
TEXT
  5
1B5
330
139
100
AcDbEntity
  8
MO_001_VIEW_PV
  6
BYBLOCK
100
AcDbText
 10
-57.390489
 20
-15.375
 30
0.0
 40
1.5
  1
%%P0.3
100
AcDbText
  0
TEXT
  5
1B6
330
139
100
AcDbEntity
  8
MO_001_VIEW_PV
  6
BYBLOCK
100
AcDbText
 10
-63.176203
 20
-17.25
 30
0.0
 40
3.0
  1
10
100
AcDbText
  0
LINE
  5
1B7
330
139
100
AcDbEntity
  8
MO_001_VIEW_PV
  6
BYBLOCK
100
AcDbLine
 10
-67.0
 20
-18.0
 30
0.0
 11
-77.0
 21
-18.0
 31
0.0
  0
LINE
  5
1B8
330
139
100
AcDbEntity
  8
MO_001_VIEW_PV
  6
BYBLOCK
100
AcDbLine
 10
-67.0
 20
-18.0
 30
0.0
 11
-60.65
 21
-18.0
 31
0.0
  0
LINE
  5
1B9
330
139
100
AcDbEntity
  8
MO_001_VIEW_PV
  6
BYBLOCK
100
AcDbLine
 10
-77.0
 20
-18.0
 30
0.0
 11
-83.34999999999999
 21
-18.0
 31
0.0
  0
SOLID
  5
1BA
330
139
100
AcDbEntity
  8
MO_001_VIEW_PV
  6
BYBLOCK
100
AcDbTrace
 10
-63.68174
 20
-17.416488
 30
0.0
 11
-66.492
 21
-18.0
 31
0.0
 12
-63.68174
 22
-18.58351199999999
 32
0.0
 13
-63.68174
 23
-18.58351199999999
 33
0.0
  0
SOLID
  5
1BB
330
139
100
AcDbEntity
  8
MO_001_VIEW_PV
  6
BYBLOCK
100
AcDbTrace
 10
-80.31826
 20
-18.58351199999999
 30
0.0
 11
-77.50799999999999
 21
-18.0
 31
0.0
 12
-80.31826
 22
-17.416488
 32
0.0
 13
-80.31826
 23
-17.416488
 33
0.0
  0
LINE
  5
1BC
330
139
100
AcDbEntity
  8
MO_001_VIEW_PV
  6
BYBLOCK
100
AcDbLine
 10
-67.0
 20
-6.0
 30
0.0
 11
-67.0
 21
-20.285999
 31
0.0
  0
LINE
  5
1BD
330
139
100
AcDbEntity
  8
MO_001_VIEW_PV
  6
BYBLOCK
100
AcDbLine
 10
-77.0
 20
-6.0
 30
0.0
 11
-77.0
 21
-20.285999
 31
0.0
  0
LINE
  5
1BE
330
139
100
AcDbEntity
  8
MO_001_VIEW_PV
  6
BYBLOCK
100
AcDbLine
 10
-51.06906099999999
 20
-18.0
 30
0.0
 11
-67.0
 21
-18.0
 31
0.0
  0
ENDBLK
  5
1BF
330
139
100
AcDbEntity
  8
0
100
AcDbBlockEnd
  0
BLOCK
  5
1C0
330
13B
100
AcDbEntity
  8
0
100
AcDbBlockBegin
  2
*D9
 70
     1
 10
0.0
 20
0.0
 30
0.0
  3
*D9
  1

  0
LINE
  5
1C1
330
13B
100
AcDbEntity
  8
MO_001_VIEW_PV
  6
BYBLOCK
100
AcDbLine
 10
-60.0
 20
-6.0
 30
0.0
 11
-60.0
 21
6.0
 31
0.0
  0
LINE
  5
1C2
330
13B
100
AcDbEntity
  8
MO_001_VIEW_PV
  6
BYBLOCK
100
AcDbLine
 10
-60.0
 20
-6.0
 30
0.0
 11
-60.0
 21
-12.35
 31
0.0
  0
LINE
  5
1C3
330
13B
100
AcDbEntity
  8
MO_001_VIEW_PV
  6
BYBLOCK
100
AcDbLine
 10
-60.0
 20
6.0
 30
0.0
 11
-60.0
 21
12.35
 31
0.0
  0
SOLID
  5
1C4
330
13B
100
AcDbEntity
  8
MO_001_VIEW_PV
  6
BYBLOCK
100
AcDbTrace
 10
-59.416488
 20
-9.31826
 30
0.0
 11
-60.0
 21
-6.507999999999999
 31
0.0
 12
-60.583512
 22
-9.31826
 32
0.0
 13
-60.583512
 23
-9.31826
 33
0.0
  0
SOLID
  5
1C5
330
13B
100
AcDbEntity
  8
MO_001_VIEW_PV
  6
BYBLOCK
100
AcDbTrace
 10
-60.583512
 20
9.31826
 30
0.0
 11
-60.0
 21
6.507999999999999
 31
0.0
 12
-59.416488
 22
9.31826
 32
0.0
 13
-59.416488
 23
9.31826
 33
0.0
  0
LINE
  5
1C6
330
13B
100
AcDbEntity
  8
MO_001_VIEW_PV
  6
BYBLOCK
100
AcDbLine
 10
-67.0
 20
-6.0
 30
0.0
 11
-57.71399699999999
 21
-6.0
 31
0.0
  0
LINE
  5
1C7
330
13B
100
AcDbEntity
  8
MO_001_VIEW_PV
  6
BYBLOCK
100
AcDbLine
 10
-67.0
 20
6.0
 30
0.0
 11
-57.71399699999999
 21
6.0
 31
0.0
  0
TEXT
  5
1C8
330
13B
100
AcDbEntity
  8
MO_001_VIEW_PV
  6
BYBLOCK
100
AcDbText
 10
-61.5
 20
15.21428599999999
 30
0.0
 40
1.5
  1
%%P0.5
 50
90.0
100
AcDbText
  0
TEXT
  5
1C9
330
13B
100
AcDbEntity
  8
MO_001_VIEW_PV
  6
BYBLOCK
100
AcDbText
 10
-60.75
 20
9.428570999999999
 30
0.0
 40
3.0
  1
12
 50
90.0
100
AcDbText
  0
LINE
  5
1CA
330
13B
100
AcDbEntity
  8
MO_001_VIEW_PV
  6
BYBLOCK
100
AcDbLine
 10
-60.0
 20
6.0
 30
0.0
 11
-60.0
 21
21.535713
 31
0.0
  0
ENDBLK
  5
1CB
330
13B
100
AcDbEntity
  8
0
100
AcDbBlockEnd
  0
BLOCK
  5
1CC
330
13D
100
AcDbEntity
  8
0
100
AcDbBlockBegin
  2
*D10
 70
     1
 10
0.0
 20
0.0
 30
0.0
  3
*D10
  1

  0
LINE
  5
1CD
330
13D
100
AcDbEntity
  8
MO_001_VIEW_PV
  6
BYBLOCK
100
AcDbLine
 10
-27.5
 20
-30.0
 30
0.0
 11
-15.0
 21
-30.0
 31
0.0
  0
SOLID
  5
1CE
330
13D
100
AcDbEntity
  8
MO_001_VIEW_PV
  6
BYBLOCK
100
AcDbTrace
 10
-24.18174
 20
-29.416488
 30
0.0
 11
-26.99199999999999
 21
-30.0
 31
0.0
 12
-24.18174
 22
-30.583512
 32
0.0
 13
-24.18174
 23
-30.583512
 33
0.0
  0
SOLID
  5
1CF
330
13D
100
AcDbEntity
  8
MO_001_VIEW_PV
  6
BYBLOCK
100
AcDbTrace
 10
-18.31826
 20
-30.583512
 30
0.0
 11
-15.50799999999999
 21
-30.0
 31
0.0
 12
-18.31826
 22
-29.416488
 32
0.0
 13
-18.31826
 23
-29.416488
 33
0.0
  0
LINE
  5
1D0
330
13D
100
AcDbEntity
  8
MO_001_VIEW_PV
  6
BYBLOCK
100
AcDbLine
 10
-27.5
 20
-35.77194199999999
 30
0.0
 11
-27.5
 21
-27.714001
 31
0.0
  0
LINE
  5
1D1
330
13D
100
AcDbEntity
  8
MO_001_VIEW_PV
  6
BYBLOCK
100
AcDbLine
 10
-15.0
 20
-35.0
 30
0.0
 11
-15.0
 21
-27.714001
 31
0.0
  0
TEXT
  5
1D2
330
13D
100
AcDbEntity
  8
MO_001_VIEW_PV
  6
BYBLOCK
100
AcDbText
 10
-33.724839
 20
-27.375
 30
0.0
 40
1.5
  1
%%P0.5
100
AcDbText
  0
TEXT
  5
1D3
330
13D
100
AcDbEntity
  8
MO_001_VIEW_PV
  6
BYBLOCK
100
AcDbText
 10
-45.510554
 20
-29.25
 30
0.0
 40
3.0
  1
12.5
100
AcDbText
  0
LINE
  5
1D4
330
13D
100
AcDbEntity
  8
MO_001_VIEW_PV
  6
BYBLOCK
100
AcDbLine
 10
-46.47483799999999
 20
-30.0
 30
0.0
 11
-27.5
 21
-30.0
 31
0.0
  0
ENDBLK
  5
1D5
330
13D
100
AcDbEntity
  8
0
100
AcDbBlockEnd
  0
BLOCK
  5
1D6
330
13F
100
AcDbEntity
  8
0
100
AcDbBlockBegin
  2
*D11
 70
     1
 10
0.0
 20
0.0
 30
0.0
  3
*D11
  1

  0
LINE
  5
1D7
330
13F
100
AcDbEntity
  8
MO_001_VIEW_PV
  6
BYBLOCK
100
AcDbLine
 10
-10.5
 20
-30.0
 30
0.0
 11
-7.035897999999999
 21
-24.0
 31
0.0
  0
SOLID
  5
1D8
330
13F
100
AcDbEntity
  8
MO_001_VIEW_PV
  6
BYBLOCK
100
AcDbTrace
 10
-9.346206
 20
-26.83454699999999
 30
0.0
 11
-10.24599999999999
 21
-29.560059
 31
0.0
 12
-8.335533999999999
 22
-27.418058
 32
0.0
 13
-8.335533999999999
 23
-27.418058
 33
0.0
  0
LINE
  5
1D9
330
13F
100
AcDbEntity
  8
MO_001_VIEW_PV
  6
BYBLOCK
100
AcDbLine
 10
-7.035897999999999
 20
-24.0
 30
0.0
 11
3.292192
 21
-24.0
 31
0.0
  0
LINE
  5
1DA
330
13F
100
AcDbEntity
  8
MO_001_VIEW_PV
  6
BYBLOCK
100
AcDbLine
 10
-15.0
 20
-30.0
 30
0.0
 11
-6.0
 21
-30.0
 31
0.0
  0
SOLID
  5
1DB
330
13F
100
AcDbEntity
  8
MO_001_VIEW_PV
  6
BYBLOCK
100
AcDbTrace
 10
-11.68174
 20
-29.416488
 30
0.0
 11
-14.492
 21
-30.0
 31
0.0
 12
-11.68174
 22
-30.583512
 32
0.0
 13
-11.68174
 23
-30.583512
 33
0.0
  0
SOLID
  5
1DC
330
13F
100
AcDbEntity
  8
MO_001_VIEW_PV
  6
BYBLOCK
100
AcDbTrace
 10
-9.31826
 20
-30.583512
 30
0.0
 11
-6.507999999999999
 21
-30.0
 31
0.0
 12
-9.31826
 22
-29.416488
 32
0.0
 13
-9.31826
 23
-29.416488
 33
0.0
  0
LINE
  5
1DD
330
13F
100
AcDbEntity
  8
MO_001_VIEW_PV
  6
BYBLOCK
100
AcDbLine
 10
-15.0
 20
-35.0
 30
0.0
 11
-15.0
 21
-27.714001
 31
0.0
  0
LINE
  5
1DE
330
13F
100
AcDbEntity
  8
MO_001_VIEW_PV
  6
BYBLOCK
100
AcDbLine
 10
-6.0
 20
-40.0
 30
0.0
 11
-6.0
 21
-27.714001
 31
0.0
  0
TEXT
  5
1DF
330
13F
100
AcDbEntity
  8
MO_001_VIEW_PV
  6
BYBLOCK
100
AcDbText
 10
-3.029236999999999
 20
-21.375
 30
0.0
 40
1.5
  1
%%P0.2
100
AcDbText
  0
TEXT
  5
1E0
330
13F
100
AcDbEntity
  8
MO_001_VIEW_PV
  6
BYBLOCK
100
AcDbText
 10
-5.814951
 20
-23.25
 30
0.0
 40
3.0
  1
9
100
AcDbText
  0
ENDBLK
  5
1E1
330
13F
100
AcDbEntity
  8
0
100
AcDbBlockEnd
  0
BLOCK
  5
1E2
330
141
100
AcDbEntity
  8
0
100
AcDbBlockBegin
  2
*D12
 70
     1
 10
0.0
 20
0.0
 30
0.0
  3
*D12
  1

  0
LINE
  5
1E3
330
141
100
AcDbEntity
  8
MO_001_VIEW_PV
  6
BYBLOCK
100
AcDbLine
 10
0.0
 20
-30.0
 30
0.0
 11
-6.0
 21
-30.0
 31
0.0
  0
LINE
  5
1E4
330
141
100
AcDbEntity
  8
MO_001_VIEW_PV
  6
BYBLOCK
100
AcDbLine
 10
0.0
 20
-30.0
 30
0.0
 11
6.349999999999999
 21
-30.0
 31
0.0
  0
LINE
  5
1E5
330
141
100
AcDbEntity
  8
MO_001_VIEW_PV
  6
BYBLOCK
100
AcDbLine
 10
-6.0
 20
-30.0
 30
0.0
 11
-12.35
 21
-30.0
 31
0.0
  0
SOLID
  5
1E6
330
141
100
AcDbEntity
  8
MO_001_VIEW_PV
  6
BYBLOCK
100
AcDbTrace
 10
3.318259999999999
 20
-29.416488
 30
0.0
 11
0.508
 21
-30.0
 31
0.0
 12
3.318259999999999
 22
-30.583512
 32
0.0
 13
3.318259999999999
 23
-30.583512
 33
0.0
  0
SOLID
  5
1E7
330
141
100
AcDbEntity
  8
MO_001_VIEW_PV
  6
BYBLOCK
100
AcDbTrace
 10
-9.31826
 20
-30.583512
 30
0.0
 11
-6.507999999999999
 21
-30.0
 31
0.0
 12
-9.31826
 22
-29.416488
 32
0.0
 13
-9.31826
 23
-29.416488
 33
0.0
  0
LINE
  5
1E8
330
141
100
AcDbEntity
  8
MO_001_VIEW_PV
  6
BYBLOCK
100
AcDbLine
 10
0.0
 20
-34.0
 30
0.0
 11
0.0
 21
-27.714001
 31
0.0
  0
LINE
  5
1E9
330
141
100
AcDbEntity
  8
MO_001_VIEW_PV
  6
BYBLOCK
100
AcDbLine
 10
-6.0
 20
-40.0
 30
0.0
 11
-6.0
 21
-27.714001
 31
0.0
  0
TEXT
  5
1EA
330
141
100
AcDbEntity
  8
MO_001_VIEW_PV
  6
BYBLOCK
100
AcDbText
 10
6.533339999999999
 20
-27.375
 30
0.0
 40
1.5
  1
%%P0.2
100
AcDbText
  0
TEXT
  5
1EB
330
141
100
AcDbEntity
  8
MO_001_VIEW_PV
  6
BYBLOCK
100
AcDbText
 10
3.747625
 20
-29.25
 30
0.0
 40
3.0
  1
6
100
AcDbText
  0
LINE
  5
1EC
330
141
100
AcDbEntity
  8
MO_001_VIEW_PV
  6
BYBLOCK
100
AcDbLine
 10
12.854768
 20
-30.0
 30
0.0
 11
0.0
 21
-30.0
 31
0.0
  0
ENDBLK
  5
1ED
330
141
100
AcDbEntity
  8
0
100
AcDbBlockEnd
  0
BLOCK
  5
1EE
330
143
100
AcDbEntity
  8
0
100
AcDbBlockBegin
  2
*D13
 70
     1
 10
0.0
 20
0.0
 30
0.0
  3
*D13
  1

  0
LINE
  5
1EF
330
143
100
AcDbEntity
  8
MO_001_VIEW_PV
  6
BYBLOCK
100
AcDbLine
 10
21.0
 20
-36.5
 30
0.0
 11
21.0
 21
-41.5
 31
0.0
  0
LINE
  5
1F0
330
143
100
AcDbEntity
  8
MO_001_VIEW_PV
  6
BYBLOCK
100
AcDbLine
 10
21.0
 20
-36.5
 30
0.0
 11
21.0
 21
-30.15
 31
0.0
  0
LINE
  5
1F1
330
143
100
AcDbEntity
  8
MO_001_VIEW_PV
  6
BYBLOCK
100
AcDbLine
 10
21.0
 20
-41.5
 30
0.0
 11
21.0
 21
-47.85
 31
0.0
  0
SOLID
  5
1F2
330
143
100
AcDbEntity
  8
MO_001_VIEW_PV
  6
BYBLOCK
100
AcDbTrace
 10
20.416488
 20
-33.18174
 30
0.0
 11
21.0
 21
-35.99199999999999
 31
0.0
 12
21.58351199999999
 22
-33.18174
 32
0.0
 13
21.58351199999999
 23
-33.18174
 33
0.0
  0
SOLID
  5
1F3
330
143
100
AcDbEntity
  8
MO_001_VIEW_PV
  6
BYBLOCK
100
AcDbTrace
 10
21.58351199999999
 20
-44.81825999999999
 30
0.0
 11
21.0
 21
-42.008
 31
0.0
 12
20.416488
 22
-44.81825999999999
 32
0.0
 13
20.416488
 23
-44.81825999999999
 33
0.0
  0
LINE
  5
1F4
330
143
100
AcDbEntity
  8
MO_001_VIEW_PV
  6
BYBLOCK
100
AcDbLine
 10
-13.5
 20
-36.5
 30
0.0
 11
23.28599899999999
 21
-36.5
 31
0.0
  0
LINE
  5
1F5
330
143
100
AcDbEntity
  8
MO_001_VIEW_PV
  6
BYBLOCK
100
AcDbLine
 10
-4.5
 20
-41.5
 30
0.0
 11
23.28599899999999
 21
-41.5
 31
0.0
  0
TEXT
  5
1F6
330
143
100
AcDbEntity
  8
MO_001_VIEW_PV
  6
BYBLOCK
100
AcDbText
 10
18.375
 20
-28.285714
 30
0.0
 40
1.5
  1
%%P0.1
 50
90.0
100
AcDbText
  0
TEXT
  5
1F7
330
143
100
AcDbEntity
  8
MO_001_VIEW_PV
  6
BYBLOCK
100
AcDbText
 10
20.24999999999999
 20
-31.07142899999999
 30
0.0
 40
3.0
  1
5
 50
90.0
100
AcDbText
  0
LINE
  5
1F8
330
143
100
AcDbEntity
  8
MO_001_VIEW_PV
  6
BYBLOCK
100
AcDbLine
 10
21.0
 20
-21.964285
 30
0.0
 11
21.0
 21
-36.5
 31
0.0
  0
ENDBLK
  5
1F9
330
143
100
AcDbEntity
  8
0
100
AcDbBlockEnd
  0
BLOCK
  5
1FA
330
145
100
AcDbEntity
  8
0
100
AcDbBlockBegin
  2
*D14
 70
     1
 10
0.0
 20
0.0
 30
0.0
  3
*D14
  1

  0
TEXT
  5
1FB
330
145
100
AcDbEntity
  8
MO_001_VIEW_PV
  6
BYBLOCK
100
AcDbText
 10
4.445591
 20
-59.25
 30
0.0
 40
3.0
  1
長さ250以上
100
AcDbText
  0
LINE
  5
1FC
330
145
100
AcDbEntity
  8
MO_001_VIEW_PV
  6
BYBLOCK
100
AcDbLine
 10
-2.965961999999999
 20
-60.0
 30
0.0
 11
32.0
 21
-60.0
 31
0.0
  0
SOLID
  5
1FD
330
145
100
AcDbEntity
  8
MO_001_VIEW_PV
  6
BYBLOCK
100
AcDbTrace
 10
0.352298
 20
-59.416488
 30
0.0
 11
-2.457961999999999
 21
-60.0
 31
0.0
 12
0.352298
 22
-60.583512
 32
0.0
 13
0.352298
 23
-60.583512
 33
0.0
  0
SOLID
  5
1FE
330
145
100
AcDbEntity
  8
MO_001_VIEW_PV
  6
BYBLOCK
100
AcDbTrace
 10
28.68174
 20
-60.583512
 30
0.0
 11
31.49199999999999
 21
-60.0
 31
0.0
 12
28.68174
 22
-59.416488
 32
0.0
 13
28.68174
 23
-59.416488
 33
0.0
  0
LINE
  5
1FF
330
145
100
AcDbEntity
  8
MO_001_VIEW_PV
  6
BYBLOCK
100
AcDbLine
 10
-2.965961999999999
 20
-44.86596699999999
 30
0.0
 11
-2.965961999999999
 21
-62.28599899999999
 31
0.0
  0
LINE
  5
200
330
145
100
AcDbEntity
  8
MO_001_VIEW_PV
  6
BYBLOCK
100
AcDbLine
 10
32.0
 20
-50.190498
 30
0.0
 11
32.0
 21
-62.28599899999999
 31
0.0
  0
ENDBLK
  5
201
330
145
100
AcDbEntity
  8
0
100
AcDbBlockEnd
  0
ENDSEC
  0
SECTION
  2
ENTITIES
  0
TEXT
  5
4B
330
1E
100
AcDbEntity
  8
OVERLAY_MAP
  6
C_SOLID_L
100
AcDbText
 10
0.0
 20
6.349999999999999
 30
0.0
 40
4.1672
  1
Model Overlay Name
100
AcDbText
  0
TEXT
  5
4C
330
1E
100
AcDbEntity
  8
OVERLAY_MAP
  6
C_SOLID_L
100
AcDbText
 10
126.999998
 20
0.0
 30
0.0
 40
4.1672
  1
Number
100
AcDbText
  0
TEXT
  5
4D
330
1E
100
AcDbEntity
  8
OVERLAY_MAP
  6
C_SOLID_L
100
AcDbText
 10
177.7999969999999
 20
0.0
 30
0.0
 40
4.1672
  1
File Text
100
AcDbText
  0
TEXT
  5
4E
330
1E
100
AcDbEntity
  8
OVERLAY_MAP
  6
C_SOLID_L
100
AcDbText
 10
0.0
 20
-6.349999999999999
 30
0.0
 40
4.1672
  1
sh1l-0524 
100
AcDbText
  0
TEXT
  5
4F
330
1E
100
AcDbEntity
  8
OVERLAY_MAP
  6
C_SOLID_L
100
AcDbText
 10
126.999998
 20
-6.349999999999999
 30
0.0
 40
4.1672
  1
001
100
AcDbText
  0
TEXT
  5
50
330
1E
100
AcDbEntity
  8
OVERLAY_MAP
  6
C_SOLID_L
100
AcDbText
 10
177.7999969999999
 20
-6.349999999999999
 30
0.0
 40
4.1672
  1
                                                                   00118
100
AcDbText
  0
LINE
  5
51
330
1E
100
AcDbEntity
  8
MO_001_VIEW_PV
  6
C_SOLID_M
100
AcDbLine
 10
-1.0
 20
4.799998999999999
 30
0.0
 11
-1.0
 21
-4.7
 31
0.0
  0
LINE
  5
52
330
1E
100
AcDbEntity
  8
MO_001_VIEW_PV
  6
C_CENTER_L
100
AcDbLine
 10
-30.50805999999999
 20
0.0
 30
0.0
 11
3.050818999999999
 21
0.0
 31
0.0
  0
LINE
  5
53
330
1E
100
AcDbEntity
  8
MO_001_VIEW_PV
  6
C_SOLID_M
100
AcDbLine
 10
0.0
 20
5.0
 30
0.0
 11
0.0
 21
-5.0
 31
0.0
  0
LINE
  5
54
330
1E
100
AcDbEntity
  8
MO_001_VIEW_PV
  6
C_SOLID_M
100
AcDbLine
 10
-24.0
 20
5.0
 30
0.0
 11
-1.199999999999999
 21
5.0
 31
0.0
  0
LINE
  5
55
330
1E
100
AcDbEntity
  8
MO_001_VIEW_PV
  6
C_SOLID_M
100
AcDbLine
 10
-24.0
 20
6.0
 30
0.0
 11
-1.0
 21
6.0
 31
0.0
  0
ARC
  5
56
330
1E
100
AcDbEntity
  8
MO_001_VIEW_PV
  6
C_SOLID_M
100
AcDbCircle
 10
-1.0
 20
5.0
 30
0.0
 40
1.0
100
AcDbArc
 50
0.0
 51
89.99998900000001
  0
ARC
  5
57
330
1E
100
AcDbEntity
  8
MO_001_VIEW_PV
  6
C_SOLID_M
100
AcDbCircle
 10
-1.199999999999999
 20
4.799998999999999
 30
0.0
 40
0.2
100
AcDbArc
 50
0.0
 51
89.99998900000001
  0
LINE
  5
58
330
1E
100
AcDbEntity
  8
MO_001_VIEW_PV
  6
C_SOLID_M
100
AcDbLine
 10
-24.0
 20
6.0
 30
0.0
 11
-24.0
 21
5.0
 31
0.0
  0
LINE
  5
59
330
1E
100
AcDbEntity
  8
MO_001_VIEW_PV
  6
C_SOLID_M
100
AcDbLine
 10
-1.7
 20
6.0
 30
0.0
 11
-1.7
 21
5.0
 31
0.0
  0
LINE
  5
5A
330
1E
100
AcDbEntity
  8
MO_001_VIEW_PV
  6
C_SOLID_M
100
AcDbLine
 10
-1.0
 20
4.299998999999999
 30
0.0
 11
0.0
 21
4.299998999999999
 31
0.0
  0
LINE
  5
5B
330
1E
100
AcDbEntity
  8
MO_001_VIEW_PV
  6
C_SOLID_M
100
AcDbLine
 10
-22.5
 20
5.0
 30
0.0
 11
-22.5
 21
-5.0
 31
0.0
  0
LINE
  5
5C
330
1E
100
AcDbEntity
  8
MO_001_VIEW_PV
  6
C_SOLID_M
100
AcDbLine
 10
-24.0
 20
-5.0
 30
0.0
 11
-1.199999999999999
 21
-5.0
 31
0.0
  0
LINE
  5
5D
330
1E
100
AcDbEntity
  8
MO_001_VIEW_PV
  6
C_SOLID_M
100
AcDbLine
 10
-24.0
 20
-6.0
 30
0.0
 11
-1.0
 21
-6.0
 31
0.0
  0
ARC
  5
5E
330
1E
100
AcDbEntity
  8
MO_001_VIEW_PV
  6
C_SOLID_M
100
AcDbCircle
 10
-1.0
 20
-5.0
 30
0.0
 40
1.0
100
AcDbArc
 50
270.0000109999999
 51
359.999996
  0
ARC
  5
5F
330
1E
100
AcDbEntity
  8
MO_001_VIEW_PV
  6
C_SOLID_M
100
AcDbCircle
 10
-1.199999999999999
 20
-4.799998999999999
 30
0.0
 40
0.2
100
AcDbArc
 50
270.0000109999999
 51
359.999996
  0
LINE
  5
60
330
1E
100
AcDbEntity
  8
MO_001_VIEW_PV
  6
C_SOLID_M
100
AcDbLine
 10
-24.0
 20
-6.0
 30
0.0
 11
-24.0
 21
-5.0
 31
0.0
  0
LINE
  5
61
330
1E
100
AcDbEntity
  8
MO_001_VIEW_PV
  6
C_SOLID_M
100
AcDbLine
 10
-1.7
 20
-6.0
 30
0.0
 11
-1.7
 21
-5.0
 31
0.0
  0
LINE
  5
62
330
1E
100
AcDbEntity
  8
MO_001_VIEW_PV
  6
C_SOLID_M
100
AcDbLine
 10
-1.0
 20
-4.299998999999999
 30
0.0
 11
0.0
 21
-4.299998999999999
 31
0.0
  0
LINE
  5
63
330
1E
100
AcDbEntity
  8
MO_001_VIEW_PV
  6
C_CENTER_L
100
AcDbLine
 10
-6.0
 20
-7.026828999999999
 30
0.0
 11
-6.0
 21
-3.726616
 31
0.0
  0
LINE
  5
64
330
1E
100
AcDbEntity
  8
MO_001_VIEW_PV
  6
C_CENTER_L
100
AcDbLine
 10
-15.0
 20
-7.248958999999999
 30
0.0
 11
-15.0
 21
-3.98048
 31
0.0
  0
LINE
  5
65
330
1E
100
AcDbEntity
  8
MO_001_VIEW_PV
  6
C_SOLID_L
100
AcDbLine
 10
-16.0
 20
-5.396037999999999
 30
0.0
 11
-16.0
 21
-5.21056
 31
0.0
  0
LINE
  5
66
330
1E
100
AcDbEntity
  8
MO_001_VIEW_PV
  6
C_SOLID_L
100
AcDbLine
 10
-16.0
 20
-5.803187999999999
 30
0.0
 11
-16.0
 21
-5.635803
 31
0.0
  0
LINE
  5
67
330
1E
100
AcDbEntity
  8
MO_001_VIEW_PV
  6
C_SOLID_M
100
AcDbLine
 10
-1.0
 20
-44.0
 30
0.0
 11
-1.0
 21
-43.799995
 31
0.0
  0
LINE
  5
68
330
1E
100
AcDbEntity
  8
MO_001_VIEW_PV
  6
C_SOLID_M
100
AcDbLine
 10
-1.0
 20
-44.0
 30
0.0
 11
0.0
 21
-44.0
 31
0.0
  0
LINE
  5
69
330
1E
100
AcDbEntity
  8
MO_001_VIEW_PV
  6
C_SOLID_M
100
AcDbLine
 10
-24.0
 20
-44.0
 30
0.0
 11
-24.0
 21
-41.5
 31
0.0
  0
LINE
  5
6A
330
1E
100
AcDbEntity
  8
MO_001_VIEW_PV
  6
C_CENTER_L
100
AcDbLine
 10
-30.769539
 20
-39.0
 30
0.0
 11
1.116394
 21
-39.0
 31
0.0
  0
LINE
  5
6B
330
1E
100
AcDbEntity
  8
MO_001_VIEW_PV
  6
C_SOLID_M
100
AcDbLine
 10
-1.7
 20
-43.799995
 30
0.0
 11
0.0
 21
-43.799995
 31
0.0
  0
LINE
  5
6C
330
1E
100
AcDbEntity
  8
MO_001_VIEW_PV
  6
C_SOLID_M
100
AcDbLine
 10
-1.7
 20
-44.0
 30
0.0
 11
-1.7
 21
-43.799995
 31
0.0
  0
LINE
  5
6D
330
1E
100
AcDbEntity
  8
MO_001_VIEW_PV
  6
C_SOLID_M
100
AcDbLine
 10
-24.0
 20
-44.0
 30
0.0
 11
-1.7
 21
-44.0
 31
0.0
  0
LINE
  5
6E
330
1E
100
AcDbEntity
  8
MO_001_VIEW_PV
  6
C_SOLID_M
100
AcDbLine
 10
-24.0
 20
-41.5
 30
0.0
 11
-22.299999
 21
-41.5
 31
0.0
  0
LINE
  5
6F
330
1E
100
AcDbEntity
  8
MO_001_VIEW_PV
  6
C_SOLID_M
100
AcDbLine
 10
-22.5
 20
-41.0
 30
0.0
 11
-22.299999
 21
-41.0
 31
0.0
  0
LINE
  5
70
330
1E
100
AcDbEntity
  8
MO_001_VIEW_PV
  6
C_SOLID_M
100
AcDbLine
 10
-22.299999
 20
-41.0
 30
0.0
 11
-22.299999
 21
-41.5
 31
0.0
  0
LINE
  5
71
330
1E
100
AcDbEntity
  8
MO_001_VIEW_PV
  6
C_SOLID_M
100
AcDbLine
 10
-1.0
 20
-34.0
 30
0.0
 11
-1.0
 21
-34.20000499999999
 31
0.0
  0
LINE
  5
72
330
1E
100
AcDbEntity
  8
MO_001_VIEW_PV
  6
C_SOLID_M
100
AcDbLine
 10
0.0
 20
-34.0
 30
0.0
 11
0.0
 21
-44.0
 31
0.0
  0
LINE
  5
73
330
1E
100
AcDbEntity
  8
MO_001_VIEW_PV
  6
C_SOLID_M
100
AcDbLine
 10
-1.0
 20
-34.0
 30
0.0
 11
0.0
 21
-34.0
 31
0.0
  0
LINE
  5
74
330
1E
100
AcDbEntity
  8
MO_001_VIEW_PV
  6
C_SOLID_M
100
AcDbLine
 10
-24.0
 20
-34.0
 30
0.0
 11
-24.0
 21
-36.5
 31
0.0
  0
LINE
  5
75
330
1E
100
AcDbEntity
  8
MO_001_VIEW_PV
  6
C_SOLID_M
100
AcDbLine
 10
-1.7
 20
-34.20000499999999
 30
0.0
 11
0.0
 21
-34.20000499999999
 31
0.0
  0
LINE
  5
76
330
1E
100
AcDbEntity
  8
MO_001_VIEW_PV
  6
C_SOLID_M
100
AcDbLine
 10
-1.7
 20
-34.0
 30
0.0
 11
-1.7
 21
-34.20000499999999
 31
0.0
  0
LINE
  5
77
330
1E
100
AcDbEntity
  8
MO_001_VIEW_PV
  6
C_SOLID_M
100
AcDbLine
 10
-24.0
 20
-34.0
 30
0.0
 11
-1.7
 21
-34.0
 31
0.0
  0
LINE
  5
78
330
1E
100
AcDbEntity
  8
MO_001_VIEW_PV
  6
C_SOLID_M
100
AcDbLine
 10
-24.0
 20
-36.5
 30
0.0
 11
-22.299999
 21
-36.5
 31
0.0
  0
LINE
  5
79
330
1E
100
AcDbEntity
  8
MO_001_VIEW_PV
  6
C_SOLID_M
100
AcDbLine
 10
-22.5
 20
-41.5
 30
0.0
 11
-22.5
 21
-36.5
 31
0.0
  0
LINE
  5
7A
330
1E
100
AcDbEntity
  8
MO_001_VIEW_PV
  6
C_SOLID_M
100
AcDbLine
 10
-22.5
 20
-37.0
 30
0.0
 11
-22.299999
 21
-37.0
 31
0.0
  0
LINE
  5
7B
330
1E
100
AcDbEntity
  8
MO_001_VIEW_PV
  6
C_SOLID_M
100
AcDbLine
 10
-22.299999
 20
-37.0
 30
0.0
 11
-22.299999
 21
-36.5
 31
0.0
  0
CIRCLE
  5
7C
330
1E
100
AcDbEntity
  8
MO_001_VIEW_PV
  6
C_SOLID_L
100
AcDbCircle
 10
-6.0
 20
-41.5
 30
0.0
 40
1.0
  0
CIRCLE
  5
7D
330
1E
100
AcDbEntity
  8
MO_001_VIEW_PV
  6
C_SOLID_L
100
AcDbCircle
 10
-15.0
 20
-36.5
 30
0.0
 40
1.0
  0
CIRCLE
  5
7E
330
1E
100
AcDbEntity
  8
MO_001_VIEW_PV
  6
C_SOLID_M
100
AcDbCircle
 10
-6.0
 20
-41.5
 30
0.0
 40
0.7835
  0
CIRCLE
  5
7F
330
1E
100
AcDbEntity
  8
MO_001_VIEW_PV
  6
C_SOLID_M
100
AcDbCircle
 10
-15.0
 20
-36.5
 30
0.0
 40
0.7835
  0
LINE
  5
80
330
1E
100
AcDbEntity
  8
MO_001_VIEW_PV
  6
C_CENTER_L
100
AcDbLine
 10
-6.0
 20
-43.0
 30
0.0
 11
-6.0
 21
-40.0
 31
0.0
  0
LINE
  5
81
330
1E
100
AcDbEntity
  8
MO_001_VIEW_PV
  6
C_CENTER_L
100
AcDbLine
 10
-15.0
 20
-38.0
 30
0.0
 11
-15.0
 21
-35.0
 31
0.0
  0
LINE
  5
82
330
1E
100
AcDbEntity
  8
MO_001_VIEW_PV
  6
C_CENTER_L
100
AcDbLine
 10
-7.5
 20
-41.5
 30
0.0
 11
-4.5
 21
-41.5
 31
0.0
  0
LINE
  5
83
330
1E
100
AcDbEntity
  8
MO_001_VIEW_PV
  6
C_CENTER_L
100
AcDbLine
 10
-16.5
 20
-36.5
 30
0.0
 11
-13.5
 21
-36.5
 31
0.0
  0
LINE
  5
84
330
1E
100
AcDbEntity
  8
MO_001_VIEW_PV
  6
C_SOLID_M
100
AcDbLine
 10
-77.0
 20
6.0
 30
0.0
 11
-67.0
 21
6.0
 31
0.0
  0
LINE
  5
85
330
1E
100
AcDbEntity
  8
MO_001_VIEW_PV
  6
C_SOLID_M
100
AcDbLine
 10
-67.0
 20
5.0
 30
0.0
 11
-67.0
 21
6.0
 31
0.0
  0
LINE
  5
86
330
1E
100
AcDbEntity
  8
MO_001_VIEW_PV
  6
C_SOLID_M
100
AcDbLine
 10
-69.5
 20
6.0
 30
0.0
 11
-69.5
 21
5.0
 31
0.0
  0
LINE
  5
87
330
1E
100
AcDbEntity
  8
MO_001_VIEW_PV
  6
C_SOLID_M
100
AcDbLine
 10
-77.0
 20
5.0
 30
0.0
 11
-77.0
 21
6.0
 31
0.0
  0
LINE
  5
88
330
1E
100
AcDbEntity
  8
MO_001_VIEW_PV
  6
C_SOLID_M
100
AcDbLine
 10
-74.5
 20
6.0
 30
0.0
 11
-74.5
 21
5.0
 31
0.0
  0
LINE
  5
89
330
1E
100
AcDbEntity
  8
MO_001_VIEW_PV
  6
C_SOLID_M
100
AcDbLine
 10
-67.0
 20
-5.0
 30
0.0
 11
-67.0
 21
-6.0
 31
0.0
  0
LINE
  5
8A
330
1E
100
AcDbEntity
  8
MO_001_VIEW_PV
  6
C_SOLID_M
100
AcDbLine
 10
-69.5
 20
-6.0
 30
0.0
 11
-69.5
 21
-5.0
 31
0.0
  0
LINE
  5
8B
330
1E
100
AcDbEntity
  8
MO_001_VIEW_PV
  6
C_SOLID_M
100
AcDbLine
 10
-67.0
 20
-6.0
 30
0.0
 11
-77.0
 21
-6.0
 31
0.0
  0
LINE
  5
8C
330
1E
100
AcDbEntity
  8
MO_001_VIEW_PV
  6
C_SOLID_M
100
AcDbLine
 10
-77.0
 20
-5.0
 30
0.0
 11
-77.0
 21
-6.0
 31
0.0
  0
LINE
  5
8D
330
1E
100
AcDbEntity
  8
MO_001_VIEW_PV
  6
C_SOLID_M
100
AcDbLine
 10
-74.5
 20
-6.0
 30
0.0
 11
-74.5
 21
-5.0
 31
0.0
  0
LINE
  5
8E
330
1E
100
AcDbEntity
  8
MO_001_VIEW_PV
  6
C_CENTER_L
100
AcDbLine
 10
-72.0
 20
6.943761
 30
0.0
 11
-72.0
 21
-6.907744999999999
 31
0.0
  0
LINE
  5
8F
330
1E
100
AcDbEntity
  8
MO_001_VIEW_PV
  6
C_CENTER_L
100
AcDbLine
 10
-79.051659
 20
0.0
 30
0.0
 11
-65.92215
 21
0.0
 31
0.0
  0
LINE
  5
90
330
1E
100
AcDbEntity
  8
MO_001_VIEW_PV
  6
C_SOLID_L
100
AcDbLine
 10
-15.783501
 20
-5.396037999999999
 30
0.0
 11
-15.783501
 21
-5.21056
 31
0.0
  0
LINE
  5
91
330
1E
100
AcDbEntity
  8
MO_001_VIEW_PV
  6
C_SOLID_L
100
AcDbLine
 10
-15.783501
 20
-5.803187999999999
 30
0.0
 11
-15.783501
 21
-5.635803
 31
0.0
  0
LINE
  5
92
330
1E
100
AcDbEntity
  8
MO_001_VIEW_PV
  6
C_SOLID_L
100
AcDbLine
 10
-14.216499
 20
-5.396037999999999
 30
0.0
 11
-14.216499
 21
-5.21056
 31
0.0
  0
LINE
  5
93
330
1E
100
AcDbEntity
  8
MO_001_VIEW_PV
  6
C_SOLID_L
100
AcDbLine
 10
-14.216499
 20
-5.803187999999999
 30
0.0
 11
-14.216499
 21
-5.635803
 31
0.0
  0
LINE
  5
94
330
1E
100
AcDbEntity
  8
MO_001_VIEW_PV
  6
C_SOLID_L
100
AcDbLine
 10
-14.0
 20
-5.396037999999999
 30
0.0
 11
-14.0
 21
-5.21056
 31
0.0
  0
LINE
  5
95
330
1E
100
AcDbEntity
  8
MO_001_VIEW_PV
  6
C_SOLID_L
100
AcDbLine
 10
-14.0
 20
-5.803187999999999
 30
0.0
 11
-14.0
 21
-5.635803
 31
0.0
  0
LINE
  5
96
330
1E
100
AcDbEntity
  8
MO_001_VIEW_PV
  6
C_SOLID_L
100
AcDbLine
 10
-7.0
 20
-5.396037999999999
 30
0.0
 11
-7.0
 21
-5.21056
 31
0.0
  0
LINE
  5
97
330
1E
100
AcDbEntity
  8
MO_001_VIEW_PV
  6
C_SOLID_L
100
AcDbLine
 10
-7.0
 20
-5.803187999999999
 30
0.0
 11
-7.0
 21
-5.635803
 31
0.0
  0
LINE
  5
98
330
1E
100
AcDbEntity
  8
MO_001_VIEW_PV
  6
C_SOLID_L
100
AcDbLine
 10
-6.783500999999999
 20
-5.396037999999999
 30
0.0
 11
-6.783500999999999
 21
-5.21056
 31
0.0
  0
LINE
  5
99
330
1E
100
AcDbEntity
  8
MO_001_VIEW_PV
  6
C_SOLID_L
100
AcDbLine
 10
-6.783500999999999
 20
-5.803187999999999
 30
0.0
 11
-6.783500999999999
 21
-5.635803
 31
0.0
  0
LINE
  5
9A
330
1E
100
AcDbEntity
  8
MO_001_VIEW_PV
  6
C_SOLID_L
100
AcDbLine
 10
-5.216498999999999
 20
-5.396037999999999
 30
0.0
 11
-5.216498999999999
 21
-5.21056
 31
0.0
  0
LINE
  5
9B
330
1E
100
AcDbEntity
  8
MO_001_VIEW_PV
  6
C_SOLID_L
100
AcDbLine
 10
-5.216498999999999
 20
-5.803187999999999
 30
0.0
 11
-5.216498999999999
 21
-5.635803
 31
0.0
  0
LINE
  5
9C
330
1E
100
AcDbEntity
  8
MO_001_VIEW_PV
  6
C_SOLID_L
100
AcDbLine
 10
-5.0
 20
-5.396037999999999
 30
0.0
 11
-5.0
 21
-5.21056
 31
0.0
  0
LINE
  5
9D
330
1E
100
AcDbEntity
  8
MO_001_VIEW_PV
  6
C_SOLID_L
100
AcDbLine
 10
-5.0
 20
-5.803187999999999
 30
0.0
 11
-5.0
 21
-5.635803
 31
0.0
  0
LINE
  5
9E
330
1E
100
AcDbEntity
  8
MO_001_VIEW_PV
  6
C_SOLID_M
100
AcDbLine
 10
-74.5
 20
5.95
 30
0.0
 11
-72.0
 21
5.95
 31
0.0
  0
LINE
  5
9F
330
1E
100
AcDbEntity
  8
MO_001_VIEW_PV
  6
C_SOLID_M
100
AcDbLine
 10
-77.0
 20
5.0
 30
0.0
 11
-77.0
 21
0.0
 31
0.0
  0
LINE
  5
A0
330
1E
100
AcDbEntity
  8
MO_001_VIEW_PV
  6
C_SOLID_M
100
AcDbLine
 10
-77.0
 20
5.0
 30
0.0
 11
-74.34999799999999
 21
5.0
 31
0.0
  0
LINE
  5
A1
330
1E
100
AcDbEntity
  8
MO_001_VIEW_PV
  6
C_SOLID_M
100
AcDbLine
 10
-74.499992
 20
5.949995999999999
 30
0.0
 11
-74.349991
 21
4.999996
 31
0.0
  0
LINE
  5
A2
330
1E
100
AcDbEntity
  8
MO_001_VIEW_PV
  6
C_SOLID_M
100
AcDbLine
 10
-69.5
 20
5.95
 30
0.0
 11
-72.0
 21
5.95
 31
0.0
  0
LINE
  5
A3
330
1E
100
AcDbEntity
  8
MO_001_VIEW_PV
  6
C_SOLID_M
100
AcDbLine
 10
-67.0
 20
5.0
 30
0.0
 11
-67.0
 21
0.0
 31
0.0
  0
LINE
  5
A4
330
1E
100
AcDbEntity
  8
MO_001_VIEW_PV
  6
C_SOLID_M
100
AcDbLine
 10
-67.0
 20
5.0
 30
0.0
 11
-69.650002
 21
5.0
 31
0.0
  0
LINE
  5
A5
330
1E
100
AcDbEntity
  8
MO_001_VIEW_PV
  6
C_SOLID_M
100
AcDbLine
 10
-69.499988
 20
5.949997999999999
 30
0.0
 11
-69.649988
 21
4.999998
 31
0.0
  0
LINE
  5
A6
330
1E
100
AcDbEntity
  8
MO_001_VIEW_PV
  6
C_SOLID_M
100
AcDbLine
 10
-74.5
 20
-5.95
 30
0.0
 11
-72.0
 21
-5.95
 31
0.0
  0
LINE
  5
A7
330
1E
100
AcDbEntity
  8
MO_001_VIEW_PV
  6
C_SOLID_M
100
AcDbLine
 10
-77.0
 20
-5.0
 30
0.0
 11
-77.0
 21
0.0
 31
0.0
  0
LINE
  5
A8
330
1E
100
AcDbEntity
  8
MO_001_VIEW_PV
  6
C_SOLID_M
100
AcDbLine
 10
-77.0
 20
-5.0
 30
0.0
 11
-74.34999799999999
 21
-5.0
 31
0.0
  0
LINE
  5
A9
330
1E
100
AcDbEntity
  8
MO_001_VIEW_PV
  6
C_SOLID_M
100
AcDbLine
 10
-74.499992
 20
-5.949995999999999
 30
0.0
 11
-74.349991
 21
-4.999996
 31
0.0
  0
LINE
  5
AA
330
1E
100
AcDbEntity
  8
MO_001_VIEW_PV
  6
C_SOLID_M
100
AcDbLine
 10
-69.5
 20
-5.95
 30
0.0
 11
-72.0
 21
-5.95
 31
0.0
  0
LINE
  5
AB
330
1E
100
AcDbEntity
  8
MO_001_VIEW_PV
  6
C_SOLID_M
100
AcDbLine
 10
-67.0
 20
-5.0
 30
0.0
 11
-67.0
 21
0.0
 31
0.0
  0
LINE
  5
AC
330
1E
100
AcDbEntity
  8
MO_001_VIEW_PV
  6
C_SOLID_M
100
AcDbLine
 10
-67.0
 20
-5.0
 30
0.0
 11
-69.650002
 21
-5.0
 31
0.0
  0
LINE
  5
AD
330
1E
100
AcDbEntity
  8
MO_001_VIEW_PV
  6
C_SOLID_M
100
AcDbLine
 10
-69.499988
 20
-5.949997999999999
 30
0.0
 11
-69.649988
 21
-4.999998
 31
0.0
  0
CIRCLE
  5
AE
330
1E
100
AcDbEntity
  8
MO_001_VIEW_PV
  6
C_SOLID_M
100
AcDbCircle
 10
-72.0
 20
0.0
 30
0.0
 40
2.799999999999999
  0
LINE
  5
AF
330
1E
100
AcDbEntity
  8
MO_001_VIEW_PV
  6
C_SOLID_M
100
AcDbLine
 10
-23.5
 20
5.0
 30
0.0
 11
-23.5
 21
-5.0
 31
0.0
  0
LINE
  5
B0
330
1E
100
AcDbEntity
  8
MO_001_VIEW_PV
  6
C_SOLID_M
100
AcDbLine
 10
-2.100000999999999
 20
-4.799999999999999
 30
0.0
 11
-2.100000999999999
 21
4.799999999999999
 31
0.0
  0
LINE
  5
B1
330
1E
100
AcDbEntity
  8
MO_001_VIEW_PV
  6
C_SOLID_M
100
AcDbLine
 10
-1.3
 20
-5.0
 30
0.0
 11
-1.9
 21
-5.0
 31
0.0
  0
LINE
  5
B2
330
1E
100
AcDbEntity
  8
MO_001_VIEW_PV
  6
C_SOLID_M
100
AcDbLine
 10
-16.799999
 20
-4.75
 30
0.0
 11
-16.799999
 21
4.75
 31
0.0
  0
LINE
  5
B3
330
1E
100
AcDbEntity
  8
MO_001_VIEW_PV
  6
C_SOLID_M
100
AcDbLine
 10
-16.999998
 20
-4.95
 30
0.0
 11
-22.39999999999999
 21
-4.95
 31
0.0
  0
LINE
  5
B4
330
1E
100
AcDbEntity
  8
MO_001_VIEW_PV
  6
C_SOLID_M
100
AcDbLine
 10
-17.299999
 20
-4.049999999999999
 30
0.0
 11
-17.299999
 21
-3.35
 31
0.0
  0
LINE
  5
B5
330
1E
100
AcDbEntity
  8
MO_001_VIEW_PV
  6
C_SOLID_M
100
AcDbLine
 10
-16.799999
 20
-4.049999999999999
 30
0.0
 11
-17.299999
 21
-4.049999999999999
 31
0.0
  0
LINE
  5
B6
330
1E
100
AcDbEntity
  8
MO_001_VIEW_PV
  6
C_SOLID_M
100
AcDbLine
 10
-16.799999
 20
-3.35
 30
0.0
 11
-17.299999
 21
-3.35
 31
0.0
  0
LINE
  5
B7
330
1E
100
AcDbEntity
  8
MO_001_VIEW_PV
  6
C_SOLID_M
100
AcDbLine
 10
-22.39999999999999
 20
4.95
 30
0.0
 11
-22.39999999999999
 21
-4.95
 31
0.0
  0
LINE
  5
B8
330
1E
100
AcDbEntity
  8
MO_001_VIEW_PV
  6
C_SOLID_M
100
AcDbLine
 10
-1.3
 20
5.0
 30
0.0
 11
-1.9
 21
5.0
 31
0.0
  0
LINE
  5
B9
330
1E
100
AcDbEntity
  8
MO_001_VIEW_PV
  6
C_SOLID_M
100
AcDbLine
 10
-16.999998
 20
4.95
 30
0.0
 11
-22.39999999999999
 21
4.95
 31
0.0
  0
ARC
  5
BA
330
1E
100
AcDbEntity
  8
MO_001_VIEW_PV
  6
C_SOLID_M
100
AcDbCircle
 10
-1.3
 20
4.7
 30
0.0
 40
0.3
100
AcDbArc
 50
0.0
 51
89.999996
  0
ARC
  5
BB
330
1E
100
AcDbEntity
  8
MO_001_VIEW_PV
  6
C_SOLID_M
100
AcDbCircle
 10
-1.3
 20
-4.7
 30
0.0
 40
0.3
100
AcDbArc
 50
269.999998
 51
0.00001
  0
ARC
  5
BC
330
1E
100
AcDbEntity
  8
MO_001_VIEW_PV
  6
C_SOLID_M
100
AcDbCircle
 10
-1.9
 20
-4.799999999999999
 30
0.0
 40
0.2
100
AcDbArc
 50
180.000009
 51
269.999998
  0
ARC
  5
BD
330
1E
100
AcDbEntity
  8
MO_001_VIEW_PV
  6
C_SOLID_M
100
AcDbCircle
 10
-1.9
 20
4.799999999999999
 30
0.0
 40
0.2
100
AcDbArc
 50
89.999996
 51
180.000005
  0
ARC
  5
BE
330
1E
100
AcDbEntity
  8
MO_001_VIEW_PV
  6
C_SOLID_M
100
AcDbCircle
 10
-16.999998
 20
-4.75
 30
0.0
 40
0.2
100
AcDbArc
 50
269.999998
 51
0.00001
  0
ARC
  5
BF
330
1E
100
AcDbEntity
  8
MO_001_VIEW_PV
  6
C_SOLID_M
100
AcDbCircle
 10
-16.999998
 20
4.75
 30
0.0
 40
0.2
100
AcDbArc
 50
0.0
 51
89.999996
  0
LINE
  5
C0
330
1E
100
AcDbEntity
  8
MO_001_VIEW_PV
  6
C_SOLID_M
100
AcDbLine
 10
-2.100000999999999
 20
4.5
 30
0.0
 11
-16.799999
 21
4.5
 31
0.0
  0
LINE
  5
C1
330
1E
100
AcDbEntity
  8
MO_001_VIEW_PV
  6
C_SOLID_M
100
AcDbLine
 10
-2.100000999999999
 20
-4.5
 30
0.0
 11
-16.799999
 21
-4.5
 31
0.0
  0
LINE
  5
C2
330
1E
100
AcDbEntity
  8
MO_001_VIEW_PV
  6
C_SOLID_M
100
AcDbLine
 10
-23.5
 20
-41.5
 30
0.0
 11
-23.5
 21
-36.5
 31
0.0
  0
LINE
  5
C3
330
1E
100
AcDbEntity
  8
MO_001_VIEW_PV
  6
C_SOLID_M
100
AcDbLine
 10
0.5
 20
-2.0
 30
0.0
 11
0.5
 21
0.0
 31
0.0
  0
LINE
  5
C4
330
1E
100
AcDbEntity
  8
MO_001_VIEW_PV
  6
C_SOLID_M
100
AcDbLine
 10
0.5
 20
-2.0
 30
0.0
 11
0.0
 21
-2.0
 31
0.0
  0
LINE
  5
C5
330
1E
100
AcDbEntity
  8
MO_001_VIEW_PV
  6
C_SOLID_M
100
AcDbLine
 10
0.5
 20
2.0
 30
0.0
 11
0.5
 21
0.0
 31
0.0
  0
LINE
  5
C6
330
1E
100
AcDbEntity
  8
MO_001_VIEW_PV
  6
C_SOLID_M
100
AcDbLine
 10
0.5
 20
2.0
 30
0.0
 11
0.0
 21
2.0
 31
0.0
  0
LINE
  5
C7
330
1E
100
AcDbEntity
  8
MO_001_VIEW_PV
  6
C_SOLID_M
100
AcDbLine
 10
-1.0
 20
2.5
 30
0.0
 11
-1.0
 21
2.0
 31
0.0
  0
LINE
  5
C8
330
1E
100
AcDbEntity
  8
MO_001_VIEW_PV
  6
C_SOLID_M
100
AcDbLine
 10
-30.0
 20
-2.299999
 30
0.0
 11
-30.0
 21
-0.75
 31
0.0
  0
LINE
  5
C9
330
1E
100
AcDbEntity
  8
MO_001_VIEW_PV
  6
C_SOLID_M
100
AcDbLine
 10
-29.799997
 20
-2.499998
 30
0.0
 11
-29.999997
 21
-2.299999
 31
0.0
  0
LINE
  5
CA
330
1E
100
AcDbEntity
  8
MO_001_VIEW_PV
  6
C_SOLID_M
100
AcDbLine
 10
-24.0
 20
-0.75
 30
0.0
 11
-30.0
 21
-0.75
 31
0.0
  0
LINE
  5
CB
330
1E
100
AcDbEntity
  8
MO_001_VIEW_PV
  6
C_SOLID_M
100
AcDbLine
 10
-29.799999
 20
-2.5
 30
0.0
 11
-29.799999
 21
-0.75
 31
0.0
  0
LINE
  5
CC
330
1E
100
AcDbEntity
  8
MO_001_VIEW_PV
  6
C_DASHED_M
100
AcDbLine
 10
-28.5
 20
-2.5
 30
0.0
 11
-28.5
 21
-0.75
 31
0.0
  0
LINE
  5
CD
330
1E
100
AcDbEntity
  8
MO_001_VIEW_PV
  6
C_DASHED_M
100
AcDbLine
 10
-26.5
 20
-2.5
 30
0.0
 11
-26.5
 21
-0.75
 31
0.0
  0
LINE
  5
CE
330
1E
100
AcDbEntity
  8
MO_001_VIEW_PV
  6
C_SOLID_M
100
AcDbLine
 10
-30.0
 20
2.299999
 30
0.0
 11
-30.0
 21
0.75
 31
0.0
  0
LINE
  5
CF
330
1E
100
AcDbEntity
  8
MO_001_VIEW_PV
  6
C_SOLID_M
100
AcDbLine
 10
-28.5
 20
2.5
 30
0.0
 11
-29.799999
 21
2.5
 31
0.0
  0
LINE
  5
D0
330
1E
100
AcDbEntity
  8
MO_001_VIEW_PV
  6
C_SOLID_M
100
AcDbLine
 10
-29.799997
 20
2.500000999999999
 30
0.0
 11
-29.99999799999999
 21
2.299999999999999
 31
0.0
  0
LINE
  5
D1
330
1E
100
AcDbEntity
  8
MO_001_VIEW_PV
  6
C_SOLID_M
100
AcDbLine
 10
-24.0
 20
0.75
 30
0.0
 11
-30.0
 21
0.75
 31
0.0
  0
LINE
  5
D2
330
1E
100
AcDbEntity
  8
MO_001_VIEW_PV
  6
C_SOLID_M
100
AcDbLine
 10
-24.0
 20
0.75
 30
0.0
 11
-24.0
 21
-0.75
 31
0.0
  0
LINE
  5
D3
330
1E
100
AcDbEntity
  8
MO_001_VIEW_PV
  6
C_SOLID_M
100
AcDbLine
 10
-29.799999
 20
2.5
 30
0.0
 11
-29.799999
 21
0.75
 31
0.0
  0
LINE
  5
D4
330
1E
100
AcDbEntity
  8
MO_001_VIEW_PV
  6
C_DASHED_M
100
AcDbLine
 10
-28.5
 20
2.5
 30
0.0
 11
-28.5
 21
0.75
 31
0.0
  0
LINE
  5
D5
330
1E
100
AcDbEntity
  8
MO_001_VIEW_PV
  6
C_DASHED_M
100
AcDbLine
 10
-26.5
 20
2.5
 30
0.0
 11
-26.5
 21
0.75
 31
0.0
  0
CIRCLE
  5
D6
330
1E
100
AcDbEntity
  8
MO_001_VIEW_PV
  6
C_SOLID_M
100
AcDbCircle
 10
-72.0
 20
0.0
 30
0.0
 40
2.5
  0
ARC
  5
D7
330
1E
100
AcDbEntity
  8
MO_001_VIEW_PV
  6
C_SOLID_M
100
AcDbCircle
 10
-72.0
 20
0.0
 30
0.0
 40
2.299999999999999
100
AcDbArc
 50
19.031439
 51
160.968557
  0
LINE
  5
D8
330
1E
100
AcDbEntity
  8
MO_001_VIEW_PV
  6
C_SOLID_M
100
AcDbLine
 10
-74.38485
 20
0.75
 30
0.0
 11
-69.61515
 21
0.75
 31
0.0
  0
LINE
  5
D9
330
1E
100
AcDbEntity
  8
MO_001_VIEW_PV
  6
C_SOLID_M
100
AcDbLine
 10
-74.38485
 20
-0.75
 30
0.0
 11
-69.61515
 21
-0.75
 31
0.0
  0
ARC
  5
DA
330
1E
100
AcDbEntity
  8
MO_001_VIEW_PV
  6
C_SOLID_M
100
AcDbCircle
 10
-72.0
 20
0.0
 30
0.0
 40
2.299999999999999
100
AcDbArc
 50
199.0314429999999
 51
340.968561
  0
LINE
  5
DB
330
1E
100
AcDbEntity
  8
MO_001_VIEW_PV
  6
C_CENTER_L
100
AcDbLine
 10
-27.5
 20
3.228061999999999
 30
0.0
 11
-27.5
 21
-3.188572
 31
0.0
  0
ARC
  5
DC
330
1E
100
AcDbEntity
  8
MO_001_VIEW_PV
  6
C_SOLID_M
100
AcDbCircle
 10
-27.5
 20
4.79129
 30
0.0
 40
2.5
100
AcDbArc
 50
246.421829
 51
293.5781659999999
  0
LINE
  5
DD
330
1E
100
AcDbEntity
  8
MO_001_VIEW_PV
  6
C_SOLID_M
100
AcDbLine
 10
-23.5
 20
2.5
 30
0.0
 11
-26.5
 21
2.5
 31
0.0
  0
ARC
  5
DE
330
1E
100
AcDbEntity
  8
MO_001_VIEW_PV
  6
C_SOLID_M
100
AcDbCircle
 10
-27.5
 20
-4.79129
 30
0.0
 40
2.5
100
AcDbArc
 50
66.42183399999999
 51
113.578171
  0
LINE
  5
DF
330
1E
100
AcDbEntity
  8
MO_001_VIEW_PV
  6
C_SOLID_M
100
AcDbLine
 10
-28.5
 20
-2.5
 30
0.0
 11
-29.799999
 21
-2.5
 31
0.0
  0
LINE
  5
E0
330
1E
100
AcDbEntity
  8
MO_001_VIEW_PV
  6
C_SOLID_M
100
AcDbLine
 10
-23.5
 20
-2.5
 30
0.0
 11
-26.5
 21
-2.5
 31
0.0
  0
LINE
  5
E1
330
1E
100
AcDbEntity
  8
MO_001_VIEW_PV
  6
C_SOLID_M
100
AcDbLine
 10
-30.0
 20
-36.825714
 30
0.0
 11
-30.0
 21
-41.17428599999999
 31
0.0
  0
LINE
  5
E2
330
1E
100
AcDbEntity
  8
MO_001_VIEW_PV
  6
C_SOLID_M
100
AcDbLine
 10
-24.0
 20
-36.5
 30
0.0
 11
-24.0
 21
-36.61515
 31
0.0
  0
LINE
  5
E3
330
1E
100
AcDbEntity
  8
MO_001_VIEW_PV
  6
C_SOLID_M
100
AcDbLine
 10
-29.799999
 20
-36.61515
 30
0.0
 11
-29.799999
 21
-41.38485
 31
0.0
  0
LINE
  5
E4
330
1E
100
AcDbEntity
  8
MO_001_VIEW_PV
  6
C_CENTER_L
100
AcDbLine
 10
-27.5
 20
-35.77194199999999
 30
0.0
 11
-27.5
 21
-42.188568
 31
0.0
  0
LINE
  5
E5
330
1E
100
AcDbEntity
  8
MO_001_VIEW_PV
  6
C_SOLID_M
100
AcDbLine
 10
-23.5
 20
-36.5
 30
0.0
 11
-24.0
 21
-36.5
 31
0.0
  0
LINE
  5
E6
330
1E
100
AcDbEntity
  8
MO_001_VIEW_PV
  6
C_SOLID_M
100
AcDbLine
 10
0.5
 20
-41.0
 30
0.0
 11
0.5
 21
-39.0
 31
0.0
  0
LINE
  5
E7
330
1E
100
AcDbEntity
  8
MO_001_VIEW_PV
  6
C_SOLID_M
100
AcDbLine
 10
0.5
 20
-41.0
 30
0.0
 11
0.0
 21
-41.0
 31
0.0
  0
LINE
  5
E8
330
1E
100
AcDbEntity
  8
MO_001_VIEW_PV
  6
C_SOLID_M
100
AcDbLine
 10
0.5
 20
-37.0
 30
0.0
 11
0.5
 21
-39.0
 31
0.0
  0
LINE
  5
E9
330
1E
100
AcDbEntity
  8
MO_001_VIEW_PV
  6
C_SOLID_M
100
AcDbLine
 10
0.5
 20
-37.0
 30
0.0
 11
0.0
 21
-37.0
 31
0.0
  0
CIRCLE
  5
EA
330
1E
100
AcDbEntity
  8
MO_001_VIEW_PV
  6
C_SOLID_M
100
AcDbCircle
 10
-27.5
 20
-39.0
 30
0.0
 40
1.0
  0
LINE
  5
EB
330
1E
100
AcDbEntity
  8
MO_001_VIEW_PV
  6
C_SOLID_M
100
AcDbLine
 10
-29.799999
 20
-36.61515
 30
0.0
 11
-24.0
 21
-36.61515
 31
0.0
  0
LINE
  5
EC
330
1E
100
AcDbEntity
  8
MO_001_VIEW_PV
  6
C_SOLID_M
100
AcDbLine
 10
-29.999994
 20
-36.825712
 30
0.0
 11
-29.799993
 21
-36.615144
 31
0.0
  0
LINE
  5
ED
330
1E
100
AcDbEntity
  8
MO_001_VIEW_PV
  6
C_SOLID_M
100
AcDbLine
 10
-30.000007
 20
-41.17427999999999
 30
0.0
 11
-29.800005
 21
-41.38484899999999
 31
0.0
  0
LINE
  5
EE
330
1E
100
AcDbEntity
  8
MO_001_VIEW_PV
  6
C_SOLID_M
100
AcDbLine
 10
-29.799999
 20
-41.38485
 30
0.0
 11
-24.0
 21
-41.38485
 31
0.0
  0
LINE
  5
EF
330
1E
100
AcDbEntity
  8
MO_001_VIEW_PV
  6
C_SOLID_M
100
AcDbLine
 10
-24.0
 20
-41.5
 30
0.0
 11
-24.0
 21
-41.38485
 31
0.0
  0
LINE
  5
F0
330
1E
100
AcDbEntity
  8
MO_001_VIEW_PV
  6
C_SOLID_M
100
AcDbLine
 10
27.0
 20
1.190499999999999
 30
0.0
 11
32.0
 21
1.190499999999999
 31
0.0
  0
LINE
  5
F1
330
1E
100
AcDbEntity
  8
MO_001_VIEW_PV
  6
C_SOLID_M
100
AcDbLine
 10
27.0
 20
0.8095
 30
0.0
 11
32.0
 21
0.8095
 31
0.0
  0
LINE
  5
F2
330
1E
100
AcDbEntity
  8
MO_001_VIEW_PV
  6
C_SOLID_M
100
AcDbLine
 10
32.0
 20
1.190499999999999
 30
0.0
 11
32.0
 21
0.8095
 31
0.0
  0
LINE
  5
F3
330
1E
100
AcDbEntity
  8
MO_001_VIEW_PV
  6
C_SOLID_M
100
AcDbLine
 10
27.0
 20
1.61
 30
0.0
 11
27.0
 21
0.39
 31
0.0
  0
LINE
  5
F4
330
1E
100
AcDbEntity
  8
MO_001_VIEW_PV
  6
C_SOLID_M
100
AcDbLine
 10
0.5
 20
1.61
 30
0.0
 11
27.0
 21
1.61
 31
0.0
  0
LINE
  5
F5
330
1E
100
AcDbEntity
  8
MO_001_VIEW_PV
  6
C_SOLID_M
100
AcDbLine
 10
0.5
 20
0.39
 30
0.0
 11
27.0
 21
0.39
 31
0.0
  0
LINE
  5
F6
330
1E
100
AcDbEntity
  8
MO_001_VIEW_PV
  6
C_SOLID_M
100
AcDbLine
 10
27.0
 20
-0.8095
 30
0.0
 11
32.0
 21
-0.8095
 31
0.0
  0
LINE
  5
F7
330
1E
100
AcDbEntity
  8
MO_001_VIEW_PV
  6
C_SOLID_M
100
AcDbLine
 10
27.0
 20
-1.190499999999999
 30
0.0
 11
32.0
 21
-1.190499999999999
 31
0.0
  0
LINE
  5
F8
330
1E
100
AcDbEntity
  8
MO_001_VIEW_PV
  6
C_SOLID_M
100
AcDbLine
 10
32.0
 20
-0.8095
 30
0.0
 11
32.0
 21
-1.190499999999999
 31
0.0
  0
LINE
  5
F9
330
1E
100
AcDbEntity
  8
MO_001_VIEW_PV
  6
C_SOLID_M
100
AcDbLine
 10
27.0
 20
-0.39
 30
0.0
 11
27.0
 21
-1.61
 31
0.0
  0
LINE
  5
FA
330
1E
100
AcDbEntity
  8
MO_001_VIEW_PV
  6
C_SOLID_M
100
AcDbLine
 10
0.5
 20
-0.39
 30
0.0
 11
27.0
 21
-0.39
 31
0.0
  0
LINE
  5
FB
330
1E
100
AcDbEntity
  8
MO_001_VIEW_PV
  6
C_SOLID_M
100
AcDbLine
 10
0.5
 20
-1.61
 30
0.0
 11
27.0
 21
-1.61
 31
0.0
  0
LINE
  5
FC
330
1E
100
AcDbEntity
  8
MO_001_VIEW_PV
  6
C_SOLID_M
100
AcDbLine
 10
27.0
 20
-47.809502
 30
0.0
 11
32.0
 21
-47.809502
 31
0.0
  0
LINE
  5
FD
330
1E
100
AcDbEntity
  8
MO_001_VIEW_PV
  6
C_SOLID_M
100
AcDbLine
 10
27.0
 20
-48.190498
 30
0.0
 11
32.0
 21
-48.190498
 31
0.0
  0
LINE
  5
FE
330
1E
100
AcDbEntity
  8
MO_001_VIEW_PV
  6
C_SOLID_M
100
AcDbLine
 10
32.0
 20
-47.809502
 30
0.0
 11
32.0
 21
-48.190498
 31
0.0
  0
LINE
  5
FF
330
1E
100
AcDbEntity
  8
MO_001_VIEW_PV
  6
C_SOLID_M
100
AcDbLine
 10
27.0
 20
-47.38999899999999
 30
0.0
 11
27.0
 21
-48.610001
 31
0.0
  0
LINE
  5
100
330
1E
100
AcDbEntity
  8
MO_001_VIEW_PV
  6
C_SOLID_M
100
AcDbLine
 10
4.603706999999999
 20
-47.38999899999999
 30
0.0
 11
27.0
 21
-47.38999899999999
 31
0.0
  0
LINE
  5
101
330
1E
100
AcDbEntity
  8
MO_001_VIEW_PV
  6
C_SOLID_M
100
AcDbLine
 10
4.603706999999999
 20
-48.610001
 30
0.0
 11
27.0
 21
-48.610001
 31
0.0
  0
LINE
  5
102
330
1E
100
AcDbEntity
  8
MO_001_VIEW_PV
  6
C_SOLID_M
100
AcDbLine
 10
-2.099998999999999
 20
-43.99998899999999
 30
0.0
 11
-1.053148999999999
 21
-45.046838
 31
0.0
  0
ARC
  5
103
330
1E
100
AcDbEntity
  8
MO_001_VIEW_PV
  6
C_SOLID_M
100
AcDbCircle
 10
4.603706999999999
 20
-39.38999899999999
 30
0.0
 40
8.0
100
AcDbArc
 50
224.9999859999999
 51
269.999998
  0
ARC
  5
104
330
1E
100
AcDbEntity
  8
MO_001_VIEW_PV
  6
C_SOLID_M
100
AcDbCircle
 10
4.603706999999999
 20
-39.38999899999999
 30
0.0
 40
9.220000999999999
100
AcDbArc
 50
253.7473299999999
 51
269.999998
  0
LINE
  5
105
330
1E
100
AcDbEntity
  8
MO_001_VIEW_PV
  6
C_SOLID_M
100
AcDbLine
 10
27.0
 20
-49.809502
 30
0.0
 11
32.0
 21
-49.809502
 31
0.0
  0
LINE
  5
106
330
1E
100
AcDbEntity
  8
MO_001_VIEW_PV
  6
C_SOLID_M
100
AcDbLine
 10
27.0
 20
-50.190498
 30
0.0
 11
32.0
 21
-50.190498
 31
0.0
  0
LINE
  5
107
330
1E
100
AcDbEntity
  8
MO_001_VIEW_PV
  6
C_SOLID_M
100
AcDbLine
 10
32.0
 20
-49.809502
 30
0.0
 11
32.0
 21
-50.190498
 31
0.0
  0
LINE
  5
108
330
1E
100
AcDbEntity
  8
MO_001_VIEW_PV
  6
C_SOLID_M
100
AcDbLine
 10
27.0
 20
-49.38999899999999
 30
0.0
 11
27.0
 21
-50.61000100000001
 31
0.0
  0
LINE
  5
109
330
1E
100
AcDbEntity
  8
MO_001_VIEW_PV
  6
C_SOLID_M
100
AcDbLine
 10
6.153208999999999
 20
-49.38999899999999
 30
0.0
 11
27.0
 21
-49.38999899999999
 31
0.0
  0
LINE
  5
10A
330
1E
100
AcDbEntity
  8
MO_001_VIEW_PV
  6
C_SOLID_M
100
AcDbLine
 10
6.153208999999999
 20
-50.61000100000001
 30
0.0
 11
27.0
 21
-50.61000100000001
 31
0.0
  0
LINE
  5
10B
330
1E
100
AcDbEntity
  8
MO_001_VIEW_PV
  6
C_SOLID_M
100
AcDbLine
 10
-2.099997999999999
 20
-44.00000499999999
 30
0.0
 11
0.024855
 21
-46.532305
 31
0.0
  0
ARC
  5
10C
330
1E
100
AcDbEntity
  8
MO_001_VIEW_PV
  6
C_SOLID_M
100
AcDbCircle
 10
6.153208999999999
 20
-41.38999899999999
 30
0.0
 40
8.0
100
AcDbArc
 50
219.999987
 51
269.999998
  0
ARC
  5
10D
330
1E
100
AcDbEntity
  8
MO_001_VIEW_PV
  6
C_SOLID_M
100
AcDbCircle
 10
6.153208999999999
 20
-41.38999899999999
 30
0.0
 40
9.220000999999999
100
AcDbArc
 50
219.999987
 51
269.999998
  0
LINE
  5
10E
330
1E
100
AcDbEntity
  8
MO_001_VIEW_PV
  6
C_SOLID_M
100
AcDbLine
 10
-2.965965
 20
-44.865971
 30
0.0
 11
-0.90972
 21
-47.316507
 31
0.0
  0
LINE
  5
10F
330
1E
100
AcDbEntity
  8
MO_001_VIEW_PV
  6
C_SOLID_M
100
AcDbLine
 10
-12.09999999999999
 20
-45.0
 30
0.0
 11
-3.099997
 21
-45.0
 31
0.0
  0
LINE
  5
110
330
1E
100
AcDbEntity
  8
MO_001_VIEW_PV
  6
C_SOLID_M
100
AcDbLine
 10
-2.099991
 20
-43.99999199999999
 30
0.0
 11
-3.099985999999999
 21
-44.999988
 31
0.0
  0
ARC
  5
111
330
1E
100
AcDbEntity
  8
MO_001_VIEW_PV
  6
C_SOLID_M
100
AcDbCircle
 10
-12.09999999999999
 20
-43.5
 30
0.0
 40
1.5
100
AcDbArc
 50
199.471225
 51
269.999998
  0
ARC
  5
112
330
1E
100
AcDbEntity
  8
MO_001_VIEW_PV
  6
C_SOLID_M
100
AcDbCircle
 10
-72.0
 20
0.0
 30
0.0
 40
6.0
100
AcDbArc
 50
146.442685
 51
213.557312
  0
LINE
  5
113
330
1E
100
AcDbEntity
  8
MO_001_VIEW_PV
  6
C_SOLID_M
100
AcDbLine
 10
-86.81651200000001
 20
-0.384937
 30
0.0
 11
-78.000006
 21
0.0
 31
0.0
  0
LINE
  5
114
330
1E
100
AcDbEntity
  8
MO_001_VIEW_PV
  6
C_SOLID_M
100
AcDbLine
 10
-86.75893399999999
 20
-1.703688
 30
0.0
 11
-77.85414799999999
 21
-1.314895999999999
 31
0.0
  0
LINE
  5
115
330
1E
100
AcDbEntity
  8
MO_001_VIEW_PV
  6
C_SOLID_M
100
AcDbLine
 10
-86.87584200000001
 20
1.708793999999999
 30
0.0
 11
-77.85414799999999
 21
1.314897999999999
 31
0.0
  0
LINE
  5
116
330
1E
100
AcDbEntity
  8
MO_001_VIEW_PV
  6
C_SOLID_M
100
AcDbLine
 10
-86.93341999999999
 20
0.390043
 30
0.0
 11
-78.000006
 21
0.000002
 31
0.0
  0
ARC
  5
117
330
1E
100
AcDbEntity
  8
MO_001_VIEW_PV
  6
C_SOLID_M
100
AcDbCircle
 10
-87.089844
 20
-0.7271880000000001
 30
0.0
 40
0.4380010000000001
100
AcDbArc
 50
313.6121319999999
 51
51.388113
  0
ARC
  5
118
330
1E
100
AcDbEntity
  8
MO_001_VIEW_PV
  6
C_SOLID_M
100
AcDbCircle
 10
-86.485611
 20
-1.361438999999999
 30
0.0
 40
0.4380010000000001
100
AcDbArc
 50
133.612311
 51
231.388122
  0
ARC
  5
119
330
1E
100
AcDbEntity
  8
MO_001_VIEW_PV
  6
C_SOLID_M
100
AcDbCircle
 10
-86.514404
 20
-0.702063
 30
0.0
 40
0.4380010000000001
100
AcDbArc
 50
133.611887
 51
231.3878759999999
  0
ARC
  5
11A
330
1E
100
AcDbEntity
  8
MO_001_VIEW_PV
  6
C_SOLID_M
100
AcDbCircle
 10
-87.17796300000001
 20
1.391666999999999
 30
0.0
 40
0.4380010000000001
100
AcDbArc
 50
308.6121289999999
 51
46.388114
  0
ARC
  5
11B
330
1E
100
AcDbEntity
  8
MO_001_VIEW_PV
  6
C_SOLID_M
100
AcDbCircle
 10
-86.63130200000001
 20
0.707166
 30
0.0
 40
0.4380010000000001
100
AcDbArc
 50
128.612298
 51
226.388095
  0
ARC
  5
11C
330
1E
100
AcDbEntity
  8
MO_001_VIEW_PV
  6
C_SOLID_M
100
AcDbCircle
 10
-86.60250899999999
 20
1.366543
 30
0.0
 40
0.4380010000000001
100
AcDbArc
 50
128.6118879999999
 51
226.3878629999999
  0
LINE
  5
11D
330
1E
100
AcDbEntity
  8
MO_001_VIEW_PV
  6
C_SOLID_L
100
AcDbLine
 10
32.596603
 20
-31.694771
 30
0.0
 11
74.02853399999999
 21
-31.694771
 31
0.0
  0
LINE
  5
11E
330
1E
100
AcDbEntity
  8
MO_001_VIEW_PV
  6
C_SOLID_L
100
AcDbLine
 10
-48.0
 20
12.0
 30
0.0
 11
-33.10532399999999
 21
12.0
 31
0.0
  0
LINE
  5
11F
330
1E
100
AcDbEntity
  8
MO_001_VIEW_PV
  6
C_SOLID_L
100
AcDbLine
 10
-51.0
 20
-51.0
 30
0.0
 11
-23.37158
 21
-51.0
 31
0.0
  0
TEXT
  5
120
330
1E
100
AcDbEntity
  8
MO_001_VIEW_PV
  6
C_SOLID_L
100
AcDbText
 10
-85.48828099999999
 20
-74.08359399999999
 30
0.0
 40
4.167187
  1
SH1L-0524
100
AcDbText
  0
TEXT
  5
121
330
1E
100
AcDbEntity
  8
MO_001_VIEW_PV
  6
C_SOLID_L
100
AcDbText
 10
33.02517499999999
 20
-26.444771
 30
0.0
 40
3.0
  1
リ－ド線
100
AcDbText
  0
TEXT
  5
122
330
1E
100
AcDbEntity
  8
MO_001_VIEW_PV
  6
C_SOLID_L
100
AcDbText
 10
33.02517499999999
 20
-30.944771
 30
0.0
 40
3.0
  1
UL1007 AWG.28
100
AcDbText
  0
TEXT
  5
123
330
1E
100
AcDbEntity
  8
MO_001_VIEW_PV
  6
C_SOLID_L
100
AcDbText
 10
16.511719
 20
-71.08359399999999
 30
0.0
 40
4.167187
  1
単位：mm
100
AcDbText
  0
TEXT
  5
124
330
1E
100
AcDbEntity
  8
MO_001_VIEW_PV
  6
C_SOLID_L
100
AcDbText
 10
16.511719
 20
-77.08359399999999
 30
0.0
 40
4.167187
  1
図は励磁時（保持時）を示す
100
AcDbText
  0
TEXT
  5
125
330
1E
100
AcDbEntity
  8
MO_001_VIEW_PV
  6
C_SOLID_L
100
AcDbText
 10
33.02517499999999
 20
-35.444771
 30
0.0
 40
3.0
  1
（白、黒）
100
AcDbText
  0
TEXT
  5
126
330
1E
100
AcDbEntity
  8
MO_001_VIEW_PV
  6
C_SOLID_L
100
AcDbText
 10
-41.190202
 20
14.625
 30
0.0
 40
1.5
  1
%%P0.1
100
AcDbText
  0
TEXT
  5
127
330
1E
100
AcDbEntity
  8
MO_001_VIEW_PV
  6
C_SOLID_L
100
AcDbText
 10
-46.97591599999999
 20
12.75
 30
0.0
 40
3.0
  1
%%C2
100
AcDbText
  0
TEXT
  5
128
330
1E
100
AcDbEntity
  8
MO_001_VIEW_PV
  6
C_SOLID_L
100
AcDbText
 10
-50.260626
 20
-50.425152
 30
0.0
 40
3.0
  1
2-M2 P0.4
100
AcDbText
  0
DIMENSION
  5
12A
330
1E
100
AcDbEntity
  8
MO_001_VIEW_PV
  6
C_SOLID_M
100
AcDbDimension
  2
*D0
 10
9.0
 20
-15.0
 30
0.0
 11
9.0
 21
-15.0
 31
0.0
  1
t1
  3
STANDARD
100
AcDbAlignedDimension
 13
-1.199999999999999
 23
-5.0
 33
0.0
 14
-1.0
 24
-6.0
 34
0.0
 50
270.012145
100
AcDbRotatedDimension
  0
DIMENSION
  5
12C
330
1E
100
AcDbEntity
  8
MO_001_VIEW_PV
  6
C_SOLID_M
100
AcDbDimension
  2
*D1
 10
-40.736664
 20
18.0
 30
0.0
 11
-40.736664
 21
18.0
 31
0.0
  3
STANDARD
100
AcDbAlignedDimension
 13
-27.5
 23
3.228061999999999
 33
0.0
 14
-30.0
 24
2.299999
 34
0.0
 50
179.97571
100
AcDbRotatedDimension
  0
DIMENSION
  5
12E
330
1E
100
AcDbEntity
  8
MO_001_VIEW_PV
  6
C_SOLID_M
100
AcDbDimension
  2
*D2
 10
-39.56526599999999
 20
24.0
 30
0.0
 11
-39.56526599999999
 21
24.0
 31
0.0
  3
STANDARD
100
AcDbAlignedDimension
 13
-24.0
 23
6.0
 33
0.0
 14
-30.0
 24
2.299999
 34
0.0
 50
179.97571
100
AcDbRotatedDimension
  0
DIMENSION
  5
130
330
1E
100
AcDbEntity
  8
MO_001_VIEW_PV
  6
C_SOLID_M
100
AcDbDimension
  2
*D3
 10
-12.0
 20
24.0
 30
0.0
 11
-12.0
 21
24.0
 31
0.0
  3
STANDARD
100
AcDbAlignedDimension
 13
-24.0
 23
6.0
 33
0.0
 14
0.0
 24
5.0
 34
0.0
100
AcDbRotatedDimension
  0
DIMENSION
  5
132
330
1E
100
AcDbEntity
  8
MO_001_VIEW_PV
  6
C_SOLID_M
100
AcDbDimension
  2
*D4
 10
11.741913
 20
24.0
 30
0.0
 11
11.741913
 21
24.0
 31
0.0
  1
(0.5)
  3
STANDARD
100
AcDbAlignedDimension
 13
0.5
 23
2.0
 33
0.0
 14
0.0
 24
5.0
 34
0.0
 50
179.97571
100
AcDbRotatedDimension
  0
DIMENSION
  5
134
330
1E
100
AcDbEntity
  8
MO_001_VIEW_PV
  6
C_SOLID_M
100
AcDbDimension
  2
*D5
 10
-39.0
 20
-12.0
 30
0.0
 11
-39.0
 21
-12.0
 31
0.0
  3
STANDARD
100
AcDbAlignedDimension
 13
-30.0
 23
0.75
 33
0.0
 14
-30.0
 24
-0.75
 34
0.0
 50
270.012145
100
AcDbRotatedDimension
  0
DIMENSION
  5
136
330
1E
100
AcDbEntity
  8
MO_001_VIEW_PV
  6
C_SOLID_M
100
AcDbDimension
  2
*D6
 10
-45.0
 20
-12.0
 30
0.0
 11
-45.0
 21
-12.0
 31
0.0
  3
STANDARD
100
AcDbAlignedDimension
 13
-29.799999
 23
-2.5
 33
0.0
 14
-29.799999
 24
2.5
 34
0.0
 50
89.98785500000002
100
AcDbRotatedDimension
  0
DIMENSION
  5
138
330
1E
100
AcDbEntity
  8
MO_001_VIEW_PV
  6
C_SOLID_M
100
AcDbDimension
  2
*D7
 10
-15.0
 20
-15.0
 30
0.0
 11
-15.0
 21
-15.0
 31
0.0
  3
STANDARD
100
AcDbAlignedDimension
 13
-24.0
 23
-0.75
 33
0.0
 14
-30.0
 24
-2.299999
 34
0.0
 50
179.97571
100
AcDbRotatedDimension
  0
DIMENSION
  5
13A
330
1E
100
AcDbEntity
  8
MO_001_VIEW_PV
  6
C_SOLID_M
100
AcDbDimension
  2
*D8
 10
-57.604774
 20
-18.0
 30
0.0
 11
-57.604774
 21
-18.0
 31
0.0
  3
STANDARD
100
AcDbAlignedDimension
 13
-77.0
 23
-6.0
 33
0.0
 14
-67.0
 24
-6.0
 34
0.0
100
AcDbRotatedDimension
  0
DIMENSION
  5
13C
330
1E
100
AcDbEntity
  8
MO_001_VIEW_PV
  6
C_SOLID_M
100
AcDbDimension
  2
*D9
 10
-60.0
 20
15.0
 30
0.0
 11
-60.0
 21
15.0
 31
0.0
  3
STANDARD
100
AcDbAlignedDimension
 13
-67.0
 23
6.0
 33
0.0
 14
-67.0
 24
-6.0
 34
0.0
 50
89.999523
100
AcDbRotatedDimension
  0
DIMENSION
  5
13E
330
1E
100
AcDbEntity
  8
MO_001_VIEW_PV
  6
C_SOLID_M
100
AcDbDimension
  2
*D10
 10
-36.93912499999999
 20
-30.0
 30
0.0
 11
-36.93912499999999
 21
-30.0
 31
0.0
  3
STANDARD
100
AcDbAlignedDimension
 13
-15.0
 23
-35.0
 33
0.0
 14
-27.5
 24
-35.77194199999999
 34
0.0
100
AcDbRotatedDimension
  0
DIMENSION
  5
140
330
1E
100
AcDbEntity
  8
MO_001_VIEW_PV
  6
C_SOLID_M
100
AcDbDimension
  2
*D11
 10
-1.743522999999999
 20
-24.0
 30
0.0
 11
-1.743522999999999
 21
-24.0
 31
0.0
  3
STANDARD
100
AcDbAlignedDimension
 13
-6.0
 23
-40.0
 33
0.0
 14
-15.0
 24
-35.0
 34
0.0
100
AcDbRotatedDimension
  0
DIMENSION
  5
142
330
1E
100
AcDbEntity
  8
MO_001_VIEW_PV
  6
C_SOLID_M
100
AcDbDimension
  2
*D12
 10
7.819053999999999
 20
-30.0
 30
0.0
 11
7.819053999999999
 21
-30.0
 31
0.0
  3
STANDARD
100
AcDbAlignedDimension
 13
-6.0
 23
-40.0
 33
0.0
 14
0.0
 24
-34.0
 34
0.0
100
AcDbRotatedDimension
  0
DIMENSION
  5
144
330
1E
100
AcDbEntity
  8
MO_001_VIEW_PV
  6
C_SOLID_M
100
AcDbDimension
  2
*D13
 10
21.0
 20
-27.0
 30
0.0
 11
21.0
 21
-27.0
 31
0.0
  3
STANDARD
100
AcDbAlignedDimension
 13
-4.5
 23
-41.5
 33
0.0
 14
-13.5
 24
-36.5
 34
0.0
 50
89.999523
100
AcDbRotatedDimension
  0
DIMENSION
  5
146
330
1E
100
AcDbEntity
  8
MO_001_VIEW_PV
  6
C_SOLID_M
100
AcDbDimension
  2
*D14
 10
14.51701899999999
 20
-60.0
 30
0.0
 11
14.51701899999999
 21
-60.0
 31
0.0
  1
長さ250以上
  3
STANDARD
100
AcDbAlignedDimension
 13
32.0
 23
-50.190498
 33
0.0
 14
-2.965961999999999
 24
-44.86596699999999
 34
0.0
100
AcDbRotatedDimension
  0
LINE
  5
147
330
1E
100
AcDbEntity
  8
MO_001_VIEW_PV
  6
C_SOLID_L
100
AcDbLine
 10
23.534956
 20
-47.39000599999999
 30
0.0
 11
32.596603
 21
-31.694775
 31
0.0
  0
POLYLINE
  5
148
330
1E
100
AcDbEntity
  8
MO_001_VIEW_PV
  6
C_SOLID_L
100
AcDb2dPolyline
 66
     1
 10
0.0
 20
0.0
 30
0.0
 70
     1
  0
VERTEX
  5
213
330
148
100
AcDbEntity
  8
MO_001_VIEW_PV
  6
C_SOLID_L
100
AcDbVertex
100
AcDb2dVertex
 10
24.68875
 20
-44.224553
 30
0.0
  0
VERTEX
  5
214
330
148
100
AcDbEntity
  8
MO_001_VIEW_PV
  6
C_SOLID_L
100
AcDbVertex
100
AcDb2dVertex
 10
23.78895599999999
 20
-46.950065
 30
0.0
  0
VERTEX
  5
215
330
148
100
AcDbEntity
  8
MO_001_VIEW_PV
  6
C_SOLID_L
100
AcDbVertex
100
AcDb2dVertex
 10
25.69942199999999
 20
-44.808064
 30
0.0
  0
SEQEND
  5
216
330
148
100
AcDbEntity
  8
MO_001_VIEW_PV
  6
C_SOLID_L
  0
LINE
  5
14D
330
1E
100
AcDbEntity
  8
MO_001_VIEW_PV
  6
C_SOLID_L
100
AcDbLine
 10
-27.5
 20
2.29129
 30
0.0
 11
-33.105326
 21
12.000001
 31
0.0
  0
POLYLINE
  5
14E
330
1E
100
AcDbEntity
  8
MO_001_VIEW_PV
  6
C_SOLID_L
100
AcDb2dPolyline
 66
     1
 10
0.0
 20
0.0
 30
0.0
 70
     1
  0
VERTEX
  5
217
330
14E
100
AcDbEntity
  8
MO_001_VIEW_PV
  6
C_SOLID_L
100
AcDbVertex
100
AcDb2dVertex
 10
-29.66446599999999
 20
4.873231999999999
 30
0.0
  0
VERTEX
  5
218
330
14E
100
AcDbEntity
  8
MO_001_VIEW_PV
  6
C_SOLID_L
100
AcDbVertex
100
AcDb2dVertex
 10
-27.754
 20
2.731231
 30
0.0
  0
VERTEX
  5
219
330
14E
100
AcDbEntity
  8
MO_001_VIEW_PV
  6
C_SOLID_L
100
AcDbVertex
100
AcDb2dVertex
 10
-28.653794
 20
5.456744
 30
0.0
  0
SEQEND
  5
21A
330
14E
100
AcDbEntity
  8
MO_001_VIEW_PV
  6
C_SOLID_L
  0
LINE
  5
153
330
1E
100
AcDbEntity
  8
MO_001_VIEW_PV
  6
C_SOLID_L
100
AcDbLine
 10
-15.499998
 20
-37.36602199999999
 30
0.0
 11
-23.37157799999999
 21
-50.999999
 31
0.0
  0
POLYLINE
  5
154
330
1E
100
AcDbEntity
  8
MO_001_VIEW_PV
  6
C_SOLID_L
100
AcDb2dPolyline
 66
     1
 10
0.0
 20
0.0
 30
0.0
 70
     1
  0
VERTEX
  5
21B
330
154
100
AcDbEntity
  8
MO_001_VIEW_PV
  6
C_SOLID_L
100
AcDbVertex
100
AcDb2dVertex
 10
-16.653793
 20
-40.53147599999999
 30
0.0
  0
VERTEX
  5
21C
330
154
100
AcDbEntity
  8
MO_001_VIEW_PV
  6
C_SOLID_L
100
AcDbVertex
100
AcDb2dVertex
 10
-15.753998
 20
-37.805963
 30
0.0
  0
VERTEX
  5
21D
330
154
100
AcDbEntity
  8
MO_001_VIEW_PV
  6
C_SOLID_L
100
AcDbVertex
100
AcDb2dVertex
 10
-17.664464
 20
-39.947964
 30
0.0
  0
SEQEND
  5
21E
330
154
100
AcDbEntity
  8
MO_001_VIEW_PV
  6
C_SOLID_L
  0
ENDSEC
  0
SECTION
  2
OBJECTS
  0
DICTIONARY
  5
1A
330
0
100
AcDbDictionary
  3
ACAD_GROUP
350
1B
  3
ACAD_MLINESTYLE
350
1C
  3
ACAD_LAYOUT
350
209
  3
ACAD_PLOTSETTINGS
350
20A
1001
ACAD
1000
TREAT_AS_HARD
1070
     0
  0
DICTIONARY
  5
20F
330
1E
100
AcDbDictionary
  3
ACAD_LAYOUTSELFREF
350
210
  0
DICTIONARY
  5
211
330
1F
100
AcDbDictionary
  3
ACAD_LAYOUTSELFREF
350
212
  0
DICTIONARY
  5
1B
102
{ACAD_REACTORS
330
1A
102
}
330
1A
100
AcDbDictionary
1001
ACAD
1000
TREAT_AS_HARD
1070
     0
  0
DICTIONARY
  5
1C
102
{ACAD_REACTORS
330
1A
102
}
330
1A
100
AcDbDictionary
  3
STANDARD
350
1D
1001
ACAD
1000
TREAT_AS_HARD
1070
     0
  0
DICTIONARY
  5
209
102
{ACAD_REACTORS
330
1A
102
}
330
1A
100
AcDbDictionary
1001
ACAD
1000
TREAT_AS_HARD
1070
     0
  0
DICTIONARY
  5
20A
102
{ACAD_REACTORS
330
1A
102
}
330
1A
100
AcDbDictionary
1001
ACAD
1000
TREAT_AS_HARD
1070
     0
  0
XRECORD
  5
210
102
{ACAD_REACTORS
330
20F
102
}
330
20F
100
AcDbXrecord
340
1E
  0
XRECORD
  5
212
102
{ACAD_REACTORS
330
211
102
}
330
211
100
AcDbXrecord
340
1F
  0
MLINESTYLE
  5
1D
102
{ACAD_REACTORS
330
1C
102
}
330
1C
100
AcDbMlineStyle
  2
STANDARD
 70
     0
  3

 62
     0
 51
90.0
 52
90.0
 71
     2
 49
0.5
 62
   256
  6
BYLAYER
 49
-0.5
 62
   256
  6
BYLAYER
  0
ENDSEC
  0
EOF
