  0
SECTION
  2
HEADER
  9
$ACADVER
  1
AC1012
  9
$DWGCODEPAGE
  3
dos932
  9
$INSBASE
 10
0.0
 20
0.0
 30
0.0
  9
$EXTMIN
 10
-81.00477571993934
 20
-113.0943918198684
 30
-0.0015258207003583
  9
$EXTMAX
 10
88.14025048999917
 20
31.12623640125315
 30
0.0000000349246037
  9
$LIMMIN
 10
-81.0
 20
-116.208984
  9
$LIMMAX
 10
75.50273100000001
 20
33.0
  9
$ORTHOMODE
 70
     0
  9
$REGENMODE
 70
     1
  9
$FILLMODE
 70
     1
  9
$QTEXTMODE
 70
     0
  9
$MIRRTEXT
 70
     1
  9
$DRAGMODE
 70
     2
  9
$LTSCALE
 40
1.0
  9
$OSMODE
 70
    37
  9
$ATTMODE
 70
     1
  9
$TEXTSIZE
 40
4.1672
  9
$TRACEWID
 40
0.05
  9
$TEXTSTYLE
  7
STANDARD
  9
$CLAYER
  8
0
  9
$CELTYPE
  6
CONTINUOUS
  9
$CECOLOR
 62
   256
  9
$CELTSCALE
 40
1.0
  9
$DELOBJ
 70
     1
  9
$DISPSILH
 70
     0
  9
$DIMSCALE
 40
1.0
  9
$DIMASZ
 40
0.18
  9
$DIMEXO
 40
0.0625
  9
$DIMDLI
 40
0.38
  9
$DIMRND
 40
0.0
  9
$DIMDLE
 40
0.0
  9
$DIMEXE
 40
0.18
  9
$DIMTP
 40
0.0
  9
$DIMTM
 40
0.0
  9
$DIMTXT
 40
0.18
  9
$DIMCEN
 40
0.09
  9
$DIMTSZ
 40
0.0
  9
$DIMTOL
 70
     0
  9
$DIMLIM
 70
     0
  9
$DIMTIH
 70
     1
  9
$DIMTOH
 70
     1
  9
$DIMSE1
 70
     0
  9
$DIMSE2
 70
     0
  9
$DIMTAD
 70
     0
  9
$DIMZIN
 70
     0
  9
$DIMBLK
  1

  9
$DIMASO
 70
     1
  9
$DIMSHO
 70
     1
  9
$DIMPOST
  1

  9
$DIMAPOST
  1

  9
$DIMALT
 70
     0
  9
$DIMALTD
 70
     2
  9
$DIMALTF
 40
25.4
  9
$DIMLFAC
 40
1.0
  9
$DIMTOFL
 70
     0
  9
$DIMTVP
 40
0.0
  9
$DIMTIX
 70
     0
  9
$DIMSOXD
 70
     0
  9
$DIMSAH
 70
     0
  9
$DIMBLK1
  1

  9
$DIMBLK2
  1

  9
$DIMSTYLE
  2
STANDARD
  9
$DIMCLRD
 70
     0
  9
$DIMCLRE
 70
     0
  9
$DIMCLRT
 70
     0
  9
$DIMTFAC
 40
1.0
  9
$DIMGAP
 40
0.09
  9
$DIMJUST
 70
     0
  9
$DIMSD1
 70
     0
  9
$DIMSD2
 70
     0
  9
$DIMTOLJ
 70
     1
  9
$DIMTZIN
 70
     0
  9
$DIMALTZ
 70
     0
  9
$DIMALTTZ
 70
     0
  9
$DIMFIT
 70
     3
  9
$DIMUPT
 70
     0
  9
$DIMUNIT
 70
     2
  9
$DIMDEC
 70
     4
  9
$DIMTDEC
 70
     4
  9
$DIMALTU
 70
     2
  9
$DIMALTTD
 70
     2
  9
$DIMTXSTY
  7
STANDARD
  9
$DIMAUNIT
 70
     0
  9
$LUNITS
 70
     2
  9
$LUPREC
 70
     6
  9
$SKETCHINC
 40
0.1
  9
$FILLETRAD
 40
0.0
  9
$AUNITS
 70
     0
  9
$AUPREC
 70
     4
  9
$MENU
  1
acad
  9
$ELEVATION
 40
0.0
  9
$PELEVATION
 40
0.0
  9
$THICKNESS
 40
0.0
  9
$LIMCHECK
 70
     0
  9
$BLIPMODE
 70
     0
  9
$CHAMFERA
 40
0.0
  9
$CHAMFERB
 40
0.0
  9
$CHAMFERC
 40
0.0
  9
$CHAMFERD
 40
0.0
  9
$SKPOLY
 70
     0
  9
$TDCREATE
 40
2376122.594768784
  9
$TDUPDATE
 40
2451663.757548379
  9
$TDINDWG
 40
0.0011283565
  9
$TDUSRTIMER
 40
0.0011283565
  9
$USRTIMER
 70
     1
  9
$ANGBASE
 50
0.0
  9
$ANGDIR
 70
     0
  9
$PDMODE
 70
     0
  9
$PDSIZE
 40
0.0
  9
$PLINEWID
 40
0.0
  9
$COORDS
 70
     1
  9
$SPLFRAME
 70
     0
  9
$SPLINETYPE
 70
     6
  9
$SPLINESEGS
 70
     8
  9
$ATTDIA
 70
     0
  9
$ATTREQ
 70
     1
  9
$HANDLING
 70
 10241
  9
$HANDSEED
  5
239
  9
$SURFTAB1
 70
     6
  9
$SURFTAB2
 70
     6
  9
$SURFTYPE
 70
     6
  9
$SURFU
 70
     6
  9
$SURFV
 70
     6
  9
$UCSNAME
  2
MO_001_VIEW_PV_P
  9
$UCSORG
 10
0.0
 20
0.0
 30
0.0
  9
$UCSXDIR
 10
1.0
 20
0.0
 30
0.0
  9
$UCSYDIR
 10
-0.0000000002051034
 20
1.0
 30
0.0
  9
$PUCSNAME
  2

  9
$PUCSORG
 10
0.0
 20
0.0
 30
0.0
  9
$PUCSXDIR
 10
1.0
 20
0.0
 30
0.0
  9
$PUCSYDIR
 10
0.0
 20
1.0
 30
0.0
  9
$USERI1
 70
     0
  9
$USERI2
 70
     0
  9
$USERI3
 70
     0
  9
$USERI4
 70
     0
  9
$USERI5
 70
     0
  9
$USERR1
 40
0.0
  9
$USERR2
 40
0.0
  9
$USERR3
 40
0.0
  9
$USERR4
 40
0.0
  9
$USERR5
 40
0.0
  9
$WORLDVIEW
 70
     1
  9
$SHADEDGE
 70
     3
  9
$SHADEDIF
 70
    70
  9
$TILEMODE
 70
     1
  9
$MAXACTVP
 70
    16
  9
$PINSBASE
 10
0.0
 20
0.0
 30
0.0
  9
$PLIMCHECK
 70
     0
  9
$PEXTMIN
 10
-81.0
 20
-116.208984
 30
1.000000000000000E+20
  9
$PEXTMAX
 10
75.50273100000001
 20
33.0
 30
-1.000000000000000E+20
  9
$PLIMMIN
 10
0.0
 20
0.0
  9
$PLIMMAX
 10
12.0
 20
9.0
  9
$UNITMODE
 70
     0
  9
$VISRETAIN
 70
     0
  9
$PLINEGEN
 70
     0
  9
$PSLTSCALE
 70
     1
  9
$TREEDEPTH
 70
  3020
  9
$PICKSTYLE
 70
     1
  9
$CMLSTYLE
  2
STANDARD
  9
$CMLJUST
 70
     0
  9
$CMLSCALE
 40
1.0
  9
$SAVEIMAGES
 70
     1
  0
ENDSEC
  0
SECTION
  2
CLASSES
  0
CLASS
  1
ACDBDICTIONARYWDFLT
  2
AcDbDictionaryWithDefault
  3
AutoCAD 2000
 90
    32768
280
     0
281
     0
  0
CLASS
  1
ACDBPLACEHOLDER
  2
AcDbPlaceHolder
  3
AutoCAD 2000
 90
    32768
280
     0
281
     0
  0
CLASS
  1
LAYOUT
  2
AcDbLayout
  3
AutoCAD 2000
 90
    32768
280
     0
281
     0
  0
CLASS
  1
LONG_TRANSACTION
  2
AcDbLongTransaction
  3
AutoCAD 2000
 90
    32768
280
     0
281
     0
  0
CLASS
  1
LWPOLYLINE
  2
AcDbPolyline
  3
AutoCAD 2000
 90
    32768
280
     0
281
     1
  0
CLASS
  1
HATCH
  2
AcDbHatch
  3
AutoCAD 2000
 90
    32768
280
     0
281
     1
  0
CLASS
  1
XRECORD
  2
AcDbXrecord
  3
AutoCAD 2000
 90
    32768
280
     0
281
     0
  0
ENDSEC
  0
SECTION
  2
TABLES
  0
TABLE
  2
VPORT
  5
7
330
0
100
AcDbSymbolTable
 70
     2
  0
VPORT
  5
228
330
7
100
AcDbSymbolTableRecord
100
AcDbViewportTableRecord
  2
*ACTIVE
 70
     0
 10
0.0
 20
0.0
 11
1.0
 21
1.0
 12
-3.55426431301106
 22
-34.8097094981849
 13
0.0
 23
0.0
 14
6.349999999999999
 24
6.349999999999999
 15
6.349999999999999
 25
6.349999999999999
 16
0.0
 26
0.0
 36
1.0
 17
0.0
 27
0.0
 37
0.0
 40
172.3506812097135
 41
1.691964285714286
 42
50.0
 43
0.0
 44
0.0
 50
0.0
 51
0.0
 71
     0
 72
   100
 73
     1
 74
     1
 75
     0
 76
     0
 77
     0
 78
     0
  0
ENDTAB
  0
TABLE
  2
LTYPE
  5
4
330
0
100
AcDbSymbolTable
 70
    37
  0
LTYPE
  5
12
330
4
100
AcDbSymbolTableRecord
100
AcDbLinetypeTableRecord
  2
BYBLOCK
 70
     0
  3

 72
    65
 73
     0
 40
0.0
  0
LTYPE
  5
13
330
4
100
AcDbSymbolTableRecord
100
AcDbLinetypeTableRecord
  2
BYLAYER
 70
     0
  3

 72
    65
 73
     0
 40
0.0
  0
LTYPE
  5
14
330
4
100
AcDbSymbolTableRecord
100
AcDbLinetypeTableRecord
  2
CONTINUOUS
 70
     0
  3
DXF Default line type
 72
    65
 73
     0
 40
0.0
  0
LTYPE
  5
20
330
4
100
AcDbSymbolTableRecord
100
AcDbLinetypeTableRecord
  2
DASHED
 70
     0
  3
DXF Dashed
 72
    65
 73
     2
 40
0.75
 49
0.5
 74
     0
 49
-0.25
 74
     0
  0
LTYPE
  5
21
330
4
100
AcDbSymbolTableRecord
100
AcDbLinetypeTableRecord
  2
HIDDEN
 70
     0
  3
DXF Hidden
 72
    65
 73
     2
 40
0.375
 49
0.25
 74
     0
 49
-0.125
 74
     0
  0
LTYPE
  5
22
330
4
100
AcDbSymbolTableRecord
100
AcDbLinetypeTableRecord
  2
CENTER
 70
     0
  3
DXF Center
 72
    65
 73
     4
 40
2.0
 49
1.25
 74
     0
 49
-0.25
 74
     0
 49
0.25
 74
     0
 49
-0.25
 74
     0
  0
LTYPE
  5
23
330
4
100
AcDbSymbolTableRecord
100
AcDbLinetypeTableRecord
  2
PHANTOM
 70
     0
  3
DXF Phantom
 72
    65
 73
     6
 40
2.5
 49
1.25
 74
     0
 49
-0.25
 74
     0
 49
0.25
 74
     0
 49
-0.25
 74
     0
 49
0.25
 74
     0
 49
-0.25
 74
     0
  0
LTYPE
  5
24
330
4
100
AcDbSymbolTableRecord
100
AcDbLinetypeTableRecord
  2
DOT
 70
     0
  3
DXF DOT
 72
    65
 73
     2
 40
0.25
 49
0.0
 74
     0
 49
-0.25
 74
     0
  0
LTYPE
  5
25
330
4
100
AcDbSymbolTableRecord
100
AcDbLinetypeTableRecord
  2
DASHDOT
 70
     0
  3
DXF Dash Dot
 72
    65
 73
     4
 40
1.0
 49
0.5
 74
     0
 49
-0.25
 74
     0
 49
0.0
 74
     0
 49
-0.25
 74
     0
  0
LTYPE
  5
26
330
4
100
AcDbSymbolTableRecord
100
AcDbLinetypeTableRecord
  2
BORDER
 70
     0
  3
DXF Border
 72
    65
 73
     6
 40
1.75
 49
0.5
 74
     0
 49
-0.25
 74
     0
 49
0.5
 74
     0
 49
-0.25
 74
     0
 49
0.0
 74
     0
 49
-0.25
 74
     0
  0
LTYPE
  5
27
330
4
100
AcDbSymbolTableRecord
100
AcDbLinetypeTableRecord
  2
DIVIDE
 70
     0
  3
DXF Divide
 72
    65
 73
     6
 40
1.25
 49
0.5
 74
     0
 49
-0.25
 74
     0
 49
0.0
 74
     0
 49
-0.25
 74
     0
 49
0.0
 74
     0
 49
-0.25
 74
     0
  0
LTYPE
  5
28
330
4
100
AcDbSymbolTableRecord
100
AcDbLinetypeTableRecord
  2
C_SOLID_L
 70
     0
  3
CADAM Solid Light
 72
    65
 73
     0
 40
0.0
  0
LTYPE
  5
29
330
4
100
AcDbSymbolTableRecord
100
AcDbLinetypeTableRecord
  2
C_SOLID_M
 70
     0
  3
CADAM Solid Medium
 72
    65
 73
     0
 40
0.0
  0
LTYPE
  5
2A
330
4
100
AcDbSymbolTableRecord
100
AcDbLinetypeTableRecord
  2
C_SOLID_H
 70
     0
  3
CADAM Solid Heavy
 72
    65
 73
     0
 40
0.0
  0
LTYPE
  5
2B
330
4
100
AcDbSymbolTableRecord
100
AcDbLinetypeTableRecord
  2
C_DASHED_L
 70
     0
  3
CADAM Dashed Light
 72
    65
 73
     2
 40
0.375
 49
0.25
 74
     0
 49
-0.125
 74
     0
  0
LTYPE
  5
2C
330
4
100
AcDbSymbolTableRecord
100
AcDbLinetypeTableRecord
  2
C_DASHED_M
 70
     0
  3
CADAM Dashed Medium
 72
    65
 73
     2
 40
0.5
 49
0.375
 74
     0
 49
-0.125
 74
     0
  0
LTYPE
  5
2D
330
4
100
AcDbSymbolTableRecord
100
AcDbLinetypeTableRecord
  2
C_CENTER_L
 70
     0
  3
CADAM Center Light
 72
    65
 73
     4
 40
2.0
 49
1.25
 74
     0
 49
-0.25
 74
     0
 49
0.25
 74
     0
 49
-0.25
 74
     0
  0
LTYPE
  5
2E
330
4
100
AcDbSymbolTableRecord
100
AcDbLinetypeTableRecord
  2
C_PHANTOM_L
 70
     0
  3
CADAM Phantom Light
 72
    65
 73
     6
 40
2.5
 49
1.25
 74
     0
 49
-0.25
 74
     0
 49
0.25
 74
     0
 49
-0.25
 74
     0
 49
0.25
 74
     0
 49
-0.25
 74
     0
  0
LTYPE
  5
2F
330
4
100
AcDbSymbolTableRecord
100
AcDbLinetypeTableRecord
  2
C_BREAK_M
 70
     0
  3
CADAM Break Medium
 72
    65
 73
     4
 40
1.0
 49
0.5
 74
     0
 49
-0.25
 74
     0
 49
0.0
 74
     0
 49
-0.25
 74
     0
  0
LTYPE
  5
30
330
4
100
AcDbSymbolTableRecord
100
AcDbLinetypeTableRecord
  2
C_NC
 70
     0
  3
CADAM NC
 72
    65
 73
     0
 40
0.0
  0
LTYPE
  5
31
330
4
100
AcDbSymbolTableRecord
100
AcDbLinetypeTableRecord
  2
DSH1
 70
     0
  3
CADAM Style2 Type 1 Dashed Line
 72
    65
 73
     2
 40
0.075
 49
0.04
 74
     0
 49
-0.035
 74
     0
  0
LTYPE
  5
32
330
4
100
AcDbSymbolTableRecord
100
AcDbLinetypeTableRecord
  2
DSH2
 70
     0
  3
CADAM Style2 Type 2 Dashed Line
 72
    65
 73
     2
 40
0.15
 49
0.11
 74
     0
 49
-0.04
 74
     0
  0
LTYPE
  5
33
330
4
100
AcDbSymbolTableRecord
100
AcDbLinetypeTableRecord
  2
DSH3
 70
     0
  3
CADAM Style2 Type 3 Dashed Line
 72
    65
 73
     2
 40
0.2
 49
0.15
 74
     0
 49
-0.05
 74
     0
  0
LTYPE
  5
34
330
4
100
AcDbSymbolTableRecord
100
AcDbLinetypeTableRecord
  2
DSH4
 70
     0
  3
CADAM Style2 Type 4 Dashed Line
 72
    65
 73
     2
 40
0.36
 49
0.28
 74
     0
 49
-0.08
 74
     0
  0
LTYPE
  5
35
330
4
100
AcDbSymbolTableRecord
100
AcDbLinetypeTableRecord
  2
DSH5
 70
     0
  3
CADAM Style2 Type 5 Dashed Line
 72
    65
 73
     2
 40
0.47
 49
0.39
 74
     0
 49
-0.08
 74
     0
  0
LTYPE
  5
36
330
4
100
AcDbSymbolTableRecord
100
AcDbLinetypeTableRecord
  2
DSH6
 70
     0
  3
CADAM Style2 Type 6 Dashed Line
 72
    65
 73
     2
 40
0.9
 49
0.8100000000000001
 74
     0
 49
-0.09
 74
     0
  0
LTYPE
  5
37
330
4
100
AcDbSymbolTableRecord
100
AcDbLinetypeTableRecord
  2
PL1
 70
     0
  3
Style 2 Type 1 Phantom Line
 72
    65
 73
     6
 40
1.0
 49
0.6
 74
     0
 49
-0.08
 74
     0
 49
0.08
 74
     0
 49
-0.08
 74
     0
 49
0.08
 74
     0
 49
-0.08
 74
     0
  0
LTYPE
  5
38
330
4
100
AcDbSymbolTableRecord
100
AcDbLinetypeTableRecord
  2
PL2
 70
     0
  3
Style 2 Type 2 Phantom Line
 72
    65
 73
     6
 40
1.08
 49
0.6
 74
     0
 49
-0.08
 74
     0
 49
0.12
 74
     0
 49
-0.08
 74
     0
 49
0.12
 74
     0
 49
-0.08
 74
     0
  0
LTYPE
  5
39
330
4
100
AcDbSymbolTableRecord
100
AcDbLinetypeTableRecord
  2
PL3
 70
     0
  3
Style 2 Type 3 Phantom Line
 72
    65
 73
     6
 40
2.0
 49
1.439999999999999
 74
     0
 49
-0.08
 74
     0
 49
0.16
 74
     0
 49
-0.08
 74
     0
 49
0.16
 74
     0
 49
-0.08
 74
     0
  0
LTYPE
  5
3A
330
4
100
AcDbSymbolTableRecord
100
AcDbLinetypeTableRecord
  2
CL1
 70
     0
  3
CADAM Style 2 Type 1 Center Line
 72
    65
 73
     4
 40
0.7
 49
0.45
 74
     0
 49
-0.06
 74
     0
 49
0.13
 74
     0
 49
-0.06
 74
     0
  0
LTYPE
  5
3B
330
4
100
AcDbSymbolTableRecord
100
AcDbLinetypeTableRecord
  2
CL2
 70
     0
  3
CADAM Style 2 Type 2 Center Line
 72
    65
 73
     4
 40
1.199999999999999
 49
1.01
 74
     0
 49
-0.06
 74
     0
 49
0.11
 74
     0
 49
-0.06
 74
     0
  0
LTYPE
  5
3C
330
4
100
AcDbSymbolTableRecord
100
AcDbLinetypeTableRecord
  2
CL3
 70
     0
  3
CADAM Style 2 Type 3 Center Line
 72
    65
 73
     4
 40
1.199999999999999
 49
0.98
 74
     0
 49
-0.06
 74
     0
 49
0.1
 74
     0
 49
-0.06
 74
     0
  0
LTYPE
  5
3D
330
4
100
AcDbSymbolTableRecord
100
AcDbLinetypeTableRecord
  2
CL4
 70
     0
  3
CADAM Style 2 Type 4 Center Line
 72
    65
 73
     4
 40
2.2
 49
1.929999999999999
 74
     0
 49
-0.07
 74
     0
 49
0.13
 74
     0
 49
-0.07
 74
     0
  0
LTYPE
  5
3E
330
4
100
AcDbSymbolTableRecord
100
AcDbLinetypeTableRecord
  2
CL5
 70
     0
  3
CADAM Style 2 Type 5 Center Line
 72
    65
 73
     4
 40
2.2
 49
1.879999999999999
 74
     0
 49
-0.07
 74
     0
 49
0.18
 74
     0
 49
-0.07
 74
     0
  0
LTYPE
  5
3F
330
4
100
AcDbSymbolTableRecord
100
AcDbLinetypeTableRecord
  2
SBK1
 70
     0
  3
CADAM Style 2 Type 1 SetBack Line
 72
    65
 73
     8
 40
2.7
 49
0.1
 74
     0
 49
-0.08
 74
     0
 49
0.1
 74
     0
 49
-0.8
 74
     0
 49
0.0
 74
     0
 49
0.0
 74
     0
 49
0.0
 74
     0
 49
0.0
 74
     0
  0
LTYPE
  5
40
330
4
100
AcDbSymbolTableRecord
100
AcDbLinetypeTableRecord
  2
SBK2
 70
     0
  3
CADAM Style 2 Type 2 SetBack Line
 72
    65
 73
     8
 40
3.709999999999999
 49
0.13
 74
     0
 49
-0.08
 74
     0
 49
0.13
 74
     0
 49
-0.8
 74
     0
 49
0.0
 74
     0
 49
0.0
 74
     0
 49
0.0
 74
     0
 49
0.0
 74
     0
  0
LTYPE
  5
41
330
4
100
AcDbSymbolTableRecord
100
AcDbLinetypeTableRecord
  2
STCH
 70
     0
  3
CADAM Style2 Stitch Line
 72
    65
 73
     2
 40
0.25
 49
0.0
 74
     0
 49
-0.25
 74
     0
  0
LTYPE
  5
42
330
4
100
AcDbSymbolTableRecord
100
AcDbLinetypeTableRecord
  2
MTCH
 70
     0
  3
CADAM Style2 Match Line
 72
    65
 73
     6
 40
2.0
 49
1.439999999999999
 74
     0
 49
-0.8
 74
     0
 49
0.16
 74
     0
 49
-0.08
 74
     0
 49
0.16
 74
     0
 49
-0.08
 74
     0
  0
LTYPE
  5
43
330
4
100
AcDbSymbolTableRecord
100
AcDbLinetypeTableRecord
  2
SLD
 70
     0
  3
CADAM Solid_EXT2
 72
    65
 73
     0
 40
0.0
  0
ENDTAB
  0
TABLE
  2
LAYER
  5
2
330
0
100
AcDbSymbolTable
 70
     7
  0
LAYER
  5
15
330
2
100
AcDbSymbolTableRecord
100
AcDbLayerTableRecord
  2
0
 70
     0
 62
     7
  6
CONTINUOUS
  0
LAYER
  5
44
330
2
100
AcDbSymbolTableRecord
100
AcDbLayerTableRecord
  2
MO_001_NOSHOW
 70
     1
 62
     7
  6
CONTINUOUS
  0
LAYER
  5
45
330
2
100
AcDbSymbolTableRecord
100
AcDbLayerTableRecord
  2
MO_001_VIEW_PV
 70
     0
 62
     7
  6
CONTINUOUS
  0
LAYER
  5
46
330
2
100
AcDbSymbolTableRecord
100
AcDbLayerTableRecord
  2
OVERLAY_MAP
 70
     1
 62
     7
  6
CONTINUOUS
  0
LAYER
  5
47
330
2
100
AcDbSymbolTableRecord
100
AcDbLayerTableRecord
  2
DITTOS
 70
     0
 62
     7
  6
CONTINUOUS
  0
LAYER
  5
48
330
2
100
AcDbSymbolTableRecord
100
AcDbLayerTableRecord
  2
SYMBOLS
 70
     0
 62
     7
  6
CONTINUOUS
  0
LAYER
  5
49
330
2
100
AcDbSymbolTableRecord
100
AcDbLayerTableRecord
  2
SETS
 70
     0
 62
     7
  6
CONTINUOUS
  0
ENDTAB
  0
TABLE
  2
STYLE
  5
3
330
0
100
AcDbSymbolTable
 70
     1
  0
STYLE
  5
18
330
3
100
AcDbSymbolTableRecord
100
AcDbTextStyleTableRecord
  2
STANDARD
 70
     0
 40
4.1672
 41
1.0
 50
0.0
 71
     0
 42
4.1672
  3
monotxt
  4
BIGFONT
  0
ENDTAB
  0
TABLE
  2
VIEW
  5
5
330
0
100
AcDbSymbolTable
 70
     0
  0
ENDTAB
  0
TABLE
  2
UCS
  5
6
330
0
100
AcDbSymbolTable
 70
     1
  0
UCS
  5
4A
330
6
100
AcDbSymbolTableRecord
100
AcDbUCSTableRecord
  2
MO_001_VIEW_PV_P
 70
     0
 10
0.0
 20
0.0
 30
0.0
 11
1.0
 21
0.0
 31
0.0
 12
-0.0000000002051034
 22
1.0
 32
0.0
  0
ENDTAB
  0
TABLE
  2
APPID
  5
8
330
0
100
AcDbSymbolTable
 70
     1
  0
APPID
  5
17
330
8
100
AcDbSymbolTableRecord
100
AcDbRegAppTableRecord
  2
ACAD
 70
     0
  0
ENDTAB
  0
TABLE
  2
DIMSTYLE
  5
9
330
0
100
AcDbSymbolTable
 70
     1
  0
DIMSTYLE
105
19
102
{ACAD_REACTORS
330
159
330
15B
330
15D
330
15F
330
161
330
163
330
165
330
167
330
169
330
16B
330
16D
330
16F
330
171
330
173
102
}
330
9
100
AcDbSymbolTableRecord
100
AcDbDimStyleTableRecord
  2
STANDARD
 70
     0
  3

  4

  5

  6

  7

 40
1.0
 41
0.18
 42
0.0625
 43
0.38
 44
0.18
 45
0.0
 46
0.0
 47
0.0
 48
0.0
140
0.18
141
0.09
142
0.0
143
25.4
144
1.0
145
0.0
146
1.0
147
0.09
 71
     0
 72
     0
 73
     1
 74
     1
 75
     0
 76
     0
 77
     0
 78
     0
170
     0
171
     2
172
     0
173
     0
174
     0
175
     0
176
     0
177
     0
178
     0
270
     2
271
     4
272
     4
273
     2
274
     2
340
18
275
     0
280
     0
281
     0
282
     0
283
     1
284
     0
285
     0
286
     0
287
     3
288
     0
  0
ENDTAB
  0
TABLE
  2
BLOCK_RECORD
  5
C
330
0
100
AcDbSymbolTable
 70
    14
  0
BLOCK_RECORD
  5
1E
102
{ACAD_XDICTIONARY
360
229
102
}
330
C
100
AcDbSymbolTableRecord
100
AcDbBlockTableRecord
  2
*MODEL_SPACE
  0
BLOCK_RECORD
  5
1F
102
{ACAD_XDICTIONARY
360
22B
102
}
330
C
100
AcDbSymbolTableRecord
100
AcDbBlockTableRecord
  2
*PAPER_SPACE
  0
BLOCK_RECORD
  5
158
330
C
100
AcDbSymbolTableRecord
100
AcDbBlockTableRecord
  2
*D0
  0
BLOCK_RECORD
  5
15A
330
C
100
AcDbSymbolTableRecord
100
AcDbBlockTableRecord
  2
*D1
  0
BLOCK_RECORD
  5
15C
330
C
100
AcDbSymbolTableRecord
100
AcDbBlockTableRecord
  2
*D2
  0
BLOCK_RECORD
  5
15E
330
C
100
AcDbSymbolTableRecord
100
AcDbBlockTableRecord
  2
*D3
  0
BLOCK_RECORD
  5
160
330
C
100
AcDbSymbolTableRecord
100
AcDbBlockTableRecord
  2
*D4
  0
BLOCK_RECORD
  5
162
330
C
100
AcDbSymbolTableRecord
100
AcDbBlockTableRecord
  2
*D5
  0
BLOCK_RECORD
  5
164
330
C
100
AcDbSymbolTableRecord
100
AcDbBlockTableRecord
  2
*D6
  0
BLOCK_RECORD
  5
166
330
C
100
AcDbSymbolTableRecord
100
AcDbBlockTableRecord
  2
*D7
  0
BLOCK_RECORD
  5
168
330
C
100
AcDbSymbolTableRecord
100
AcDbBlockTableRecord
  2
*D8
  0
BLOCK_RECORD
  5
16A
330
C
100
AcDbSymbolTableRecord
100
AcDbBlockTableRecord
  2
*D9
  0
BLOCK_RECORD
  5
16C
330
C
100
AcDbSymbolTableRecord
100
AcDbBlockTableRecord
  2
*D10
  0
BLOCK_RECORD
  5
16E
330
C
100
AcDbSymbolTableRecord
100
AcDbBlockTableRecord
  2
*D11
  0
BLOCK_RECORD
  5
170
330
C
100
AcDbSymbolTableRecord
100
AcDbBlockTableRecord
  2
*D12
  0
BLOCK_RECORD
  5
172
330
C
100
AcDbSymbolTableRecord
100
AcDbBlockTableRecord
  2
*D13
  0
ENDTAB
  0
ENDSEC
  0
SECTION
  2
BLOCKS
  0
BLOCK
  5
E
330
1E
100
AcDbEntity
  8
0
100
AcDbBlockBegin
  2
*MODEL_SPACE
 70
     0
 10
0.0
 20
0.0
 30
0.0
  3
*MODEL_SPACE
  1

  0
ENDBLK
  5
F
330
1E
100
AcDbEntity
  8
0
100
AcDbBlockEnd
  0
BLOCK
  5
10
330
1F
100
AcDbEntity
 67
     1
  8
0
100
AcDbBlockBegin
  2
*PAPER_SPACE
 70
     0
 10
0.0
 20
0.0
 30
0.0
  3
*PAPER_SPACE
  1

  0
ENDBLK
  5
11
330
1F
100
AcDbEntity
 67
     1
  8
0
100
AcDbBlockEnd
  0
BLOCK
  5
186
330
158
100
AcDbEntity
  8
0
100
AcDbBlockBegin
  2
*D0
 70
     1
 10
0.0
 20
0.0
 30
0.0
  3
*D0
  1

  0
LINE
  5
187
330
158
100
AcDbEntity
  8
MO_001_VIEW_PV
  6
BYBLOCK
100
AcDbLine
 10
6.0
 20
20.99999899999999
 30
0.0
 11
9.464102
 21
26.99999899999999
 31
0.0
  0
SOLID
  5
188
330
158
100
AcDbEntity
  8
MO_001_VIEW_PV
  6
BYBLOCK
100
AcDbTrace
 10
7.153794
 20
24.16545199999999
 30
0.0
 11
6.253999999999999
 21
21.43994
 31
0.0
 12
8.164466
 22
23.58194099999999
 32
0.0
 13
8.164466
 23
23.58194099999999
 33
0.0
  0
LINE
  5
189
330
158
100
AcDbEntity
  8
MO_001_VIEW_PV
  6
BYBLOCK
100
AcDbLine
 10
9.464102
 20
27.0
 30
0.0
 11
23.282167
 21
27.0
 31
0.0
  0
TEXT
  5
18A
330
158
100
AcDbEntity
  8
MO_001_VIEW_PV
  6
BYBLOCK
100
AcDbText
 10
16.96073799999999
 20
29.625
 30
0.0
 40
1.5
  1
%%P0.3
100
AcDbText
  0
TEXT
  5
18B
330
158
100
AcDbEntity
  8
MO_001_VIEW_PV
  6
BYBLOCK
100
AcDbText
 10
11.175024
 20
27.75
 30
0.0
 40
3.0
  1
12
100
AcDbText
  0
LINE
  5
18C
330
158
100
AcDbEntity
  8
MO_001_VIEW_PV
  6
BYBLOCK
100
AcDbLine
 10
0.0
 20
21.0
 30
0.0
 11
12.000001
 21
21.0
 31
0.0
  0
SOLID
  5
18D
330
158
100
AcDbEntity
  8
MO_001_VIEW_PV
  6
BYBLOCK
100
AcDbTrace
 10
3.318259999999999
 20
21.58351199999999
 30
0.0
 11
0.508
 21
21.0
 31
0.0
 12
3.318259999999999
 22
20.416488
 32
0.0
 13
3.318259999999999
 23
20.416488
 33
0.0
  0
SOLID
  5
18E
330
158
100
AcDbEntity
  8
MO_001_VIEW_PV
  6
BYBLOCK
100
AcDbTrace
 10
8.681741
 20
20.416488
 30
0.0
 11
11.492001
 21
21.0
 31
0.0
 12
8.681741
 22
21.58351199999999
 32
0.0
 13
8.681741
 23
21.58351199999999
 33
0.0
  0
LINE
  5
18F
330
158
100
AcDbEntity
  8
MO_001_VIEW_PV
  6
BYBLOCK
100
AcDbLine
 10
0.0
 20
7.5
 30
0.0
 11
0.0
 21
23.28599899999999
 31
0.0
  0
LINE
  5
190
330
158
100
AcDbEntity
  8
MO_001_VIEW_PV
  6
BYBLOCK
100
AcDbLine
 10
12.000001
 20
1.050000999999999
 30
0.0
 11
12.000001
 21
23.28599899999999
 31
0.0
  0
ENDBLK
  5
191
330
158
100
AcDbEntity
  8
0
100
AcDbBlockEnd
  0
BLOCK
  5
192
330
15A
100
AcDbEntity
  8
0
100
AcDbBlockBegin
  2
*D1
 70
     1
 10
0.0
 20
0.0
 30
0.0
  3
*D1
  1

  0
TEXT
  5
193
330
15A
100
AcDbEntity
  8
MO_001_VIEW_PV
  6
BYBLOCK
100
AcDbText
 10
-14.785714
 20
23.625
 30
0.0
 40
1.5
  1
%%P0.5
100
AcDbText
  0
TEXT
  5
194
330
15A
100
AcDbEntity
  8
MO_001_VIEW_PV
  6
BYBLOCK
100
AcDbText
 10
-20.571429
 20
21.75
 30
0.0
 40
3.0
  1
30
100
AcDbText
  0
LINE
  5
195
330
15A
100
AcDbEntity
  8
MO_001_VIEW_PV
  6
BYBLOCK
100
AcDbLine
 10
0.0
 20
21.0
 30
0.0
 11
-30.0
 21
21.0
 31
0.0
  0
SOLID
  5
196
330
15A
100
AcDbEntity
  8
MO_001_VIEW_PV
  6
BYBLOCK
100
AcDbTrace
 10
-3.318259999999999
 20
20.416488
 30
0.0
 11
-0.508
 21
21.0
 31
0.0
 12
-3.318259999999999
 22
21.58351199999999
 32
0.0
 13
-3.318259999999999
 23
21.58351199999999
 33
0.0
  0
SOLID
  5
197
330
15A
100
AcDbEntity
  8
MO_001_VIEW_PV
  6
BYBLOCK
100
AcDbTrace
 10
-26.68174
 20
21.58351199999999
 30
0.0
 11
-29.49199999999999
 21
21.0
 31
0.0
 12
-26.68174
 22
20.416488
 32
0.0
 13
-26.68174
 23
20.416488
 33
0.0
  0
LINE
  5
198
330
15A
100
AcDbEntity
  8
MO_001_VIEW_PV
  6
BYBLOCK
100
AcDbLine
 10
0.0
 20
7.5
 30
0.0
 11
0.0
 21
23.28599899999999
 31
0.0
  0
LINE
  5
199
330
15A
100
AcDbEntity
  8
MO_001_VIEW_PV
  6
BYBLOCK
100
AcDbLine
 10
-30.0
 20
8.5
 30
0.0
 11
-30.0
 21
23.28599899999999
 31
0.0
  0
ENDBLK
  5
19A
330
15A
100
AcDbEntity
  8
0
100
AcDbBlockEnd
  0
BLOCK
  5
19B
330
15C
100
AcDbEntity
  8
0
100
AcDbBlockBegin
  2
*D2
 70
     1
 10
0.0
 20
0.0
 30
0.0
  3
*D2
  1

  0
TEXT
  5
19C
330
15C
100
AcDbEntity
  8
MO_001_VIEW_PV
  6
BYBLOCK
100
AcDbText
 10
-46.285714
 20
23.625
 30
0.0
 40
1.5
  1
%%P0.5
100
AcDbText
  0
TEXT
  5
19D
330
15C
100
AcDbEntity
  8
MO_001_VIEW_PV
  6
BYBLOCK
100
AcDbText
 10
-49.071429
 20
21.75
 30
0.0
 40
3.0
  1
9
100
AcDbText
  0
LINE
  5
19E
330
15C
100
AcDbEntity
  8
MO_001_VIEW_PV
  6
BYBLOCK
100
AcDbLine
 10
-39.0
 20
21.0
 30
0.0
 11
-30.0
 21
21.0
 31
0.0
  0
LINE
  5
19F
330
15C
100
AcDbEntity
  8
MO_001_VIEW_PV
  6
BYBLOCK
100
AcDbLine
 10
-39.0
 20
21.0
 30
0.0
 11
-45.35
 21
21.0
 31
0.0
  0
LINE
  5
1A0
330
15C
100
AcDbEntity
  8
MO_001_VIEW_PV
  6
BYBLOCK
100
AcDbLine
 10
-30.0
 20
21.0
 30
0.0
 11
-23.64999999999999
 21
21.0
 31
0.0
  0
SOLID
  5
1A1
330
15C
100
AcDbEntity
  8
MO_001_VIEW_PV
  6
BYBLOCK
100
AcDbTrace
 10
-42.31825999999999
 20
20.416488
 30
0.0
 11
-39.508
 21
21.0
 31
0.0
 12
-42.31825999999999
 22
21.58351199999999
 32
0.0
 13
-42.31825999999999
 23
21.58351199999999
 33
0.0
  0
SOLID
  5
1A2
330
15C
100
AcDbEntity
  8
MO_001_VIEW_PV
  6
BYBLOCK
100
AcDbTrace
 10
-26.68174
 20
21.58351199999999
 30
0.0
 11
-29.49199999999999
 21
21.0
 31
0.0
 12
-26.68174
 22
20.416488
 32
0.0
 13
-26.68174
 23
20.416488
 33
0.0
  0
LINE
  5
1A3
330
15C
100
AcDbEntity
  8
MO_001_VIEW_PV
  6
BYBLOCK
100
AcDbLine
 10
-39.0
 20
1.05
 30
0.0
 11
-39.0
 21
23.28599899999999
 31
0.0
  0
LINE
  5
1A4
330
15C
100
AcDbEntity
  8
MO_001_VIEW_PV
  6
BYBLOCK
100
AcDbLine
 10
-30.0
 20
8.5
 30
0.0
 11
-30.0
 21
23.28599899999999
 31
0.0
  0
LINE
  5
1A5
330
15C
100
AcDbEntity
  8
MO_001_VIEW_PV
  6
BYBLOCK
100
AcDbLine
 10
-50.035713
 20
21.0
 30
0.0
 11
-39.0
 21
21.0
 31
0.0
  0
ENDBLK
  5
1A6
330
15C
100
AcDbEntity
  8
0
100
AcDbBlockEnd
  0
BLOCK
  5
1A7
330
15E
100
AcDbEntity
  8
0
100
AcDbBlockBegin
  2
*D3
 70
     1
 10
0.0
 20
0.0
 30
0.0
  3
*D3
  1

  0
TEXT
  5
1A8
330
15E
100
AcDbEntity
  8
MO_001_VIEW_PV
  6
BYBLOCK
100
AcDbText
 10
-52.28571399999999
 20
17.625
 30
0.0
 40
1.5
  1
%%P0.3
100
AcDbText
  0
TEXT
  5
1A9
330
15E
100
AcDbEntity
  8
MO_001_VIEW_PV
  6
BYBLOCK
100
AcDbText
 10
-55.071429
 20
15.75
 30
0.0
 40
3.0
  1
3
100
AcDbText
  0
LINE
  5
1AA
330
15E
100
AcDbEntity
  8
MO_001_VIEW_PV
  6
BYBLOCK
100
AcDbLine
 10
-39.0
 20
15.0
 30
0.0
 11
-42.0
 21
15.0
 31
0.0
  0
LINE
  5
1AB
330
15E
100
AcDbEntity
  8
MO_001_VIEW_PV
  6
BYBLOCK
100
AcDbLine
 10
-39.0
 20
15.0
 30
0.0
 11
-32.65
 21
15.0
 31
0.0
  0
LINE
  5
1AC
330
15E
100
AcDbEntity
  8
MO_001_VIEW_PV
  6
BYBLOCK
100
AcDbLine
 10
-42.0
 20
15.0
 30
0.0
 11
-48.35
 21
15.0
 31
0.0
  0
SOLID
  5
1AD
330
15E
100
AcDbEntity
  8
MO_001_VIEW_PV
  6
BYBLOCK
100
AcDbTrace
 10
-35.68174
 20
15.58351199999999
 30
0.0
 11
-38.49199999999999
 21
15.0
 31
0.0
 12
-35.68174
 22
14.416488
 32
0.0
 13
-35.68174
 23
14.416488
 33
0.0
  0
SOLID
  5
1AE
330
15E
100
AcDbEntity
  8
MO_001_VIEW_PV
  6
BYBLOCK
100
AcDbTrace
 10
-45.31825999999999
 20
14.416488
 30
0.0
 11
-42.508
 21
15.0
 31
0.0
 12
-45.31825999999999
 22
15.58351199999999
 32
0.0
 13
-45.31825999999999
 23
15.58351199999999
 33
0.0
  0
LINE
  5
1AF
330
15E
100
AcDbEntity
  8
MO_001_VIEW_PV
  6
BYBLOCK
100
AcDbLine
 10
-39.0
 20
1.05
 30
0.0
 11
-39.0
 21
17.285999
 31
0.0
  0
LINE
  5
1B0
330
15E
100
AcDbEntity
  8
MO_001_VIEW_PV
  6
BYBLOCK
100
AcDbLine
 10
-42.0
 20
1.05
 30
0.0
 11
-42.0
 21
17.285999
 31
0.0
  0
LINE
  5
1B1
330
15E
100
AcDbEntity
  8
MO_001_VIEW_PV
  6
BYBLOCK
100
AcDbLine
 10
-42.0
 20
15.0
 30
0.0
 11
-56.035713
 21
15.0
 31
0.0
  0
ENDBLK
  5
1B2
330
15E
100
AcDbEntity
  8
0
100
AcDbBlockEnd
  0
BLOCK
  5
1B3
330
160
100
AcDbEntity
  8
0
100
AcDbBlockBegin
  2
*D4
 70
     1
 10
0.0
 20
0.0
 30
0.0
  3
*D4
  1

  0
LINE
  5
1B4
330
160
100
AcDbEntity
  8
MO_001_VIEW_PV
  6
BYBLOCK
100
AcDbLine
 10
-57.0
 20
-8.5
 30
0.0
 11
-57.0
 21
8.5
 31
0.0
  0
SOLID
  5
1B5
330
160
100
AcDbEntity
  8
MO_001_VIEW_PV
  6
BYBLOCK
100
AcDbTrace
 10
-57.58351199999999
 20
-5.18174
 30
0.0
 11
-57.0
 21
-7.992
 31
0.0
 12
-56.416488
 22
-5.18174
 32
0.0
 13
-56.416488
 23
-5.18174
 33
0.0
  0
SOLID
  5
1B6
330
160
100
AcDbEntity
  8
MO_001_VIEW_PV
  6
BYBLOCK
100
AcDbTrace
 10
-56.416488
 20
5.18174
 30
0.0
 11
-57.0
 21
7.992
 31
0.0
 12
-57.58351199999999
 22
5.18174
 32
0.0
 13
-57.58351199999999
 23
5.18174
 33
0.0
  0
LINE
  5
1B7
330
160
100
AcDbEntity
  8
MO_001_VIEW_PV
  6
BYBLOCK
100
AcDbLine
 10
-64.5
 20
-8.5
 30
0.0
 11
-54.713997
 21
-8.5
 31
0.0
  0
LINE
  5
1B8
330
160
100
AcDbEntity
  8
MO_001_VIEW_PV
  6
BYBLOCK
100
AcDbLine
 10
-64.5
 20
8.5
 30
0.0
 11
-54.713997
 21
8.5
 31
0.0
  0
TEXT
  5
1B9
330
160
100
AcDbEntity
  8
MO_001_VIEW_PV
  6
BYBLOCK
100
AcDbText
 10
-59.625
 20
0.214286
 30
0.0
 40
1.5
  1
%%P0.5
 50
90.0
100
AcDbText
  0
TEXT
  5
1BA
330
160
100
AcDbEntity
  8
MO_001_VIEW_PV
  6
BYBLOCK
100
AcDbText
 10
-57.75
 20
-5.571429
 30
0.0
 40
3.0
  1
17
 50
90.0
100
AcDbText
  0
ENDBLK
  5
1BB
330
160
100
AcDbEntity
  8
0
100
AcDbBlockEnd
  0
BLOCK
  5
1BC
330
162
100
AcDbEntity
  8
0
100
AcDbBlockBegin
  2
*D5
 70
     1
 10
0.0
 20
0.0
 30
0.0
  3
*D5
  1

  0
LINE
  5
1BD
330
162
100
AcDbEntity
  8
MO_001_VIEW_PV
  6
BYBLOCK
100
AcDbLine
 10
-79.5
 20
-18.0
 30
0.0
 11
-64.5
 21
-18.0
 31
0.0
  0
SOLID
  5
1BE
330
162
100
AcDbEntity
  8
MO_001_VIEW_PV
  6
BYBLOCK
100
AcDbTrace
 10
-76.18174
 20
-17.416488
 30
0.0
 11
-78.992
 21
-18.0
 31
0.0
 12
-76.18174
 22
-18.58351199999999
 32
0.0
 13
-76.18174
 23
-18.58351199999999
 33
0.0
  0
SOLID
  5
1BF
330
162
100
AcDbEntity
  8
MO_001_VIEW_PV
  6
BYBLOCK
100
AcDbTrace
 10
-67.81825999999999
 20
-18.58351199999999
 30
0.0
 11
-65.00799999999999
 21
-18.0
 31
0.0
 12
-67.81825999999999
 22
-17.416488
 32
0.0
 13
-67.81825999999999
 23
-17.416488
 33
0.0
  0
LINE
  5
1C0
330
162
100
AcDbEntity
  8
MO_001_VIEW_PV
  6
BYBLOCK
100
AcDbLine
 10
-79.5
 20
-8.5
 30
0.0
 11
-79.5
 21
-20.285999
 31
0.0
  0
LINE
  5
1C1
330
162
100
AcDbEntity
  8
MO_001_VIEW_PV
  6
BYBLOCK
100
AcDbLine
 10
-64.5
 20
-8.5
 30
0.0
 11
-64.5
 21
-20.285999
 31
0.0
  0
TEXT
  5
1C2
330
162
100
AcDbEntity
  8
MO_001_VIEW_PV
  6
BYBLOCK
100
AcDbText
 10
-71.785714
 20
-15.375
 30
0.0
 40
1.5
  1
%%P0.3
100
AcDbText
  0
TEXT
  5
1C3
330
162
100
AcDbEntity
  8
MO_001_VIEW_PV
  6
BYBLOCK
100
AcDbText
 10
-77.57142900000001
 20
-17.25
 30
0.0
 40
3.0
  1
15
100
AcDbText
  0
ENDBLK
  5
1C4
330
162
100
AcDbEntity
  8
0
100
AcDbBlockEnd
  0
BLOCK
  5
1C5
330
164
100
AcDbEntity
  8
0
100
AcDbBlockBegin
  2
*D6
 70
     1
 10
0.0
 20
0.0
 30
0.0
  3
*D6
  1

  0
LINE
  5
1C6
330
164
100
AcDbEntity
  8
MO_001_VIEW_PV
  6
BYBLOCK
100
AcDbLine
 10
21.0
 20
-52.0
 30
0.0
 11
21.0
 21
-44.0
 31
0.0
  0
LINE
  5
1C7
330
164
100
AcDbEntity
  8
MO_001_VIEW_PV
  6
BYBLOCK
100
AcDbLine
 10
21.0
 20
-52.0
 30
0.0
 11
21.0
 21
-58.35
 31
0.0
  0
LINE
  5
1C8
330
164
100
AcDbEntity
  8
MO_001_VIEW_PV
  6
BYBLOCK
100
AcDbLine
 10
21.0
 20
-44.0
 30
0.0
 11
21.0
 21
-37.65
 31
0.0
  0
SOLID
  5
1C9
330
164
100
AcDbEntity
  8
MO_001_VIEW_PV
  6
BYBLOCK
100
AcDbTrace
 10
21.58351199999999
 20
-55.31825999999999
 30
0.0
 11
21.0
 21
-52.508
 31
0.0
 12
20.416488
 22
-55.31825999999999
 32
0.0
 13
20.416488
 23
-55.31825999999999
 33
0.0
  0
SOLID
  5
1CA
330
164
100
AcDbEntity
  8
MO_001_VIEW_PV
  6
BYBLOCK
100
AcDbTrace
 10
20.416488
 20
-40.68174
 30
0.0
 11
21.0
 21
-43.49199999999999
 31
0.0
 12
21.58351199999999
 22
-40.68174
 32
0.0
 13
21.58351199999999
 23
-40.68174
 33
0.0
  0
LINE
  5
1CB
330
164
100
AcDbEntity
  8
MO_001_VIEW_PV
  6
BYBLOCK
100
AcDbLine
 10
-19.5
 20
-52.0
 30
0.0
 11
23.28599899999999
 21
-52.0
 31
0.0
  0
LINE
  5
1CC
330
164
100
AcDbEntity
  8
MO_001_VIEW_PV
  6
BYBLOCK
100
AcDbLine
 10
-5.5
 20
-44.0
 30
0.0
 11
23.28599899999999
 21
-44.0
 31
0.0
  0
TEXT
  5
1CD
330
164
100
AcDbEntity
  8
MO_001_VIEW_PV
  6
BYBLOCK
100
AcDbText
 10
18.375
 20
-59.784066
 30
0.0
 40
1.5
  1
%%P0.2
 50
90.0
100
AcDbText
  0
TEXT
  5
1CE
330
164
100
AcDbEntity
  8
MO_001_VIEW_PV
  6
BYBLOCK
100
AcDbText
 10
20.24999999999999
 20
-62.56978100000001
 30
0.0
 40
3.0
  1
8
 50
90.0
100
AcDbText
  0
LINE
  5
1CF
330
164
100
AcDbEntity
  8
MO_001_VIEW_PV
  6
BYBLOCK
100
AcDbLine
 10
21.0
 20
-63.53406500000001
 30
0.0
 11
21.0
 21
-52.0
 31
0.0
  0
ENDBLK
  5
1D0
330
164
100
AcDbEntity
  8
0
100
AcDbBlockEnd
  0
BLOCK
  5
1D1
330
166
100
AcDbEntity
  8
0
100
AcDbBlockBegin
  2
*D7
 70
     1
 10
0.0
 20
0.0
 30
0.0
  3
*D7
  1

  0
LINE
  5
1D2
330
166
100
AcDbEntity
  8
MO_001_VIEW_PV
  6
BYBLOCK
100
AcDbLine
 10
-22.0
 20
-27.0
 30
0.0
 11
-8.0
 21
-27.0
 31
0.0
  0
SOLID
  5
1D3
330
166
100
AcDbEntity
  8
MO_001_VIEW_PV
  6
BYBLOCK
100
AcDbTrace
 10
-18.68173999999999
 20
-26.416488
 30
0.0
 11
-21.49199999999999
 21
-27.0
 31
0.0
 12
-18.68173999999999
 22
-27.58351199999999
 32
0.0
 13
-18.68173999999999
 23
-27.58351199999999
 33
0.0
  0
SOLID
  5
1D4
330
166
100
AcDbEntity
  8
MO_001_VIEW_PV
  6
BYBLOCK
100
AcDbTrace
 10
-11.31825999999999
 20
-27.58351199999999
 30
0.0
 11
-8.507999999999999
 21
-27.0
 31
0.0
 12
-11.31825999999999
 22
-26.416488
 32
0.0
 13
-11.31825999999999
 23
-26.416488
 33
0.0
  0
LINE
  5
1D5
330
166
100
AcDbEntity
  8
MO_001_VIEW_PV
  6
BYBLOCK
100
AcDbLine
 10
-22.0
 20
-49.5
 30
0.0
 11
-22.0
 21
-24.714001
 31
0.0
  0
LINE
  5
1D6
330
166
100
AcDbEntity
  8
MO_001_VIEW_PV
  6
BYBLOCK
100
AcDbLine
 10
-8.0
 20
-41.5
 30
0.0
 11
-8.0
 21
-24.714001
 31
0.0
  0
TEXT
  5
1D7
330
166
100
AcDbEntity
  8
MO_001_VIEW_PV
  6
BYBLOCK
100
AcDbText
 10
-14.785714
 20
-24.375
 30
0.0
 40
1.5
  1
%%P0.2
100
AcDbText
  0
TEXT
  5
1D8
330
166
100
AcDbEntity
  8
MO_001_VIEW_PV
  6
BYBLOCK
100
AcDbText
 10
-20.571429
 20
-26.25
 30
0.0
 40
3.0
  1
14
100
AcDbText
  0
ENDBLK
  5
1D9
330
166
100
AcDbEntity
  8
0
100
AcDbBlockEnd
  0
BLOCK
  5
1DA
330
168
100
AcDbEntity
  8
0
100
AcDbBlockBegin
  2
*D8
 70
     1
 10
0.0
 20
0.0
 30
0.0
  3
*D8
  1

  0
LINE
  5
1DB
330
168
100
AcDbEntity
  8
MO_001_VIEW_PV
  6
BYBLOCK
100
AcDbLine
 10
0.0
 20
-27.0
 30
0.0
 11
-8.0
 21
-27.0
 31
0.0
  0
LINE
  5
1DC
330
168
100
AcDbEntity
  8
MO_001_VIEW_PV
  6
BYBLOCK
100
AcDbLine
 10
0.0
 20
-27.0
 30
0.0
 11
6.349999999999999
 21
-27.0
 31
0.0
  0
LINE
  5
1DD
330
168
100
AcDbEntity
  8
MO_001_VIEW_PV
  6
BYBLOCK
100
AcDbLine
 10
-8.0
 20
-27.0
 30
0.0
 11
-14.35
 21
-27.0
 31
0.0
  0
SOLID
  5
1DE
330
168
100
AcDbEntity
  8
MO_001_VIEW_PV
  6
BYBLOCK
100
AcDbTrace
 10
3.318259999999999
 20
-26.416488
 30
0.0
 11
0.508
 21
-27.0
 31
0.0
 12
3.318259999999999
 22
-27.58351199999999
 32
0.0
 13
3.318259999999999
 23
-27.58351199999999
 33
0.0
  0
SOLID
  5
1DF
330
168
100
AcDbEntity
  8
MO_001_VIEW_PV
  6
BYBLOCK
100
AcDbTrace
 10
-11.31825999999999
 20
-27.58351199999999
 30
0.0
 11
-8.507999999999999
 21
-27.0
 31
0.0
 12
-11.31825999999999
 22
-26.416488
 32
0.0
 13
-11.31825999999999
 23
-26.416488
 33
0.0
  0
LINE
  5
1E0
330
168
100
AcDbEntity
  8
MO_001_VIEW_PV
  6
BYBLOCK
100
AcDbLine
 10
0.0
 20
-40.49999999999999
 30
0.0
 11
0.0
 21
-24.714001
 31
0.0
  0
LINE
  5
1E1
330
168
100
AcDbEntity
  8
MO_001_VIEW_PV
  6
BYBLOCK
100
AcDbLine
 10
-8.0
 20
-41.5
 30
0.0
 11
-8.0
 21
-24.714001
 31
0.0
  0
TEXT
  5
1E2
330
168
100
AcDbEntity
  8
MO_001_VIEW_PV
  6
BYBLOCK
100
AcDbText
 10
6.940299
 20
-24.375
 30
0.0
 40
1.5
  1
%%P0.2
100
AcDbText
  0
TEXT
  5
1E3
330
168
100
AcDbEntity
  8
MO_001_VIEW_PV
  6
BYBLOCK
100
AcDbText
 10
4.154584999999999
 20
-26.25
 30
0.0
 40
3.0
  1
8
100
AcDbText
  0
LINE
  5
1E4
330
168
100
AcDbEntity
  8
MO_001_VIEW_PV
  6
BYBLOCK
100
AcDbLine
 10
13.26172699999999
 20
-27.0
 30
0.0
 11
0.0
 21
-27.0
 31
0.0
  0
ENDBLK
  5
1E5
330
168
100
AcDbEntity
  8
0
100
AcDbBlockEnd
  0
BLOCK
  5
1E6
330
16A
100
AcDbEntity
  8
0
100
AcDbBlockBegin
  2
*D9
 70
     1
 10
0.0
 20
0.0
 30
0.0
  3
*D9
  1

  0
LINE
  5
1E7
330
16A
100
AcDbEntity
  8
MO_001_VIEW_PV
  6
BYBLOCK
100
AcDbLine
 10
-13.13286799999999
 20
-85.75000000000001
 30
0.0
 11
-13.13286799999999
 21
-55.5
 31
0.0
  0
SOLID
  5
1E8
330
16A
100
AcDbEntity
  8
MO_001_VIEW_PV
  6
BYBLOCK
100
AcDbTrace
 10
-13.716379
 20
-82.43174000000001
 30
0.0
 11
-13.13286799999999
 21
-85.242
 31
0.0
 12
-12.549356
 22
-82.43174000000001
 32
0.0
 13
-12.549356
 23
-82.43174000000001
 33
0.0
  0
SOLID
  5
1E9
330
16A
100
AcDbEntity
  8
MO_001_VIEW_PV
  6
BYBLOCK
100
AcDbTrace
 10
-12.549356
 20
-58.81826
 30
0.0
 11
-13.13286799999999
 21
-56.008
 31
0.0
 12
-13.716379
 22
-58.81826
 32
0.0
 13
-13.716379
 23
-58.81826
 33
0.0
  0
LINE
  5
1EA
330
16A
100
AcDbEntity
  8
MO_001_NOSHOW
  6
BYBLOCK
100
AcDbLine
 10
-5.200458
 20
-85.75000000000001
 30
0.0
 11
-15.418868
 21
-85.75000000000001
 31
0.0
  0
LINE
  5
1EB
330
16A
100
AcDbEntity
  8
MO_001_NOSHOW
  6
BYBLOCK
100
AcDbLine
 10
-2.0
 20
-55.5
 30
0.0
 11
-15.418868
 21
-55.5
 31
0.0
  0
TEXT
  5
1EC
330
16A
100
AcDbEntity
  8
MO_001_VIEW_PV
  6
BYBLOCK
100
AcDbText
 10
-13.88286799999999
 20
-80.69642900000001
 30
0.0
 40
3.0
  1
長さ250以上
 50
90.0
100
AcDbText
  0
ENDBLK
  5
1ED
330
16A
100
AcDbEntity
  8
0
100
AcDbBlockEnd
  0
BLOCK
  5
1EE
330
16C
100
AcDbEntity
  8
0
100
AcDbBlockBegin
  2
*D10
 70
     1
 10
0.0
 20
0.0
 30
0.0
  3
*D10
  1

  0
TEXT
  5
1EF
330
16C
100
AcDbEntity
  8
MO_001_VIEW_PV
  6
BYBLOCK
100
AcDbText
 10
17.99999899999999
 20
14.46428599999999
 30
0.0
 40
1.5
  1
%%P0.03
 50
90.0
100
AcDbText
  0
TEXT
  5
1F0
330
16C
100
AcDbEntity
  8
MO_001_VIEW_PV
  6
BYBLOCK
100
AcDbText
 10
21.0
 20
2.678570999999999
 30
0.0
 40
3.0
  1
%%C2.5
 50
90.0
100
AcDbText
  0
LINE
  5
1F1
330
16C
100
AcDbEntity
  8
MO_001_VIEW_PV
  6
BYBLOCK
100
AcDbLine
 10
24.0
 20
1.25
 30
0.0
 11
24.0
 21
-1.25
 31
0.0
  0
LINE
  5
1F2
330
16C
100
AcDbEntity
  8
MO_001_VIEW_PV
  6
BYBLOCK
100
AcDbLine
 10
24.0
 20
1.25
 30
0.0
 11
24.0
 21
7.599999999999999
 31
0.0
  0
LINE
  5
1F3
330
16C
100
AcDbEntity
  8
MO_001_VIEW_PV
  6
BYBLOCK
100
AcDbLine
 10
24.0
 20
-1.25
 30
0.0
 11
24.0
 21
-7.599999999999999
 31
0.0
  0
SOLID
  5
1F4
330
16C
100
AcDbEntity
  8
MO_001_VIEW_PV
  6
BYBLOCK
100
AcDbTrace
 10
23.416488
 20
4.568259999999999
 30
0.0
 11
24.0
 21
1.758
 31
0.0
 12
24.583512
 22
4.568259999999999
 32
0.0
 13
24.583512
 23
4.568259999999999
 33
0.0
  0
SOLID
  5
1F5
330
16C
100
AcDbEntity
  8
MO_001_VIEW_PV
  6
BYBLOCK
100
AcDbTrace
 10
24.583512
 20
-4.568259999999999
 30
0.0
 11
24.0
 21
-1.758
 31
0.0
 12
23.416488
 22
-4.568259999999999
 32
0.0
 13
23.416488
 23
-4.568259999999999
 33
0.0
  0
LINE
  5
1F6
330
16C
100
AcDbEntity
  8
MO_001_VIEW_PV
  6
BYBLOCK
100
AcDbLine
 10
11.799999
 20
1.25
 30
0.0
 11
26.285999
 21
1.25
 31
0.0
  0
LINE
  5
1F7
330
16C
100
AcDbEntity
  8
MO_001_VIEW_PV
  6
BYBLOCK
100
AcDbLine
 10
11.799999
 20
-1.25
 30
0.0
 11
26.285999
 21
-1.25
 31
0.0
  0
LINE
  5
1F8
330
16C
100
AcDbEntity
  8
MO_001_VIEW_PV
  6
BYBLOCK
100
AcDbLine
 10
24.0
 20
22.285713
 30
0.0
 11
24.0
 21
1.25
 31
0.0
  0
ENDBLK
  5
1F9
330
16C
100
AcDbEntity
  8
0
100
AcDbBlockEnd
  0
BLOCK
  5
1FA
330
16E
100
AcDbEntity
  8
0
100
AcDbBlockBegin
  2
*D11
 70
     1
 10
0.0
 20
0.0
 30
0.0
  3
*D11
  1

  0
TEXT
  5
1FB
330
16E
100
AcDbEntity
  8
MO_001_VIEW_PV
  6
BYBLOCK
100
AcDbText
 10
-50.625
 20
-10.219682
 30
0.0
 40
1.5
  1
%%P0.03
 50
90.0
100
AcDbText
  0
TEXT
  5
1FC
330
16E
100
AcDbEntity
  8
MO_001_VIEW_PV
  6
BYBLOCK
100
AcDbText
 10
-48.75
 20
-22.00539599999999
 30
0.0
 40
3.0
  1
%%C2.5
 50
90.0
100
AcDbText
  0
LINE
  5
1FD
330
16E
100
AcDbEntity
  8
MO_001_VIEW_PV
  6
BYBLOCK
100
AcDbLine
 10
-48.0
 20
1.25
 30
0.0
 11
-48.0
 21
-1.25
 31
0.0
  0
LINE
  5
1FE
330
16E
100
AcDbEntity
  8
MO_001_VIEW_PV
  6
BYBLOCK
100
AcDbLine
 10
-48.0
 20
1.25
 30
0.0
 11
-48.0
 21
7.599999999999999
 31
0.0
  0
LINE
  5
1FF
330
16E
100
AcDbEntity
  8
MO_001_VIEW_PV
  6
BYBLOCK
100
AcDbLine
 10
-48.0
 20
-1.25
 30
0.0
 11
-48.0
 21
-7.599999999999999
 31
0.0
  0
SOLID
  5
200
330
16E
100
AcDbEntity
  8
MO_001_VIEW_PV
  6
BYBLOCK
100
AcDbTrace
 10
-48.583512
 20
4.568259999999999
 30
0.0
 11
-48.0
 21
1.758
 31
0.0
 12
-47.416488
 22
4.568259999999999
 32
0.0
 13
-47.416488
 23
4.568259999999999
 33
0.0
  0
SOLID
  5
201
330
16E
100
AcDbEntity
  8
MO_001_VIEW_PV
  6
BYBLOCK
100
AcDbTrace
 10
-47.416488
 20
-4.568259999999999
 30
0.0
 11
-48.0
 21
-1.758
 31
0.0
 12
-48.583512
 22
-4.568259999999999
 32
0.0
 13
-48.583512
 23
-4.568259999999999
 33
0.0
  0
LINE
  5
202
330
16E
100
AcDbEntity
  8
MO_001_VIEW_PV
  6
BYBLOCK
100
AcDbLine
 10
-41.799999
 20
1.25
 30
0.0
 11
-50.28599899999999
 21
1.25
 31
0.0
  0
LINE
  5
203
330
16E
100
AcDbEntity
  8
MO_001_VIEW_PV
  6
BYBLOCK
100
AcDbLine
 10
-41.799999
 20
-1.25
 30
0.0
 11
-50.28599899999999
 21
-1.25
 31
0.0
  0
LINE
  5
204
330
16E
100
AcDbEntity
  8
MO_001_VIEW_PV
  6
BYBLOCK
100
AcDbLine
 10
-48.0
 20
-1.25
 30
0.0
 11
-48.0
 21
-22.969681
 31
0.0
  0
ENDBLK
  5
205
330
16E
100
AcDbEntity
  8
0
100
AcDbBlockEnd
  0
BLOCK
  5
206
330
170
100
AcDbEntity
  8
0
100
AcDbBlockBegin
  2
*D12
 70
     1
 10
0.0
 20
0.0
 30
0.0
  3
*D12
  1

  0
TEXT
  5
207
330
170
100
AcDbEntity
  8
MO_001_VIEW_PV
  6
BYBLOCK
100
AcDbText
 10
-33.75
 20
-23.911749
 30
0.0
 40
3.0
  1
t1.2
 50
90.0
100
AcDbText
  0
LINE
  5
208
330
170
100
AcDbEntity
  8
MO_001_VIEW_PV
  6
BYBLOCK
100
AcDbLine
 10
-33.0
 20
-8.5
 30
0.0
 11
-33.0
 21
-7.299999999999999
 31
0.0
  0
LINE
  5
209
330
170
100
AcDbEntity
  8
MO_001_VIEW_PV
  6
BYBLOCK
100
AcDbLine
 10
-33.0
 20
-8.5
 30
0.0
 11
-33.0
 21
-14.85
 31
0.0
  0
LINE
  5
20A
330
170
100
AcDbEntity
  8
MO_001_VIEW_PV
  6
BYBLOCK
100
AcDbLine
 10
-33.0
 20
-7.299999999999999
 30
0.0
 11
-33.0
 21
-0.95
 31
0.0
  0
SOLID
  5
20B
330
170
100
AcDbEntity
  8
MO_001_VIEW_PV
  6
BYBLOCK
100
AcDbTrace
 10
-32.416488
 20
-11.81826
 30
0.0
 11
-33.0
 21
-9.007999999999999
 31
0.0
 12
-33.58351199999999
 22
-11.81826
 32
0.0
 13
-33.58351199999999
 23
-11.81826
 33
0.0
  0
SOLID
  5
20C
330
170
100
AcDbEntity
  8
MO_001_VIEW_PV
  6
BYBLOCK
100
AcDbTrace
 10
-33.58351199999999
 20
-3.98174
 30
0.0
 11
-33.0
 21
-6.792
 31
0.0
 12
-32.416488
 22
-3.98174
 32
0.0
 13
-32.416488
 23
-3.98174
 33
0.0
  0
LINE
  5
20D
330
170
100
AcDbEntity
  8
MO_001_VIEW_PV
  6
BYBLOCK
100
AcDbLine
 10
-30.0
 20
-8.5
 30
0.0
 11
-35.28599899999999
 21
-8.5
 31
0.0
  0
LINE
  5
20E
330
170
100
AcDbEntity
  8
MO_001_VIEW_PV
  6
BYBLOCK
100
AcDbLine
 10
-30.0
 20
-7.299999999999999
 30
0.0
 11
-35.28599899999999
 21
-7.299999999999999
 31
0.0
  0
LINE
  5
20F
330
170
100
AcDbEntity
  8
MO_001_VIEW_PV
  6
BYBLOCK
100
AcDbLine
 10
-33.0
 20
-24.876034
 30
0.0
 11
-33.0
 21
-8.5
 31
0.0
  0
ENDBLK
  5
210
330
170
100
AcDbEntity
  8
0
100
AcDbBlockEnd
  0
BLOCK
  5
211
330
172
100
AcDbEntity
  8
0
100
AcDbBlockBegin
  2
*D13
 70
     1
 10
0.0
 20
0.0
 30
0.0
  3
*D13
  1

  0
TEXT
  5
212
330
172
100
AcDbEntity
  8
MO_001_VIEW_PV
  6
BYBLOCK
100
AcDbText
 10
4.928570999999999
 20
-14.25
 30
0.0
 40
3.0
  1
(0.5)
100
AcDbText
  0
LINE
  5
213
330
172
100
AcDbEntity
  8
MO_001_VIEW_PV
  6
BYBLOCK
100
AcDbLine
 10
0.0
 20
-15.0
 30
0.0
 11
0.5
 21
-15.0
 31
0.0
  0
LINE
  5
214
330
172
100
AcDbEntity
  8
MO_001_VIEW_PV
  6
BYBLOCK
100
AcDbLine
 10
0.0
 20
-15.0
 30
0.0
 11
-6.349999999999999
 21
-15.0
 31
0.0
  0
LINE
  5
215
330
172
100
AcDbEntity
  8
MO_001_VIEW_PV
  6
BYBLOCK
100
AcDbLine
 10
0.5
 20
-15.0
 30
0.0
 11
6.849999999999999
 21
-15.0
 31
0.0
  0
SOLID
  5
216
330
172
100
AcDbEntity
  8
MO_001_VIEW_PV
  6
BYBLOCK
100
AcDbTrace
 10
-3.318259999999999
 20
-15.58351199999999
 30
0.0
 11
-0.508
 21
-15.0
 31
0.0
 12
-3.318259999999999
 22
-14.416488
 32
0.0
 13
-3.318259999999999
 23
-14.416488
 33
0.0
  0
SOLID
  5
217
330
172
100
AcDbEntity
  8
MO_001_VIEW_PV
  6
BYBLOCK
100
AcDbTrace
 10
3.81826
 20
-14.416488
 30
0.0
 11
1.008
 21
-15.0
 31
0.0
 12
3.81826
 22
-15.58351199999999
 32
0.0
 13
3.81826
 23
-15.58351199999999
 33
0.0
  0
LINE
  5
218
330
172
100
AcDbEntity
  8
MO_001_VIEW_PV
  6
BYBLOCK
100
AcDbLine
 10
0.0
 20
-7.5
 30
0.0
 11
0.0
 21
-17.285999
 31
0.0
  0
LINE
  5
219
330
172
100
AcDbEntity
  8
MO_001_VIEW_PV
  6
BYBLOCK
100
AcDbLine
 10
0.5
 20
-2.399999999999999
 30
0.0
 11
0.5
 21
-17.285999
 31
0.0
  0
LINE
  5
21A
330
172
100
AcDbEntity
  8
MO_001_VIEW_PV
  6
BYBLOCK
100
AcDbLine
 10
0.5
 20
-15.0
 30
0.0
 11
20.035715
 21
-15.0
 31
0.0
  0
ENDBLK
  5
21B
330
172
100
AcDbEntity
  8
0
100
AcDbBlockEnd
  0
ENDSEC
  0
SECTION
  2
ENTITIES
  0
TEXT
  5
4B
330
1E
100
AcDbEntity
  8
OVERLAY_MAP
  6
C_SOLID_L
100
AcDbText
 10
0.0
 20
6.349999999999999
 30
0.0
 40
4.1672
  1
Model Overlay Name
100
AcDbText
  0
TEXT
  5
4C
330
1E
100
AcDbEntity
  8
OVERLAY_MAP
  6
C_SOLID_L
100
AcDbText
 10
126.999998
 20
0.0
 30
0.0
 40
4.1672
  1
Number
100
AcDbText
  0
TEXT
  5
4D
330
1E
100
AcDbEntity
  8
OVERLAY_MAP
  6
C_SOLID_L
100
AcDbText
 10
177.7999969999999
 20
0.0
 30
0.0
 40
4.1672
  1
File Text
100
AcDbText
  0
TEXT
  5
4E
330
1E
100
AcDbEntity
  8
OVERLAY_MAP
  6
C_SOLID_L
100
AcDbText
 10
0.0
 20
-6.349999999999999
 30
0.0
 40
4.1672
  1
sh2lc0730 
100
AcDbText
  0
TEXT
  5
4F
330
1E
100
AcDbEntity
  8
OVERLAY_MAP
  6
C_SOLID_L
100
AcDbText
 10
126.999998
 20
-6.349999999999999
 30
0.0
 40
4.1672
  1
001
100
AcDbText
  0
TEXT
  5
50
330
1E
100
AcDbEntity
  8
OVERLAY_MAP
  6
C_SOLID_L
100
AcDbText
 10
177.7999969999999
 20
-6.349999999999999
 30
0.0
 40
4.1672
  1
                                                                   00118
100
AcDbText
  0
LINE
  5
51
330
1E
100
AcDbEntity
  8
MO_001_VIEW_PV
  6
C_CENTER_L
100
AcDbLine
 10
-42.71809799999999
 20
0.0
 30
0.0
 11
12.907433
 21
0.0
 31
0.0
  0
LINE
  5
52
330
1E
100
AcDbEntity
  8
MO_001_VIEW_PV
  6
C_SOLID_M
100
AcDbLine
 10
0.0
 20
7.5
 30
0.0
 11
0.0
 21
-7.5
 31
0.0
  0
LINE
  5
53
330
1E
100
AcDbEntity
  8
MO_001_VIEW_PV
  6
C_SOLID_M
100
AcDbLine
 10
-30.0
 20
8.5
 30
0.0
 11
-30.0
 21
7.299999999999999
 31
0.0
  0
LINE
  5
54
330
1E
100
AcDbEntity
  8
MO_001_VIEW_PV
  6
C_SOLID_M
100
AcDbLine
 10
-30.0
 20
7.299999999999999
 30
0.0
 11
-1.5
 21
7.299999999999999
 31
0.0
  0
LINE
  5
55
330
1E
100
AcDbEntity
  8
MO_001_VIEW_PV
  6
C_SOLID_M
100
AcDbLine
 10
-30.0
 20
8.5
 30
0.0
 11
-1.0
 21
8.5
 31
0.0
  0
LINE
  5
56
330
1E
100
AcDbEntity
  8
MO_001_VIEW_PV
  6
C_SOLID_M
100
AcDbLine
 10
-1.199999999999999
 20
7.0
 30
0.0
 11
-1.199999999999999
 21
-7.0
 31
0.0
  0
ARC
  5
57
330
1E
100
AcDbEntity
  8
MO_001_VIEW_PV
  6
C_SOLID_M
100
AcDbCircle
 10
-1.0
 20
7.5
 30
0.0
 40
1.0
100
AcDbArc
 50
0.0
 51
89.99998900000001
  0
LINE
  5
58
330
1E
100
AcDbEntity
  8
MO_001_VIEW_PV
  6
C_SOLID_M
100
AcDbLine
 10
-2.0
 20
8.5
 30
0.0
 11
-2.0
 21
7.299999999999999
 31
0.0
  0
LINE
  5
59
330
1E
100
AcDbEntity
  8
MO_001_VIEW_PV
  6
C_SOLID_M
100
AcDbLine
 10
0.0
 20
6.5
 30
0.0
 11
-1.199999999999999
 21
6.5
 31
0.0
  0
LINE
  5
5A
330
1E
100
AcDbEntity
  8
MO_001_VIEW_PV
  6
C_SOLID_M
100
AcDbLine
 10
-30.0
 20
-8.5
 30
0.0
 11
-30.0
 21
-7.299999999999999
 31
0.0
  0
LINE
  5
5B
330
1E
100
AcDbEntity
  8
MO_001_VIEW_PV
  6
C_SOLID_M
100
AcDbLine
 10
-30.0
 20
-7.299999999999999
 30
0.0
 11
-1.5
 21
-7.299999999999999
 31
0.0
  0
LINE
  5
5C
330
1E
100
AcDbEntity
  8
MO_001_VIEW_PV
  6
C_SOLID_M
100
AcDbLine
 10
-30.0
 20
-8.5
 30
0.0
 11
-1.0
 21
-8.5
 31
0.0
  0
ARC
  5
5D
330
1E
100
AcDbEntity
  8
MO_001_VIEW_PV
  6
C_SOLID_M
100
AcDbCircle
 10
-1.0
 20
-7.5
 30
0.0
 40
1.0
100
AcDbArc
 50
270.0000109999999
 51
359.999996
  0
LINE
  5
5E
330
1E
100
AcDbEntity
  8
MO_001_VIEW_PV
  6
C_SOLID_M
100
AcDbLine
 10
-2.0
 20
-8.5
 30
0.0
 11
-2.0
 21
-7.299999999999999
 31
0.0
  0
LINE
  5
5F
330
1E
100
AcDbEntity
  8
MO_001_VIEW_PV
  6
C_SOLID_M
100
AcDbLine
 10
0.0
 20
-6.5
 30
0.0
 11
-1.199999999999999
 21
-6.5
 31
0.0
  0
LINE
  5
60
330
1E
100
AcDbEntity
  8
MO_001_VIEW_PV
  6
C_CENTER_L
100
AcDbLine
 10
-8.0
 20
-10.5
 30
0.0
 11
-8.0
 21
-5.299999999999999
 31
0.0
  0
LINE
  5
61
330
1E
100
AcDbEntity
  8
MO_001_VIEW_PV
  6
C_CENTER_L
100
AcDbLine
 10
-22.0
 20
-10.5
 30
0.0
 11
-22.0
 21
-5.299999999999999
 31
0.0
  0
LINE
  5
62
330
1E
100
AcDbEntity
  8
MO_001_VIEW_PV
  6
C_SOLID_M
100
AcDbLine
 10
-23.2295
 20
-7.78
 30
0.0
 11
-23.2295
 21
-7.54
 31
0.0
  0
LINE
  5
63
330
1E
100
AcDbEntity
  8
MO_001_VIEW_PV
  6
C_SOLID_M
100
AcDbLine
 10
-23.2295
 20
-8.259999
 30
0.0
 11
-23.2295
 21
-8.019999999999999
 31
0.0
  0
LINE
  5
64
330
1E
100
AcDbEntity
  8
MO_001_VIEW_PV
  6
C_CENTER_L
100
AcDbLine
 10
-41.0
 20
-48.0
 30
0.0
 11
15.0
 21
-48.0
 31
0.0
  0
LINE
  5
65
330
1E
100
AcDbEntity
  8
MO_001_VIEW_PV
  6
C_SOLID_M
100
AcDbLine
 10
-1.199999999999999
 20
-55.5
 30
0.0
 11
0.0
 21
-55.5
 31
0.0
  0
LINE
  5
66
330
1E
100
AcDbEntity
  8
MO_001_VIEW_PV
  6
C_SOLID_M
100
AcDbLine
 10
-30.0
 20
-55.5
 30
0.0
 11
-30.0
 21
-51.529999
 31
0.0
  0
LINE
  5
67
330
1E
100
AcDbEntity
  8
MO_001_VIEW_PV
  6
C_SOLID_M
100
AcDbLine
 10
-30.0
 20
-51.529999
 30
0.0
 11
-27.5
 21
-51.529999
 31
0.0
  0
LINE
  5
68
330
1E
100
AcDbEntity
  8
MO_001_VIEW_PV
  6
C_SOLID_M
100
AcDbLine
 10
-27.499999
 20
-51.52999099999999
 30
0.0
 11
-27.79999699999999
 21
-50.729994
 31
0.0
  0
LINE
  5
69
330
1E
100
AcDbEntity
  8
MO_001_VIEW_PV
  6
C_SOLID_M
100
AcDbLine
 10
-1.199999999999999
 20
-55.5
 30
0.0
 11
-1.199999999999999
 21
-55.19999699999999
 31
0.0
  0
LINE
  5
6A
330
1E
100
AcDbEntity
  8
MO_001_VIEW_PV
  6
C_SOLID_M
100
AcDbLine
 10
-2.0
 20
-55.19999699999999
 30
0.0
 11
0.0
 21
-55.19999699999999
 31
0.0
  0
LINE
  5
6B
330
1E
100
AcDbEntity
  8
MO_001_VIEW_PV
  6
C_SOLID_M
100
AcDbLine
 10
-2.0
 20
-55.5
 30
0.0
 11
-2.0
 21
-55.19999699999999
 31
0.0
  0
LINE
  5
6C
330
1E
100
AcDbEntity
  8
MO_001_VIEW_PV
  6
C_SOLID_M
100
AcDbLine
 10
-30.0
 20
-55.5
 30
0.0
 11
-2.0
 21
-55.5
 31
0.0
  0
LINE
  5
6D
330
1E
100
AcDbEntity
  8
MO_001_VIEW_PV
  6
C_SOLID_M
100
AcDbLine
 10
0.0
 20
-40.49999999999999
 30
0.0
 11
0.0
 21
-55.5
 31
0.0
  0
LINE
  5
6E
330
1E
100
AcDbEntity
  8
MO_001_VIEW_PV
  6
C_SOLID_M
100
AcDbLine
 10
-1.199999999999999
 20
-40.49999999999999
 30
0.0
 11
0.0
 21
-40.49999999999999
 31
0.0
  0
LINE
  5
6F
330
1E
100
AcDbEntity
  8
MO_001_VIEW_PV
  6
C_SOLID_M
100
AcDbLine
 10
-30.0
 20
-40.49999999999999
 30
0.0
 11
-30.0
 21
-44.470001
 31
0.0
  0
LINE
  5
70
330
1E
100
AcDbEntity
  8
MO_001_VIEW_PV
  6
C_SOLID_M
100
AcDbLine
 10
-30.0
 20
-44.470001
 30
0.0
 11
-27.5
 21
-44.470001
 31
0.0
  0
LINE
  5
71
330
1E
100
AcDbEntity
  8
MO_001_VIEW_PV
  6
C_SOLID_M
100
AcDbLine
 10
-27.79999899999999
 20
-44.470001
 30
0.0
 11
-27.79999899999999
 21
-51.529999
 31
0.0
  0
LINE
  5
72
330
1E
100
AcDbEntity
  8
MO_001_VIEW_PV
  6
C_SOLID_M
100
AcDbLine
 10
-27.49999799999999
 20
-44.470002
 30
0.0
 11
-27.799995
 21
-45.269995
 31
0.0
  0
LINE
  5
73
330
1E
100
AcDbEntity
  8
MO_001_VIEW_PV
  6
C_SOLID_M
100
AcDbLine
 10
-1.199999999999999
 20
-40.49999999999999
 30
0.0
 11
-1.199999999999999
 21
-40.800003
 31
0.0
  0
LINE
  5
74
330
1E
100
AcDbEntity
  8
MO_001_VIEW_PV
  6
C_SOLID_M
100
AcDbLine
 10
-2.0
 20
-40.800003
 30
0.0
 11
0.0
 21
-40.800003
 31
0.0
  0
LINE
  5
75
330
1E
100
AcDbEntity
  8
MO_001_VIEW_PV
  6
C_SOLID_M
100
AcDbLine
 10
-2.0
 20
-40.49999999999999
 30
0.0
 11
-2.0
 21
-40.800003
 31
0.0
  0
LINE
  5
76
330
1E
100
AcDbEntity
  8
MO_001_VIEW_PV
  6
C_SOLID_M
100
AcDbLine
 10
-30.0
 20
-40.49999999999999
 30
0.0
 11
-2.0
 21
-40.49999999999999
 31
0.0
  0
CIRCLE
  5
77
330
1E
100
AcDbEntity
  8
MO_001_VIEW_PV
  6
C_SOLID_L
100
AcDbCircle
 10
-8.0
 20
-44.0
 30
0.0
 40
1.5
  0
CIRCLE
  5
78
330
1E
100
AcDbEntity
  8
MO_001_VIEW_PV
  6
C_SOLID_L
100
AcDbCircle
 10
-22.0
 20
-52.0
 30
0.0
 40
1.5
  0
CIRCLE
  5
79
330
1E
100
AcDbEntity
  8
MO_001_VIEW_PV
  6
C_SOLID_M
100
AcDbCircle
 10
-8.0
 20
-44.0
 30
0.0
 40
1.2295
  0
CIRCLE
  5
7A
330
1E
100
AcDbEntity
  8
MO_001_VIEW_PV
  6
C_SOLID_M
100
AcDbCircle
 10
-22.0
 20
-52.0
 30
0.0
 40
1.2295
  0
LINE
  5
7B
330
1E
100
AcDbEntity
  8
MO_001_VIEW_PV
  6
C_CENTER_L
100
AcDbLine
 10
-10.5
 20
-44.0
 30
0.0
 11
-5.5
 21
-44.0
 31
0.0
  0
LINE
  5
7C
330
1E
100
AcDbEntity
  8
MO_001_VIEW_PV
  6
C_CENTER_L
100
AcDbLine
 10
-24.5
 20
-52.0
 30
0.0
 11
-19.5
 21
-52.0
 31
0.0
  0
LINE
  5
7D
330
1E
100
AcDbEntity
  8
MO_001_VIEW_PV
  6
C_CENTER_L
100
AcDbLine
 10
-22.0
 20
-54.5
 30
0.0
 11
-22.0
 21
-49.5
 31
0.0
  0
LINE
  5
7E
330
1E
100
AcDbEntity
  8
MO_001_VIEW_PV
  6
C_CENTER_L
100
AcDbLine
 10
-8.0
 20
-46.5
 30
0.0
 11
-8.0
 21
-41.5
 31
0.0
  0
LINE
  5
7F
330
1E
100
AcDbEntity
  8
MO_001_VIEW_PV
  6
C_SOLID_M
100
AcDbLine
 10
-64.5
 20
-8.5
 30
0.0
 11
-79.5
 21
-8.5
 31
0.0
  0
LINE
  5
80
330
1E
100
AcDbEntity
  8
MO_001_VIEW_PV
  6
C_SOLID_M
100
AcDbLine
 10
-64.5
 20
8.5
 30
0.0
 11
-79.5
 21
8.5
 31
0.0
  0
LINE
  5
81
330
1E
100
AcDbEntity
  8
MO_001_VIEW_PV
  6
C_CENTER_L
100
AcDbLine
 10
-72.0
 20
-10.0
 30
0.0
 11
-72.0
 21
10.0
 31
0.0
  0
LINE
  5
82
330
1E
100
AcDbEntity
  8
MO_001_VIEW_PV
  6
C_CENTER_L
100
AcDbLine
 10
-81.0
 20
0.0
 30
0.0
 11
-63.0
 21
0.0
 31
0.0
  0
ARC
  5
83
330
1E
100
AcDbEntity
  8
MO_001_VIEW_PV
  6
C_SOLID_M
100
AcDbCircle
 10
-1.5
 20
7.0
 30
0.0
 40
0.3
100
AcDbArc
 50
0.0
 51
89.99998900000001
  0
ARC
  5
84
330
1E
100
AcDbEntity
  8
MO_001_VIEW_PV
  6
C_SOLID_M
100
AcDbCircle
 10
-1.5
 20
-7.0
 30
0.0
 40
0.3
100
AcDbArc
 50
269.999998
 51
0.000003
  0
LINE
  5
85
330
1E
100
AcDbEntity
  8
MO_001_VIEW_PV
  6
C_SOLID_M
100
AcDbLine
 10
-23.5
 20
-7.78
 30
0.0
 11
-23.5
 21
-7.54
 31
0.0
  0
LINE
  5
86
330
1E
100
AcDbEntity
  8
MO_001_VIEW_PV
  6
C_SOLID_M
100
AcDbLine
 10
-23.5
 20
-8.259999
 30
0.0
 11
-23.5
 21
-8.019999999999999
 31
0.0
  0
LINE
  5
87
330
1E
100
AcDbEntity
  8
MO_001_VIEW_PV
  6
C_SOLID_M
100
AcDbLine
 10
-20.5
 20
-7.78
 30
0.0
 11
-20.5
 21
-7.54
 31
0.0
  0
LINE
  5
88
330
1E
100
AcDbEntity
  8
MO_001_VIEW_PV
  6
C_SOLID_M
100
AcDbLine
 10
-20.5
 20
-8.259999
 30
0.0
 11
-20.5
 21
-8.019999999999999
 31
0.0
  0
LINE
  5
89
330
1E
100
AcDbEntity
  8
MO_001_VIEW_PV
  6
C_SOLID_M
100
AcDbLine
 10
-20.77049999999999
 20
-7.78
 30
0.0
 11
-20.77049999999999
 21
-7.54
 31
0.0
  0
LINE
  5
8A
330
1E
100
AcDbEntity
  8
MO_001_VIEW_PV
  6
C_SOLID_M
100
AcDbLine
 10
-20.77049999999999
 20
-8.259999
 30
0.0
 11
-20.77049999999999
 21
-8.019999999999999
 31
0.0
  0
LINE
  5
8B
330
1E
100
AcDbEntity
  8
MO_001_VIEW_PV
  6
C_SOLID_M
100
AcDbLine
 10
-9.229499999999999
 20
-7.78
 30
0.0
 11
-9.229499999999999
 21
-7.54
 31
0.0
  0
LINE
  5
8C
330
1E
100
AcDbEntity
  8
MO_001_VIEW_PV
  6
C_SOLID_M
100
AcDbLine
 10
-9.229499999999999
 20
-8.259999
 30
0.0
 11
-9.229499999999999
 21
-8.019999999999999
 31
0.0
  0
LINE
  5
8D
330
1E
100
AcDbEntity
  8
MO_001_VIEW_PV
  6
C_SOLID_M
100
AcDbLine
 10
-9.5
 20
-7.78
 30
0.0
 11
-9.5
 21
-7.54
 31
0.0
  0
LINE
  5
8E
330
1E
100
AcDbEntity
  8
MO_001_VIEW_PV
  6
C_SOLID_M
100
AcDbLine
 10
-9.5
 20
-8.259999
 30
0.0
 11
-9.5
 21
-8.019999999999999
 31
0.0
  0
LINE
  5
8F
330
1E
100
AcDbEntity
  8
MO_001_VIEW_PV
  6
C_SOLID_M
100
AcDbLine
 10
-6.5
 20
-7.78
 30
0.0
 11
-6.5
 21
-7.54
 31
0.0
  0
LINE
  5
90
330
1E
100
AcDbEntity
  8
MO_001_VIEW_PV
  6
C_SOLID_M
100
AcDbLine
 10
-6.5
 20
-8.259999
 30
0.0
 11
-6.5
 21
-8.019999999999999
 31
0.0
  0
LINE
  5
91
330
1E
100
AcDbEntity
  8
MO_001_VIEW_PV
  6
C_SOLID_M
100
AcDbLine
 10
-6.7705
 20
-7.78
 30
0.0
 11
-6.7705
 21
-7.54
 31
0.0
  0
LINE
  5
92
330
1E
100
AcDbEntity
  8
MO_001_VIEW_PV
  6
C_SOLID_M
100
AcDbLine
 10
-6.7705
 20
-8.259999
 30
0.0
 11
-6.7705
 21
-8.019999999999999
 31
0.0
  0
LINE
  5
93
330
1E
100
AcDbEntity
  8
MO_001_VIEW_PV
  6
C_SOLID_M
100
AcDbLine
 10
0.5
 20
-2.399999999999999
 30
0.0
 11
0.5
 21
2.399999999999999
 31
0.0
  0
LINE
  5
94
330
1E
100
AcDbEntity
  8
MO_001_VIEW_PV
  6
C_SOLID_M
100
AcDbLine
 10
0.4
 20
-2.5
 30
0.0
 11
0.0
 21
-2.5
 31
0.0
  0
LINE
  5
95
330
1E
100
AcDbEntity
  8
MO_001_VIEW_PV
  6
C_SOLID_M
100
AcDbLine
 10
0.4
 20
2.5
 30
0.0
 11
0.0
 21
2.5
 31
0.0
  0
LINE
  5
96
330
1E
100
AcDbEntity
  8
MO_001_VIEW_PV
  6
C_SOLID_M
100
AcDbLine
 10
0.5
 20
2.399999999999999
 30
0.0
 11
0.4
 21
2.5
 31
0.0
  0
LINE
  5
97
330
1E
100
AcDbEntity
  8
MO_001_VIEW_PV
  6
C_SOLID_M
100
AcDbLine
 10
-75.5
 20
8.5
 30
0.0
 11
-75.5
 21
7.299999999999999
 31
0.0
  0
LINE
  5
98
330
1E
100
AcDbEntity
  8
MO_001_VIEW_PV
  6
C_SOLID_M
100
AcDbLine
 10
-68.5
 20
8.5
 30
0.0
 11
-68.5
 21
7.299999999999999
 31
0.0
  0
LINE
  5
99
330
1E
100
AcDbEntity
  8
MO_001_VIEW_PV
  6
C_SOLID_M
100
AcDbLine
 10
-75.5
 20
-8.5
 30
0.0
 11
-75.5
 21
-7.299999999999999
 31
0.0
  0
LINE
  5
9A
330
1E
100
AcDbEntity
  8
MO_001_VIEW_PV
  6
C_SOLID_M
100
AcDbLine
 10
-68.5
 20
-8.5
 30
0.0
 11
-68.5
 21
-7.299999999999999
 31
0.0
  0
CIRCLE
  5
9B
330
1E
100
AcDbEntity
  8
MO_001_VIEW_PV
  6
C_SOLID_M
100
AcDbCircle
 10
-72.0
 20
0.0
 30
0.0
 40
2.5
  0
LINE
  5
9C
330
1E
100
AcDbEntity
  8
MO_001_VIEW_PV
  6
C_SOLID_M
100
AcDbLine
 10
-79.5
 20
8.5
 30
0.0
 11
-79.5
 21
-8.5
 31
0.0
  0
LINE
  5
9D
330
1E
100
AcDbEntity
  8
MO_001_VIEW_PV
  6
C_SOLID_M
100
AcDbLine
 10
-79.5
 20
-7.299999999999999
 30
0.0
 11
-75.349998
 21
-7.299999999999999
 31
0.0
  0
LINE
  5
9E
330
1E
100
AcDbEntity
  8
MO_001_VIEW_PV
  6
C_SOLID_M
100
AcDbLine
 10
-75.5
 20
-8.4
 30
0.0
 11
-68.5
 21
-8.4
 31
0.0
  0
LINE
  5
9F
330
1E
100
AcDbEntity
  8
MO_001_VIEW_PV
  6
C_SOLID_M
100
AcDbLine
 10
-75.49995799999999
 20
-8.4
 30
0.0
 11
-75.349958
 21
-7.299999999999999
 31
0.0
  0
LINE
  5
A0
330
1E
100
AcDbEntity
  8
MO_001_VIEW_PV
  6
C_SOLID_M
100
AcDbLine
 10
-79.5
 20
7.299999999999999
 30
0.0
 11
-75.349998
 21
7.299999999999999
 31
0.0
  0
LINE
  5
A1
330
1E
100
AcDbEntity
  8
MO_001_VIEW_PV
  6
C_SOLID_M
100
AcDbLine
 10
-75.49995799999999
 20
8.4
 30
0.0
 11
-75.349958
 21
7.299999999999999
 31
0.0
  0
LINE
  5
A2
330
1E
100
AcDbEntity
  8
MO_001_VIEW_PV
  6
C_SOLID_M
100
AcDbLine
 10
-64.5
 20
-7.299999999999999
 30
0.0
 11
-68.650002
 21
-7.299999999999999
 31
0.0
  0
LINE
  5
A3
330
1E
100
AcDbEntity
  8
MO_001_VIEW_PV
  6
C_SOLID_M
100
AcDbLine
 10
-68.49996400000001
 20
-8.399995
 30
0.0
 11
-68.64996399999999
 21
-7.299995
 31
0.0
  0
LINE
  5
A4
330
1E
100
AcDbEntity
  8
MO_001_VIEW_PV
  6
C_SOLID_M
100
AcDbLine
 10
-64.5
 20
-8.5
 30
0.0
 11
-64.5
 21
8.5
 31
0.0
  0
LINE
  5
A5
330
1E
100
AcDbEntity
  8
MO_001_VIEW_PV
  6
C_SOLID_M
100
AcDbLine
 10
-64.5
 20
7.299999999999999
 30
0.0
 11
-68.650002
 21
7.299999999999999
 31
0.0
  0
LINE
  5
A6
330
1E
100
AcDbEntity
  8
MO_001_VIEW_PV
  6
C_SOLID_M
100
AcDbLine
 10
-68.5
 20
8.4
 30
0.0
 11
-75.5
 21
8.4
 31
0.0
  0
LINE
  5
A7
330
1E
100
AcDbEntity
  8
MO_001_VIEW_PV
  6
C_SOLID_M
100
AcDbLine
 10
-68.49996400000001
 20
8.399995
 30
0.0
 11
-68.64996399999999
 21
7.299995
 31
0.0
  0
LINE
  5
A8
330
1E
100
AcDbEntity
  8
MO_001_VIEW_PV
  6
C_SOLID_M
100
AcDbLine
 10
-29.0
 20
-44.470001
 30
0.0
 11
-29.0
 21
-51.529999
 31
0.0
  0
LINE
  5
A9
330
1E
100
AcDbEntity
  8
MO_001_VIEW_PV
  6
C_SOLID_M
100
AcDbLine
 10
-29.0
 20
7.299999999999999
 30
0.0
 11
-29.0
 21
-7.299999999999999
 31
0.0
  0
LINE
  5
AA
330
1E
100
AcDbEntity
  8
MO_001_VIEW_PV
  6
C_SOLID_M
100
AcDbLine
 10
-27.79999899999999
 20
7.299999999999999
 30
0.0
 11
-27.79999899999999
 21
-7.299999999999999
 31
0.0
  0
LINE
  5
AB
330
1E
100
AcDbEntity
  8
MO_001_VIEW_PV
  6
C_SOLID_M
100
AcDbLine
 10
-29.5
 20
2.399999999999999
 30
0.0
 11
-29.5
 21
-2.399999999999999
 31
0.0
  0
LINE
  5
AC
330
1E
100
AcDbEntity
  8
MO_001_VIEW_PV
  6
C_SOLID_M
100
AcDbLine
 10
-29.39999999999999
 20
2.5
 30
0.0
 11
-29.0
 21
2.5
 31
0.0
  0
LINE
  5
AD
330
1E
100
AcDbEntity
  8
MO_001_VIEW_PV
  6
C_SOLID_M
100
AcDbLine
 10
-29.39999999999999
 20
-2.5
 30
0.0
 11
-29.0
 21
-2.5
 31
0.0
  0
LINE
  5
AE
330
1E
100
AcDbEntity
  8
MO_001_VIEW_PV
  6
C_SOLID_M
100
AcDbLine
 10
-29.5
 20
-2.399999999999999
 30
0.0
 11
-29.399999
 21
-2.500000999999999
 31
0.0
  0
LINE
  5
AF
330
1E
100
AcDbEntity
  8
MO_001_VIEW_PV
  6
C_SOLID_M
100
AcDbLine
 10
-29.5
 20
1.25
 30
0.0
 11
-38.79999899999999
 21
1.25
 31
0.0
  0
LINE
  5
B0
330
1E
100
AcDbEntity
  8
MO_001_VIEW_PV
  6
C_SOLID_M
100
AcDbLine
 10
0.5
 20
1.25
 30
0.0
 11
11.799999
 21
1.25
 31
0.0
  0
LINE
  5
B1
330
1E
100
AcDbEntity
  8
MO_001_VIEW_PV
  6
C_SOLID_M
100
AcDbLine
 10
-29.5
 20
-1.25
 30
0.0
 11
-38.79999899999999
 21
-1.25
 31
0.0
  0
LINE
  5
B2
330
1E
100
AcDbEntity
  8
MO_001_VIEW_PV
  6
C_SOLID_M
100
AcDbLine
 10
0.5
 20
-1.25
 30
0.0
 11
11.799999
 21
-1.25
 31
0.0
  0
LINE
  5
B3
330
1E
100
AcDbEntity
  8
MO_001_VIEW_PV
  6
C_SOLID_M
100
AcDbLine
 10
-39.0
 20
1.05
 30
0.0
 11
-39.0
 21
-1.05
 31
0.0
  0
LINE
  5
B4
330
1E
100
AcDbEntity
  8
MO_001_VIEW_PV
  6
C_SOLID_M
100
AcDbLine
 10
12.000001
 20
1.050000999999999
 30
0.0
 11
12.000001
 21
-1.050000999999999
 31
0.0
  0
LINE
  5
B5
330
1E
100
AcDbEntity
  8
MO_001_VIEW_PV
  6
C_SOLID_M
100
AcDbLine
 10
-38.79999799999999
 20
1.25
 30
0.0
 11
-38.99999799999999
 21
1.05
 31
0.0
  0
LINE
  5
B6
330
1E
100
AcDbEntity
  8
MO_001_VIEW_PV
  6
C_SOLID_M
100
AcDbLine
 10
-38.999999
 20
-1.05
 30
0.0
 11
-38.79999799999999
 21
-1.25
 31
0.0
  0
LINE
  5
B7
330
1E
100
AcDbEntity
  8
MO_001_VIEW_PV
  6
C_SOLID_M
100
AcDbLine
 10
11.800003
 20
1.250002
 30
0.0
 11
12.000003
 21
1.050002
 31
0.0
  0
LINE
  5
B8
330
1E
100
AcDbEntity
  8
MO_001_VIEW_PV
  6
C_SOLID_M
100
AcDbLine
 10
11.800003
 20
-1.250002
 30
0.0
 11
12.000003
 21
-1.050002
 31
0.0
  0
LINE
  5
B9
330
1E
100
AcDbEntity
  8
MO_001_VIEW_PV
  6
C_SOLID_M
100
AcDbLine
 10
-38.79999899999999
 20
-1.25
 30
0.0
 11
-38.79999899999999
 21
1.25
 31
0.0
  0
LINE
  5
BA
330
1E
100
AcDbEntity
  8
MO_001_VIEW_PV
  6
C_SOLID_M
100
AcDbLine
 10
11.8
 20
-1.250000999999999
 30
0.0
 11
11.8
 21
1.250002999999999
 31
0.0
  0
LINE
  5
BB
330
1E
100
AcDbEntity
  8
MO_001_VIEW_PV
  6
C_DASHED_M
100
AcDbLine
 10
-40.573433
 20
1.25
 30
0.0
 11
-41.799999
 21
1.25
 31
0.0
  0
LINE
  5
BC
330
1E
100
AcDbEntity
  8
MO_001_VIEW_PV
  6
C_DASHED_M
100
AcDbLine
 10
-40.573433
 20
-1.25
 30
0.0
 11
-41.799999
 21
-1.25
 31
0.0
  0
LINE
  5
BD
330
1E
100
AcDbEntity
  8
MO_001_VIEW_PV
  6
C_DASHED_M
100
AcDbLine
 10
-42.0
 20
1.05
 30
0.0
 11
-42.0
 21
-1.05
 31
0.0
  0
LINE
  5
BE
330
1E
100
AcDbEntity
  8
MO_001_VIEW_PV
  6
C_DASHED_M
100
AcDbLine
 10
-41.799999
 20
1.25
 30
0.0
 11
-41.99999799999999
 21
1.05
 31
0.0
  0
LINE
  5
BF
330
1E
100
AcDbEntity
  8
MO_001_VIEW_PV
  6
C_DASHED_M
100
AcDbLine
 10
-41.999999
 20
-1.05
 30
0.0
 11
-41.799999
 21
-1.25
 31
0.0
  0
LINE
  5
C0
330
1E
100
AcDbEntity
  8
MO_001_VIEW_PV
  6
C_DASHED_M
100
AcDbLine
 10
-41.799999
 20
-1.25
 30
0.0
 11
-41.799999
 21
1.25
 31
0.0
  0
LINE
  5
C1
330
1E
100
AcDbEntity
  8
MO_001_VIEW_PV
  6
C_SOLID_M
100
AcDbLine
 10
0.5
 20
-2.399999999999999
 30
0.0
 11
0.4
 21
-2.5
 31
0.0
  0
LINE
  5
C2
330
1E
100
AcDbEntity
  8
MO_001_VIEW_PV
  6
C_SOLID_M
100
AcDbLine
 10
-29.5
 20
2.400001
 30
0.0
 11
-29.39999999999999
 21
2.500000999999999
 31
0.0
  0
LINE
  5
C3
330
1E
100
AcDbEntity
  8
MO_001_VIEW_PV
  6
C_SOLID_M
100
AcDbLine
 10
0.5
 20
-50.400002
 30
0.0
 11
0.5
 21
-45.59999799999999
 31
0.0
  0
LINE
  5
C4
330
1E
100
AcDbEntity
  8
MO_001_VIEW_PV
  6
C_SOLID_M
100
AcDbLine
 10
0.4
 20
-50.5
 30
0.0
 11
0.0
 21
-50.5
 31
0.0
  0
LINE
  5
C5
330
1E
100
AcDbEntity
  8
MO_001_VIEW_PV
  6
C_SOLID_M
100
AcDbLine
 10
0.4
 20
-45.49999999999999
 30
0.0
 11
0.0
 21
-45.49999999999999
 31
0.0
  0
LINE
  5
C6
330
1E
100
AcDbEntity
  8
MO_001_VIEW_PV
  6
C_SOLID_M
100
AcDbLine
 10
0.500005
 20
-45.599994
 30
0.0
 11
0.400005
 21
-45.49999299999999
 31
0.0
  0
LINE
  5
C7
330
1E
100
AcDbEntity
  8
MO_001_VIEW_PV
  6
C_SOLID_M
100
AcDbLine
 10
0.5
 20
-46.74999999999999
 30
0.0
 11
11.799999
 21
-46.74999999999999
 31
0.0
  0
LINE
  5
C8
330
1E
100
AcDbEntity
  8
MO_001_VIEW_PV
  6
C_SOLID_M
100
AcDbLine
 10
0.5
 20
-49.25
 30
0.0
 11
11.799999
 21
-49.25
 31
0.0
  0
LINE
  5
C9
330
1E
100
AcDbEntity
  8
MO_001_VIEW_PV
  6
C_SOLID_M
100
AcDbLine
 10
12.000001
 20
-46.94999699999999
 30
0.0
 11
12.000001
 21
-49.05000300000001
 31
0.0
  0
LINE
  5
CA
330
1E
100
AcDbEntity
  8
MO_001_VIEW_PV
  6
C_SOLID_M
100
AcDbLine
 10
11.80001
 20
-46.750014
 30
0.0
 11
12.00001199999999
 21
-46.950015
 31
0.0
  0
LINE
  5
CB
330
1E
100
AcDbEntity
  8
MO_001_VIEW_PV
  6
C_SOLID_M
100
AcDbLine
 10
11.800005
 20
-49.250015
 30
0.0
 11
12.000007
 21
-49.050014
 31
0.0
  0
LINE
  5
CC
330
1E
100
AcDbEntity
  8
MO_001_VIEW_PV
  6
C_SOLID_M
100
AcDbLine
 10
11.8
 20
-49.25
 30
0.0
 11
11.8
 21
-46.74999999999999
 31
0.0
  0
LINE
  5
CD
330
1E
100
AcDbEntity
  8
MO_001_VIEW_PV
  6
C_SOLID_M
100
AcDbLine
 10
0.5000060000000001
 20
-50.400015
 30
0.0
 11
0.400008
 21
-50.500012
 31
0.0
  0
LINE
  5
CE
330
1E
100
AcDbEntity
  8
MO_001_VIEW_PV
  6
C_SOLID_M
100
AcDbLine
 10
-29.5
 20
-45.59999799999999
 30
0.0
 11
-29.5
 21
-50.400002
 31
0.0
  0
LINE
  5
CF
330
1E
100
AcDbEntity
  8
MO_001_VIEW_PV
  6
C_SOLID_M
100
AcDbLine
 10
-29.39999999999999
 20
-45.49999999999999
 30
0.0
 11
-29.0
 21
-45.49999999999999
 31
0.0
  0
LINE
  5
D0
330
1E
100
AcDbEntity
  8
MO_001_VIEW_PV
  6
C_SOLID_M
100
AcDbLine
 10
-29.39999999999999
 20
-50.5
 30
0.0
 11
-29.0
 21
-50.5
 31
0.0
  0
LINE
  5
D1
330
1E
100
AcDbEntity
  8
MO_001_VIEW_PV
  6
C_SOLID_M
100
AcDbLine
 10
-29.499996
 20
-50.39999
 30
0.0
 11
-29.399996
 21
-50.49999
 31
0.0
  0
LINE
  5
D2
330
1E
100
AcDbEntity
  8
MO_001_VIEW_PV
  6
C_SOLID_M
100
AcDbLine
 10
-29.5
 20
-46.74999999999999
 30
0.0
 11
-38.79999899999999
 21
-46.74999999999999
 31
0.0
  0
LINE
  5
D3
330
1E
100
AcDbEntity
  8
MO_001_VIEW_PV
  6
C_SOLID_M
100
AcDbLine
 10
-29.5
 20
-49.25
 30
0.0
 11
-38.79999899999999
 21
-49.25
 31
0.0
  0
LINE
  5
D4
330
1E
100
AcDbEntity
  8
MO_001_VIEW_PV
  6
C_SOLID_M
100
AcDbLine
 10
-39.0
 20
-46.94999699999999
 30
0.0
 11
-39.0
 21
-49.05000300000001
 31
0.0
  0
LINE
  5
D5
330
1E
100
AcDbEntity
  8
MO_001_VIEW_PV
  6
C_SOLID_M
100
AcDbLine
 10
-38.79999699999999
 20
-46.749999
 30
0.0
 11
-38.99999799999999
 21
-46.95
 31
0.0
  0
LINE
  5
D6
330
1E
100
AcDbEntity
  8
MO_001_VIEW_PV
  6
C_SOLID_M
100
AcDbLine
 10
-38.999997
 20
-49.05
 30
0.0
 11
-38.79999699999999
 21
-49.25
 31
0.0
  0
LINE
  5
D7
330
1E
100
AcDbEntity
  8
MO_001_VIEW_PV
  6
C_SOLID_M
100
AcDbLine
 10
-38.79999899999999
 20
-49.25
 30
0.0
 11
-38.79999899999999
 21
-46.74999999999999
 31
0.0
  0
LINE
  5
D8
330
1E
100
AcDbEntity
  8
MO_001_VIEW_PV
  6
C_SOLID_M
100
AcDbLine
 10
-29.5
 20
-45.600003
 30
0.0
 11
-29.400002
 21
-45.500005
 31
0.0
  0
LINE
  5
D9
330
1E
100
AcDbEntity
  8
MO_001_VIEW_PV
  6
C_SOLID_M
100
AcDbLine
 10
0.4
 20
-2.5
 30
0.0
 11
0.4
 21
2.5
 31
0.0
  0
LINE
  5
DA
330
1E
100
AcDbEntity
  8
MO_001_VIEW_PV
  6
C_SOLID_M
100
AcDbLine
 10
-29.39999999999999
 20
2.5
 30
0.0
 11
-29.39999999999999
 21
-2.5
 31
0.0
  0
CIRCLE
  5
DB
330
1E
100
AcDbEntity
  8
MO_001_VIEW_PV
  6
C_SOLID_M
100
AcDbCircle
 10
-72.0
 20
0.0
 30
0.0
 40
2.399999999999999
  0
CIRCLE
  5
DC
330
1E
100
AcDbEntity
  8
MO_001_VIEW_PV
  6
C_SOLID_M
100
AcDbCircle
 10
-72.0
 20
0.0
 30
0.0
 40
1.25
  0
CIRCLE
  5
DD
330
1E
100
AcDbEntity
  8
MO_001_VIEW_PV
  6
C_SOLID_M
100
AcDbCircle
 10
-72.0
 20
0.0
 30
0.0
 40
1.05
  0
LINE
  5
DE
330
1E
100
AcDbEntity
  8
MO_001_VIEW_PV
  6
C_SOLID_M
100
AcDbLine
 10
0.4
 20
-50.5
 30
0.0
 11
0.4
 21
-45.49999999999999
 31
0.0
  0
LINE
  5
DF
330
1E
100
AcDbEntity
  8
MO_001_VIEW_PV
  6
C_SOLID_M
100
AcDbLine
 10
-29.39999999999999
 20
-45.49999999999999
 30
0.0
 11
-29.39999999999999
 21
-50.5
 31
0.0
  0
LINE
  5
E0
330
1E
100
AcDbEntity
  8
MO_001_VIEW_PV
  6
C_SOLID_M
100
AcDbLine
 10
-1.199999999999999
 20
-6.849999999999999
 30
0.0
 11
-1.199999999999999
 21
6.849997999999999
 31
0.0
  0
LINE
  5
E1
330
1E
100
AcDbEntity
  8
MO_001_VIEW_PV
  6
C_SOLID_M
100
AcDbLine
 10
-27.700001
 20
-7.15
 30
0.0
 11
-27.700001
 21
7.15
 31
0.0
  0
LINE
  5
E2
330
1E
100
AcDbEntity
  8
MO_001_VIEW_PV
  6
C_SOLID_M
100
AcDbLine
 10
-27.200001
 20
-7.15
 30
0.0
 11
-27.700001
 21
-7.15
 31
0.0
  0
LINE
  5
E3
330
1E
100
AcDbEntity
  8
MO_001_VIEW_PV
  6
C_SOLID_M
100
AcDbLine
 10
-2.399999999999999
 20
-6.95
 30
0.0
 11
-2.399999999999999
 21
6.950000999999999
 31
0.0
  0
LINE
  5
E4
330
1E
100
AcDbEntity
  8
MO_001_VIEW_PV
  6
C_SOLID_M
100
AcDbLine
 10
-27.0
 20
-6.95
 30
0.0
 11
-27.0
 21
6.950000999999999
 31
0.0
  0
LINE
  5
E5
330
1E
100
AcDbEntity
  8
MO_001_VIEW_PV
  6
C_SOLID_M
100
AcDbLine
 10
-1.5
 20
-7.15
 30
0.0
 11
-2.2
 21
-7.15
 31
0.0
  0
LINE
  5
E6
330
1E
100
AcDbEntity
  8
MO_001_VIEW_PV
  6
C_SOLID_M
100
AcDbLine
 10
-11.349999
 20
-7.25
 30
0.0
 11
-18.049999
 21
-7.25
 31
0.0
  0
LINE
  5
E7
330
1E
100
AcDbEntity
  8
MO_001_VIEW_PV
  6
C_SOLID_M
100
AcDbLine
 10
-11.14999999999999
 20
-7.049999999999999
 30
0.0
 11
-11.14999999999999
 21
7.049999
 31
0.0
  0
LINE
  5
E8
330
1E
100
AcDbEntity
  8
MO_001_VIEW_PV
  6
C_SOLID_M
100
AcDbLine
 10
-18.25
 20
-7.049999999999999
 30
0.0
 11
-18.25
 21
7.049999
 31
0.0
  0
LINE
  5
E9
330
1E
100
AcDbEntity
  8
MO_001_VIEW_PV
  6
C_SOLID_M
100
AcDbLine
 10
-17.75
 20
-5.299999999999999
 30
0.0
 11
-18.25
 21
-5.299999999999999
 31
0.0
  0
LINE
  5
EA
330
1E
100
AcDbEntity
  8
MO_001_VIEW_PV
  6
C_SOLID_M
100
AcDbLine
 10
-18.25
 20
-4.5
 30
0.0
 11
-17.75
 21
-4.5
 31
0.0
  0
LINE
  5
EB
330
1E
100
AcDbEntity
  8
MO_001_VIEW_PV
  6
C_SOLID_M
100
AcDbLine
 10
-17.75
 20
-4.5
 30
0.0
 11
-17.75
 21
-5.299999999999999
 31
0.0
  0
LINE
  5
EC
330
1E
100
AcDbEntity
  8
MO_001_VIEW_PV
  6
C_SOLID_M
100
AcDbLine
 10
-1.9
 20
-5.299999999999999
 30
0.0
 11
-2.399999999999999
 21
-5.299999999999999
 31
0.0
  0
LINE
  5
ED
330
1E
100
AcDbEntity
  8
MO_001_VIEW_PV
  6
C_SOLID_M
100
AcDbLine
 10
-1.9
 20
-4.5
 30
0.0
 11
-1.9
 21
-5.299999999999999
 31
0.0
  0
LINE
  5
EE
330
1E
100
AcDbEntity
  8
MO_001_VIEW_PV
  6
C_SOLID_M
100
AcDbLine
 10
-2.399999999999999
 20
-4.5
 30
0.0
 11
-1.9
 21
-4.5
 31
0.0
  0
LINE
  5
EF
330
1E
100
AcDbEntity
  8
MO_001_VIEW_PV
  6
C_SOLID_M
100
AcDbLine
 10
-27.200001
 20
7.15
 30
0.0
 11
-27.700001
 21
7.15
 31
0.0
  0
LINE
  5
F0
330
1E
100
AcDbEntity
  8
MO_001_VIEW_PV
  6
C_SOLID_M
100
AcDbLine
 10
-1.5
 20
7.15
 30
0.0
 11
-2.2
 21
7.15
 31
0.0
  0
LINE
  5
F1
330
1E
100
AcDbEntity
  8
MO_001_VIEW_PV
  6
C_SOLID_M
100
AcDbLine
 10
-11.349999
 20
7.25
 30
0.0
 11
-18.049999
 21
7.25
 31
0.0
  0
ARC
  5
F2
330
1E
100
AcDbEntity
  8
MO_001_VIEW_PV
  6
C_SOLID_M
100
AcDbCircle
 10
-11.349999
 20
-7.049999999999999
 30
0.0
 40
0.2
100
AcDbArc
 50
269.999998
 51
0.00001
  0
ARC
  5
F3
330
1E
100
AcDbEntity
  8
MO_001_VIEW_PV
  6
C_SOLID_M
100
AcDbCircle
 10
-18.049999
 20
-7.049999999999999
 30
0.0
 40
0.2
100
AcDbArc
 50
180.000009
 51
269.999998
  0
ARC
  5
F4
330
1E
100
AcDbEntity
  8
MO_001_VIEW_PV
  6
C_SOLID_M
100
AcDbCircle
 10
-11.349999
 20
7.049999
 30
0.0
 40
0.2
100
AcDbArc
 50
0.0
 51
89.999996
  0
ARC
  5
F5
330
1E
100
AcDbEntity
  8
MO_001_VIEW_PV
  6
C_SOLID_M
100
AcDbCircle
 10
-18.049999
 20
7.049999
 30
0.0
 40
0.2
100
AcDbArc
 50
89.999996
 51
180.000005
  0
ARC
  5
F6
330
1E
100
AcDbEntity
  8
MO_001_VIEW_PV
  6
C_SOLID_M
100
AcDbCircle
 10
-27.200001
 20
-6.95
 30
0.0
 40
0.2
100
AcDbArc
 50
269.999998
 51
0.00001
  0
ARC
  5
F7
330
1E
100
AcDbEntity
  8
MO_001_VIEW_PV
  6
C_SOLID_M
100
AcDbCircle
 10
-27.200001
 20
6.950000999999999
 30
0.0
 40
0.2
100
AcDbArc
 50
0.0
 51
89.999996
  0
ARC
  5
F8
330
1E
100
AcDbEntity
  8
MO_001_VIEW_PV
  6
C_SOLID_M
100
AcDbCircle
 10
-2.2
 20
-6.95
 30
0.0
 40
0.2
100
AcDbArc
 50
180.000009
 51
269.999998
  0
ARC
  5
F9
330
1E
100
AcDbEntity
  8
MO_001_VIEW_PV
  6
C_SOLID_M
100
AcDbCircle
 10
-2.2
 20
6.950000999999999
 30
0.0
 40
0.2
100
AcDbArc
 50
89.999996
 51
180.000005
  0
ARC
  5
FA
330
1E
100
AcDbEntity
  8
MO_001_VIEW_PV
  6
C_SOLID_M
100
AcDbCircle
 10
-1.5
 20
-6.849999999999999
 30
0.0
 40
0.3
100
AcDbArc
 50
269.999998
 51
0.00001
  0
ARC
  5
FB
330
1E
100
AcDbEntity
  8
MO_001_VIEW_PV
  6
C_SOLID_M
100
AcDbCircle
 10
-1.5
 20
6.849997999999999
 30
0.0
 40
0.3
100
AcDbArc
 50
0.0
 51
89.999996
  0
LINE
  5
FC
330
1E
100
AcDbEntity
  8
MO_001_VIEW_PV
  6
C_SOLID_M
100
AcDbLine
 10
-18.25
 20
-6.75
 30
0.0
 11
-27.0
 21
-6.75
 31
0.0
  0
LINE
  5
FD
330
1E
100
AcDbEntity
  8
MO_001_VIEW_PV
  6
C_SOLID_M
100
AcDbLine
 10
-18.25
 20
6.75
 30
0.0
 11
-27.0
 21
6.75
 31
0.0
  0
LINE
  5
FE
330
1E
100
AcDbEntity
  8
MO_001_VIEW_PV
  6
C_SOLID_M
100
AcDbLine
 10
-2.399999999999999
 20
6.75
 30
0.0
 11
-11.14999999999999
 21
6.75
 31
0.0
  0
LINE
  5
FF
330
1E
100
AcDbEntity
  8
MO_001_VIEW_PV
  6
C_SOLID_M
100
AcDbLine
 10
-2.399999999999999
 20
-6.75
 30
0.0
 11
-11.14999999999999
 21
-6.75
 31
0.0
  0
LINE
  5
100
330
1E
100
AcDbEntity
  8
MO_001_VIEW_PV
  6
C_SOLID_M
100
AcDbLine
 10
-2.820006
 20
-85.75000000000001
 30
0.0
 11
-3.300001
 21
-85.75000000000001
 31
0.0
  0
LINE
  5
101
330
1E
100
AcDbEntity
  8
MO_001_VIEW_PV
  6
C_SOLID_M
100
AcDbLine
 10
-2.399999999999999
 20
-80.75000000000001
 30
0.0
 11
-3.720006999999999
 21
-80.75000000000001
 31
0.0
  0
LINE
  5
102
330
1E
100
AcDbEntity
  8
MO_001_VIEW_PV
  6
C_SOLID_M
100
AcDbLine
 10
-2.400001
 20
-76.75
 30
0.0
 11
-2.400001
 21
-80.75000000000001
 31
0.0
  0
LINE
  5
103
330
1E
100
AcDbEntity
  8
MO_001_VIEW_PV
  6
C_SOLID_M
100
AcDbLine
 10
-3.720007999999999
 20
-76.75000199999999
 30
0.0
 11
-3.720005999999999
 21
-80.75000199999999
 31
0.0
  0
LINE
  5
104
330
1E
100
AcDbEntity
  8
MO_001_VIEW_PV
  6
C_SOLID_M
100
AcDbLine
 10
-2.820007
 20
-80.750001
 30
0.0
 11
-2.820005
 21
-85.750001
 31
0.0
  0
LINE
  5
105
330
1E
100
AcDbEntity
  8
MO_001_VIEW_PV
  6
C_SOLID_M
100
AcDbLine
 10
-3.300002999999999
 20
-80.750001
 30
0.0
 11
-3.300001
 21
-85.750001
 31
0.0
  0
LINE
  5
106
330
1E
100
AcDbEntity
  8
MO_001_VIEW_PV
  6
C_SOLID_M
100
AcDbLine
 10
-3.720006999999999
 20
-75.75
 30
0.0
 11
-3.720006999999999
 21
-56.75
 31
0.0
  0
LINE
  5
107
330
1E
100
AcDbEntity
  8
MO_001_VIEW_PV
  6
C_SOLID_M
100
AcDbLine
 10
-2.399999999999999
 20
-75.75
 30
0.0
 11
-2.399999999999999
 21
-56.75
 31
0.0
  0
LINE
  5
108
330
1E
100
AcDbEntity
  8
MO_001_VIEW_PV
  6
C_SOLID_M
100
AcDbLine
 10
-3.919998999999999
 20
-56.570007
 30
0.0
 11
-7.402452999999999
 21
-56.570007
 31
0.0
  0
ARC
  5
109
330
1E
100
AcDbEntity
  8
MO_001_VIEW_PV
  6
C_SOLID_M
100
AcDbCircle
 10
-7.402452999999999
 20
-55.57000699999999
 30
0.0
 40
1.0
100
AcDbArc
 50
175.9855889999999
 51
270.000001
  0
LINE
  5
10A
330
1E
100
AcDbEntity
  8
MO_001_VIEW_PV
  6
C_SOLID_M
100
AcDbLine
 10
-27.0
 20
-56.070007
 30
0.0
 11
-27.0
 21
-55.5
 31
0.0
  0
LINE
  5
10B
330
1E
100
AcDbEntity
  8
MO_001_VIEW_PV
  6
C_SOLID_M
100
AcDbLine
 10
-25.479988
 20
-56.570007
 30
0.0
 11
-21.997547
 21
-56.570007
 31
0.0
  0
ARC
  5
10C
330
1E
100
AcDbEntity
  8
MO_001_VIEW_PV
  6
C_SOLID_M
100
AcDbCircle
 10
-21.997547
 20
-55.57000699999999
 30
0.0
 40
1.0
100
AcDbArc
 50
270.0000039999999
 51
4.014408
  0
ARC
  5
10D
330
1E
100
AcDbEntity
  8
MO_001_VIEW_PV
  6
C_SOLID_M
100
AcDbCircle
 10
-4.4
 20
-56.75
 30
0.0
 40
2.0
100
AcDbArc
 50
0.0
 51
18.667202
  0
LINE
  5
10E
330
1E
100
AcDbEntity
  8
MO_001_VIEW_PV
  6
C_SOLID_M
100
AcDbLine
 10
-2.399999999999999
 20
-55.5
 30
0.0
 11
-2.399999999999999
 21
-56.070007
 31
0.0
  0
ARC
  5
10F
330
1E
100
AcDbEntity
  8
MO_001_VIEW_PV
  6
C_SOLID_M
100
AcDbCircle
 10
-4.4
 20
-56.75
 30
0.0
 40
0.6799930000000001
100
AcDbArc
 50
355.0
 51
19.97746099999999
  0
LINE
  5
110
330
1E
100
AcDbEntity
  8
MO_001_VIEW_PV
  6
C_SOLID_M
100
AcDbLine
 10
-3.920005999999999
 20
-56.569989
 30
0.0
 11
-2.400002999999999
 21
-56.06999
 31
0.0
  0
ARC
  5
111
330
1E
100
AcDbEntity
  8
MO_001_VIEW_PV
  6
C_SOLID_M
100
AcDbCircle
 10
-25.0
 20
-56.75
 30
0.0
 40
2.0
100
AcDbArc
 50
161.332797
 51
179.9999909999999
  0
LINE
  5
112
330
1E
100
AcDbEntity
  8
MO_001_VIEW_PV
  6
C_SOLID_M
100
AcDbLine
 10
-25.479985
 20
-56.569985
 30
0.0
 11
-26.999989
 21
-56.069986
 31
0.0
  0
ARC
  5
113
330
1E
100
AcDbEntity
  8
MO_001_VIEW_PV
  6
C_SOLID_M
100
AcDbCircle
 10
-25.0
 20
-56.75
 30
0.0
 40
0.6799930000000001
100
AcDbArc
 50
160.022535
 51
184.99999
  0
LINE
  5
114
330
1E
100
AcDbEntity
  8
MO_001_VIEW_PV
  6
C_SOLID_M
100
AcDbLine
 10
-5.378554
 20
-75.736981
 30
0.0
 11
-3.722594999999999
 21
-56.809281
 31
0.0
  0
LINE
  5
115
330
1E
100
AcDbEntity
  8
MO_001_VIEW_PV
  6
C_SOLID_M
100
AcDbLine
 10
-4.063569
 20
-75.852019
 30
0.0
 11
-3.720007999999999
 21
-71.925094
 31
0.0
  0
LINE
  5
116
330
1E
100
AcDbEntity
  8
MO_001_VIEW_PV
  6
C_SOLID_M
100
AcDbLine
 10
-5.351148999999999
 20
-85.750022
 30
0.0
 11
-5.829317999999999
 21
-85.708187
 31
0.0
  0
LINE
  5
117
330
1E
100
AcDbEntity
  8
MO_001_VIEW_PV
  6
C_SOLID_M
100
AcDbLine
 10
-4.496964
 20
-80.80566899999999
 30
0.0
 11
-5.811948999999999
 21
-80.690623
 31
0.0
  0
LINE
  5
118
330
1E
100
AcDbEntity
  8
MO_001_VIEW_PV
  6
C_SOLID_M
100
AcDbLine
 10
-4.150726999999999
 20
-76.848218
 30
0.0
 11
-4.496966
 21
-80.80566500000001
 31
0.0
  0
LINE
  5
119
330
1E
100
AcDbEntity
  8
MO_001_VIEW_PV
  6
C_SOLID_M
100
AcDbLine
 10
-5.465709999999999
 20
-76.73318399999999
 30
0.0
 11
-5.811944999999999
 21
-80.69061600000001
 31
0.0
  0
LINE
  5
11A
330
1E
100
AcDbEntity
  8
MO_001_VIEW_PV
  6
C_SOLID_M
100
AcDbLine
 10
-4.915370999999999
 20
-80.76902999999999
 30
0.0
 11
-5.351148999999999
 21
-85.75001099999999
 31
0.0
  0
LINE
  5
11B
330
1E
100
AcDbEntity
  8
MO_001_VIEW_PV
  6
C_SOLID_M
100
AcDbLine
 10
-5.393540999999999
 20
-80.72719599999999
 30
0.0
 11
-5.829317999999999
 21
-85.708177
 31
0.0
  0
ARC
  5
11C
330
1E
100
AcDbEntity
  8
MO_001_VIEW_PV
  6
C_SOLID_M
100
AcDbCircle
 10
-3.390005
 20
-76.03800200000001
 30
0.0
 40
0.4380010000000001
100
AcDbArc
 50
41.11213099999999
 51
138.8881129999999
  0
ARC
  5
11D
330
1E
100
AcDbEntity
  8
MO_001_VIEW_PV
  6
C_SOLID_M
100
AcDbCircle
 10
-2.730002
 20
-75.461998
 30
0.0
 40
0.4380010000000001
100
AcDbArc
 50
221.1123109999999
 51
318.8881079999999
  0
ARC
  5
11E
330
1E
100
AcDbEntity
  8
MO_001_VIEW_PV
  6
C_SOLID_M
100
AcDbCircle
 10
-3.390005
 20
-75.461998
 30
0.0
 40
0.4380010000000001
100
AcDbArc
 50
221.111887
 51
318.8878689999999
  0
ARC
  5
11F
330
1E
100
AcDbEntity
  8
MO_001_VIEW_PV
  6
C_SOLID_M
100
AcDbCircle
 10
-2.730002
 20
-76.46199799999999
 30
0.0
 40
0.4380010000000001
100
AcDbArc
 50
221.112133
 51
318.888118
  0
ARC
  5
120
330
1E
100
AcDbEntity
  8
MO_001_VIEW_PV
  6
C_SOLID_M
100
AcDbCircle
 10
-3.390005
 20
-77.038002
 30
0.0
 40
0.4380010000000001
100
AcDbArc
 50
41.112312
 51
138.8881129999999
  0
ARC
  5
121
330
1E
100
AcDbEntity
  8
MO_001_VIEW_PV
  6
C_SOLID_M
100
AcDbCircle
 10
-2.730002
 20
-77.038002
 30
0.0
 40
0.4380010000000001
100
AcDbArc
 50
41.111889
 51
138.8878669999999
  0
ARC
  5
122
330
1E
100
AcDbEntity
  8
MO_001_VIEW_PV
  6
C_SOLID_M
100
AcDbCircle
 10
-5.074907999999999
 20
-76.05263499999999
 30
0.0
 40
0.4380010000000001
100
AcDbArc
 50
36.11212899999999
 51
133.888114
  0
ARC
  5
123
330
1E
100
AcDbEntity
  8
MO_001_VIEW_PV
  6
C_SOLID_M
100
AcDbCircle
 10
-4.367213999999999
 20
-75.53634599999999
 30
0.0
 40
0.4380010000000001
100
AcDbArc
 50
216.112312
 51
313.888105
  0
ARC
  5
124
330
1E
100
AcDbEntity
  8
MO_001_VIEW_PV
  6
C_SOLID_M
100
AcDbCircle
 10
-5.024706
 20
-75.47882099999999
 30
0.0
 40
0.4380010000000001
100
AcDbArc
 50
216.111888
 51
313.887866
  0
ARC
  5
125
330
1E
100
AcDbEntity
  8
MO_001_VIEW_PV
  6
C_SOLID_M
100
AcDbCircle
 10
-4.454369999999999
 20
-76.532539
 30
0.0
 40
0.4380010000000001
100
AcDbArc
 50
216.112134
 51
313.888116
  0
ARC
  5
126
330
1E
100
AcDbEntity
  8
MO_001_VIEW_PV
  6
C_SOLID_M
100
AcDbCircle
 10
-5.162065
 20
-77.048828
 30
0.0
 40
0.4380010000000001
100
AcDbArc
 50
36.11231
 51
133.888114
  0
ARC
  5
127
330
1E
100
AcDbEntity
  8
MO_001_VIEW_PV
  6
C_SOLID_M
100
AcDbCircle
 10
-4.504572
 20
-77.106346
 30
0.0
 40
0.4380010000000001
100
AcDbArc
 50
36.111886
 51
133.887868
  0
LINE
  5
128
330
1E
100
AcDbEntity
  8
MO_001_VIEW_PV
  6
C_SOLID_M
100
AcDbLine
 10
-26.579994
 20
-85.75000000000001
 30
0.0
 11
-26.099998
 21
-85.75000000000001
 31
0.0
  0
LINE
  5
129
330
1E
100
AcDbEntity
  8
MO_001_VIEW_PV
  6
C_SOLID_M
100
AcDbLine
 10
-27.0
 20
-80.75000000000001
 30
0.0
 11
-25.679993
 21
-80.75000000000001
 31
0.0
  0
LINE
  5
12A
330
1E
100
AcDbEntity
  8
MO_001_VIEW_PV
  6
C_SOLID_M
100
AcDbLine
 10
-27.000003
 20
-76.750003
 30
0.0
 11
-27.000003
 21
-80.75000300000001
 31
0.0
  0
LINE
  5
12B
330
1E
100
AcDbEntity
  8
MO_001_VIEW_PV
  6
C_SOLID_M
100
AcDbLine
 10
-25.679987
 20
-76.74999699999999
 30
0.0
 11
-25.679989
 21
-80.74999699999999
 31
0.0
  0
LINE
  5
12C
330
1E
100
AcDbEntity
  8
MO_001_VIEW_PV
  6
C_SOLID_M
100
AcDbLine
 10
-26.579989
 20
-80.750007
 30
0.0
 11
-26.57999099999999
 21
-85.750007
 31
0.0
  0
LINE
  5
12D
330
1E
100
AcDbEntity
  8
MO_001_VIEW_PV
  6
C_SOLID_M
100
AcDbLine
 10
-26.09999399999999
 20
-80.750007
 30
0.0
 11
-26.099995
 21
-85.750007
 31
0.0
  0
LINE
  5
12E
330
1E
100
AcDbEntity
  8
MO_001_VIEW_PV
  6
C_SOLID_M
100
AcDbLine
 10
-25.679993
 20
-75.75
 30
0.0
 11
-25.679993
 21
-56.75
 31
0.0
  0
LINE
  5
12F
330
1E
100
AcDbEntity
  8
MO_001_VIEW_PV
  6
C_SOLID_M
100
AcDbLine
 10
-27.0
 20
-75.75
 30
0.0
 11
-27.0
 21
-56.75
 31
0.0
  0
LINE
  5
130
330
1E
100
AcDbEntity
  8
MO_001_VIEW_PV
  6
C_SOLID_M
100
AcDbLine
 10
-24.02145
 20
-75.736953
 30
0.0
 11
-25.677411
 21
-56.80927
 31
0.0
  0
LINE
  5
131
330
1E
100
AcDbEntity
  8
MO_001_VIEW_PV
  6
C_SOLID_M
100
AcDbLine
 10
-25.336439
 20
-75.852021
 30
0.0
 11
-25.680004
 21
-71.92508899999999
 31
0.0
  0
LINE
  5
132
330
1E
100
AcDbEntity
  8
MO_001_VIEW_PV
  6
C_SOLID_M
100
AcDbLine
 10
-24.048861
 20
-85.750024
 30
0.0
 11
-23.570692
 21
-85.708189
 31
0.0
  0
LINE
  5
133
330
1E
100
AcDbEntity
  8
MO_001_VIEW_PV
  6
C_SOLID_M
100
AcDbLine
 10
-24.903047
 20
-80.80565599999999
 30
0.0
 11
-23.588063
 21
-80.69060999999999
 31
0.0
  0
LINE
  5
134
330
1E
100
AcDbEntity
  8
MO_001_VIEW_PV
  6
C_SOLID_M
100
AcDbLine
 10
-25.249276
 20
-76.84819199999999
 30
0.0
 11
-24.903042
 21
-80.80562399999999
 31
0.0
  0
LINE
  5
135
330
1E
100
AcDbEntity
  8
MO_001_VIEW_PV
  6
C_SOLID_M
100
AcDbLine
 10
-23.934292
 20
-76.73314799999999
 30
0.0
 11
-23.588062
 21
-80.69056600000001
 31
0.0
  0
LINE
  5
136
330
1E
100
AcDbEntity
  8
MO_001_VIEW_PV
  6
C_SOLID_M
100
AcDbLine
 10
-24.48463
 20
-80.769037
 30
0.0
 11
-24.048853
 21
-85.75001
 31
0.0
  0
LINE
  5
137
330
1E
100
AcDbEntity
  8
MO_001_VIEW_PV
  6
C_SOLID_M
100
AcDbLine
 10
-24.006465
 20
-80.727188
 30
0.0
 11
-23.57068599999999
 21
-85.70817599999999
 31
0.0
  0
ARC
  5
138
330
1E
100
AcDbEntity
  8
MO_001_VIEW_PV
  6
C_SOLID_M
100
AcDbCircle
 10
-26.66999099999999
 20
-76.03800200000001
 30
0.0
 40
0.4380010000000001
100
AcDbArc
 50
41.11213499999999
 51
138.8881129999999
  0
ARC
  5
139
330
1E
100
AcDbEntity
  8
MO_001_VIEW_PV
  6
C_SOLID_M
100
AcDbCircle
 10
-26.00998699999999
 20
-75.461998
 30
0.0
 40
0.4380010000000001
100
AcDbArc
 50
221.1123109999999
 51
318.888111
  0
ARC
  5
13A
330
1E
100
AcDbEntity
  8
MO_001_VIEW_PV
  6
C_SOLID_M
100
AcDbCircle
 10
-26.66999099999999
 20
-75.461998
 30
0.0
 40
0.4380010000000001
100
AcDbArc
 50
221.111887
 51
318.8878649999999
  0
ARC
  5
13B
330
1E
100
AcDbEntity
  8
MO_001_VIEW_PV
  6
C_SOLID_M
100
AcDbCircle
 10
-26.00998699999999
 20
-76.46199799999999
 30
0.0
 40
0.4380010000000001
100
AcDbArc
 50
221.112133
 51
318.888111
  0
ARC
  5
13C
330
1E
100
AcDbEntity
  8
MO_001_VIEW_PV
  6
C_SOLID_M
100
AcDbCircle
 10
-26.66999099999999
 20
-77.038002
 30
0.0
 40
0.4380010000000001
100
AcDbArc
 50
41.112312
 51
138.8881129999999
  0
ARC
  5
13D
330
1E
100
AcDbEntity
  8
MO_001_VIEW_PV
  6
C_SOLID_M
100
AcDbCircle
 10
-26.00998699999999
 20
-77.038002
 30
0.0
 40
0.4380010000000001
100
AcDbArc
 50
41.111889
 51
138.8878669999999
  0
ARC
  5
13E
330
1E
100
AcDbEntity
  8
MO_001_VIEW_PV
  6
C_SOLID_M
100
AcDbCircle
 10
-24.982578
 20
-76.110161
 30
0.0
 40
0.4380010000000001
100
AcDbArc
 50
46.112134
 51
143.888112
  0
ARC
  5
13F
330
1E
100
AcDbEntity
  8
MO_001_VIEW_PV
  6
C_SOLID_M
100
AcDbCircle
 10
-24.37529
 20
-75.478828
 30
0.0
 40
0.4380010000000001
100
AcDbArc
 50
226.11231
 51
323.8881
  0
ARC
  5
140
330
1E
100
AcDbEntity
  8
MO_001_VIEW_PV
  6
C_SOLID_M
100
AcDbCircle
 10
-25.032784
 20
-75.53634599999999
 30
0.0
 40
0.4380010000000001
100
AcDbArc
 50
226.1118859999999
 51
323.887868
  0
ARC
  5
141
330
1E
100
AcDbEntity
  8
MO_001_VIEW_PV
  6
C_SOLID_M
100
AcDbCircle
 10
-24.28813599999999
 20
-76.475021
 30
0.0
 40
0.4380010000000001
100
AcDbArc
 50
226.1121319999999
 51
323.888114
  0
ARC
  5
142
330
1E
100
AcDbEntity
  8
MO_001_VIEW_PV
  6
C_SOLID_M
100
AcDbCircle
 10
-24.895428
 20
-77.106346
 30
0.0
 40
0.4380010000000001
100
AcDbArc
 50
46.112311
 51
143.888112
  0
ARC
  5
143
330
1E
100
AcDbEntity
  8
MO_001_VIEW_PV
  6
C_SOLID_M
100
AcDbCircle
 10
-24.237934
 20
-77.048828
 30
0.0
 40
0.4380010000000001
100
AcDbArc
 50
46.111888
 51
143.887866
  0
LINE
  5
144
330
1E
100
AcDbEntity
  8
MO_001_VIEW_PV
  6
C_SOLID_L
100
AcDbLine
 10
-24.199543
 20
-85.75000000000001
 30
0.0
 11
-5.200458
 21
-85.75000000000001
 31
0.0
  0
LINE
  5
145
330
1E
100
AcDbEntity
  8
MO_001_VIEW_PV
  6
C_SOLID_L
100
AcDbLine
 10
6.0
 20
-75.0
 30
0.0
 11
47.431931
 21
-75.0
 31
0.0
  0
LINE
  5
146
330
1E
100
AcDbEntity
  8
MO_001_VIEW_PV
  6
C_SOLID_L
100
AcDbLine
 10
-33.0
 20
-75.0
 30
0.0
 11
-74.43193100000001
 21
-75.0
 31
0.0
  0
LINE
  5
147
330
1E
100
AcDbEntity
  8
MO_001_VIEW_PV
  6
C_SOLID_L
100
AcDbLine
 10
-51.69604099999999
 20
-33.0
 30
0.0
 11
-18.999998
 21
-33.0
 31
0.0
  0
TEXT
  5
148
330
1E
100
AcDbEntity
  8
MO_001_VIEW_PV
  6
C_SOLID_L
100
AcDbText
 10
-57.215151
 20
11.272427
 30
0.0
 40
3.0
  1
ストロ－ク
100
AcDbText
  0
TEXT
  5
149
330
1E
100
AcDbEntity
  8
MO_001_VIEW_PV
  6
C_SOLID_L
100
AcDbText
 10
-79.488281
 20
-113.0835939999999
 30
0.0
 40
4.167187
  1
SH2LC0730
100
AcDbText
  0
TEXT
  5
14A
330
1E
100
AcDbEntity
  8
MO_001_VIEW_PV
  6
C_SOLID_L
100
AcDbText
 10
4.511719
 20
-101.0835939999999
 30
0.0
 40
4.167187
  1
単位：mm
100
AcDbText
  0
TEXT
  5
14B
330
1E
100
AcDbEntity
  8
MO_001_VIEW_PV
  6
C_SOLID_L
100
AcDbText
 10
4.511719
 20
-107.083594
 30
0.0
 40
4.167187
  1
図はプッシュ側コイルの励磁時を示す
100
AcDbText
  0
TEXT
  5
14C
330
1E
100
AcDbEntity
  8
MO_001_VIEW_PV
  6
C_SOLID_L
100
AcDbText
 10
4.511719
 20
-113.0835939999999
 30
0.0
 40
4.167187
  1
ストロ－ク：3mm%%P0.3
100
AcDbText
  0
TEXT
  5
14D
330
1E
100
AcDbEntity
  8
MO_001_VIEW_PV
  6
C_SOLID_L
100
AcDbText
 10
6.428570999999999
 20
-69.75
 30
0.0
 40
3.0
  1
リ－ド線
100
AcDbText
  0
TEXT
  5
14E
330
1E
100
AcDbEntity
  8
MO_001_VIEW_PV
  6
C_SOLID_L
100
AcDbText
 10
6.428570999999999
 20
-74.25
 30
0.0
 40
3.0
  1
UL1007 AWG.26
100
AcDbText
  0
TEXT
  5
14F
330
1E
100
AcDbEntity
  8
MO_001_VIEW_PV
  6
C_SOLID_L
100
AcDbText
 10
6.428570999999999
 20
-78.75
 30
0.0
 40
3.0
  1
（白、黒）
100
AcDbText
  0
TEXT
  5
150
330
1E
100
AcDbEntity
  8
MO_001_VIEW_PV
  6
C_SOLID_L
100
AcDbText
 10
-47.57142899999999
 20
-78.75
 30
0.0
 40
3.0
  1
（赤、黒）
100
AcDbText
  0
TEXT
  5
151
330
1E
100
AcDbEntity
  8
MO_001_VIEW_PV
  6
C_SOLID_L
100
AcDbText
 10
-71.57142900000001
 20
-69.75
 30
0.0
 40
3.0
  1
リ－ド線
100
AcDbText
  0
TEXT
  5
152
330
1E
100
AcDbEntity
  8
MO_001_VIEW_PV
  6
C_SOLID_L
100
AcDbText
 10
-71.57142900000001
 20
-74.25
 30
0.0
 40
3.0
  1
UL1007 AWG.26
100
AcDbText
  0
TEXT
  5
153
330
1E
100
AcDbEntity
  8
MO_001_VIEW_PV
  6
C_SOLID_L
100
AcDbText
 10
-7.771288
 20
-90.74906199999999
 30
0.0
 40
3.0
  1
プッシュ側
100
AcDbText
  0
TEXT
  5
154
330
1E
100
AcDbEntity
  8
MO_001_VIEW_PV
  6
C_SOLID_L
100
AcDbText
 10
-7.771288
 20
-95.249062
 30
0.0
 40
3.0
  1
コイル
100
AcDbText
  0
TEXT
  5
155
330
1E
100
AcDbEntity
  8
MO_001_VIEW_PV
  6
C_SOLID_L
100
AcDbText
 10
-29.362536
 20
-90.74906199999999
 30
0.0
 40
3.0
  1
プル側
100
AcDbText
  0
TEXT
  5
156
330
1E
100
AcDbEntity
  8
MO_001_VIEW_PV
  6
C_SOLID_L
100
AcDbText
 10
-29.362536
 20
-95.249062
 30
0.0
 40
3.0
  1
コイル
100
AcDbText
  0
TEXT
  5
157
330
1E
100
AcDbEntity
  8
MO_001_VIEW_PV
  6
C_SOLID_L
100
AcDbText
 10
-50.57142699999999
 20
-32.25
 30
0.0
 40
3.0
  1
2-M3 P0.5
100
AcDbText
  0
DIMENSION
  5
159
330
1E
100
AcDbEntity
  8
MO_001_VIEW_PV
  6
C_SOLID_M
100
AcDbDimension
  2
*D0
 10
16.74645199999999
 20
27.0
 30
0.0
 11
16.74645199999999
 21
27.0
 31
0.0
  3
STANDARD
100
AcDbAlignedDimension
 13
12.000001
 23
1.050000999999999
 33
0.0
 14
0.0
 24
7.5
 34
0.0
100
AcDbRotatedDimension
  0
DIMENSION
  5
15B
330
1E
100
AcDbEntity
  8
MO_001_VIEW_PV
  6
C_SOLID_M
100
AcDbDimension
  2
*D1
 10
-15.0
 20
21.0
 30
0.0
 11
-15.0
 21
21.0
 31
0.0
  3
STANDARD
100
AcDbAlignedDimension
 13
0.0
 23
7.5
 33
0.0
 14
-30.0
 24
8.5
 34
0.0
 50
179.97571
100
AcDbRotatedDimension
  0
DIMENSION
  5
15D
330
1E
100
AcDbEntity
  8
MO_001_VIEW_PV
  6
C_SOLID_M
100
AcDbDimension
  2
*D2
 10
-45.0
 20
21.0
 30
0.0
 11
-45.0
 21
21.0
 31
0.0
  3
STANDARD
100
AcDbAlignedDimension
 13
-30.0
 23
8.5
 33
0.0
 14
-39.0
 24
1.05
 34
0.0
100
AcDbRotatedDimension
  0
DIMENSION
  5
15F
330
1E
100
AcDbEntity
  8
MO_001_VIEW_PV
  6
C_SOLID_M
100
AcDbDimension
  2
*D3
 10
-51.0
 20
15.0
 30
0.0
 11
-51.0
 21
15.0
 31
0.0
  3
STANDARD
100
AcDbAlignedDimension
 13
-42.0
 23
1.05
 33
0.0
 14
-39.0
 24
1.05
 34
0.0
100
AcDbRotatedDimension
  0
DIMENSION
  5
161
330
1E
100
AcDbEntity
  8
MO_001_VIEW_PV
  6
C_SOLID_M
100
AcDbDimension
  2
*D4
 10
-57.0
 20
0.0
 30
0.0
 11
-57.0
 21
0.0
 31
0.0
  3
STANDARD
100
AcDbAlignedDimension
 13
-64.5
 23
8.5
 33
0.0
 14
-64.5
 24
-8.5
 34
0.0
 50
89.999523
100
AcDbRotatedDimension
  0
DIMENSION
  5
163
330
1E
100
AcDbEntity
  8
MO_001_VIEW_PV
  6
C_SOLID_M
100
AcDbDimension
  2
*D5
 10
-72.0
 20
-18.0
 30
0.0
 11
-72.0
 21
-18.0
 31
0.0
  3
STANDARD
100
AcDbAlignedDimension
 13
-64.5
 23
-8.5
 33
0.0
 14
-79.5
 24
-8.5
 34
0.0
100
AcDbRotatedDimension
  0
DIMENSION
  5
165
330
1E
100
AcDbEntity
  8
MO_001_VIEW_PV
  6
C_SOLID_M
100
AcDbDimension
  2
*D6
 10
21.0
 20
-58.49835200000001
 30
0.0
 11
21.0
 21
-58.49835200000001
 31
0.0
  3
STANDARD
100
AcDbAlignedDimension
 13
-5.5
 23
-44.0
 33
0.0
 14
-19.5
 24
-52.0
 34
0.0
 50
89.999523
100
AcDbRotatedDimension
  0
DIMENSION
  5
167
330
1E
100
AcDbEntity
  8
MO_001_VIEW_PV
  6
C_SOLID_M
100
AcDbDimension
  2
*D7
 10
-15.0
 20
-27.0
 30
0.0
 11
-15.0
 21
-27.0
 31
0.0
  3
STANDARD
100
AcDbAlignedDimension
 13
-8.0
 23
-41.5
 33
0.0
 14
-22.0
 24
-49.5
 34
0.0
100
AcDbRotatedDimension
  0
DIMENSION
  5
169
330
1E
100
AcDbEntity
  8
MO_001_VIEW_PV
  6
C_SOLID_M
100
AcDbDimension
  2
*D8
 10
8.226013
 20
-27.0
 30
0.0
 11
8.226013
 21
-27.0
 31
0.0
  3
STANDARD
100
AcDbAlignedDimension
 13
-8.0
 23
-41.5
 33
0.0
 14
0.0
 24
-40.49999999999999
 34
0.0
100
AcDbRotatedDimension
  0
DIMENSION
  5
16B
330
1E
100
AcDbEntity
  8
MO_001_VIEW_PV
  6
C_SOLID_M
100
AcDbDimension
  2
*D9
 10
-13.13286799999999
 20
-70.625
 30
0.0
 11
-13.13286799999999
 21
-70.625
 31
0.0
  1
長さ250以上
  3
STANDARD
100
AcDbAlignedDimension
 13
-2.0
 23
-55.5
 33
0.0
 14
-5.200458
 24
-85.75000000000001
 34
0.0
 50
89.999523
100
AcDbRotatedDimension
  0
DIMENSION
  5
16D
330
1E
100
AcDbEntity
  8
MO_001_VIEW_PV
  6
C_SOLID_M
100
AcDbDimension
  2
*D10
 10
24.0
 20
12.0
 30
0.0
 11
24.0
 21
12.0
 31
0.0
  3
STANDARD
100
AcDbAlignedDimension
 13
11.799999
 23
1.25
 33
0.0
 14
11.799999
 24
-1.25
 34
0.0
 50
270.012145
100
AcDbRotatedDimension
  0
DIMENSION
  5
16F
330
1E
100
AcDbEntity
  8
MO_001_VIEW_PV
  6
C_SOLID_M
100
AcDbDimension
  2
*D11
 10
-48.0
 20
-12.683968
 30
0.0
 11
-48.0
 21
-12.683968
 31
0.0
  3
STANDARD
100
AcDbAlignedDimension
 13
-41.799999
 23
1.25
 33
0.0
 14
-41.799999
 24
-1.25
 34
0.0
 50
270.012145
100
AcDbRotatedDimension
  0
DIMENSION
  5
171
330
1E
100
AcDbEntity
  8
MO_001_VIEW_PV
  6
C_SOLID_M
100
AcDbDimension
  2
*D12
 10
-33.0
 20
-18.34032099999999
 30
0.0
 11
-33.0
 21
-18.34032099999999
 31
0.0
  1
t1.2
  3
STANDARD
100
AcDbAlignedDimension
 13
-30.0
 23
-8.5
 33
0.0
 14
-30.0
 24
-7.299999999999999
 34
0.0
 50
89.98785500000002
100
AcDbRotatedDimension
  0
DIMENSION
  5
173
330
1E
100
AcDbEntity
  8
MO_001_VIEW_PV
  6
C_SOLID_M
100
AcDbDimension
  2
*D13
 10
12.0
 20
-15.0
 30
0.0
 11
12.0
 21
-15.0
 31
0.0
  1
(0.5)
  3
STANDARD
100
AcDbAlignedDimension
 13
0.0
 23
-7.5
 33
0.0
 14
0.5
 24
-2.399999999999999
 34
0.0
100
AcDbRotatedDimension
  0
LINE
  5
174
330
1E
100
AcDbEntity
  8
MO_001_VIEW_PV
  6
C_SOLID_L
100
AcDbLine
 10
-9.060657
 20
-42.939334
 30
0.0
 11
-18.999995
 21
-32.999995
 31
0.0
  0
POLYLINE
  5
175
330
1E
100
AcDbEntity
  8
MO_001_VIEW_PV
  6
C_SOLID_L
100
AcDb2dPolyline
 66
     1
 10
0.0
 20
0.0
 30
0.0
 70
     1
  0
VERTEX
  5
22D
330
175
100
AcDbEntity
  8
MO_001_VIEW_PV
  6
C_SOLID_L
100
AcDbVertex
100
AcDb2dVertex
 10
-11.819626
 20
-41.00557499999999
 30
0.0
  0
VERTEX
  5
22E
330
175
100
AcDbEntity
  8
MO_001_VIEW_PV
  6
C_SOLID_L
100
AcDbVertex
100
AcDb2dVertex
 10
-9.419866999999999
 20
-42.580124
 30
0.0
  0
VERTEX
  5
22F
330
175
100
AcDbEntity
  8
MO_001_VIEW_PV
  6
C_SOLID_L
100
AcDbVertex
100
AcDb2dVertex
 10
-10.994416
 20
-40.180365
 30
0.0
  0
SEQEND
  5
230
330
175
100
AcDbEntity
  8
MO_001_VIEW_PV
  6
C_SOLID_L
  0
LINE
  5
17A
330
1E
100
AcDbEntity
  8
MO_001_VIEW_PV
  6
C_SOLID_L
100
AcDbLine
 10
-26.999987
 20
-65.83862899999999
 30
0.0
 11
-32.99999099999999
 21
-74.99998599999999
 31
0.0
  0
POLYLINE
  5
17B
330
1E
100
AcDbEntity
  8
MO_001_VIEW_PV
  6
C_SOLID_L
100
AcDb2dPolyline
 66
     1
 10
0.0
 20
0.0
 30
0.0
 70
     1
  0
VERTEX
  5
231
330
17B
100
AcDbEntity
  8
MO_001_VIEW_PV
  6
C_SOLID_L
100
AcDbVertex
100
AcDb2dVertex
 10
-28.32986099999999
 20
-68.934234
 30
0.0
  0
VERTEX
  5
232
330
17B
100
AcDbEntity
  8
MO_001_VIEW_PV
  6
C_SOLID_L
100
AcDbVertex
100
AcDb2dVertex
 10
-27.27831099999999
 20
-66.263599
 30
0.0
  0
VERTEX
  5
233
330
17B
100
AcDbEntity
  8
MO_001_VIEW_PV
  6
C_SOLID_L
100
AcDbVertex
100
AcDb2dVertex
 10
-29.30614099999999
 20
-68.294844
 30
0.0
  0
SEQEND
  5
234
330
17B
100
AcDbEntity
  8
MO_001_VIEW_PV
  6
C_SOLID_L
  0
LINE
  5
180
330
1E
100
AcDbEntity
  8
MO_001_VIEW_PV
  6
C_SOLID_L
100
AcDbLine
 10
-2.400007
 20
-65.838642
 30
0.0
 11
5.999996
 21
-74.999993
 31
0.0
  0
POLYLINE
  5
181
330
1E
100
AcDbEntity
  8
MO_001_VIEW_PV
  6
C_SOLID_L
100
AcDb2dPolyline
 66
     1
 10
0.0
 20
0.0
 30
0.0
 70
     1
  0
VERTEX
  5
235
330
181
100
AcDbEntity
  8
MO_001_VIEW_PV
  6
C_SOLID_L
100
AcDbVertex
100
AcDb2dVertex
 10
0.272617
 20
-67.89008599999999
 30
0.0
  0
VERTEX
  5
236
330
181
100
AcDbEntity
  8
MO_001_VIEW_PV
  6
C_SOLID_L
100
AcDbVertex
100
AcDb2dVertex
 10
-2.056691999999999
 20
-66.213074
 30
0.0
  0
VERTEX
  5
237
330
181
100
AcDbEntity
  8
MO_001_VIEW_PV
  6
C_SOLID_L
100
AcDbVertex
100
AcDb2dVertex
 10
-0.587561
 20
-68.678779
 30
0.0
  0
SEQEND
  5
238
330
181
100
AcDbEntity
  8
MO_001_VIEW_PV
  6
C_SOLID_L
  0
ENDSEC
  0
SECTION
  2
OBJECTS
  0
DICTIONARY
  5
1A
330
0
100
AcDbDictionary
  3
ACAD_GROUP
350
1B
  3
ACAD_MLINESTYLE
350
1C
  3
ACAD_LAYOUT
350
223
  3
ACAD_PLOTSETTINGS
350
224
1001
ACAD
1000
TREAT_AS_HARD
1070
     0
  0
DICTIONARY
  5
229
330
1E
100
AcDbDictionary
  3
ACAD_LAYOUTSELFREF
350
22A
  0
DICTIONARY
  5
22B
330
1F
100
AcDbDictionary
  3
ACAD_LAYOUTSELFREF
350
22C
  0
DICTIONARY
  5
1B
102
{ACAD_REACTORS
330
1A
102
}
330
1A
100
AcDbDictionary
1001
ACAD
1000
TREAT_AS_HARD
1070
     0
  0
DICTIONARY
  5
1C
102
{ACAD_REACTORS
330
1A
102
}
330
1A
100
AcDbDictionary
  3
STANDARD
350
1D
1001
ACAD
1000
TREAT_AS_HARD
1070
     0
  0
DICTIONARY
  5
223
102
{ACAD_REACTORS
330
1A
102
}
330
1A
100
AcDbDictionary
1001
ACAD
1000
TREAT_AS_HARD
1070
     0
  0
DICTIONARY
  5
224
102
{ACAD_REACTORS
330
1A
102
}
330
1A
100
AcDbDictionary
1001
ACAD
1000
TREAT_AS_HARD
1070
     0
  0
XRECORD
  5
22A
102
{ACAD_REACTORS
330
229
102
}
330
229
100
AcDbXrecord
340
1E
  0
XRECORD
  5
22C
102
{ACAD_REACTORS
330
22B
102
}
330
22B
100
AcDbXrecord
340
1F
  0
MLINESTYLE
  5
1D
102
{ACAD_REACTORS
330
1C
102
}
330
1C
100
AcDbMlineStyle
  2
STANDARD
 70
     0
  3

 62
     0
 51
90.0
 52
90.0
 71
     2
 49
0.5
 62
   256
  6
BYLAYER
 49
-0.5
 62
   256
  6
BYLAYER
  0
ENDSEC
  0
EOF
