  0
SECTION
  2
HEADER
  9
$ACADVER
  1
AC1009
  9
$INSBASE
 10
0.0
 20
0.0
 30
0.0
  9
$EXTMIN
 10
-126.8515862239522
 20
-12.24014201869738
 30
-0.0000000000112498
  9
$EXTMAX
 10
110.16765759169991
 20
89.770889882080837
 30
0.0000000000002956
  9
$LIMMIN
 10
-144.84393310546881
 20
-148.5
  9
$LIMMAX
 10
210.0
 20
128.49999999999989
  9
$ORTHOMODE
 70
     0
  9
$REGENMODE
 70
     1
  9
$FILLMODE
 70
     1
  9
$QTEXTMODE
 70
     0
  9
$MIRRTEXT
 70
     1
  9
$DRAGMODE
 70
     2
  9
$LTSCALE
 40
1.0
  9
$OSMODE
 70
    37
  9
$ATTMODE
 70
     1
  9
$TEXTSIZE
 40
4.1672001374149312
  9
$TRACEWID
 40
0.05
  9
$TEXTSTYLE
  7
STANDARD
  9
$CLAYER
  8
0
  9
$CELTYPE
  6
BYLAYER
  9
$CECOLOR
 62
   256
  9
$DIMSCALE
 40
1.0
  9
$DIMASZ
 40
4.5700000000000003
  9
$DIMEXO
 40
1.5800000000000001
  9
$DIMDLI
 40
9.6500000000000004
  9
$DIMRND
 40
0.0
  9
$DIMDLE
 40
0.0
  9
$DIMEXE
 40
4.5700000000000003
  9
$DIMTP
 40
0.0
  9
$DIMTM
 40
0.0
  9
$DIMTXT
 40
4.1600000000000001
  9
$DIMCEN
 40
2.279999999999998
  9
$DIMTSZ
 40
0.0
  9
$DIMTOL
 70
     0
  9
$DIMLIM
 70
     0
  9
$DIMTIH
 70
     0
  9
$DIMTOH
 70
     0
  9
$DIMSE1
 70
     0
  9
$DIMSE2
 70
     0
  9
$DIMTAD
 70
     1
  9
$DIMZIN
 70
     8
  9
$DIMBLK
  1

  9
$DIMASO
 70
     1
  9
$DIMSHO
 70
     1
  9
$DIMPOST
  1

  9
$DIMAPOST
  1

  9
$DIMALT
 70
     0
  9
$DIMALTD
 70
     4
  9
$DIMALTF
 40
25.399999999999999
  9
$DIMLFAC
 40
1.0
  9
$DIMTOFL
 70
     1
  9
$DIMTVP
 40
0.0
  9
$DIMTIX
 70
     1
  9
$DIMSOXD
 70
     0
  9
$DIMSAH
 70
     0
  9
$DIMBLK1
  1

  9
$DIMBLK2
  1

  9
$DIMSTYLE
  2
STANDARD
  9
$DIMCLRD
 70
     0
  9
$DIMCLRE
 70
     0
  9
$DIMCLRT
 70
     0
  9
$DIMTFAC
 40
1.0
  9
$DIMGAP
 40
2.279999999999998
  9
$LUNITS
 70
     2
  9
$LUPREC
 70
     6
  9
$SKETCHINC
 40
0.1
  9
$FILLETRAD
 40
0.5
  9
$AUNITS
 70
     0
  9
$AUPREC
 70
     4
  9
$MENU
  1
.
  9
$ELEVATION
 40
0.0
  9
$PELEVATION
 40
0.0
  9
$THICKNESS
 40
0.0
  9
$LIMCHECK
 70
     0
  9
$BLIPMODE
 70
     0
  9
$CHAMFERA
 40
0.0
  9
$CHAMFERB
 40
0.0
  9
$SKPOLY
 70
     0
  9
$TDCREATE
 40
2447893.375
  9
$TDUPDATE
 40
2459165.5245294208
  9
$TDINDWG
 40
0.009347419
  9
$TDUSRTIMER
 40
0.0093441551
  9
$USRTIMER
 70
     1
  9
$ANGBASE
 50
0.0
  9
$ANGDIR
 70
     0
  9
$PDMODE
 70
     0
  9
$PDSIZE
 40
0.0
  9
$PLINEWID
 40
0.0
  9
$COORDS
 70
     0
  9
$SPLFRAME
 70
     0
  9
$SPLINETYPE
 70
     6
  9
$SPLINESEGS
 70
     8
  9
$ATTDIA
 70
     0
  9
$ATTREQ
 70
     1
  9
$HANDLING
 70
 10241
  9
$HANDSEED
  5
693
  9
$SURFTAB1
 70
     6
  9
$SURFTAB2
 70
     6
  9
$SURFTYPE
 70
     6
  9
$SURFU
 70
     6
  9
$SURFV
 70
     6
  9
$UCSNAME
  2

  9
$UCSORG
 10
0.0
 20
0.0
 30
0.0
  9
$UCSXDIR
 10
1.0
 20
0.0
 30
0.0
  9
$UCSYDIR
 10
0.0
 20
1.0
 30
0.0
  9
$PUCSNAME
  2

  9
$PUCSORG
 10
0.0
 20
0.0
 30
0.0
  9
$PUCSXDIR
 10
1.0
 20
0.0
 30
0.0
  9
$PUCSYDIR
 10
0.0
 20
1.0
 30
0.0
  9
$USERI1
 70
     0
  9
$USERI2
 70
     0
  9
$USERI3
 70
     0
  9
$USERI4
 70
     0
  9
$USERI5
 70
     0
  9
$USERR1
 40
0.0
  9
$USERR2
 40
0.0
  9
$USERR3
 40
0.0
  9
$USERR4
 40
0.0
  9
$USERR5
 40
0.0
  9
$WORLDVIEW
 70
     1
  9
$SHADEDGE
 70
     3
  9
$SHADEDIF
 70
    70
  9
$TILEMODE
 70
     1
  9
$MAXACTVP
 70
    64
  9
$PLIMCHECK
 70
     0
  9
$PEXTMIN
 10
-144.84393310546881
 20
-148.5
 30
1.0000000000000000E+020
  9
$PEXTMAX
 10
210.0
 20
128.49999999999989
 30
-1.0000000000000000E+020
  9
$PLIMMIN
 10
0.0
 20
0.0
  9
$PLIMMAX
 10
12.0
 20
9.0
  9
$UNITMODE
 70
     0
  9
$VISRETAIN
 70
     0
  9
$PLINEGEN
 70
     0
  9
$PSLTSCALE
 70
     1
  0
ENDSEC
  0
SECTION
  2
TABLES
  0
TABLE
  2
VPORT
 70
     5
  0
VPORT
  2
*ACTIVE
 70
     0
 10
0.0
 20
0.0
 11
1.0
 21
1.0
 12
-8.3419643161261661
 22
38.76537393169172
 13
0.0
 23
0.0
 14
6.3499999046325666
 24
6.3499999046325666
 15
6.3499999046325666
 25
6.3499999046325666
 16
0.0
 26
0.0
 36
1.0
 17
0.0
 27
0.0
 37
0.0
 40
163.2792899044631
 41
1.458837772397094
 42
50.0
 43
0.0
 44
0.0
 50
0.0
 51
0.0
 71
     0
 72
   100
 73
     1
 74
     1
 75
     0
 76
     0
 77
     0
 78
     0
  0
ENDTAB
  0
TABLE
  2
LTYPE
 70
    36
  0
LTYPE
  2
CONTINUOUS
 70
     0
  3
DXF Default line type
 72
    65
 73
     0
 40
0.0
  0
LTYPE
  2
DASHED
 70
     0
  3
DXF Dashed
 72
    65
 73
     2
 40
0.75
 49
0.5
 49
-0.25
  0
LTYPE
  2
HIDDEN
 70
     0
  3
DXF Hidden
 72
    65
 73
     2
 40
0.375
 49
0.25
 49
-0.125
  0
LTYPE
  2
CENTER
 70
     0
  3
DXF Center
 72
    65
 73
     4
 40
2.0
 49
1.25
 49
-0.25
 49
0.25
 49
-0.25
  0
LTYPE
  2
PHANTOM
 70
     0
  3
DXF Phantom
 72
    65
 73
     6
 40
2.5
 49
1.25
 49
-0.25
 49
0.25
 49
-0.25
 49
0.25
 49
-0.25
  0
LTYPE
  2
DOT
 70
     0
  3
DXF DOT
 72
    65
 73
     2
 40
0.25
 49
0.0
 49
-0.25
  0
LTYPE
  2
DASHDOT
 70
     0
  3
DXF Dash Dot
 72
    65
 73
     4
 40
1.0
 49
0.5
 49
-0.25
 49
0.0
 49
-0.25
  0
LTYPE
  2
BORDER
 70
     0
  3
DXF Border
 72
    65
 73
     6
 40
1.75
 49
0.5
 49
-0.25
 49
0.5
 49
-0.25
 49
0.0
 49
-0.25
  0
LTYPE
  2
DIVIDE
 70
     0
  3
DXF Divide
 72
    65
 73
     6
 40
1.25
 49
0.5
 49
-0.25
 49
0.0
 49
-0.25
 49
0.0
 49
-0.25
  0
LTYPE
  2
C_SOLID_L
 70
     0
  3
CADAM Solid Light
 72
    65
 73
     0
 40
0.0
  0
LTYPE
  2
C_SOLID_M
 70
     0
  3
CADAM Solid Medium
 72
    65
 73
     0
 40
0.0
  0
LTYPE
  2
C_SOLID_H
 70
     0
  3
CADAM Solid Heavy
 72
    65
 73
     0
 40
0.0
  0
LTYPE
  2
C_DASHED_L
 70
     0
  3
CADAM Dashed Light
 72
    65
 73
     2
 40
0.375
 49
0.25
 49
-0.125
  0
LTYPE
  2
C_DASHED_M
 70
     0
  3
CADAM Dashed Medium
 72
    65
 73
     2
 40
0.225
 49
0.075
 49
-0.15
  0
LTYPE
  2
C_CENTER_L
 70
     0
  3
CADAM Center Light
 72
    65
 73
     5
 40
3.4500000000000002
 49
1.5
 49
-0.15
 49
0.15
 49
-0.15
 49
1.5
  0
LTYPE
  2
C_PHANTOM_L
 70
     0
  3
CADAM Phantom Light
 72
    65
 73
     7
 40
3.75
 49
1.5
 49
-0.15
 49
0.15
 49
-0.15
 49
0.15
 49
-0.15
 49
1.5
  0
LTYPE
  2
C_NC
 70
     0
  3
CADAM NC
 72
    65
 73
     0
 40
0.0
  0
LTYPE
  2
DSH1
 70
     0
  3
CADAM Style2 Type 1 Dashed Line
 72
    65
 73
     2
 40
0.1
 49
0.05
 49
-0.05
  0
LTYPE
  2
DSH2
 70
     0
  3
CADAM Style2 Type 2 Dashed Line
 72
    65
 73
     2
 40
0.15
 49
0.09
 49
-0.06
  0
LTYPE
  2
DSH3
 70
     0
  3
CADAM Style2 Type 3 Dashed Line
 72
    65
 73
     2
 40
0.24
 49
0.15
 49
-0.09
  0
LTYPE
  2
DSH4
 70
     0
  3
CADAM Style2 Type 4 Dashed Line
 72
    65
 73
     2
 40
0.48
 49
0.39
 49
-0.09
  0
LTYPE
  2
DSH5
 70
     0
  3
CADAM Style2 Type 5 Dashed Line
 72
    65
 73
     2
 40
0.6600000000000003
 49
0.57
 49
-0.09
  0
LTYPE
  2
DSH6
 70
     0
  3
CADAM Style2 Type 6 Dashed Line
 72
    65
 73
     2
 40
1.139999999999999
 49
1.05
 49
-0.09
  0
LTYPE
  2
PL1
 70
     0
  3
Style 2 Type 1 Phantom Line
 72
    65
 73
     6
 40
1.2399999999999971
 49
1.0
 49
-0.06
 49
0.03
 49
-0.06
 49
0.03
 49
-0.06
  0
LTYPE
  2
PL2
 70
     0
  3
Style 2 Type 2 Phantom Line
 72
    65
 73
     6
 40
1.409999999999999
 49
1.05
 49
-0.06
 49
0.09
 49
-0.06
 49
0.09
 49
-0.06
  0
LTYPE
  2
PL3
 70
     0
  3
Style 2 Type 3 Phantom Line
 72
    65
 73
     6
 40
3.0800000000000001
 49
2.4900000000000002
 49
-0.09
 49
0.16
 49
-0.09
 49
0.16
 49
-0.09
  0
LTYPE
  2
CL1
 70
     0
  3
CADAM Style 2 Type 1 Center Line
 72
    65
 73
     4
 40
0.7800000000000003
 49
0.5400000000000002
 49
-0.06
 49
0.12
 49
-0.06
  0
LTYPE
  2
CL2
 70
     0
  3
CADAM Style 2 Type 2 Center Line
 72
    65
 73
     4
 40
1.179999999999999
 49
1.0
 49
-0.06
 49
0.06
 49
-0.06
  0
LTYPE
  2
CL3
 70
     0
  3
CADAM Style 2 Type 3 Center Line
 72
    65
 73
     4
 40
1.26
 49
1.05
 49
-0.06
 49
0.09
 49
-0.06
  0
LTYPE
  2
CL4
 70
     0
  3
CADAM Style 2 Type 4 Center Line
 72
    65
 73
     4
 40
1.98
 49
1.74
 49
-0.06
 49
0.12
 49
-0.06
  0
LTYPE
  2
CL5
 70
     0
  3
CADAM Style 2 Type 5 Center Line
 72
    65
 73
     4
 40
3.9199999999999982
 49
3.6099999999999981
 49
-0.08
 49
0.15
 49
-0.08
  0
LTYPE
  2
SBK1
 70
     0
  3
CADAM Style 2 Type 1 SetBack Line
 72
    65
 73
     8
 40
2.3700000000000001
 49
1.74
 49
-0.09
 49
0.09
 49
-0.09
 49
0.09
 49
-0.09
 49
0.09
 49
-0.09
  0
LTYPE
  2
SBK2
 70
     0
  3
CADAM Style 2 Type 2 SetBack Line
 72
    65
 73
     8
 40
3.3300000000000001
 49
2.4900000000000002
 49
-0.09
 49
0.16
 49
-0.09
 49
0.16
 49
-0.09
 49
0.16
 49
-0.09
  0
LTYPE
  2
STCH
 70
     0
  3
CADAM Style2 Stitch Line
 72
    65
 73
     2
 40
0.12
 49
0.03
 49
-0.09
  0
LTYPE
  2
MTCH
 70
     0
  3
CADAM Style2 Match Line
 72
    65
 73
     6
 40
2.8900000000000001
 49
2.5899999999999981
 49
-0.06
 49
0.06
 49
-0.06
 49
0.06
 49
-0.06
  0
LTYPE
  2
SLD
 70
     0
  3
CADAM Solid_EXT2
 72
    65
 73
     0
 40
0.0
  0
ENDTAB
  0
TABLE
  2
LAYER
 70
     2
  0
LAYER
  2
0
 70
     0
 62
    32
  6
C_SOLID_M
  0
LAYER
  2
DEFPOINTS
 70
     0
 62
     7
  6
CONTINUOUS
  0
ENDTAB
  0
TABLE
  2
STYLE
 70
     1
  0
STYLE
  2
STANDARD
 70
     0
 40
4.1672001374149312
 41
1.0
 50
0.0
 71
     0
 42
4.1672001374149312
  3
monotxt
  4
BIGFONT
  0
ENDTAB
  0
TABLE
  2
VIEW
 70
     0
  0
ENDTAB
  0
TABLE
  2
UCS
 70
     2
  0
UCS
  2
MO_001_VIEW_PV_P
 70
     0
 10
0.0
 20
0.0
 30
0.0
 11
1.0
 21
0.0
 31
0.0
 12
0.0
 22
1.0
 32
0.0
  0
UCS
  2
MO_001_VIEW_ZZ_P
 70
     0
 10
210.0
 20
-148.5
 30
0.0
 11
1.0
 21
0.0
 31
0.0
 12
0.0
 22
1.0
 32
0.0
  0
ENDTAB
  0
TABLE
  2
APPID
 70
     3
  0
APPID
  2
ACAD
 70
     0
  0
APPID
  2
PDELIB
 70
     0
  0
APPID
  2
ACAD_MLEADERVER
 70
     0
  0
ENDTAB
  0
TABLE
  2
DIMSTYLE
 70
     1
  0
DIMSTYLE
  2
STANDARD
 70
     0
  3

  4

  5

  6

  7

 40
1.0
 41
4.5700000000000003
 42
1.5800000000000001
 43
9.6500000000000004
 44
4.5700000000000003
 45
0.0
 46
0.0
 47
0.0
 48
0.0
140
4.1600000000000001
141
2.279999999999998
142
0.0
143
25.399999999999999
144
1.0
145
0.0
146
1.0
147
2.279999999999998
 71
     0
 72
     0
 73
     0
 74
     0
 75
     0
 76
     0
 77
     1
 78
     8
170
     0
171
     4
172
     1
173
     0
174
     1
175
     0
176
     0
177
     0
178
     0
  0
ENDTAB
  0
ENDSEC
  0
SECTION
  2
BLOCKS
  0
BLOCK
  8
0
  2
$MODEL_SPACE
 70
     0
 10
0.0
 20
0.0
 30
0.0
  3
$MODEL_SPACE
  1

  0
ENDBLK
  5
21
  8
0
  0
BLOCK
 67
     1
  8
0
  2
$PAPER_SPACE
 70
     0
 10
0.0
 20
0.0
 30
0.0
  3
$PAPER_SPACE
  1

  0
ENDBLK
  5
1D
 67
     1
  8
0
  0
BLOCK
  8
0
  2
D_0001_
 70
     0
 10
0.0
 20
0.0
 30
0.0
  3
D_0001_
  1

  0
POINT
  5
E4
  8
0
  6
CONTINUOUS
 10
0.0
 20
0.0
 30
0.0
  0
POINT
  5
E5
  8
0
  6
CONTINUOUS
 10
0.0
 20
-5.5
 30
0.0
  0
POINT
  5
E6
  8
0
  6
CONTINUOUS
 10
0.0
 20
-22.0
 30
0.0
  0
POINT
  5
E7
  8
0
  6
CONTINUOUS
 10
0.0
 20
-33.0
 30
0.0
  0
POINT
  5
E8
  8
0
  6
CONTINUOUS
 10
0.0
 20
-11.0
 30
0.0
  0
POINT
  5
E9
  8
0
  6
CONTINUOUS
 10
0.0
 20
-16.5
 30
0.0
  0
POINT
  5
EA
  8
0
  6
CONTINUOUS
 10
0.0
 20
-22.0
 30
0.0
  0
POINT
  5
EB
  8
0
  6
CONTINUOUS
 10
0.0
 20
-27.5
 30
0.0
  0
POINT
  5
EC
  8
0
  6
CONTINUOUS
 10
0.0
 20
-27.5
 30
0.0
  0
POINT
  5
ED
  8
0
  6
CONTINUOUS
 10
0.0
 20
-38.5
 30
0.0
  0
POINT
  5
EE
  8
0
  6
CONTINUOUS
 10
0.0
 20
-44.0
 30
0.0
  0
POINT
  5
EF
  8
0
  6
CONTINUOUS
 10
0.0
 20
-49.5
 30
0.0
  0
POINT
  5
F0
  8
0
  6
CONTINUOUS
 10
0.0
 20
-55.0
 30
0.0
  0
POINT
  5
F1
  8
0
  6
CONTINUOUS
 10
0.0
 20
-66.0
 30
0.0
  0
POINT
  5
F2
  8
0
  6
CONTINUOUS
 10
0.0
 20
-71.5
 30
0.0
  0
POINT
  5
F3
  8
0
  6
CONTINUOUS
 10
0.0
 20
-77.0
 30
0.0
  0
POINT
  5
F4
  8
0
  6
CONTINUOUS
 10
0.0
 20
-77.0
 30
0.0
  0
TEXT
  5
F5
  8
0
 10
-1.2500001192092871
 20
-1.750000000000004
 30
0.0
 40
3.5
  1
注 記
  0
INSERT
  5
F6
  8
0
  2
*U26
 10
0.0
 20
0.0
 30
0.0
  0
INSERT
  5
F7
  8
0
  2
*U27
 10
0.0
 20
0.0
 30
0.0
  0
INSERT
  5
F8
  8
0
  2
*U28
 10
0.0
 20
0.0
 30
0.0
  0
INSERT
  5
F9
  8
0
  2
*U29
 10
0.0
 20
0.0
 30
0.0
  0
INSERT
  5
FA
  8
0
  2
*U30
 10
0.0
 20
0.0
 30
0.0
  0
TEXT
  5
FB
  8
0
 10
-1.2499982118606541
 20
-78.75
 30
0.0
 40
3.5
  1
6.出力その他特性は別紙のカタログにてご参照ください。
  0
ENDBLK
  5
98
  8
0
  0
BLOCK
  8
0
  2
D_0002_
 70
     0
 10
0.0
 20
0.0
 30
0.0
  3
D_0002_
  1

  0
POINT
  5
FC
  8
0
  6
CONTINUOUS
 10
0.0
 20
0.0
 30
0.0
  0
POINT
  5
FD
  8
0
  6
CONTINUOUS
 10
10.65721988677978
 20
-8.1659774780273402
 30
0.0
  0
LINE
  5
FE
  8
0
  6
CONTINUOUS
 10
-18.90000152587891
 20
15.0
 30
0.0
 11
-0.3000012636184683
 21
15.0
 31
0.0
  0
LINE
  5
FF
  8
0
  6
CONTINUOUS
 10
-0.0000000000000009
 20
-14.69999885559082
 30
0.0
 11
0.0000000000000009
 21
14.69999980926514
 31
0.0
  0
LINE
  5
100
  8
0
  6
CONTINUOUS
 10
-19.20000076293945
 20
-14.69999885559082
 30
0.0
 11
-19.20000076293945
 21
14.69999980926514
 31
0.0
  0
LINE
  5
101
  8
0
  6
C_CENTER_L
 10
-25.5
 20
0.0000000000000016
 30
0.0
 11
4.5
 21
-0.0000000000000003
 31
0.0
  0
LINE
  5
102
  8
0
  6
CONTINUOUS
 10
0.0000000000000001
 20
1.5
 30
0.0
 11
6.0999994277954102
 21
1.5
 31
0.0
  0
LINE
  5
103
  8
0
  6
CONTINUOUS
 10
0.0000000379326934
 20
14.699999770799369
 30
0.0
 11
-0.3000014016510589
 21
15.000000881636311
 31
0.0
  0
LINE
  5
104
  8
0
  6
CONTINUOUS
 10
-0.3000004744204148
 20
-15.000000536033159
 30
0.0
 11
-0.0000000379326934
 21
-14.699999770799369
 31
0.0
  0
CIRCLE
  5
105
  8
0
  6
CONTINUOUS
 10
95.0
 20
-0.0000000000000034
 30
0.0
 40
15.0
  0
CIRCLE
  5
106
  8
0
  6
CONTINUOUS
 10
95.0
 20
-0.0000000000000034
 30
0.0
 40
14.69999980926514
  0
LINE
  5
107
  8
0
  6
C_CENTER_L
 10
78.0
 20
-0.0000000000000023
 30
0.0
 11
112.0
 21
-0.0000000000000044
 31
0.0
  0
LINE
  5
108
  8
0
  6
C_CENTER_L
 10
95.0
 20
-17.000000000000011
 30
0.0
 11
95.0
 21
16.999999999999989
 31
0.0
  0
LINE
  5
109
  8
0
  6
C_CENTER_L
 10
92.0
 20
-11.0
 30
0.0
 11
98.0
 21
-11.0
 31
0.0
  0
LINE
  5
10A
  8
0
  6
C_CENTER_L
 10
92.0
 20
10.999999999999989
 30
0.0
 11
98.0
 21
10.999999999999989
 31
0.0
  0
CIRCLE
  5
10B
  8
0
  6
C_SOLID_L
 10
95.0
 20
-11.0
 30
0.0
 40
1.25
  0
CIRCLE
  5
10C
  8
0
  6
C_SOLID_L
 10
95.0
 20
11.0
 30
0.0
 40
1.25
  0
CIRCLE
  5
10D
  8
0
  6
CONTINUOUS
 10
95.0
 20
-11.0
 30
0.0
 40
0.899999976158142
  0
CIRCLE
  5
10E
  8
0
  6
CONTINUOUS
 10
95.0
 20
11.0
 30
0.0
 40
0.899999976158142
  0
CIRCLE
  5
10F
  8
0
  6
CONTINUOUS
 10
95.0
 20
-0.0000000000000034
 30
0.0
 40
1.5
  0
CIRCLE
  5
110
  8
0
  6
CONTINUOUS
 10
95.0
 20
-0.0000000000000034
 30
0.0
 40
1.2000000476837149
  0
ARC
  5
111
  8
0
  6
CONTINUOUS
 10
95.0
 20
-0.0000000000000034
 30
0.0
 40
2.5
 50
43.605088793520288
 51
316.39490756401398
  0
ARC
  5
112
  8
0
  6
CONTINUOUS
 10
95.0
 20
-0.0000000000000034
 30
0.0
 40
1.799999952316284
 50
90.000002504478175
 51
147.819199904226
  0
LINE
  5
113
  8
0
  6
CONTINUOUS
 10
93.640580013951393
 20
0.6339310019425284
 30
0.0
 11
93.561325099150523
 21
0.6708881751742412
 31
0.0
  0
LINE
  5
114
  8
0
  6
CONTINUOUS
 10
93.561325099150523
 20
-0.6708881751742412
 30
0.0
 11
93.640580013951393
 21
-0.6339310019425284
 31
0.0
  0
ARC
  5
115
  8
0
  6
CONTINUOUS
 10
95.0
 20
-0.0000000000000034
 30
0.0
 40
1.799999952316284
 50
212.1808000957738
 51
277.66229495173877
  0
ARC
  5
116
  8
0
  6
CONTINUOUS
 10
93.645805358886719
 20
-0.8521472811698911
 30
0.0
 40
0.2000000029802322
 50
114.9995125649112
 51
212.18097403822671
  0
ARC
  5
117
  8
0
  6
CONTINUOUS
 10
93.645805358886719
 20
0.8521472811698911
 30
0.0
 40
0.2000000029802322
 50
147.81900865892931
 51
245.0004701322448
  0
LINE
  5
118
  8
0
  6
CONTINUOUS
 10
95.5
 20
1.4142135381698531
 30
0.0
 11
95.5
 21
1.486606717109674
 31
0.0
  0
ARC
  5
119
  8
0
  6
CONTINUOUS
 10
95.0
 20
-0.0000000000000034
 30
0.0
 40
1.799999952316284
 50
82.337691387882771
 51
90.000009334667354
  0
ARC
  5
11A
  8
0
  6
CONTINUOUS
 10
95.199996948242188
 20
-1.4866067171096791
 30
0.0
 40
0.3000000119209289
 50
277.66243155552201
 51
359.99999749552182
  0
ARC
  5
11B
  8
0
  6
CONTINUOUS
 10
95.199996948242188
 20
1.4866067171096791
 30
0.0
 40
0.3000000119209289
 50
359.99999749552182
 51
82.337575274666875
  0
LINE
  5
11C
  8
0
  6
CONTINUOUS
 10
95.5
 20
-1.4866067171096859
 30
0.0
 11
95.5
 21
-1.4142135381698651
 31
0.0
  0
LINE
  5
11D
  8
0
  6
CONTINUOUS
 10
96.805167396833895
 20
-1.305173910966914
 30
0.0
 11
96.280766201392439
 21
-0.7807727155254725
 31
0.0
  0
LINE
  5
11E
  8
0
  6
CONTINUOUS
 10
96.280766201392439
 20
0.7807727155254725
 30
0.0
 11
96.805167396833895
 21
1.305173910966914
 31
0.0
  0
ARC
  5
11F
  8
0
  6
CONTINUOUS
 10
96.593048095703125
 20
-1.5173047780990601
 30
0.0
 40
0.3000000119209289
 50
316.39480533854749
 51
44.999919289969043
  0
ARC
  5
120
  8
0
  6
CONTINUOUS
 10
96.593048095703125
 20
1.5173047780990601
 30
0.0
 40
0.3000000119209289
 50
315.00008071003077
 51
43.605191246357847
  0
ARC
  5
121
  8
0
  6
CONTINUOUS
 10
95.0
 20
-0.0000000000000034
 30
0.0
 40
2.0
 50
325.18208959257908
 51
34.817903577231753
  0
LINE
  5
122
  8
0
  6
CONTINUOUS
 10
-19.20000084748693
 20
-14.700000478887249
 30
0.0
 11
-18.900001650115708
 21
-15.00000046018874
 31
0.0
  0
LINE
  5
123
  8
0
  6
CONTINUOUS
 10
-19.20000084748693
 20
14.700000478887249
 30
0.0
 11
-18.900001650115708
 21
15.00000046018874
 31
0.0
  0
LINE
  5
124
  8
0
  6
CONTINUOUS
 10
-18.90000152587891
 20
-15.0
 30
0.0
 11
-0.3000006675720224
 21
-15.0
 31
0.0
  0
LINE
  5
125
  8
0
  6
CONTINUOUS
 10
6.5999994277954102
 20
1.5
 30
0.0
 11
15.09999942779541
 21
1.4999999999999989
 31
0.0
  0
LINE
  5
126
  8
0
  6
CONTINUOUS
 10
6.5999994277954102
 20
-1.5
 30
0.0
 11
15.09999942779541
 21
-1.5
 31
0.0
  0
LINE
  5
127
  8
0
  6
CONTINUOUS
 10
15.5
 20
-1.100000143051147
 30
0.0
 11
15.5
 21
1.100000023841855
 31
0.0
  0
LINE
  5
128
  8
0
  6
CONTINUOUS
 10
6.0999994277954102
 20
-1.0
 30
0.0
 11
6.1999998092651367
 21
-1.0
 31
0.0
  0
LINE
  5
129
  8
0
  6
CONTINUOUS
 10
6.0999994277954102
 20
0.9999999999999996
 30
0.0
 11
6.1999998092651367
 21
0.9999999999999996
 31
0.0
  0
LINE
  5
12A
  8
0
  6
CONTINUOUS
 10
6.5999994277954102
 20
-2.5
 30
0.0
 11
6.5999994277954102
 21
2.5
 31
0.0
  0
LINE
  5
12B
  8
0
  6
CONTINUOUS
 10
6.0999994277954102
 20
-1.5
 30
0.0
 11
6.0999994277954102
 21
1.5
 31
0.0
  0
LINE
  5
12C
  8
0
  6
CONTINUOUS
 10
6.1999998092651367
 20
2.5
 30
0.0
 11
6.5999994277954102
 21
2.5
 31
0.0
  0
LINE
  5
12D
  8
0
  6
CONTINUOUS
 10
6.1999998092651367
 20
-2.5
 30
0.0
 11
6.5999994277954102
 21
-2.5
 31
0.0
  0
LINE
  5
12E
  8
0
  6
CONTINUOUS
 10
-0.0000000000000001
 20
-1.5
 30
0.0
 11
6.0999994277954102
 21
-1.5
 31
0.0
  0
LINE
  5
12F
  8
0
  6
CONTINUOUS
 10
6.1999998092651367
 20
-2.5
 30
0.0
 11
6.1999998092651367
 21
2.5
 31
0.0
  0
LINE
  5
130
  8
0
  6
C_CENTER_L
 10
-25.53468704223631
 20
0.0000000000000016
 30
0.0
 11
17.75
 21
-0.0000000000000011
 31
0.0
  0
CIRCLE
  5
131
  8
0
  6
CONTINUOUS
 10
-108.0
 20
0.0000000000000036
 30
0.0
 40
15.0
  0
CIRCLE
  5
132
  8
0
  6
CONTINUOUS
 10
-108.0
 20
0.0000000000000036
 30
0.0
 40
14.69999980926514
  0
CIRCLE
  5
133
  8
0
  6
CONTINUOUS
 10
-108.0
 20
0.0000000000000036
 30
0.0
 40
2.160000085830688
  0
LINE
  5
134
  8
0
  6
C_CENTER_L
 10
-108.0
 20
-2.9999999999999929
 30
0.0
 11
-108.0
 21
3.0000000000000062
 31
0.0
  0
LINE
  5
135
  8
0
  6
C_CENTER_L
 10
-105.0
 20
0.0000000000000105
 30
0.0
 11
-111.0
 21
0.0000000000000112
 31
0.0
  0
LINE
  5
136
  8
0
  6
CONTINUOUS
 10
-108.00000353237191
 20
-2.159995503815026
 30
0.0
 11
-109.87061506394819
 21
-1.0799976162033991
 31
0.0
  0
LINE
  5
137
  8
0
  6
CONTINUOUS
 10
-109.87060546875
 20
-1.079999923706048
 30
0.0
 11
-109.87060546875
 21
1.07999992370606
 31
0.0
  0
LINE
  5
138
  8
0
  6
CONTINUOUS
 10
-109.87061009815849
 20
1.0799981857067
 30
0.0
 11
-107.9999988240736
 21
2.1599964595557131
 31
0.0
  0
LINE
  5
139
  8
0
  6
CONTINUOUS
 10
-107.9999927393269
 20
2.1600050676856881
 30
0.0
 11
-106.1293814652422
 21
1.080006793836674
 31
0.0
  0
LINE
  5
13A
  8
0
  6
CONTINUOUS
 10
-106.1293792724608
 20
1.07999992370606
 30
0.0
 11
-106.1293792724608
 21
-1.079999923706048
 31
0.0
  0
LINE
  5
13B
  8
0
  6
CONTINUOUS
 10
-106.12939344977489
 20
-1.0800120102639961
 30
0.0
 11
-108.000004981351
 21
-2.160009897875625
 31
0.0
  0
CIRCLE
  5
13C
  8
0
  6
CONTINUOUS
 10
-108.0
 20
0.0000000000000036
 30
0.0
 40
1.0
  0
CIRCLE
  5
13D
  8
0
  6
CONTINUOUS
 10
-108.0
 20
0.0000000000000036
 30
0.0
 40
0.8000000119209291
  0
CIRCLE
  5
13E
  8
0
  6
CONTINUOUS
 10
-108.0
 20
0.0000000000000036
 30
0.0
 40
1.8706151247024541
  0
CIRCLE
  5
13F
  8
0
  6
CONTINUOUS
 10
95.0
 20
-0.0000000000000034
 30
0.0
 40
13.399999618530259
  0
CIRCLE
  5
140
  8
0
  6
CONTINUOUS
 10
-108.0
 20
0.0000000000000036
 30
0.0
 40
2.160000085830688
  0
LINE
  5
141
  8
0
  6
C_CENTER_L
 10
-108.0
 20
-2.9999999999999929
 30
0.0
 11
-108.0
 21
3.0000000000000062
 31
0.0
  0
LINE
  5
142
  8
0
  6
C_CENTER_L
 10
-105.0
 20
0.0000000000000036
 30
0.0
 11
-111.0
 21
0.0000000000000036
 31
0.0
  0
LINE
  5
143
  8
0
  6
C_CENTER_L
 10
-125.0
 20
0.0000000000000036
 30
0.0
 11
-91.0
 21
0.0000000000000036
 31
0.0
  0
LINE
  5
144
  8
0
  6
C_CENTER_L
 10
-108.0
 20
-16.999999999999989
 30
0.0
 11
-108.0
 21
17.000000000000011
 31
0.0
  0
ARC
  5
145
  8
0
  6
CONTINUOUS
 10
-108.0
 20
0.0000000000000036
 30
0.0
 40
12.899999618530259
 50
89.999988844099846
 51
160.76417057020581
  0
CIRCLE
  5
146
  8
0
  6
CONTINUOUS
 10
-112.9497375488279
 20
-4.949737548828125
 30
0.0
 40
1.0
  0
CIRCLE
  5
147
  8
0
  6
CONTINUOUS
 10
-112.9497375488279
 20
4.949737548828125
 30
0.0
 40
1.0
  0
CIRCLE
  5
148
  8
0
  6
CONTINUOUS
 10
-103.0502471923828
 20
-4.949737548828125
 30
0.0
 40
1.0
  0
CIRCLE
  5
149
  8
0
  6
CONTINUOUS
 10
-103.0502471923828
 20
4.949737548828125
 30
0.0
 40
1.0
  0
ARC
  5
14A
  8
0
  6
CONTINUOUS
 10
-108.0
 20
0.0000000000000036
 30
0.0
 40
9.3500003814697266
 50
89.999988844099846
 51
150.55287383649701
  0
ARC
  5
14B
  8
0
  6
CONTINUOUS
 10
-108.0
 20
0.0000000000000036
 30
0.0
 40
12.899999618530259
 50
199.2358430901721
 51
89.999988844099846
  0
ARC
  5
14C
  8
0
  6
CONTINUOUS
 10
-108.0
 20
0.0000000000000036
 30
0.0
 40
12.899999618530259
 50
160.76415690982779
 51
199.23582578732811
  0
ARC
  5
14D
  8
0
  6
CONTINUOUS
 10
-108.0
 20
0.0000000000000036
 30
0.0
 40
9.3500003814697266
 50
209.44712616350299
 51
89.999988844099846
  0
ARC
  5
14E
  8
0
  6
CONTINUOUS
 10
-108.0
 20
0.0000000000000036
 30
0.0
 40
10.35000038146973
 50
168.0784152466974
 51
170.26948529092439
  0
ARC
  5
14F
  8
0
  6
CONTINUOUS
 10
-108.0
 20
0.0000000000000036
 30
0.0
 40
12.0
 50
203.03569589150379
 51
156.96429044811791
  0
LINE
  5
150
  8
0
  6
C_CENTER_L
 10
-121.37896728515619
 20
-2.0
 30
0.0
 11
-114.17596435546869
 21
-2.0
 31
0.0
  0
LINE
  5
151
  8
0
  6
C_CENTER_L
 10
-121.37896728515619
 20
2.0
 30
0.0
 11
-114.17596435546869
 21
2.0
 31
0.0
  0
CIRCLE
  5
152
  8
0
  6
CONTINUOUS
 10
-108.0
 20
0.0000000000000036
 30
0.0
 40
3.5
  0
CIRCLE
  5
153
  8
0
  6
CONTINUOUS
 10
-108.0
 20
0.0000000000000036
 30
0.0
 40
1.0
  0
LINE
  5
154
  8
0
  6
CONTINUOUS
 10
-120.6554260253904
 20
-2.5000000000000151
 30
0.0
 11
-118.4202880859374
 21
-2.5000000000000151
 31
0.0
  0
LINE
  5
155
  8
0
  6
CONTINUOUS
 10
-120.8125
 20
-1.500000000000004
 30
0.0
 11
-118.4967803955077
 21
-1.500000000000004
 31
0.0
  0
LINE
  5
156
  8
0
  6
CONTINUOUS
 10
-120.6554260253904
 20
2.499999999999984
 30
0.0
 11
-118.4202880859374
 21
2.499999999999984
 31
0.0
  0
LINE
  5
157
  8
0
  6
CONTINUOUS
 10
-120.8125
 20
1.4999999999999949
 30
0.0
 11
-118.4967803955077
 21
1.4999999999999949
 31
0.0
  0
LINE
  5
158
  8
0
  6
CONTINUOUS
 10
-115.3999938964844
 20
3.6000061035156312
 30
0.0
 11
-115.3999938964844
 21
-3.599990844726555
 31
0.0
  0
ARC
  5
159
  8
0
  6
CONTINUOUS
 10
-108.0
 20
0.0000000000000036
 30
0.0
 40
10.35000038146973
 50
189.73051470907549
 51
191.92158475330231
  0
ARC
  5
15A
  8
0
  6
CONTINUOUS
 10
-116.7549285888672
 20
-2.0
 30
0.0
 40
0.3000000119209289
 50
146.44268456003661
 51
213.55731179749739
  0
LINE
  5
15B
  8
0
  6
C_CENTER_L
 10
-116.7549285888672
 20
3.0000000000000062
 30
0.0
 11
-116.7549285888672
 21
-2.9999999999999929
 31
0.0
  0
LINE
  5
15C
  8
0
  6
CONTINUOUS
 10
-115.79998779296881
 20
4.0000000000000062
 30
0.0
 11
-115.7937469482422
 21
4.0000000000000062
 31
0.0
  0
LINE
  5
15D
  8
0
  6
CONTINUOUS
 10
-115.79998779296881
 20
4.0000000000000062
 30
0.0
 11
-115.7937469482422
 21
4.0000000000000062
 31
0.0
  0
LINE
  5
15E
  8
0
  6
CONTINUOUS
 10
-115.7937469482422
 20
-3.9999999999999929
 30
0.0
 11
-115.6999969482422
 21
-3.9999999999999929
 31
0.0
  0
LINE
  5
15F
  8
0
  6
CONTINUOUS
 10
-120.26417541503911
 20
-3.9999999999999911
 30
0.0
 11
-115.79998779296881
 21
-3.9999999999999929
 31
0.0
  0
ARC
  5
160
  8
0
  6
CONTINUOUS
 10
-115.7937469482422
 20
-4.399993896484375
 30
0.0
 40
0.4000000059604645
 50
90.000002504478175
 51
209.4471771625507
  0
LINE
  5
161
  8
0
  6
CONTINUOUS
 10
-120.26417541503911
 20
3.999999999999996
 30
0.0
 11
-115.7937469482422
 21
3.999999999999996
 31
0.0
  0
ARC
  5
162
  8
0
  6
CONTINUOUS
 10
-115.7937469482422
 20
4.4000015258789062
 30
0.0
 40
0.4000000059604645
 50
150.5529284780101
 51
270.00000068324528
  0
ARC
  5
163
  8
0
  6
CONTINUOUS
 10
-118.4967803955077
 20
-1.799995422363281
 30
0.0
 40
0.3000000119209289
 50
9.730571798224366
 51
89.999988844099846
  0
ARC
  5
164
  8
0
  6
CONTINUOUS
 10
-118.4202880859374
 20
-2.1999969482421871
 30
0.0
 40
0.3000000119209289
 50
269.99999749552182
 51
11.92155902640741
  0
ARC
  5
165
  8
0
  6
CONTINUOUS
 10
-118.4202880859374
 20
2.2000045776367192
 30
0.0
 40
0.3000000119209289
 50
348.0784623179336
 51
89.999988844099846
  0
ARC
  5
166
  8
0
  6
CONTINUOUS
 10
-118.4967803955077
 20
1.8000030517578101
 30
0.0
 40
0.3000000119209289
 50
269.99999749552182
 51
350.26961347065691
  0
LINE
  5
167
  8
0
  6
CONTINUOUS
 10
-119.3999938964844
 20
-2.4999999999999929
 30
0.0
 11
-119.3999938964844
 21
-3.4999999999999929
 31
0.0
  0
LINE
  5
168
  8
0
  6
CONTINUOUS
 10
-119.3999938964844
 20
1.500000000000006
 30
0.0
 11
-119.3999938964844
 21
-1.4999999999999929
 31
0.0
  0
LINE
  5
169
  8
0
  6
CONTINUOUS
 10
-119.3999938964844
 20
3.5000000000000062
 30
0.0
 11
-119.3999938964844
 21
2.500000000000004
 31
0.0
  0
ARC
  5
16A
  8
0
  6
CONTINUOUS
 10
-118.8999938964844
 20
3.5
 30
0.0
 40
0.5
 50
90.000002504478175
 51
179.99999134857799
  0
ARC
  5
16B
  8
0
  6
CONTINUOUS
 10
-118.8999938964844
 20
-3.5
 30
0.0
 40
0.5
 50
180.00000865142201
 51
269.99999749552182
  0
ARC
  5
16C
  8
0
  6
CONTINUOUS
 10
-118.5830078124999
 20
4.5
 30
0.0
 40
0.5
 50
156.96424946698281
 51
270.00000068324528
  0
ARC
  5
16D
  8
0
  6
CONTINUOUS
 10
-118.5830078124999
 20
-4.5
 30
0.0
 40
0.5
 50
90.000002504478175
 51
203.03573323017309
  0
ARC
  5
16E
  8
0
  6
CONTINUOUS
 10
-115.79998779296881
 20
-3.5999908447265621
 30
0.0
 40
0.4000000059604645
 50
269.99999749552182
 51
0.000010017912262
  0
ARC
  5
16F
  8
0
  6
CONTINUOUS
 10
-115.79998779296881
 20
3.600006103515625
 30
0.0
 40
0.4000000059604645
 50
0.0000111558998674
 51
89.999988844099846
  0
LINE
  5
170
  8
0
  6
CONTINUOUS
 10
15.0999994578612
 20
-1.500000766306073
 30
0.0
 11
15.499999410452279
 21
-1.1000009485848641
 31
0.0
  0
LINE
  5
171
  8
0
  6
CONTINUOUS
 10
15.49999978134468
 20
1.0999997684730829
 30
0.0
 11
15.099999963623469
 21
1.49999972106417
 31
0.0
  0
LINE
  5
172
  8
0
  6
C_SOLID_L
 10
15.09999942779541
 20
-1.5
 30
0.0
 11
15.09999942779541
 21
1.4999999999999989
 31
0.0
  0
LINE
  5
173
  8
0
  6
CONTINUOUS
 10
-24.856647491455082
 20
-6.1950001716613743
 30
0.0
 11
-19.20000076293945
 21
-6.1950001716613761
 31
0.0
  0
LINE
  5
174
  8
0
  6
CONTINUOUS
 10
-24.856647491455082
 20
-7.7950005531311017
 30
0.0
 11
-19.20000076293945
 21
-7.7950005531311017
 31
0.0
  0
LINE
  5
175
  8
0
  6
CONTINUOUS
 10
-25.5
 20
-7.4949998855590794
 30
0.0
 11
-25.5
 21
-6.4950008392333967
 31
0.0
  0
LINE
  5
176
  8
0
  6
CONTINUOUS
 10
-24.856650064760728
 20
-7.795001128110016
 30
0.0
 11
-25.500003322291828
 21
-7.4950005811724623
 31
0.0
  0
LINE
  5
177
  8
0
  6
CONTINUOUS
 10
-25.50000308191197
 20
-6.4950012832419457
 30
0.0
 11
-24.856649824380881
 21
-6.195000736304392
 31
0.0
  0
LINE
  5
178
  8
0
  6
CONTINUOUS
 10
-0.3000006675720224
 20
-15.0
 30
0.0
 11
-0.3000006675720205
 21
15.0
 31
0.0
  0
LINE
  5
179
  8
0
  6
CONTINUOUS
 10
-18.90000152587891
 20
-15.0
 30
0.0
 11
-18.90000152587891
 21
15.0
 31
0.0
  0
LINE
  5
17A
  8
0
  6
CONTINUOUS
 10
-21.0
 20
-2.4999999999999991
 30
0.0
 11
-21.0
 21
2.5
 31
0.0
  0
LINE
  5
17B
  8
0
  6
CONTINUOUS
 10
-21.0
 20
2.5
 30
0.0
 11
-19.20000076293945
 21
2.5
 31
0.0
  0
LINE
  5
17C
  8
0
  6
CONTINUOUS
 10
-21.0
 20
-2.4999999999999991
 30
0.0
 11
-19.20000076293945
 21
-2.4999999999999991
 31
0.0
  0
LINE
  5
17D
  8
0
  6
CONTINUOUS
 10
-24.0
 20
-0.800003051757811
 30
0.0
 11
-24.0
 21
0.8000030517578139
 31
0.0
  0
LINE
  5
17E
  8
0
  6
CONTINUOUS
 10
-23.799999237060529
 20
1.0000000000000011
 30
0.0
 11
-23.39999961853027
 21
1.0000000000000011
 31
0.0
  0
LINE
  5
17F
  8
0
  6
CONTINUOUS
 10
-23.799999237060529
 20
-0.9999999999999985
 30
0.0
 11
-23.39999961853027
 21
-0.9999999999999985
 31
0.0
  0
LINE
  5
180
  8
0
  6
C_SOLID_L
 10
-24.0
 20
0.8000030517578139
 30
0.0
 11
-23.39999961853027
 21
0.8000030517578139
 31
0.0
  0
LINE
  5
181
  8
0
  6
C_SOLID_L
 10
-24.0
 20
-0.800003051757811
 30
0.0
 11
-23.39999961853027
 21
-0.800003051757811
 31
0.0
  0
LINE
  5
182
  8
0
  6
CONTINUOUS
 10
-23.799989120693439
 20
-1.000009153784275
 30
0.0
 11
-23.99999041197065
 21
-0.8000078625070726
 31
0.0
  0
LINE
  5
183
  8
0
  6
CONTINUOUS
 10
-23.99999041197065
 20
0.7999916781175216
 30
0.0
 11
-23.799994515489971
 21
0.9999875745982079
 31
0.0
  0
LINE
  5
184
  8
0
  6
C_SOLID_L
 10
-23.799999237060529
 20
-0.9999999999999985
 30
0.0
 11
-23.799999237060529
 21
1.0000000000000011
 31
0.0
  0
LINE
  5
185
  8
0
  6
CONTINUOUS
 10
-21.0
 20
-2.4999999999999991
 30
0.0
 11
-21.0
 21
2.5
 31
0.0
  0
LINE
  5
186
  8
0
  6
CONTINUOUS
 10
-21.29999923706054
 20
2.5
 30
0.0
 11
-21.0
 21
2.5
 31
0.0
  0
LINE
  5
187
  8
0
  6
CONTINUOUS
 10
-21.29999923706054
 20
-2.4999999999999991
 30
0.0
 11
-21.0
 21
-2.4999999999999991
 31
0.0
  0
LINE
  5
188
  8
0
  6
CONTINUOUS
 10
-21.29999923706054
 20
-2.4999999999999991
 30
0.0
 11
-21.29999923706054
 21
2.5
 31
0.0
  0
LINE
  5
189
  8
0
  6
CONTINUOUS
 10
-21.79999923706055
 20
2.1999969482421871
 30
0.0
 11
-21.29999923706054
 21
2.1999969482421871
 31
0.0
  0
LINE
  5
18A
  8
0
  6
CONTINUOUS
 10
-21.79999923706055
 20
-2.1999969482421862
 30
0.0
 11
-21.29999923706054
 21
-2.1999969482421862
 31
0.0
  0
LINE
  5
18B
  8
0
  6
CONTINUOUS
 10
-21.79999923706055
 20
-2.1999969482421862
 30
0.0
 11
-21.79999923706055
 21
2.1999969482421871
 31
0.0
  0
LINE
  5
18C
  8
0
  6
CONTINUOUS
 10
-23.39999961853027
 20
-1.6199951171874989
 30
0.0
 11
-23.39999961853027
 21
1.6199951171875
 31
0.0
  0
LINE
  5
18D
  8
0
  6
CONTINUOUS
 10
-23.203456878662109
 20
2.160003662109375
 30
0.0
 11
-21.99654388427734
 21
2.160003662109375
 31
0.0
  0
LINE
  5
18E
  8
0
  6
CONTINUOUS
 10
-23.203456878662109
 20
-2.1600036621093741
 30
0.0
 11
-21.99654388427734
 21
-2.1600036621093741
 31
0.0
  0
LINE
  5
18F
  8
0
  6
CONTINUOUS
 10
-23.203456413638889
 20
-2.1600023169511928
 30
0.0
 11
-23.39999953512466
 21
-1.620004548056329
 31
0.0
  0
LINE
  5
190
  8
0
  6
CONTINUOUS
 10
-21.99653859899388
 20
-2.1600011247595581
 30
0.0
 11
-21.799995477508109
 21
-1.620003355864696
 31
0.0
  0
LINE
  5
191
  8
0
  6
CONTINUOUS
 10
-23.399993344366461
 20
1.6199992501674929
 30
0.0
 11
-23.20345022288069
 21
2.1599970190623581
 31
0.0
  0
LINE
  5
192
  8
0
  6
CONTINUOUS
 10
-21.799997592714011
 20
1.61999243720254
 30
0.0
 11
-21.996543323606481
 21
2.1599973753831141
 31
0.0
  0
LINE
  5
193
  8
0
  6
CONTINUOUS
 10
-23.20000076293945
 20
-1.0800018310546851
 30
0.0
 11
-22.0
 21
-1.0800018310546851
 31
0.0
  0
LINE
  5
194
  8
0
  6
CONTINUOUS
 10
-23.20000076293945
 20
1.0800018310546891
 30
0.0
 11
-22.0
 21
1.0800018310546891
 31
0.0
  0
ARC
  5
195
  8
0
  6
CONTINUOUS
 10
-20.384000778198239
 20
0.0000000000000012
 30
0.0
 40
3.0160002708435059
 50
159.0170491616519
 51
200.9829608562608
  0
ARC
  5
196
  8
0
  6
CONTINUOUS
 10
-24.81600189208984
 20
0.0000000000000015
 30
0.0
 40
3.0160009860992432
 50
339.0170492753374
 51
20.982954139757169
  0
ARC
  5
197
  8
0
  6
CONTINUOUS
 10
-22.820707321166982
 20
-1.517852783203125
 30
0.0
 40
0.5792920589447022
 50
130.9007803489695
 51
200.00000101204759
  0
ARC
  5
198
  8
0
  6
CONTINUOUS
 10
-22.820707321166982
 20
1.517852783203125
 30
0.0
 40
0.5792924165725708
 50
159.99999534548661
 51
229.09920234818651
  0
ARC
  5
199
  8
0
  6
CONTINUOUS
 10
-22.379291534423832
 20
-1.517852783203125
 30
0.0
 40
0.5792923569679263
 50
340.0000022893613
 51
49.099204169419359
  0
ARC
  5
19A
  8
0
  6
CONTINUOUS
 10
-22.379293441772461
 20
1.517852783203125
 30
0.0
 40
0.5792927145957947
 50
310.9008060758643
 51
20.000001125733132
  0
LINE
  5
19B
  8
0
  6
CONTINUOUS
 10
-117.0049285888669
 20
-2.2499999999999929
 30
0.0
 11
-116.5049285888672
 21
-2.2499999999999929
 31
0.0
  0
LINE
  5
19C
  8
0
  6
CONTINUOUS
 10
-117.0049285888669
 20
-1.7499999999999929
 30
0.0
 11
-116.5049285888672
 21
-1.7499999999999929
 31
0.0
  0
LINE
  5
19D
  8
0
  6
CONTINUOUS
 10
-116.5049285888672
 20
-2.2499999999999929
 30
0.0
 11
-116.5049285888672
 21
-1.7499999999999929
 31
0.0
  0
LINE
  5
19E
  8
0
  6
CONTINUOUS
 10
-117.0049285888669
 20
-2.2499999999999929
 30
0.0
 11
-117.0049285888669
 21
-1.7499999999999929
 31
0.0
  0
ARC
  5
19F
  8
0
  6
CONTINUOUS
 10
-116.7549285888672
 20
-2.0
 30
0.0
 40
0.3000000119209289
 50
56.442685470653153
 51
123.55731612320859
  0
ARC
  5
1A0
  8
0
  6
CONTINUOUS
 10
-116.7549285888672
 20
-2.0
 30
0.0
 40
0.3000000119209289
 50
326.44268296617503
 51
33.557313618730433
  0
ARC
  5
1A1
  8
0
  6
CONTINUOUS
 10
-116.7549285888672
 20
-2.0
 30
0.0
 40
0.3000000119209289
 50
236.44268387679139
 51
303.55732135953588
  0
ARC
  5
1A2
  8
0
  6
CONTINUOUS
 10
-116.7549285888672
 20
2.0
 30
0.0
 40
0.3000000119209289
 50
236.44268387679139
 51
303.55732135953588
  0
LINE
  5
1A3
  8
0
  6
CONTINUOUS
 10
-117.0049285888669
 20
1.750000000000006
 30
0.0
 11
-117.0049285888669
 21
2.250000000000004
 31
0.0
  0
ARC
  5
1A4
  8
0
  6
CONTINUOUS
 10
-116.7549285888672
 20
2.0
 30
0.0
 40
0.3000000119209289
 50
146.44268456003661
 51
213.55731179749739
  0
LINE
  5
1A5
  8
0
  6
CONTINUOUS
 10
-117.0049285888669
 20
1.750000000000006
 30
0.0
 11
-116.5049285888672
 21
1.750000000000006
 31
0.0
  0
LINE
  5
1A6
  8
0
  6
CONTINUOUS
 10
-116.5049285888672
 20
1.750000000000006
 30
0.0
 11
-116.5049285888672
 21
2.250000000000004
 31
0.0
  0
ARC
  5
1A7
  8
0
  6
CONTINUOUS
 10
-116.7549285888672
 20
2.0
 30
0.0
 40
0.3000000119209289
 50
326.44268296617503
 51
33.557313618730433
  0
LINE
  5
1A8
  8
0
  6
CONTINUOUS
 10
-117.0049285888669
 20
2.250000000000004
 30
0.0
 11
-116.5049285888672
 21
2.250000000000004
 31
0.0
  0
ARC
  5
1A9
  8
0
  6
CONTINUOUS
 10
-116.7549285888672
 20
2.0
 30
0.0
 40
0.3000000119209289
 50
56.442685470653153
 51
123.55731612320859
  0
LINE
  5
1AA
  8
0
  6
CONTINUOUS
 10
-21.700000762939439
 20
-3.9999999999999978
 30
0.0
 11
-19.20000076293945
 21
-3.9999999999999978
 31
0.0
  0
LINE
  5
1AB
  8
0
  6
CONTINUOUS
 10
-21.700000762939439
 20
4.0
 30
0.0
 11
-19.20000076293945
 21
4.0
 31
0.0
  0
LINE
  5
1AC
  8
0
  6
CONTINUOUS
 10
-21.700000762939439
 20
2.1999969482421871
 30
0.0
 11
-21.700000762939439
 21
4.0
 31
0.0
  0
LINE
  5
1AD
  8
0
  6
CONTINUOUS
 10
-21.700000762939439
 20
-3.9999999999999978
 30
0.0
 11
-21.700000762939439
 21
-2.1999969482421862
 31
0.0
  0
LINE
  5
1AE
  8
0
  6
CONTINUOUS
 10
-18.90000152587891
 20
-55.0
 30
0.0
 11
-0.3000012636184726
 21
-55.0
 31
0.0
  0
LINE
  5
1AF
  8
0
  6
CONTINUOUS
 10
-0.0000000000000009
 20
-84.699996948242188
 30
0.0
 11
0.0000000000000009
 21
-55.299999237060533
 31
0.0
  0
LINE
  5
1B0
  8
0
  6
CONTINUOUS
 10
-19.20000076293946
 20
-84.699996948242188
 30
0.0
 11
-19.20000076293946
 21
-55.299999237060533
 31
0.0
  0
LINE
  5
1B1
  8
0
  6
CONTINUOUS
 10
0.0000006279883564
 20
-55.30000331231372
 30
0.0
 11
-0.3000014859453586
 21
-55.000001527127537
 31
0.0
  0
LINE
  5
1B2
  8
0
  6
CONTINUOUS
 10
-0.3000012330646769
 20
-85.000002270447794
 30
0.0
 11
0.0000005521214916
 21
-84.700000156514065
 31
0.0
  0
LINE
  5
1B3
  8
0
  6
CONTINUOUS
 10
-19.20000076319775
 20
-84.700007439609408
 30
0.0
 11
-18.900001903000881
 21
-85.000007083735667
 31
0.0
  0
LINE
  5
1B4
  8
0
  6
CONTINUOUS
 10
-19.200003966352369
 20
-55.300004121615302
 30
0.0
 11
-18.900005106155501
 21
-55.000004477489028
 31
0.0
  0
LINE
  5
1B5
  8
0
  6
CONTINUOUS
 10
-18.90000152587891
 20
-85.0
 30
0.0
 11
-0.3000006675720267
 21
-85.0
 31
0.0
  0
LINE
  5
1B6
  8
0
  6
CONTINUOUS
 10
0.3999996185302692
 20
-68.5
 30
0.0
 11
8.8999996185302699
 21
-68.5
 31
0.0
  0
LINE
  5
1B7
  8
0
  6
CONTINUOUS
 10
0.3999996185302691
 20
-71.5
 30
0.0
 11
8.8999996185302699
 21
-71.5
 31
0.0
  0
LINE
  5
1B8
  8
0
  6
CONTINUOUS
 10
9.3000001907348597
 20
-71.099998474121094
 30
0.0
 11
9.3000001907348597
 21
-68.900001525878892
 31
0.0
  0
LINE
  5
1B9
  8
0
  6
CONTINUOUS
 10
0.3999996185302689
 20
-72.5
 30
0.0
 11
0.3999996185302693
 21
-67.5
 31
0.0
  0
LINE
  5
1BA
  8
0
  6
CONTINUOUS
 10
-0.0000000000000027
 20
-67.5
 30
0.0
 11
0.3999996185302693
 21
-67.5
 31
0.0
  0
LINE
  5
1BB
  8
0
  6
CONTINUOUS
 10
-0.0000000000000036
 20
-72.5
 30
0.0
 11
0.3999996185302689
 21
-72.5
 31
0.0
  0
LINE
  5
1BC
  8
0
  6
CONTINUOUS
 10
-0.0000000000000036
 20
-72.5
 30
0.0
 11
-0.0000000000000032
 21
-67.5
 31
0.0
  0
LINE
  5
1BD
  8
0
  6
C_CENTER_L
 10
-34.26292800903321
 20
-70.0
 30
0.0
 11
12.40000057220459
 21
-70.0
 31
0.0
  0
LINE
  5
1BE
  8
0
  6
CONTINUOUS
 10
8.89999685466932
 20
-71.499993784732624
 30
0.0
 11
9.2999941098617001
 21
-71.099996664409218
 31
0.0
  0
LINE
  5
1BF
  8
0
  6
CONTINUOUS
 10
9.2999944807545472
 20
-68.899993249953013
 30
0.0
 11
8.8999946630333362
 21
-68.499993297361911
 31
0.0
  0
LINE
  5
1C0
  8
0
  6
C_SOLID_L
 10
8.8999996185302699
 20
-71.5
 30
0.0
 11
8.8999996185302699
 21
-68.5
 31
0.0
  0
LINE
  5
1C1
  8
0
  6
CONTINUOUS
 10
-25.70000076293946
 20
-77.4949951171875
 30
0.0
 11
-25.70000076293946
 21
-76.495002746582031
 31
0.0
  0
LINE
  5
1C2
  8
0
  6
CONTINUOUS
 10
-25.400003007435881
 20
-77.634902276832804
 30
0.0
 11
-25.700006749830891
 21
-77.495008236119943
 31
0.0
  0
LINE
  5
1C3
  8
0
  6
CONTINUOUS
 10
-25.70001069011278
 20
-76.49501454650499
 30
0.0
 11
-25.400004354750308
 21
-76.355119296671546
 31
0.0
  0
LINE
  5
1C4
  8
0
  6
CONTINUOUS
 10
-0.3000006675720267
 20
-85.0
 30
0.0
 11
-0.3000006675720249
 21
-55.0
 31
0.0
  0
LINE
  5
1C5
  8
0
  6
CONTINUOUS
 10
-18.90000152587891
 20
-85.0
 30
0.0
 11
-18.90000152587891
 21
-55.0
 31
0.0
  0
LINE
  5
1C6
  8
0
  6
CONTINUOUS
 10
-27.20000076293946
 20
-72.5
 30
0.0
 11
-27.20000076293946
 21
-67.5
 31
0.0
  0
LINE
  5
1C7
  8
0
  6
CONTINUOUS
 10
-27.20000076293946
 20
-67.5
 30
0.0
 11
-25.40000152587891
 21
-67.5
 31
0.0
  0
LINE
  5
1C8
  8
0
  6
CONTINUOUS
 10
-27.20000076293946
 20
-72.5
 30
0.0
 11
-25.40000152587891
 21
-72.5
 31
0.0
  0
LINE
  5
1C9
  8
0
  6
CONTINUOUS
 10
-30.20000076293946
 20
-70.800003051757813
 30
0.0
 11
-30.20000076293946
 21
-69.199996948242188
 31
0.0
  0
LINE
  5
1CA
  8
0
  6
CONTINUOUS
 10
-30.0
 20
-69.0
 30
0.0
 11
-29.60000038146973
 21
-69.0
 31
0.0
  0
LINE
  5
1CB
  8
0
  6
CONTINUOUS
 10
-30.0
 20
-71.0
 30
0.0
 11
-29.60000038146973
 21
-71.0
 31
0.0
  0
LINE
  5
1CC
  8
0
  6
C_SOLID_L
 10
-30.20000076293946
 20
-69.199996948242188
 30
0.0
 11
-29.60000038146973
 21
-69.199996948242188
 31
0.0
  0
LINE
  5
1CD
  8
0
  6
C_SOLID_L
 10
-30.20000076293946
 20
-70.800003051757813
 30
0.0
 11
-29.60000038146973
 21
-70.800003051757813
 31
0.0
  0
LINE
  5
1CE
  8
0
  6
CONTINUOUS
 10
-29.999991386711141
 20
-71.00000793789809
 30
0.0
 11
-30.199992677988352
 21
-70.800006646620872
 31
0.0
  0
LINE
  5
1CF
  8
0
  6
CONTINUOUS
 10
-30.199992677988352
 20
-69.200007105996264
 30
0.0
 11
-29.999996781507662
 21
-69.000011209515606
 31
0.0
  0
LINE
  5
1D0
  8
0
  6
C_SOLID_L
 10
-30.0
 20
-71.0
 30
0.0
 11
-30.0
 21
-69.0
 31
0.0
  0
LINE
  5
1D1
  8
0
  6
CONTINUOUS
 10
-27.20000076293946
 20
-72.5
 30
0.0
 11
-27.20000076293946
 21
-67.5
 31
0.0
  0
LINE
  5
1D2
  8
0
  6
CONTINUOUS
 10
-27.5
 20
-67.5
 30
0.0
 11
-27.20000076293946
 21
-67.5
 31
0.0
  0
LINE
  5
1D3
  8
0
  6
CONTINUOUS
 10
-27.5
 20
-72.5
 30
0.0
 11
-27.20000076293946
 21
-72.5
 31
0.0
  0
LINE
  5
1D4
  8
0
  6
CONTINUOUS
 10
-27.5
 20
-72.5
 30
0.0
 11
-27.5
 21
-67.5
 31
0.0
  0
LINE
  5
1D5
  8
0
  6
CONTINUOUS
 10
-28.0
 20
-67.800003051757813
 30
0.0
 11
-27.5
 21
-67.800003051757813
 31
0.0
  0
LINE
  5
1D6
  8
0
  6
CONTINUOUS
 10
-28.0
 20
-72.199996948242188
 30
0.0
 11
-27.5
 21
-72.199996948242188
 31
0.0
  0
LINE
  5
1D7
  8
0
  6
CONTINUOUS
 10
-28.0
 20
-72.199996948242188
 30
0.0
 11
-28.0
 21
-67.800003051757813
 31
0.0
  0
LINE
  5
1D8
  8
0
  6
CONTINUOUS
 10
-29.60000038146973
 20
-71.6199951171875
 30
0.0
 11
-29.60000038146973
 21
-68.3800048828125
 31
0.0
  0
LINE
  5
1D9
  8
0
  6
CONTINUOUS
 10
-29.40345764160157
 20
-67.839996337890611
 30
0.0
 11
-28.1965446472168
 21
-67.839996337890611
 31
0.0
  0
LINE
  5
1DA
  8
0
  6
CONTINUOUS
 10
-29.40345764160157
 20
-72.160003662109375
 30
0.0
 11
-28.1965446472168
 21
-72.160003662109375
 31
0.0
  0
LINE
  5
1DB
  8
0
  6
CONTINUOUS
 10
-29.40345658125716
 20
-72.16000366687058
 30
0.0
 11
-29.599999702742931
 21
-71.620005897975702
 31
0.0
  0
LINE
  5
1DC
  8
0
  6
CONTINUOUS
 10
-28.196538542571972
 20
-72.159999741059622
 30
0.0
 11
-27.99999542108619
 21
-71.620001972164744
 31
0.0
  0
LINE
  5
1DD
  8
0
  6
CONTINUOUS
 10
-29.59999200465575
 20
-68.379999325772033
 30
0.0
 11
-29.403448883169968
 21
-67.840001556877141
 31
0.0
  0
LINE
  5
1DE
  8
0
  6
CONTINUOUS
 10
-27.999995804922939
 20
-68.380008708445516
 30
0.0
 11
-28.19654153581541
 21
-67.840003770264957
 31
0.0
  0
LINE
  5
1DF
  8
0
  6
CONTINUOUS
 10
-29.40000152587891
 20
-71.080001831054688
 30
0.0
 11
-28.20000076293946
 21
-71.080001831054688
 31
0.0
  0
LINE
  5
1E0
  8
0
  6
CONTINUOUS
 10
-29.40000152587891
 20
-68.919998168945313
 30
0.0
 11
-28.20000076293946
 21
-68.919998168945313
 31
0.0
  0
ARC
  5
1E1
  8
0
  6
CONTINUOUS
 10
-26.584001541137699
 20
-70.0
 30
0.0
 40
3.0160002708435059
 50
159.0170491616519
 51
200.9829608562608
  0
ARC
  5
1E2
  8
0
  6
CONTINUOUS
 10
-31.0160026550293
 20
-70.0
 30
0.0
 40
3.0160009860992432
 50
339.0170492753374
 51
20.982954139757169
  0
ARC
  5
1E3
  8
0
  6
CONTINUOUS
 10
-29.020708084106449
 20
-71.517852783203125
 30
0.0
 40
0.5792920589447022
 50
130.9007803489695
 51
200.00000101204759
  0
ARC
  5
1E4
  8
0
  6
CONTINUOUS
 10
-29.020708084106449
 20
-68.482147216796875
 30
0.0
 40
0.5792924165725708
 50
159.99999534548661
 51
229.09920234818651
  0
ARC
  5
1E5
  8
0
  6
CONTINUOUS
 10
-28.579292297363281
 20
-71.517852783203125
 30
0.0
 40
0.5792923569679263
 50
340.0000022893613
 51
49.099204169419359
  0
ARC
  5
1E6
  8
0
  6
CONTINUOUS
 10
-28.579294204711911
 20
-68.482147216796875
 30
0.0
 40
0.5792927145957947
 50
310.9008060758643
 51
20.000001125733132
  0
LINE
  5
1E7
  8
0
  6
CONTINUOUS
 10
-27.90000152587891
 20
-74.0
 30
0.0
 11
-25.40000152587891
 21
-74.0
 31
0.0
  0
LINE
  5
1E8
  8
0
  6
CONTINUOUS
 10
-27.90000152587891
 20
-66.0
 30
0.0
 11
-25.40000152587891
 21
-66.0
 31
0.0
  0
LINE
  5
1E9
  8
0
  6
CONTINUOUS
 10
-27.90000152587891
 20
-67.800003051757813
 30
0.0
 11
-27.90000152587891
 21
-66.0
 31
0.0
  0
LINE
  5
1EA
  8
0
  6
CONTINUOUS
 10
-27.90000152587891
 20
-74.0
 30
0.0
 11
-27.90000152587891
 21
-72.199996948242188
 31
0.0
  0
LINE
  5
1EB
  8
0
  6
CONTINUOUS
 10
-25.40000152587891
 20
-57.099998474121101
 30
0.0
 11
-25.40000152587891
 21
-82.900001525878906
 31
0.0
  0
LINE
  5
1EC
  8
0
  6
CONTINUOUS
 10
-23.700002670288072
 20
-57.099998474121101
 30
0.0
 11
-23.700002670288072
 21
-82.900001525878906
 31
0.0
  0
LINE
  5
1ED
  8
0
  6
CONTINUOUS
 10
-25.40000152587891
 20
-82.900001525878906
 30
0.0
 11
-23.700002670288072
 21
-82.900001525878906
 31
0.0
  0
LINE
  5
1EE
  8
0
  6
CONTINUOUS
 10
-25.40000152587891
 20
-57.099998474121101
 30
0.0
 11
-23.700002670288072
 21
-57.099998474121101
 31
0.0
  0
LINE
  5
1EF
  8
0
  6
CONTINUOUS
 10
-23.700002670288072
 20
-58.0
 30
0.0
 11
-19.20000076293945
 21
-58.0
 31
0.0
  0
LINE
  5
1F0
  8
0
  6
CONTINUOUS
 10
-23.700002670288072
 20
-82.0
 30
0.0
 11
-19.20000076293945
 21
-82.0
 31
0.0
  0
LINE
  5
1F1
  8
0
  6
C_SOLID_L
 10
104.9999923706055
 20
25.0
 30
0.0
 11
169.33625793457031
 21
25.0
 31
0.0
  0
LINE
  5
1F2
  8
0
  6
C_SOLID_L
 10
-143.0
 20
10.0
 30
0.0
 11
-128.0
 21
10.0
 31
0.0
  0
LINE
  5
1F3
  8
0
  6
C_SOLID_L
 10
-143.0
 20
-10.0
 30
0.0
 11
-128.0
 21
-10.0
 31
0.0
  0
LINE
  5
1F4
  8
0
  6
CONTINUOUS
 10
-8.0
 20
12.5
 30
0.0
 11
-8.0
 21
-12.5
 31
0.0
  0
LINE
  5
1F5
  8
0
  6
CONTINUOUS
 10
-1.0
 20
12.5
 30
0.0
 11
-1.0
 21
-12.5
 31
0.0
  0
LINE
  5
1F6
  8
0
  6
CONTINUOUS
 10
-6.5
 20
-14.0
 30
0.0
 11
-2.5
 21
-14.0
 31
0.0
  0
LINE
  5
1F7
  8
0
  6
CONTINUOUS
 10
-6.5
 20
14.0
 30
0.0
 11
-2.5
 21
14.0
 31
0.0
  0
ARC
  5
1F8
  8
0
  6
CONTINUOUS
 10
-6.5
 20
12.5
 30
0.0
 40
1.5
 50
90.000002504478175
 51
180.00000500895629
  0
ARC
  5
1F9
  8
0
  6
CONTINUOUS
 10
-2.5
 20
12.5
 30
0.0
 40
1.5
 50
0.000010017912262
 51
89.999988844099846
  0
ARC
  5
1FA
  8
0
  6
CONTINUOUS
 10
-6.5
 20
-12.5
 30
0.0
 40
1.5
 50
180.00000865142201
 51
269.99999749552182
  0
ARC
  5
1FB
  8
0
  6
CONTINUOUS
 10
-2.5
 20
-12.5
 30
0.0
 40
1.5
 50
269.99999749552182
 51
0.000010017912262
  0
LINE
  5
1FC
  8
0
  6
CONTINUOUS
 10
-6.0597805976867667
 20
-84.0
 30
0.0
 11
-2.059780597686768
 21
-84.0
 31
0.0
  0
ARC
  5
1FD
  8
0
  6
CONTINUOUS
 10
-6.0597805976867667
 20
-82.5
 30
0.0
 40
1.5
 50
180.00000865142201
 51
269.99999749552182
  0
LINE
  5
1FE
  8
0
  6
CONTINUOUS
 10
-7.5597805976867667
 20
-57.5
 30
0.0
 11
-7.5597805976867667
 21
-82.5
 31
0.0
  0
ARC
  5
1FF
  8
0
  6
CONTINUOUS
 10
-2.059780597686768
 20
-82.5
 30
0.0
 40
1.5
 50
269.99999749552182
 51
0.000010017912262
  0
LINE
  5
200
  8
0
  6
CONTINUOUS
 10
-0.5597805976867676
 20
-57.5
 30
0.0
 11
-0.5597805976867676
 21
-82.5
 31
0.0
  0
LINE
  5
201
  8
0
  6
CONTINUOUS
 10
-6.0597805976867667
 20
-56.0
 30
0.0
 11
-2.059780597686768
 21
-56.0
 31
0.0
  0
ARC
  5
202
  8
0
  6
CONTINUOUS
 10
-2.059780597686768
 20
-57.5
 30
0.0
 40
1.5
 50
0.000010017912262
 51
89.999988844099846
  0
ARC
  5
203
  8
0
  6
CONTINUOUS
 10
-6.0597805976867667
 20
-57.5
 30
0.0
 40
1.5
 50
90.000002504478175
 51
180.00000500895629
  0
LINE
  5
204
  8
0
  6
C_SOLID_L
 10
-30.0
 20
-95.0
 30
0.0
 11
-15.0
 21
-95.0
 31
0.0
  0
LINE
  5
205
  8
0
  6
CONTINUOUS
 10
-32.900001525878913
 20
-72.25
 30
0.0
 11
-27.90000152587891
 21
-72.25
 31
0.0
  0
LINE
  5
206
  8
0
  6
CONTINUOUS
 10
-32.900001525878913
 20
-71.75
 30
0.0
 11
-29.55268669128418
 21
-71.75
 31
0.0
  0
LINE
  5
207
  8
0
  6
CONTINUOUS
 10
-32.900001525878913
 20
-68.25
 30
0.0
 11
-29.552675247192369
 21
-68.25
 31
0.0
  0
LINE
  5
208
  8
0
  6
CONTINUOUS
 10
-32.900001525878913
 20
-67.75
 30
0.0
 11
-27.90000152587891
 21
-67.75
 31
0.0
  0
LINE
  5
209
  8
0
  6
CONTINUOUS
 10
-32.900001525878913
 20
-71.75
 30
0.0
 11
-32.900001525878913
 21
-72.25
 31
0.0
  0
LINE
  5
20A
  8
0
  6
CONTINUOUS
 10
-32.900001525878913
 20
-67.75
 30
0.0
 11
-32.900001525878913
 21
-68.25
 31
0.0
  0
LINE
  5
20B
  8
0
  6
CONTINUOUS
 10
-26.70000076293945
 20
-2.25
 30
0.0
 11
-21.700000762939439
 21
-2.25
 31
0.0
  0
LINE
  5
20C
  8
0
  6
CONTINUOUS
 10
-26.70000076293945
 20
-1.75
 30
0.0
 11
-23.35268592834473
 21
-1.75
 31
0.0
  0
LINE
  5
20D
  8
0
  6
CONTINUOUS
 10
-26.70000076293945
 20
1.75
 30
0.0
 11
-23.352674484252908
 21
1.75
 31
0.0
  0
LINE
  5
20E
  8
0
  6
CONTINUOUS
 10
-26.70000076293945
 20
2.25
 30
0.0
 11
-21.700000762939439
 21
2.25
 31
0.0
  0
LINE
  5
20F
  8
0
  6
CONTINUOUS
 10
-26.70000076293945
 20
2.25
 30
0.0
 11
-26.70000076293945
 21
1.75
 31
0.0
  0
LINE
  5
210
  8
0
  6
CONTINUOUS
 10
-26.70000076293945
 20
-1.75
 30
0.0
 11
-26.70000076293945
 21
-2.25
 31
0.0
  0
LINE
  5
211
  8
0
  6
C_SOLID_L
 10
10.65721988677978
 20
-8.1659774780273402
 30
0.0
 11
14.99751758575438
 21
-8.1659774780273402
 31
0.0
  0
TEXT
  5
212
  8
0
 10
106.3864376544952
 20
26.748930215835571
 30
0.0
 40
4.1671900749206534
  1
2×M2.5P0.45 深さ3
  0
TEXT
  5
213
  8
0
 10
-141.0989520549773
 20
-8.9313066005706805
 30
0.0
 40
4.1671900749206534
  1
端子Ａ
  0
TEXT
  5
214
  8
0
 10
-141.26205325126651
 20
10.802869081497191
 30
0.0
 40
4.1671900749206534
  1
端子Ｂ
  0
INSERT
  5
215
  8
0
  2
*U31
 10
0.0
 20
0.0
 30
0.0
  0
TEXT
  5
216
  8
0
 10
-28.161139249801629
 20
-93.83696722984314
 30
0.0
 40
4.1671900749206534
  1
銘 板
  0
TEXT
  5
217
  8
0
 10
30.340407609939579
 20
27.021652340888959
 30
0.0
 40
2.083595037460324
  1
±0.5
  0
TEXT
  5
218
  8
0
 10
18.136494874954231
 20
25.979854822158799
 30
0.0
 40
4.1671900749206534
  1
6.5
  0
TEXT
  5
219
  8
0
 10
18.136494874954231
 20
19.72907471656799
 30
0.0
 40
4.1671900749206534
  1
有効ストローク6mm
  0
INSERT
  5
21A
  8
0
  2
*U32
 10
0.0
 20
0.0
 30
0.0
  0
TEXT
  5
21B
  8
0
 10
17.239751100540161
 20
-9.8551638126373309
 30
0.0
 40
4.1671900749206534
  1
Eリング
  0
DIMENSION
  5
21C
  8
0
  6
CONTINUOUS
  2
*D4
 10
-44.36297607421875
 20
-0.281777024269104
 30
0.0
 11
-44.36297607421875
 21
0.218222975730896
 31
0.0
 70
     0
  1
%%c^A30
  3
STANDARD
 13
-18.90000152587891
 23
-15.0
 33
0.0
 14
-18.90000152587891
 24
15.0
 34
0.0
 50
90.0
  0
DIMENSION
  5
21E
  8
0
  6
CONTINUOUS
  2
*D7
 10
-34.159099578857422
 20
35.0
 30
0.0
 11
-34.159099578857422
 21
35.5
 31
0.0
 70
     0
  1
4.8
  3
STANDARD
 13
-24.0
 23
0.8000030517578125
 33
0.0
 14
-19.20000076293945
 24
14.69999980926514
 34
0.0
  0
DIMENSION
  5
220
  8
0
  6
CONTINUOUS
  2
*D10
 10
-10.0
 20
35.0
 30
0.0
 11
-10.0
 21
35.5
 31
0.0
 70
     0
  1
19.2
  3
STANDARD
 13
-19.20000076293945
 23
14.69999980926514
 33
0.0
 14
0.0000000000000009
 24
14.69999980926514
 34
0.0
  0
DIMENSION
  5
222
  8
0
  6
CONTINUOUS
  2
*D11
 10
24.828409194946289
 20
35.0
 30
0.0
 11
24.828409194946289
 21
35.5
 31
0.0
 70
     0
  1
15.5
  3
STANDARD
 13
0.0000000000000009
 23
14.69999980926514
 33
0.0
 14
15.5
 24
1.100000023841855
 34
0.0
  0
DIMENSION
  5
224
  8
0
  6
CONTINUOUS
  2
*D12
 10
61.521247863769531
 20
25.0
 30
0.0
 11
61.521247863769531
 21
25.5
 31
0.0
 70
     0
  1
<>
  3
STANDARD
 13
0.0000000000000009
 23
14.69999980926514
 33
0.0
 14
6.1999998092651367
 24
2.5
 34
0.0
  0
DIMENSION
  5
226
  8
0
  6
CONTINUOUS
  2
*D13
 10
120.0
 20
-0.0000000000000657
 30
0.0
 11
120.0
 21
-0.0000000000000657
 31
0.0
 70
     0
  1
22
  3
STANDARD
 13
98.0
 23
11.0
 33
0.0
 14
98.0
 24
-11.0
 34
0.0
 50
90.0
  0
LINE
  5
228
  8
0
 10
-117.0049266795418
 20
2.2500040666045611
 30
0.0
 11
-128.0000119301568
 21
10.00001398852055
 31
0.0
  0
POLYLINE
  5
229
  8
0
 66
     1
 10
0.0
 20
0.0
 30
0.0
  0
VERTEX
  5
649
  8
0
 10
-120.053318893533
 20
3.6848005475578178
 30
0.0
  0
VERTEX
  5
64A
  8
0
 10
-117.42014599564691
 20
2.542676087442878
 30
0.0
  0
VERTEX
  5
64B
  8
0
 10
-119.3809664284515
 20
4.63867967113499
 30
0.0
  0
SEQEND
  5
64C
  8
0
  0
LINE
  5
22E
  8
0
 10
-117.0049266795418
 20
-2.2500040666045611
 30
0.0
 11
-128.0000119301568
 21
-10.00001398852055
 31
0.0
  0
POLYLINE
  5
22F
  8
0
 66
     1
 10
0.0
 20
0.0
 30
0.0
  0
VERTEX
  5
64D
  8
0
 10
-119.3809664284515
 20
-4.6386796711349758
 30
0.0
  0
VERTEX
  5
64E
  8
0
 10
-117.42014599564691
 20
-2.5426760874428771
 30
0.0
  0
VERTEX
  5
64F
  8
0
 10
-120.053318893533
 20
-3.6848005475577978
 30
0.0
  0
SEQEND
  5
650
  8
0
  0
DIMENSION
  5
234
  8
0
  6
CONTINUOUS
  2
*D14
 10
-43.847537994384773
 20
-45.0
 30
0.0
 11
-43.847537994384773
 21
-45.0
 31
0.0
 70
     0
  1
(11.3)
  3
STANDARD
 13
-19.20000076293945
 23
-55.299999237060533
 33
0.0
 14
-30.200000762939439
 24
-69.199996948242188
 34
0.0
  0
DIMENSION
  5
236
  8
0
  6
CONTINUOUS
  2
*D15
 10
23.868743896484379
 20
-45.0
 30
0.0
 11
23.868743896484379
 21
-45.0
 31
0.0
 70
     0
  1
(9)
  3
STANDARD
 13
9.3000001907348633
 23
-68.900001525878892
 33
0.0
 14
0.0000000000000009
 24
-55.299999237060533
 34
0.0
  0
LINE
  5
238
  8
0
 10
-4.1439037735044613
 20
-81.515629299591637
 30
0.0
 11
-14.990035933978101
 21
-95.000006059969564
 31
0.0
  0
POLYLINE
  5
239
  8
0
 66
     1
 10
0.0
 20
0.0
 30
0.0
  0
VERTEX
  5
651
  8
0
 10
-5.768972293170866
 20
-84.466982944695431
 30
0.0
  0
VERTEX
  5
652
  8
0
 10
-4.4622972142445736
 20
-81.911469683006729
 30
0.0
  0
VERTEX
  5
653
  8
0
 10
-6.678332391227312
 20
-83.735540922550001
 30
0.0
  0
SEQEND
  5
654
  8
0
  0
DIMENSION
  5
23E
  8
0
  6
CONTINUOUS
  2
*D16
 10
-45.440845489501953
 20
-69.804145812988281
 30
0.0
 11
-45.440845489501953
 21
-69.304145812988281
 31
0.0
 70
     0
  1
(%%c30)
  3
STANDARD
 13
-25.40000152587891
 23
-82.900001525878906
 33
0.0
 14
-25.40000152587891
 24
-57.099998474121101
 34
0.0
 50
90.0
  0
LINE
  5
240
  8
0
 10
95.523120173976153
 20
11.73235898883558
 30
0.0
 11
104.9999960882315
 21
24.999995375849711
 31
0.0
  0
POLYLINE
  5
241
  8
0
 66
     1
 10
0.0
 20
0.0
 30
0.0
  0
VERTEX
  5
655
  8
0
 10
96.976995665588419
 20
14.77169807603323
 30
0.0
  0
VERTEX
  5
656
  8
0
 10
95.818389023010241
 20
12.14573569238652
 30
0.0
  0
VERTEX
  5
657
  8
0
 10
97.926641774032916
 20
14.09337994387573
 30
0.0
  0
SEQEND
  5
658
  8
0
  0
LINE
  5
246
  8
0
 10
6.71148858627474
 20
-2.7854373199348279
 30
0.0
 11
10.65721972637577
 21
-8.1659779398387133
 31
0.0
  0
POLYLINE
  5
247
  8
0
 66
     1
 10
0.0
 20
0.0
 30
0.0
  0
VERTEX
  5
659
  8
0
 10
9.1443341104282805
 20
-5.1162308945965398
 30
0.0
  0
VERTEX
  5
65A
  8
0
 10
7.0119013898324631
 20
-3.195091002582898
 30
0.0
  0
VERTEX
  5
65B
  8
0
 10
8.2032408601436302
 20
-5.8063661813092926
 30
0.0
  0
SEQEND
  5
65C
  8
0
  0
ENDBLK
  5
9B
  8
0
  0
BLOCK
  8
0
  2
D_0003_
 70
     0
 10
0.0
 20
0.0
 30
0.0
  3
D_0003_
  1

  0
POINT
  5
24C
  8
0
  6
CONTINUOUS
 10
0.0
 20
0.0
 30
0.0
  0
LINE
  5
24D
  8
0
  6
CONTINUOUS
 10
55.880386352539063
 20
-20.40987396240234
 30
0.0
 11
63.991004943847642
 21
-20.40987396240234
 31
0.0
  0
LINE
  5
24E
  8
0
  6
CONTINUOUS
 10
47.859664916992188
 20
-20.40987396240234
 30
0.0
 11
54.037460327148438
 21
-20.40987396240234
 31
0.0
  0
TEXT
  5
24F
  8
0
 10
-0.2826089859008755
 20
-9.6709363460540771
 30
0.0
 40
4.1671900749206534
  1
（表示例）
  0
TEXT
  5
250
  8
0
 10
30.271448016166691
 20
-9.3100042343139666
 30
0.0
 40
3.5
  1
製品名
  0
TEXT
  5
251
  8
0
 10
58.77357470989228
 20
-31.266578674316388
 30
0.0
 40
3.5
  1
週番
  0
TEXT
  5
252
  8
0
 10
36.760566592216492
 20
-31.46455383300782
 30
0.0
 40
3.5
  1
西暦年下二桁
  0
TEXT
  5
253
  8
0
 10
62.508590579032898
 20
-9.4299068450927752
 30
0.0
 40
3.5
  1
ロット番号
  0
TEXT
  5
254
  8
0
 10
-1.4882800579071001
 20
-2.083595037460332
 30
0.0
 40
4.1671900749206534
  1
銘板表示
  0
TEXT
  5
255
  8
0
 10
4.7173931598663366
 20
-18.67093634605407
 30
0.0
 40
4.1671900749206534
  1
MM30C-12
  0
TEXT
  5
256
  8
0
 10
42.717393159866312
 20
-18.67093634605407
 30
0.0
 40
4.1671900749206534
  1
．1812
  0
LINE
  5
257
  8
0
 10
24.263641367954019
 20
-13.943877642573989
 30
0.0
 11
29.331715608548109
 21
-8.0695221533279096
 31
0.0
  0
POLYLINE
  5
258
  8
0
 66
     1
 10
0.0
 20
0.0
 30
0.0
  0
VERTEX
  5
65D
  8
0
 10
25.989430288073951
 20
-11.05026594864032
 30
0.0
  0
VERTEX
  5
65E
  8
0
 10
24.595483963830311
 20
-13.55924212183959
 30
0.0
  0
VERTEX
  5
65F
  8
0
 10
26.873049568738011
 20
-11.812604578473669
 30
0.0
  0
SEQEND
  5
660
  8
0
  0
LINE
  5
25D
  8
0
 10
50.650392618560993
 20
-20.70683566471325
 30
0.0
 11
45.008186086471603
 21
-26.547017828867752
 31
0.0
  0
POLYLINE
  5
25E
  8
0
 66
     1
 10
0.0
 20
0.0
 30
0.0
  0
VERTEX
  5
661
  8
0
 10
48.764482957507099
 20
-23.49873121835093
 30
0.0
  0
VERTEX
  5
662
  8
0
 10
50.297428225798448
 20
-21.07218499027756
 30
0.0
  0
VERTEX
  5
663
  8
0
 10
47.92516965739938
 20
-22.687869698756032
 30
0.0
  0
SEQEND
  5
664
  8
0
  0
LINE
  5
263
  8
0
 10
58.668124781152748
 20
-20.60784737579683
 30
0.0
 11
63.320446400044347
 21
-26.44799324380482
 31
0.0
  0
POLYLINE
  5
264
  8
0
 66
     1
 10
0.0
 20
0.0
 30
0.0
  0
VERTEX
  5
665
  8
0
 10
61.192056573468207
 20
-22.839686155775698
 30
0.0
  0
VERTEX
  5
666
  8
0
 10
58.984647980172063
 20
-21.00518483530843
 30
0.0
  0
VERTEX
  5
667
  8
0
 10
60.279257257679177
 20
-23.5668316905846
 30
0.0
  0
SEQEND
  5
668
  8
0
  0
LINE
  5
269
  8
0
 10
56.92395770825555
 20
-14.055638553942339
 30
0.0
 11
62.070633569564961
 21
-7.8335380294629422
 31
0.0
  0
POLYLINE
  5
26A
  8
0
 66
     1
 10
0.0
 20
0.0
 30
0.0
  0
VERTEX
  5
669
  8
0
 10
58.589299118493273
 20
-11.126820700366309
 30
0.0
  0
VERTEX
  5
66A
  8
0
 10
57.247743192932752
 20
-13.664196409863701
 30
0.0
  0
VERTEX
  5
66B
  8
0
 10
59.4885551859307
 20
-11.87064981036024
 30
0.0
  0
SEQEND
  5
66C
  8
0
  0
ENDBLK
  5
9E
  8
0
  0
BLOCK
  8
0
  2
D_0004_
 70
     0
 10
0.0
 20
0.0
 30
0.0
  3
D_0004_
  1

  0
POINT
  5
26F
  8
0
  6
CONTINUOUS
 10
0.0
 20
0.0
 30
0.0
  0
POINT
  5
270
  8
0
  6
CONTINUOUS
 10
0.0
 20
-5.5
 30
0.0
  0
POINT
  5
271
  8
0
  6
CONTINUOUS
 10
0.0
 20
0.0
 30
0.0
  0
POINT
  5
272
  8
0
  6
CONTINUOUS
 10
30.0
 20
-5.5
 30
0.0
  0
POINT
  5
273
  8
0
  6
CONTINUOUS
 10
15.0
 20
-2.75
 30
0.0
  0
POINT
  5
274
  8
0
  6
CONTINUOUS
 10
0.0
 20
-11.0
 30
0.0
  0
POINT
  5
275
  8
0
  6
CONTINUOUS
 10
0.0
 20
-16.5
 30
0.0
  0
POINT
  5
276
  8
0
  6
CONTINUOUS
 10
0.0
 20
-22.0
 30
0.0
  0
POINT
  5
277
  8
0
  6
CONTINUOUS
 10
15.0
 20
-11.0
 30
0.0
  0
POINT
  5
278
  8
0
  6
CONTINUOUS
 10
15.0
 20
-5.5
 30
0.0
  0
POINT
  5
279
  8
0
  6
CONTINUOUS
 10
22.5
 20
-8.25
 30
0.0
  0
POINT
  5
27A
  8
0
  6
CONTINUOUS
 10
7.5
 20
-8.25
 30
0.0
  0
POINT
  5
27B
  8
0
  6
CONTINUOUS
 10
15.0
 20
-16.5
 30
0.0
  0
POINT
  5
27C
  8
0
  6
CONTINUOUS
 10
7.5
 20
-13.75
 30
0.0
  0
POINT
  5
27D
  8
0
  6
CONTINUOUS
 10
0.0
 20
-16.5
 30
0.0
  0
POINT
  5
27E
  8
0
  6
CONTINUOUS
 10
15.0
 20
-22.0
 30
0.0
  0
POINT
  5
27F
  8
0
  6
CONTINUOUS
 10
7.5
 20
-19.25
 30
0.0
  0
POINT
  5
280
  8
0
  6
CONTINUOUS
 10
30.0
 20
-16.5
 30
0.0
  0
POINT
  5
281
  8
0
  6
CONTINUOUS
 10
22.5
 20
-13.75
 30
0.0
  0
POINT
  5
282
  8
0
  6
CONTINUOUS
 10
22.5
 20
-19.25
 30
0.0
  0
POINT
  5
283
  8
0
  6
CONTINUOUS
 10
0.0
 20
-22.0
 30
0.0
  0
POINT
  5
284
  8
0
  6
CONTINUOUS
 10
34.242115020751939
 20
-3.4979324340820308
 30
0.0
  0
POINT
  5
285
  8
0
  6
CONTINUOUS
 10
60.0
 20
-5.5
 30
0.0
  0
POINT
  5
286
  8
0
  6
CONTINUOUS
 10
60.0
 20
0.0
 30
0.0
  0
POINT
  5
287
  8
0
  6
CONTINUOUS
 10
60.0
 20
-22.0
 30
0.0
  0
POINT
  5
288
  8
0
  6
CONTINUOUS
 10
30.0
 20
0.0
 30
0.0
  0
POINT
  5
289
  8
0
  6
CONTINUOUS
 10
60.0
 20
-11.0
 30
0.0
  0
POINT
  5
28A
  8
0
  6
CONTINUOUS
 10
45.0
 20
-5.5
 30
0.0
  0
POINT
  5
28B
  8
0
  6
CONTINUOUS
 10
30.0
 20
-11.0
 30
0.0
  0
POINT
  5
28C
  8
0
  6
CONTINUOUS
 10
60.0
 20
-16.5
 30
0.0
  0
POINT
  5
28D
  8
0
  6
CONTINUOUS
 10
30.0
 20
-22.0
 30
0.0
  0
POINT
  5
28E
  8
0
  6
CONTINUOUS
 10
60.0
 20
-22.0
 30
0.0
  0
POINT
  5
28F
  8
0
  6
CONTINUOUS
 10
45.0
 20
-19.25
 30
0.0
  0
POINT
  5
290
  8
0
  6
CONTINUOUS
 10
45.0
 20
-13.75
 30
0.0
  0
LINE
  5
291
  8
0
  6
CONTINUOUS
 10
0.0
 20
0.0
 30
0.0
 11
0.0
 21
-22.0
 31
0.0
  0
LINE
  5
292
  8
0
  6
CONTINUOUS
 10
0.0
 20
0.0
 30
0.0
 11
60.0
 21
0.0
 31
0.0
  0
LINE
  5
293
  8
0
  6
CONTINUOUS
 10
0.0
 20
-5.5
 30
0.0
 11
30.0
 21
-5.5
 31
0.0
  0
LINE
  5
294
  8
0
  6
CONTINUOUS
 10
15.0
 20
-5.5
 30
0.0
 11
15.0
 21
-22.0
 31
0.0
  0
LINE
  5
295
  8
0
  6
CONTINUOUS
 10
30.0
 20
0.0
 30
0.0
 11
30.0
 21
-22.0
 31
0.0
  0
LINE
  5
296
  8
0
  6
CONTINUOUS
 10
0.0
 20
-22.0
 30
0.0
 11
60.0
 21
-22.0
 31
0.0
  0
LINE
  5
297
  8
0
  6
CONTINUOUS
 10
0.0
 20
-16.5
 30
0.0
 11
60.0
 21
-16.5
 31
0.0
  0
LINE
  5
298
  8
0
  6
CONTINUOUS
 10
0.0
 20
-11.0
 30
0.0
 11
60.0
 21
-11.0
 31
0.0
  0
LINE
  5
299
  8
0
  6
CONTINUOUS
 10
60.0
 20
0.0
 30
0.0
 11
60.0
 21
-22.0
 31
0.0
  0
TEXT
  5
29A
  8
0
 10
8.5000017881393486
 20
-4.5000000000000044
 30
0.0
 40
3.5
  1
通電極性
  0
TEXT
  5
29B
  8
0
 10
2.750001788139345
 20
-10.0
 30
0.0
 40
3.5
  1
端子Ａ
  0
TEXT
  5
29C
  8
0
 10
17.75000178813935
 20
-10.0
 30
0.0
 40
3.5
  1
端子Ｂ
  0
TEXT
  5
29D
  8
0
 10
5.8928593397140521
 20
-15.5
 30
0.0
 40
4.5
  1
+
  0
TEXT
  5
29E
  8
0
 10
5.8928593397140521
 20
-21.0
 30
0.0
 40
4.5
  1
-
  0
TEXT
  5
29F
  8
0
 10
20.89285933971404
 20
-15.5
 30
0.0
 40
4.5
  1
-
  0
TEXT
  5
2A0
  8
0
 10
20.89285933971404
 20
-21.0
 30
0.0
 40
4.5
  1
+
  0
TEXT
  5
2A1
  8
0
 10
32.614674687385559
 20
-7.2500000000000018
 30
0.0
 40
3.5
  1
シャフト作動方向
 41
0.9200000000000002
  0
TEXT
  5
2A2
  8
0
 10
40.250001788139343
 20
-15.5
 30
0.0
 40
3.5
  1
引込み
  0
TEXT
  5
2A3
  8
0
 10
40.250001788139343
 20
-21.0
 30
0.0
 40
3.5
  1
突出し
  0
ENDBLK
  5
A1
  8
0
  0
BLOCK
  8
0
  2
*D4
 70
     1
 10
0.0
 20
0.0
 30
0.0
  3
*D4
  1

  0
INSERT
  5
2A4
  8
0
  2
*U33
 10
0.0
 20
0.0
 30
0.0
  0
LINE
  5
2A5
  8
0
 62
     0
 10
-44.36297607421875
 20
-15.0
 30
0.0
 11
-44.36297607421875
 21
15.0
 31
0.0
  0
INSERT
  5
2A6
  8
0
  6
C_SOLID_L
 62
     0
  2
CCD_OARW
 10
-44.36297607421875
 20
-15.0
 30
0.0
 50
89.999999999999915
  0
INSERT
  5
2A7
  8
0
  6
C_SOLID_L
 62
     0
  2
CCD_OARWRT
 10
-44.36297607421875
 20
15.0
 30
0.0
 50
269.99999999999977
  0
LINE
  5
2A8
  8
0
 62
     0
 10
-21.122501492500302
 20
-14.999999999999989
 30
0.0
 11
-46.648975372314453
 21
-15.0
 31
0.0
  0
LINE
  5
2A9
  8
0
 62
     0
 10
-21.122501492500302
 20
15.0
 30
0.0
 11
-46.648975372314453
 21
15.0
 31
0.0
  0
ENDBLK
  5
A4
  8
0
  0
BLOCK
  8
0
  2
CCD_OARW
 70
     0
 10
0.0
 20
0.0
 30
0.0
  3
CCD_OARW
  1

  0
POLYLINE
  5
2AA
  8
0
 62
     0
 66
     1
 10
0.0
 20
0.0
 30
0.0
  0
VERTEX
  5
672
  8
0
 62
     0
 10
3.3182601204778792
 20
0.5835116150723609
 30
0.0
  0
VERTEX
  5
673
  8
0
 62
     0
 10
0.5079999923706055
 20
0.0
 30
0.0
  0
VERTEX
  5
674
  8
0
 62
     0
 10
3.3182601204778792
 20
-0.5835116150723609
 30
0.0
  0
SEQEND
  5
675
  8
0
 62
     0
  0
ENDBLK
  5
A7
  8
0
  0
BLOCK
  8
0
  2
CCD_OARWRT
 70
     0
 10
0.0
 20
0.0
 30
0.0
  3
CCD_OARWRT
  1

  0
POLYLINE
  5
2AF
  8
0
 62
     0
 66
     1
 10
0.0
 20
0.0
 30
0.0
  0
VERTEX
  5
676
  8
0
 62
     0
 10
3.3182601204778792
 20
0.5835116150723609
 30
0.0
  0
VERTEX
  5
677
  8
0
 62
     0
 10
0.5079999923706055
 20
0.0
 30
0.0
  0
VERTEX
  5
678
  8
0
 62
     0
 10
3.3182601204778792
 20
-0.5835116150723609
 30
0.0
  0
SEQEND
  5
679
  8
0
 62
     0
  0
ENDBLK
  5
AA
  8
0
  0
BLOCK
  8
0
  2
*D7
 70
     1
 10
0.0
 20
0.0
 30
0.0
  3
*D7
  1

  0
LINE
  5
2B4
  8
0
 62
     0
 10
-24.0
 20
35.0
 30
0.0
 11
-19.20000076293945
 21
35.0
 31
0.0
  0
LINE
  5
2B5
  8
0
 62
     0
 10
-24.0
 20
35.0
 30
0.0
 11
-30.349999904632568
 21
35.000000000000021
 31
0.0
  0
LINE
  5
2B6
  8
0
 62
     0
 10
-19.20000076293945
 20
35.0
 30
0.0
 11
-12.850000858306879
 21
34.999999999999957
 31
0.0
  0
INSERT
  5
2B7
  8
0
  6
C_SOLID_L
 62
     0
  2
CCD_IARW
 10
-24.0
 20
35.0
 30
0.0
  0
INSERT
  5
2B8
  8
0
  6
C_SOLID_L
 62
     0
  2
CCD_IARWRT
 10
-19.20000076293945
 20
35.0
 30
0.0
 50
179.9999999999998
  0
LINE
  5
2B9
  8
0
 62
     0
 10
-24.0
 20
3.022503018379211
 30
0.0
 11
-24.0
 21
37.285999298095703
 31
0.0
  0
LINE
  5
2BA
  8
0
 62
     0
 10
-19.20000076293945
 20
16.922499775886529
 30
0.0
 11
-19.20000076293945
 21
37.285999298095703
 31
0.0
  0
TEXT
  5
2BB
  8
0
 10
-39.814566493034349
 20
38.040774270057668
 30
0.0
 40
4.1671876907348633
  1
4.8
  0
LINE
  5
2BC
  8
0
 62
     0
 10
-41.154022216796882
 20
35.0
 30
0.0
 11
-24.0
 21
35.0
 31
0.0
  0
ENDBLK
  5
AD
  8
0
  0
BLOCK
  8
0
  2
CCD_IARW
 70
     0
 10
0.0
 20
0.0
 30
0.0
  3
CCD_IARW
  1

  0
POLYLINE
  5
2BD
  8
0
 62
     0
 66
     1
 10
0.0
 20
0.0
 30
0.0
  0
VERTEX
  5
67A
  8
0
 62
     0
 10
-3.318260120477881
 20
-0.5835116150723501
 30
0.0
  0
VERTEX
  5
67B
  8
0
 62
     0
 10
-0.5079999923706055
 20
0.0000000000000016
 30
0.0
  0
VERTEX
  5
67C
  8
0
 62
     0
 10
-3.3182601204778761
 20
0.5835116150723715
 30
0.0
  0
SEQEND
  5
67D
  8
0
 62
     0
  0
ENDBLK
  5
B0
  8
0
  0
BLOCK
  8
0
  2
CCD_IARWRT
 70
     0
 10
0.0
 20
0.0
 30
0.0
  3
CCD_IARWRT
  1

  0
POLYLINE
  5
2C2
  8
0
 62
     0
 66
     1
 10
0.0
 20
0.0
 30
0.0
  0
VERTEX
  5
67E
  8
0
 62
     0
 10
-3.318260120477881
 20
-0.5835116150723501
 30
0.0
  0
VERTEX
  5
67F
  8
0
 62
     0
 10
-0.5079999923706055
 20
0.0000000000000016
 30
0.0
  0
VERTEX
  5
680
  8
0
 62
     0
 10
-3.3182601204778761
 20
0.5835116150723715
 30
0.0
  0
SEQEND
  5
681
  8
0
 62
     0
  0
ENDBLK
  5
B3
  8
0
  0
BLOCK
  8
0
  2
*D10
 70
     1
 10
0.0
 20
0.0
 30
0.0
  3
*D10
  1

  0
LINE
  5
2C7
  8
0
 62
     0
 10
-19.20000076293945
 20
35.0
 30
0.0
 11
0.0000000000000009
 21
35.0
 31
0.0
  0
INSERT
  5
2C8
  8
0
  6
C_SOLID_L
 62
     0
  2
CCD_OARW
 10
-19.20000076293945
 20
35.0
 30
0.0
  0
INSERT
  5
2C9
  8
0
  6
C_SOLID_L
 62
     0
  2
CCD_OARWRT
 10
0.0000000000000009
 20
35.0
 30
0.0
 50
179.9999999999998
  0
LINE
  5
2CA
  8
0
 62
     0
 10
-19.20000076293945
 20
16.922499775886529
 30
0.0
 11
-19.20000076293945
 21
37.285999298095703
 31
0.0
  0
LINE
  5
2CB
  8
0
 62
     0
 10
0.0000000000000045
 20
16.922499775886529
 30
0.0
 11
0.0000000000000009
 21
37.285999298095703
 31
0.0
  0
TEXT
  5
2CC
  8
0
 10
-17.739060759544351
 20
38.040774270057668
 30
0.0
 40
4.1671876907348633
  1
19.2
  0
ENDBLK
  5
B6
  8
0
  0
BLOCK
  8
0
  2
*D11
 70
     1
 10
0.0
 20
0.0
 30
0.0
  3
*D11
  1

  0
LINE
  5
2CD
  8
0
 62
     0
 10
0.0000000000000009
 20
35.0
 30
0.0
 11
15.5
 21
35.0
 31
0.0
  0
INSERT
  5
2CE
  8
0
  6
C_SOLID_L
 62
     0
  2
CCD_OARW
 10
0.0000000000000009
 20
35.0
 30
0.0
  0
INSERT
  5
2CF
  8
0
  6
C_SOLID_L
 62
     0
  2
CCD_OARWRT
 10
15.5
 20
35.0
 30
0.0
 50
179.9999999999998
  0
LINE
  5
2D0
  8
0
 62
     0
 10
0.0000000000000045
 20
16.922499775886529
 30
0.0
 11
0.0000000000000009
 21
37.285999298095703
 31
0.0
  0
LINE
  5
2D1
  8
0
 62
     0
 10
15.5
 20
3.3224999904632559
 30
0.0
 11
15.5
 21
37.285999298095703
 31
0.0
  0
TEXT
  5
2D2
  8
0
 10
17.08934843540192
 20
38.040774270057668
 30
0.0
 40
4.1671876907348633
  1
15.5
  0
LINE
  5
2D3
  8
0
 62
     0
 10
15.5
 20
35.0
 30
0.0
 11
33.906925201416023
 21
35.0
 31
0.0
  0
ENDBLK
  5
B9
  8
0
  0
BLOCK
  8
0
  2
*D12
 70
     1
 10
0.0
 20
0.0
 30
0.0
  3
*D12
  1

  0
LINE
  5
2D4
  8
0
 62
     0
 10
0.0000000000000009
 20
25.0
 30
0.0
 11
6.1999998092651367
 21
25.0
 31
0.0
  0
LINE
  5
2D5
  8
0
 62
     0
 10
0.0000000000000009
 20
25.0
 30
0.0
 11
-6.3499999046325666
 21
25.000000000000011
 31
0.0
  0
LINE
  5
2D6
  8
0
 62
     0
 10
6.1999998092651367
 20
25.0
 30
0.0
 11
12.54999971389771
 21
24.999999999999961
 31
0.0
  0
INSERT
  5
2D7
  8
0
  6
C_SOLID_L
 62
     0
  2
CCD_IARW
 10
0.0000000000000009
 20
25.0
 30
0.0
  0
INSERT
  5
2D8
  8
0
  6
C_SOLID_L
 62
     0
  2
CCD_IARWRT
 10
6.1999998092651367
 20
25.0
 30
0.0
 50
179.9999999999998
  0
LINE
  5
2D9
  8
0
 62
     0
 10
0.0000000000000045
 20
16.922499775886529
 30
0.0
 11
0.0000000000000009
 21
27.2859992980957
 31
0.0
  0
LINE
  5
2DA
  8
0
 62
     0
 10
6.1999998092651394
 20
4.722499966621398
 30
0.0
 11
6.1999998092651367
 21
27.2859992980957
 31
0.0
  0
LINE
  5
2DB
  8
0
 62
     0
 10
6.1999998092651367
 20
25.0
 30
0.0
 11
61.526329040527337
 21
25.0
 31
0.0
  0
ENDBLK
  5
BC
  8
0
  0
BLOCK
  8
0
  2
*D13
 70
     1
 10
0.0
 20
0.0
 30
0.0
  3
*D13
  1

  0
LINE
  5
2DC
  8
0
 62
     0
 10
120.0
 20
-11.0
 30
0.0
 11
120.0
 21
11.0
 31
0.0
  0
INSERT
  5
2DD
  8
0
  6
C_SOLID_L
 62
     0
  2
CCD_OARW
 10
120.0
 20
-11.0
 30
0.0
 50
89.999999999999915
  0
INSERT
  5
2DE
  8
0
  6
C_SOLID_L
 62
     0
  2
CCD_OARWRT
 10
120.0
 20
11.0
 30
0.0
 50
269.99999999999977
  0
LINE
  5
2DF
  8
0
 62
     0
 10
100.2224999666214
 20
-11.0
 30
0.0
 11
122.28599548339839
 21
-11.0
 31
0.0
  0
LINE
  5
2E0
  8
0
 62
     0
 10
100.2224999666214
 20
11.0
 30
0.0
 11
122.28599548339839
 21
11.0
 31
0.0
  0
TEXT
  5
2E1
  8
0
 10
116.9592257299423
 20
-3.571873068809571
 30
0.0
 40
4.1671876907348633
  1
22
 50
90.0
  0
ENDBLK
  5
BF
  8
0
  0
BLOCK
  8
0
  2
*D14
 70
     1
 10
0.0
 20
0.0
 30
0.0
  3
*D14
  1

  0
LINE
  5
2E2
  8
0
 62
     0
 10
-30.200000762939439
 20
-45.0
 30
0.0
 11
-19.20000076293945
 21
-45.0
 31
0.0
  0
INSERT
  5
2E3
  8
0
  6
C_SOLID_L
 62
     0
  2
CCD_OARW
 10
-30.200000762939439
 20
-45.0
 30
0.0
  0
INSERT
  5
2E4
  8
0
  6
C_SOLID_L
 62
     0
  2
CCD_OARWRT
 10
-19.20000076293945
 20
-45.0
 30
0.0
 50
179.9999999999998
  0
LINE
  5
2E5
  8
0
 62
     0
 10
-30.200000762939439
 20
-66.977496981620789
 30
0.0
 11
-30.200000762939439
 21
-42.714000701904297
 31
0.0
  0
LINE
  5
2E6
  8
0
 62
     0
 10
-19.20000076293945
 20
-53.077499270439141
 30
0.0
 11
-19.20000076293945
 21
-42.714000701904297
 31
0.0
  0
TEXT
  5
2E7
  8
0
 10
-55.753786444664001
 20
-41.959225729942318
 30
0.0
 40
4.1671876907348633
  1
(11.3)
  0
LINE
  5
2E8
  8
0
 62
     0
 10
-57.093242645263672
 20
-45.0
 30
0.0
 11
-30.200000762939439
 21
-45.0
 31
0.0
  0
ENDBLK
  5
C2
  8
0
  0
BLOCK
  8
0
  2
*D15
 70
     1
 10
0.0
 20
0.0
 30
0.0
  3
*D15
  1

  0
LINE
  5
2E9
  8
0
 62
     0
 10
0.0000000000000009
 20
-45.0
 30
0.0
 11
9.3000001907348633
 21
-45.0
 31
0.0
  0
LINE
  5
2EA
  8
0
 62
     0
 10
0.0000000000000009
 20
-45.0
 30
0.0
 11
-6.3499999046325666
 21
-44.999999999999979
 31
0.0
  0
LINE
  5
2EB
  8
0
 62
     0
 10
9.3000001907348633
 20
-45.0
 30
0.0
 11
15.65000009536743
 21
-45.000000000000021
 31
0.0
  0
INSERT
  5
2EC
  8
0
  6
C_SOLID_L
 62
     0
  2
CCD_IARW
 10
0.0000000000000009
 20
-45.0
 30
0.0
  0
INSERT
  5
2ED
  8
0
  6
C_SOLID_L
 62
     0
  2
CCD_IARWRT
 10
9.3000001907348633
 20
-45.0
 30
0.0
 50
179.9999999999998
  0
LINE
  5
2EE
  8
0
 62
     0
 10
0.0000000000000045
 20
-53.077499270439141
 30
0.0
 11
0.0000000000000009
 21
-42.714000701904297
 31
0.0
  0
LINE
  5
2EF
  8
0
 62
     0
 10
9.3000001907348668
 20
-66.677501559257507
 30
0.0
 11
9.3000001907348633
 21
-42.714000701904297
 31
0.0
  0
TEXT
  5
2F0
  8
0
 10
18.213276982307441
 20
-41.959225729942318
 30
0.0
 40
4.1671876907348633
  1
(9)
  0
LINE
  5
2F1
  8
0
 62
     0
 10
9.3000001907348633
 20
-45.0
 30
0.0
 11
30.863664627075199
 21
-45.0
 31
0.0
  0
ENDBLK
  5
C5
  8
0
  0
BLOCK
  8
0
  2
*D16
 70
     1
 10
0.0
 20
0.0
 30
0.0
  3
*D16
  1

  0
INSERT
  5
2F2
  8
0
  2
*U34
 10
0.0
 20
0.0
 30
0.0
  0
LINE
  5
2F3
  8
0
 62
     0
 10
-45.440845489501953
 20
-82.900001525878906
 30
0.0
 11
-45.440845489501953
 21
-57.099998474121101
 31
0.0
  0
INSERT
  5
2F4
  8
0
  6
C_SOLID_L
 62
     0
  2
CCD_OARW
 10
-45.440845489501953
 20
-82.900001525878906
 30
0.0
 50
89.999999999999915
  0
INSERT
  5
2F5
  8
0
  6
C_SOLID_L
 62
     0
  2
CCD_OARWRT
 10
-45.440845489501953
 20
-57.099998474121101
 30
0.0
 50
269.99999999999977
  0
LINE
  5
2F6
  8
0
 62
     0
 10
-27.622501492500302
 20
-82.900001525878892
 30
0.0
 11
-47.726844787597649
 21
-82.900001525878906
 31
0.0
  0
LINE
  5
2F7
  8
0
 62
     0
 10
-27.622501492500302
 20
-57.099998474121101
 30
0.0
 11
-47.726844787597649
 21
-57.099998474121101
 31
0.0
  0
ENDBLK
  5
C8
  8
0
  0
BLOCK
  8
0
  2
*D17
 70
     1
 10
0.0
 20
0.0
 30
0.0
  3
*D17
  1

  0
LINE
  5
58D
  8
0
  6
CONTINUOUS
 62
     0
 10
-22.32393463134763
 20
87.764434814453125
 30
0.0
 11
-50.776909179687493
 21
87.764434814453139
 31
0.0
  0
LINE
  5
58E
  8
0
  6
CONTINUOUS
 62
     0
 10
-22.323934631347662
 20
57.764434814453118
 30
0.0
 11
-50.7769091796875
 21
57.764434814453118
 31
0.0
  0
LINE
  5
58F
  8
0
  6
CONTINUOUS
 62
     0
 10
-46.206909179687493
 20
83.194434814453174
 30
0.0
 11
-46.2069091796875
 21
62.334434814453118
 31
0.0
  0
SOLID
  5
590
  8
0
  6
CONTINUOUS
 62
     0
 10
-46.968575846354163
 20
83.194434814453174
 30
0.0
 11
-45.445242513020823
 21
83.194434814453174
 31
0.0
 12
-46.206909179687493
 22
87.764434814453139
 32
0.0
 13
-46.206909179687493
 23
87.764434814453139
 33
0.0
  0
SOLID
  5
591
  8
0
  6
CONTINUOUS
 62
     0
 10
-46.96857584635417
 20
62.334434814453118
 30
0.0
 11
-45.44524251302083
 21
62.334434814453118
 31
0.0
 12
-46.2069091796875
 22
57.764434814453118
 32
0.0
 13
-46.2069091796875
 23
57.764434814453118
 33
0.0
  0
INSERT
  5
592
  8
0
  2
*U36
 10
0.0
 20
0.0
 30
0.0
  0
POINT
  5
593
  8
DEFPOINTS
  6
CONTINUOUS
 62
     0
 10
-20.74393463134766
 20
87.764434814453125
 30
0.0
  0
POINT
  5
594
  8
DEFPOINTS
  6
CONTINUOUS
 62
     0
 10
-20.74393463134766
 20
57.764434814453118
 30
0.0
  0
POINT
  5
595
  8
DEFPOINTS
  6
CONTINUOUS
 62
     0
 10
-46.2069091796875
 20
57.764434814453118
 30
0.0
  0
ENDBLK
  5
CB
  8
0
  0
BLOCK
  8
0
  2
*D18
 70
     1
 10
0.0
 20
0.0
 30
0.0
  3
*D18
  1

  0
LINE
  5
582
  8
0
  6
CONTINUOUS
 62
     0
 10
-21.0439338684082
 20
89.044431762695311
 30
0.0
 11
-21.0439338684082
 21
112.33443481445291
 31
0.0
  0
LINE
  5
583
  8
0
  6
CONTINUOUS
 62
     0
 10
-25.84393310546875
 20
75.144437866210936
 30
0.0
 11
-25.843933105468729
 21
112.33443481445291
 31
0.0
  0
LINE
  5
584
  8
0
  6
CONTINUOUS
 62
     0
 10
-16.473933868408189
 20
107.7644348144529
 30
0.0
 11
-11.903933868408179
 21
107.7644348144529
 31
0.0
  0
LINE
  5
585
  8
0
  6
CONTINUOUS
 62
     0
 10
-30.41393310546874
 20
107.7644348144529
 30
0.0
 11
-34.983933105468751
 21
107.7644348144529
 31
0.0
  0
LINE
  5
586
  8
0
  6
CONTINUOUS
 62
     0
 10
-21.0439338684082
 20
107.7644348144529
 30
0.0
 11
-25.843933105468729
 21
107.7644348144529
 31
0.0
  0
SOLID
  5
587
  8
0
  6
CONTINUOUS
 62
     0
 10
-16.473933868408189
 20
108.5261014811197
 30
0.0
 11
-16.473933868408189
 21
107.0027681477864
 31
0.0
 12
-21.0439338684082
 22
107.7644348144529
 32
0.0
 13
-21.0439338684082
 23
107.7644348144529
 33
0.0
  0
SOLID
  5
588
  8
0
  6
CONTINUOUS
 62
     0
 10
-30.41393310546874
 20
108.5261014811197
 30
0.0
 11
-30.41393310546874
 21
107.0027681477864
 31
0.0
 12
-25.843933105468729
 22
107.7644348144529
 32
0.0
 13
-25.843933105468729
 23
107.7644348144529
 33
0.0
  0
TEXT
  5
589
  8
0
 62
     0
 10
-29.000200336825031
 20
110.0444348144529
 30
0.0
 40
4.1672001374149312
  1
4.8
  0
POINT
  5
58A
  8
DEFPOINTS
  6
CONTINUOUS
 62
     0
 10
-21.0439338684082
 20
87.464431762695312
 30
0.0
  0
POINT
  5
58B
  8
DEFPOINTS
  6
CONTINUOUS
 62
     0
 10
-25.84393310546875
 20
73.564437866210937
 30
0.0
  0
POINT
  5
58C
  8
DEFPOINTS
  6
CONTINUOUS
 62
     0
 10
-25.843933105468729
 20
107.7644348144529
 30
0.0
  0
ENDBLK
  5
CE
  8
0
  0
BLOCK
  8
0
  2
*D19
 70
     1
 10
0.0
 20
0.0
 30
0.0
  3
*D19
  1

  0
LINE
  5
5AC
  8
0
  6
CONTINUOUS
 62
     0
 10
-1.84393310546875
 20
89.044431762695311
 30
0.0
 11
-1.843933105468748
 21
112.33443481445291
 31
0.0
  0
LINE
  5
5AD
  8
0
  6
CONTINUOUS
 62
     0
 10
-21.0439338684082
 20
89.044431762695311
 30
0.0
 11
-21.0439338684082
 21
112.33443481445291
 31
0.0
  0
LINE
  5
5AE
  8
0
  6
CONTINUOUS
 62
     0
 10
2.7260668945312512
 20
107.7644348144529
 30
0.0
 11
7.2960668945312523
 21
107.7644348144529
 31
0.0
  0
LINE
  5
5AF
  8
0
  6
CONTINUOUS
 62
     0
 10
-25.6139338684082
 20
107.7644348144529
 30
0.0
 11
-30.183933868408189
 21
107.7644348144529
 31
0.0
  0
LINE
  5
5B0
  8
0
  6
CONTINUOUS
 62
     0
 10
-1.843933105468748
 20
107.7644348144529
 30
0.0
 11
-21.0439338684082
 21
107.7644348144529
 31
0.0
  0
SOLID
  5
5B1
  8
0
  6
CONTINUOUS
 62
     0
 10
2.7260668945312512
 20
108.5261014811197
 30
0.0
 11
2.7260668945312512
 21
107.0027681477864
 31
0.0
 12
-1.843933105468748
 22
107.7644348144529
 32
0.0
 13
-1.843933105468748
 23
107.7644348144529
 33
0.0
  0
SOLID
  5
5B2
  8
0
  6
CONTINUOUS
 62
     0
 10
-25.6139338684082
 20
108.5261014811197
 30
0.0
 11
-25.6139338684082
 21
107.0027681477864
 31
0.0
 12
-21.0439338684082
 22
107.7644348144529
 32
0.0
 13
-21.0439338684082
 23
107.7644348144529
 33
0.0
  0
TEXT
  5
5B3
  8
0
 62
     0
 10
-19.083800405532511
 20
110.0444348144529
 30
0.0
 40
4.1672001374149312
  1
19.2
  0
POINT
  5
5B4
  8
DEFPOINTS
  6
CONTINUOUS
 62
     0
 10
-1.84393310546875
 20
87.464431762695312
 30
0.0
  0
POINT
  5
5B5
  8
DEFPOINTS
  6
CONTINUOUS
 62
     0
 10
-21.0439338684082
 20
87.464431762695312
 30
0.0
  0
POINT
  5
5B6
  8
DEFPOINTS
  6
CONTINUOUS
 62
     0
 10
-21.0439338684082
 20
107.7644348144529
 30
0.0
  0
ENDBLK
  5
D1
  8
0
  0
BLOCK
  8
0
  2
*D20
 70
     1
 10
0.0
 20
0.0
 30
0.0
  3
*D20
  1

  0
LINE
  5
577
  8
0
  6
CONTINUOUS
 62
     0
 10
13.65606689453125
 20
75.444433288574217
 30
0.0
 11
13.65606689453125
 21
112.33443481445291
 31
0.0
  0
LINE
  5
578
  8
0
  6
CONTINUOUS
 62
     0
 10
-1.84393310546875
 20
89.044431762695311
 30
0.0
 11
-1.843933105468748
 21
112.33443481445291
 31
0.0
  0
LINE
  5
579
  8
0
  6
CONTINUOUS
 62
     0
 10
18.22606689453125
 20
107.7644348144529
 30
0.0
 11
22.796066894531251
 21
107.7644348144529
 31
0.0
  0
LINE
  5
57A
  8
0
  6
CONTINUOUS
 62
     0
 10
-6.4139331054687467
 20
107.7644348144529
 30
0.0
 11
-10.983933105468729
 21
107.7644348144529
 31
0.0
  0
LINE
  5
57B
  8
0
  6
CONTINUOUS
 62
     0
 10
13.65606689453125
 20
107.7644348144529
 30
0.0
 11
-1.843933105468748
 21
107.7644348144529
 31
0.0
  0
SOLID
  5
57C
  8
0
  6
CONTINUOUS
 62
     0
 10
18.22606689453125
 20
108.5261014811197
 30
0.0
 11
18.22606689453125
 21
107.0027681477864
 31
0.0
 12
13.65606689453125
 22
107.7644348144529
 32
0.0
 13
13.65606689453125
 23
107.7644348144529
 33
0.0
  0
SOLID
  5
57D
  8
0
  6
CONTINUOUS
 62
     0
 10
-6.4139331054687467
 20
108.5261014811197
 30
0.0
 11
-6.4139331054687467
 21
107.0027681477864
 31
0.0
 12
-1.843933105468748
 22
107.7644348144529
 32
0.0
 13
-1.843933105468748
 23
107.7644348144529
 33
0.0
  0
TEXT
  5
57E
  8
0
 62
     0
 10
-1.733800024062788
 20
110.0444348144529
 30
0.0
 40
4.1672001374149312
  1
15.5
  0
POINT
  5
57F
  8
DEFPOINTS
  6
CONTINUOUS
 62
     0
 10
13.65606689453125
 20
73.864433288574219
 30
0.0
  0
POINT
  5
580
  8
DEFPOINTS
  6
CONTINUOUS
 62
     0
 10
-1.84393310546875
 20
87.464431762695312
 30
0.0
  0
POINT
  5
581
  8
DEFPOINTS
  6
CONTINUOUS
 62
     0
 10
-1.843933105468748
 20
107.7644348144529
 30
0.0
  0
ENDBLK
  5
D4
  8
0
  0
BLOCK
  8
0
  2
*D21
 70
     1
 10
0.0
 20
0.0
 30
0.0
  3
*D21
  1

  0
LINE
  5
563
  8
0
  6
CONTINUOUS
 62
     0
 10
4.3560667037963841
 20
76.844434814453123
 30
0.0
 11
4.3560667037963858
 21
102.3344348144531
 31
0.0
  0
LINE
  5
564
  8
0
  6
CONTINUOUS
 62
     0
 10
-1.84393310546875
 20
89.044431762695311
 30
0.0
 11
-1.8439331054687489
 21
102.3344348144531
 31
0.0
  0
LINE
  5
565
  8
0
  6
CONTINUOUS
 62
     0
 10
8.926066703796387
 20
97.764434814453125
 30
0.0
 11
13.49606670379638
 21
97.764434814453125
 31
0.0
  0
LINE
  5
566
  8
0
  6
CONTINUOUS
 62
     0
 10
-6.4139331054687467
 20
97.764434814453125
 30
0.0
 11
-10.983933105468751
 21
97.764434814453125
 31
0.0
  0
LINE
  5
567
  8
0
  6
CONTINUOUS
 62
     0
 10
4.3560667037963858
 20
97.764434814453125
 30
0.0
 11
-1.8439331054687489
 21
97.764434814453125
 31
0.0
  0
SOLID
  5
568
  8
0
  6
CONTINUOUS
 62
     0
 10
8.926066703796387
 20
98.526101481119809
 30
0.0
 11
8.926066703796387
 21
97.002768147786455
 31
0.0
 12
4.3560667037963858
 22
97.764434814453125
 32
0.0
 13
4.3560667037963858
 23
97.764434814453125
 33
0.0
  0
SOLID
  5
569
  8
0
  6
CONTINUOUS
 62
     0
 10
-6.4139331054687467
 20
98.526101481119809
 30
0.0
 11
-6.4139331054687467
 21
97.002768147786455
 31
0.0
 12
-1.8439331054687489
 22
97.764434814453125
 32
0.0
 13
-1.8439331054687489
 23
97.764434814453125
 33
0.0
  0
TEXT
  5
56A
  8
0
 62
     0
 10
-4.300200050722756
 20
100.0444348144531
 30
0.0
 40
4.1672001374149312
  1
6.2
  0
POINT
  5
56B
  8
DEFPOINTS
  6
CONTINUOUS
 62
     0
 10
4.3560667037963841
 20
75.264434814453125
 30
0.0
  0
POINT
  5
56C
  8
DEFPOINTS
  6
CONTINUOUS
 62
     0
 10
-1.84393310546875
 20
87.464431762695312
 30
0.0
  0
POINT
  5
56D
  8
DEFPOINTS
  6
CONTINUOUS
 62
     0
 10
-1.8439331054687489
 20
97.764434814453125
 30
0.0
  0
ENDBLK
  5
D7
  8
0
  0
BLOCK
  8
0
  2
*D22
 70
     1
 10
0.0
 20
0.0
 30
0.0
  3
*D22
  1

  0
LINE
  5
5B7
  8
0
  6
CONTINUOUS
 62
     0
 10
97.736066894531234
 20
83.764434814453125
 30
0.0
 11
122.7260668945312
 21
83.764434814453125
 31
0.0
  0
LINE
  5
5B8
  8
0
  6
CONTINUOUS
 62
     0
 10
97.736066894531234
 20
61.764434814453111
 30
0.0
 11
122.7260668945312
 21
61.764434814453111
 31
0.0
  0
LINE
  5
5B9
  8
0
  6
CONTINUOUS
 62
     0
 10
118.15606689453119
 20
79.194434814453132
 30
0.0
 11
118.15606689453119
 21
66.334434814453104
 31
0.0
  0
SOLID
  5
5BA
  8
0
  6
CONTINUOUS
 62
     0
 10
117.39440022786439
 20
79.194434814453132
 30
0.0
 11
118.91773356119771
 21
79.194434814453132
 31
0.0
 12
118.15606689453119
 22
83.764434814453125
 32
0.0
 13
118.15606689453119
 23
83.764434814453125
 33
0.0
  0
SOLID
  5
5BB
  8
0
  6
CONTINUOUS
 62
     0
 10
117.39440022786439
 20
66.334434814453104
 30
0.0
 11
118.91773356119771
 21
66.334434814453104
 31
0.0
 12
118.15606689453119
 22
61.764434814453111
 32
0.0
 13
118.15606689453119
 23
61.764434814453111
 33
0.0
  0
TEXT
  5
5BC
  8
0
 62
     0
 10
115.87606689453111
 20
69.291768033274039
 30
0.0
 40
4.1672001374149312
  1
22
 50
90.0
  0
POINT
  5
5BD
  8
DEFPOINTS
  6
CONTINUOUS
 62
     0
 10
96.156066894531236
 20
83.764434814453125
 30
0.0
  0
POINT
  5
5BE
  8
DEFPOINTS
  6
CONTINUOUS
 62
     0
 10
96.156066894531236
 20
61.764434814453111
 30
0.0
  0
POINT
  5
5BF
  8
DEFPOINTS
  6
CONTINUOUS
 62
     0
 10
118.15606689453119
 20
61.764434814453111
 30
0.0
  0
ENDBLK
  5
DA
  8
0
  0
BLOCK
  8
0
  2
*D23
 70
     1
 10
0.0
 20
0.0
 30
0.0
  3
*D23
  1

  0
LINE
  5
596
  8
0
  6
CONTINUOUS
 62
     0
 10
-21.0439338684082
 20
19.044435577392569
 30
0.0
 11
-21.0439338684082
 21
32.334434814453111
 31
0.0
  0
LINE
  5
597
  8
0
  6
CONTINUOUS
 62
     0
 10
-32.043933868408189
 20
5.1444378662109358
 30
0.0
 11
-32.043933868408189
 21
32.334434814453111
 31
0.0
  0
LINE
  5
598
  8
0
  6
CONTINUOUS
 62
     0
 10
-16.473933868408189
 20
27.764434814453121
 30
0.0
 11
-11.903933868408179
 21
27.764434814453121
 31
0.0
  0
LINE
  5
599
  8
0
  6
CONTINUOUS
 62
     0
 10
-36.613933868408189
 20
27.764434814453121
 30
0.0
 11
-41.183933868408197
 21
27.764434814453121
 31
0.0
  0
LINE
  5
59A
  8
0
  6
CONTINUOUS
 62
     0
 10
-21.0439338684082
 20
27.764434814453121
 30
0.0
 11
-32.043933868408189
 21
27.764434814453121
 31
0.0
  0
SOLID
  5
59B
  8
0
  6
CONTINUOUS
 62
     0
 10
-16.473933868408189
 20
28.526101481119781
 30
0.0
 11
-16.473933868408189
 21
27.002768147786451
 31
0.0
 12
-21.0439338684082
 22
27.764434814453121
 32
0.0
 13
-21.0439338684082
 23
27.764434814453121
 33
0.0
  0
SOLID
  5
59C
  8
0
  6
CONTINUOUS
 62
     0
 10
-36.613933868408189
 20
28.526101481119781
 30
0.0
 11
-36.613933868408189
 21
27.002768147786451
 31
0.0
 12
-32.043933868408189
 22
27.764434814453121
 32
0.0
 13
-32.043933868408189
 23
27.764434814453121
 33
0.0
  0
TEXT
  5
59D
  8
0
 62
     0
 10
-37.656467568181341
 20
30.044434814453101
 30
0.0
 40
4.1672001374149312
  1
(11.3)
  0
POINT
  5
59E
  8
DEFPOINTS
  6
CONTINUOUS
 62
     0
 10
-21.0439338684082
 20
17.464435577392582
 30
0.0
  0
POINT
  5
59F
  8
DEFPOINTS
  6
CONTINUOUS
 62
     0
 10
-32.043933868408189
 20
3.5644378662109371
 30
0.0
  0
POINT
  5
5A0
  8
DEFPOINTS
  6
CONTINUOUS
 62
     0
 10
-32.043933868408189
 20
27.764434814453121
 30
0.0
  0
ENDBLK
  5
DD
  8
0
  0
BLOCK
  8
0
  2
*D24
 70
     1
 10
0.0
 20
0.0
 30
0.0
  3
*D24
  1

  0
LINE
  5
5A1
  8
0
  6
CONTINUOUS
 62
     0
 10
7.4560670852661124
 20
5.4444332885742162
 30
0.0
 11
7.4560670852661124
 21
32.334434814453111
 31
0.0
  0
LINE
  5
5A2
  8
0
  6
CONTINUOUS
 62
     0
 10
-1.84393310546875
 20
19.044435577392569
 30
0.0
 11
-1.8439331054687489
 21
32.334434814453111
 31
0.0
  0
LINE
  5
5A3
  8
0
  6
CONTINUOUS
 62
     0
 10
12.02606708526611
 20
27.764434814453121
 30
0.0
 11
16.596067085266089
 21
27.764434814453121
 31
0.0
  0
LINE
  5
5A4
  8
0
  6
CONTINUOUS
 62
     0
 10
-6.4139331054687467
 20
27.764434814453121
 30
0.0
 11
-10.983933105468751
 21
27.764434814453121
 31
0.0
  0
LINE
  5
5A5
  8
0
  6
CONTINUOUS
 62
     0
 10
7.4560670852661124
 20
27.764434814453121
 30
0.0
 11
-1.8439331054687489
 21
27.764434814453121
 31
0.0
  0
SOLID
  5
5A6
  8
0
  6
CONTINUOUS
 62
     0
 10
12.02606708526611
 20
28.526101481119781
 30
0.0
 11
12.02606708526611
 21
27.002768147786451
 31
0.0
 12
7.4560670852661124
 22
27.764434814453121
 32
0.0
 13
7.4560670852661124
 23
27.764434814453121
 33
0.0
  0
SOLID
  5
5A7
  8
0
  6
CONTINUOUS
 62
     0
 10
-6.4139331054687467
 20
28.526101481119781
 30
0.0
 11
-6.4139331054687467
 21
27.002768147786451
 31
0.0
 12
-1.8439331054687489
 22
27.764434814453121
 32
0.0
 13
-1.8439331054687489
 23
27.764434814453121
 33
0.0
  0
TEXT
  5
5A8
  8
0
 62
     0
 10
-2.0556665037520698
 20
30.044434814453101
 30
0.0
 40
4.1672001374149312
  1
(9)
  0
POINT
  5
5A9
  8
DEFPOINTS
  6
CONTINUOUS
 62
     0
 10
7.4560670852661124
 20
3.8644332885742179
 30
0.0
  0
POINT
  5
5AA
  8
DEFPOINTS
  6
CONTINUOUS
 62
     0
 10
-1.84393310546875
 20
17.464435577392582
 30
0.0
  0
POINT
  5
5AB
  8
DEFPOINTS
  6
CONTINUOUS
 62
     0
 10
-1.8439331054687489
 20
27.764434814453121
 30
0.0
  0
ENDBLK
  5
E0
  8
0
  0
BLOCK
  8
0
  2
*D25
 70
     1
 10
0.0
 20
0.0
 30
0.0
  3
*D25
  1

  0
LINE
  5
56E
  8
0
  6
CONTINUOUS
 62
     0
 10
-28.823934631347662
 20
15.664436340332029
 30
0.0
 11
-51.854778594970703
 21
15.664436340332029
 31
0.0
  0
LINE
  5
56F
  8
0
  6
CONTINUOUS
 62
     0
 10
-28.823934631347662
 20
-10.13556671142576
 30
0.0
 11
-51.854778594970703
 21
-10.13556671142576
 31
0.0
  0
LINE
  5
570
  8
0
  6
CONTINUOUS
 62
     0
 10
-47.284778594970703
 20
11.094436340332029
 30
0.0
 11
-47.284778594970703
 21
-5.5655667114257721
 31
0.0
  0
SOLID
  5
571
  8
0
  6
CONTINUOUS
 62
     0
 10
-48.04644526163738
 20
11.094436340332029
 30
0.0
 11
-46.523111928304033
 21
11.094436340332029
 31
0.0
 12
-47.284778594970703
 22
15.664436340332029
 32
0.0
 13
-47.284778594970703
 23
15.664436340332029
 33
0.0
  0
SOLID
  5
572
  8
0
  6
CONTINUOUS
 62
     0
 10
-48.04644526163738
 20
-5.5655667114257721
 30
0.0
 11
-46.523111928304033
 21
-5.5655667114257721
 31
0.0
 12
-47.284778594970703
 22
-10.13556671142576
 32
0.0
 13
-47.284778594970703
 23
-10.13556671142576
 33
0.0
  0
INSERT
  5
573
  8
0
  2
*U35
 10
0.0
 20
0.0
 30
0.0
  0
POINT
  5
574
  8
DEFPOINTS
  6
CONTINUOUS
 62
     0
 10
-27.24393463134766
 20
15.664436340332029
 30
0.0
  0
POINT
  5
575
  8
DEFPOINTS
  6
CONTINUOUS
 62
     0
 10
-27.24393463134766
 20
-10.135566711425779
 30
0.0
  0
POINT
  5
576
  8
DEFPOINTS
  6
CONTINUOUS
 62
     0
 10
-47.284778594970703
 20
-10.13556671142576
 30
0.0
  0
ENDBLK
  5
E3
  8
0
  0
BLOCK
  8
0
  2
*U26
 70
     1
 10
0.0
 20
0.0
 30
0.0
  3
*U26
  1

  0
TEXT
  5
624
  8
0
 10
-1.2499980926513641
 20
-6.0833247502644934
 30
0.0
 40
3.5
  1
1.作動耐久性・温度上昇は動作条件、負荷条件、取り付状態等で
  0
TEXT
  5
625
  8
0
 10
-1.2499980926513641
 20
-11.91665808359782
 30
0.0
 40
3.5
  1
  大きく変化します。実際の作動耐久性・温度上昇については、
  0
TEXT
  5
626
  8
0
 10
-1.2499980926513641
 20
-17.749991416931159
 30
0.0
 40
3.5
  1
  お客様の実機にVCMを装着してご確認下さい。
  0
ENDBLK
  5
628
  8
0
  0
BLOCK
  8
0
  2
*U27
 70
     1
 10
0.0
 20
0.0
 30
0.0
  3
*U27
  1

  0
TEXT
  5
62A
  8
0
 10
-1.2499982118606541
 20
-22.583324750264481
 30
0.0
 40
3.5
  1
2.コイルへの配線はコイルの動作に影響を与えないように
  0
TEXT
  5
62B
  8
0
 10
-1.2499982118606541
 20
-28.41665808359781
 30
0.0
 40
3.5
  1
  配線してください。又、動作に伴うストレスで
  0
TEXT
  5
62C
  8
0
 10
-1.2499982118606541
 20
-34.249991416931138
 30
0.0
 40
3.5
  1
  断線しないものを選択してください。
  0
ENDBLK
  5
62E
  8
0
  0
BLOCK
  8
0
  2
*U28
 70
     1
 10
0.0
 20
0.0
 30
0.0
  3
*U28
  1

  0
TEXT
  5
630
  8
0
 10
-1.2499982118606541
 20
-39.66666237513224
 30
0.0
 40
3.5
  1
3.シャフトに負荷等を連結する際には、シャフトを
  0
TEXT
  5
631
  8
0
 10
-1.2499982118606541
 20
-45.499995708465583
 30
0.0
 40
3.5
  1
  回転させないように固定して取り付けてください。
  0
ENDBLK
  5
633
  8
0
  0
BLOCK
  8
0
  2
*U29
 70
     1
 10
0.0
 20
0.0
 30
0.0
  3
*U29
  1

  0
TEXT
  5
635
  8
0
 10
-1.2499982118606541
 20
-50.083324750264481
 30
0.0
 40
3.5
  1
4.コイルには回転止めを取付けておりますが負荷等の
  0
TEXT
  5
636
  8
0
 10
-1.2499982118606541
 20
-55.916658083597817
 30
0.0
 40
3.5
  1
  回転止めではありませんので回転負荷が掛からない
  0
TEXT
  5
637
  8
0
 10
-1.2499982118606541
 20
-61.749991416931152
 30
0.0
 40
3.5
  1
  ようにして下さい。
  0
ENDBLK
  5
639
  8
0
  0
BLOCK
  8
0
  2
*U30
 70
     1
 10
0.0
 20
0.0
 30
0.0
  3
*U30
  1

  0
TEXT
  5
63B
  8
0
 10
-1.2499982118606541
 20
-67.166662375132248
 30
0.0
 40
3.5
  1
5.ストッパーとして、直接Eリングを当ててのご使用は
  0
TEXT
  5
63C
  8
0
 10
-1.2499982118606541
 20
-72.999995708465576
 30
0.0
 40
3.5
  1
　　破損の原因になりますのでご注意ください。
  0
ENDBLK
  5
63E
  8
0
  0
BLOCK
  8
0
  2
*U31
 70
     1
 10
0.0
 20
0.0
 30
0.0
  3
*U31
  1

  0
TEXT
  5
640
  8
0
 10
8.5117199420928973
 20
-86.389058351516724
 30
0.0
 40
4.1671900749206534
  1
出力シャフト
  0
TEXT
  5
641
  8
0
 10
8.5117199420928973
 20
-93.334375143051147
 30
0.0
 40
4.1671900749206534
  1
（引込時）
  0
ENDBLK
  5
643
  8
0
  0
BLOCK
  8
0
  2
*U32
 70
     1
 10
0.0
 20
0.0
 30
0.0
  3
*U32
  1

  0
TEXT
  5
645
  8
0
 10
8.5117199420928973
 20
-18.38905835151672
 30
0.0
 40
4.1671900749206534
  1
出力シャフト
  0
TEXT
  5
646
  8
0
 10
8.5117199420928973
 20
-25.334375143051151
 30
0.0
 40
4.1671900749206534
  1
（突出し時）
  0
ENDBLK
  5
648
  8
0
  0
BLOCK
  8
0
  2
*U33
 70
     1
 10
0.0
 20
0.0
 30
0.0
  3
*U33
  1

  0
TEXT
  5
66E
  8
0
 10
-47.403750344276418
 20
-5.9372439384460414
 30
0.0
 40
4.1671876907348633
  1
\U+2205
 50
90.0
  0
TEXT
  5
66F
  8
0
 10
-47.403750344276418
 20
-1.7700562477111781
 30
0.0
 40
4.1671876907348633
  1
30
 50
90.0
  0
ENDBLK
  5
671
  8
0
  0
BLOCK
  8
0
  2
*U34
 70
     1
 10
0.0
 20
0.0
 30
0.0
  3
*U34
  1

  0
TEXT
  5
683
  8
0
 10
-48.481619759559628
 20
-79.6268004179001
 30
0.0
 40
4.1671876907348633
  1
(
 50
90.0
  0
TEXT
  5
684
  8
0
 10
-48.481619759559628
 20
-75.459612727165236
 30
0.0
 40
4.1671876907348633
  1
\U+2205
 50
90.0
  0
TEXT
  5
685
  8
0
 10
-48.481619759559628
 20
-71.292425036430373
 30
0.0
 40
4.1671876907348633
  1
30)
 50
90.0
  0
ENDBLK
  5
687
  8
0
  0
BLOCK
  8
0
  2
*U35
 70
     1
 10
0.0
 20
0.0
 30
0.0
  3
*U35
  1

  0
TEXT
  5
689
  8
0
 62
     0
 10
-49.564778594970697
 20
-6.2644988166125577
 30
0.0
 40
4.1672001374149312
  1
(
 50
90.0
  0
TEXT
  5
68A
  8
0
 62
     0
 10
-49.564778594970697
 20
-2.0972986791976269
 30
0.0
 40
4.1672001374149312
  1
\U+2205
 50
90.0
  0
TEXT
  5
68B
  8
0
 62
     0
 10
-49.564778594970697
 20
2.069901458217303
 30
0.0
 40
4.1672001374149312
  1
30)
 50
90.0
  0
ENDBLK
  5
68D
  8
0
  0
BLOCK
  8
0
  2
*U36
 70
     1
 10
0.0
 20
0.0
 30
0.0
  3
*U36
  1

  0
TEXT
  5
68F
  8
0
 62
     0
 10
-48.486909179687487
 20
67.208167964566556
 30
0.0
 40
4.1672001374149312
  1
\U+2205
 50
90.0
  0
TEXT
  5
690
  8
0
 62
     0
 10
-48.486909179687487
 20
71.375368101981493
 30
0.0
 40
4.1672001374149312
  1
^A30
 50
90.0
  0
ENDBLK
  5
692
  8
0
  0
ENDSEC
  0
SECTION
  2
ENTITIES
  0
POINT
  5
2F8
  8
0
  6
CONTINUOUS
 62
     0
 10
0.0
 20
0.0
 30
0.0
  0
POINT
  5
2F9
  8
0
  6
CONTINUOUS
 62
     0
 10
0.0
 20
0.0
 30
0.0
  0
POINT
  5
2FA
  8
0
  6
CONTINUOUS
 62
     0
 10
-1.84393310546875
 20
72.764434814453125
 30
0.0
  0
POINT
  5
2FB
  8
0
  6
CONTINUOUS
 62
     0
 10
8.8132867813110352
 20
64.598457336425781
 30
0.0
  0
LINE
  5
31E
  8
0
  6
CONTINUOUS
 62
     0
 10
-20.74393463134766
 20
87.764434814453125
 30
0.0
 11
-2.1439342498779301
 21
87.764434814453125
 31
0.0
  0
LINE
  5
31F
  8
0
  6
CONTINUOUS
 62
     0
 10
-1.8439331054687449
 20
58.064437866210938
 30
0.0
 11
-1.8439331054687449
 21
87.464431762695312
 31
0.0
  0
LINE
  5
320
  8
0
  6
CONTINUOUS
 62
     0
 10
-21.0439338684082
 20
58.064437866210938
 30
0.0
 11
-21.0439338684082
 21
87.464431762695312
 31
0.0
  0
LINE
  5
321
  8
0
  6
C_CENTER_L
 62
     0
 10
-27.34393310546875
 20
72.764434814453125
 30
0.0
 11
2.65606689453125
 21
72.764434814453125
 31
0.0
  0
LINE
  5
322
  8
0
  6
CONTINUOUS
 62
     0
 10
-1.84393310546875
 20
74.264434814453125
 30
0.0
 11
4.2560663223266602
 21
74.264434814453125
 31
0.0
  0
LINE
  5
323
  8
0
  6
CONTINUOUS
 62
     0
 10
-1.843932804438964
 20
87.464438657570994
 30
0.0
 11
-2.1439322209728289
 21
87.764437745360283
 31
0.0
  0
LINE
  5
324
  8
0
  6
CONTINUOUS
 62
     0
 10
-2.1439346654890401
 20
57.76443430464019
 30
0.0
 11
-1.8439328803028701
 21
58.064436418573912
 31
0.0
  0
CIRCLE
  5
325
  8
0
  6
CONTINUOUS
 62
     0
 10
93.156066894531236
 20
72.764434814453125
 30
0.0
 40
15.0
  0
CIRCLE
  5
326
  8
0
  6
CONTINUOUS
 62
     0
 10
93.156066894531236
 20
72.764434814453125
 30
0.0
 40
14.69999980926514
  0
LINE
  5
327
  8
0
  6
C_CENTER_L
 62
     0
 10
76.15606689453125
 20
72.764434814453125
 30
0.0
 11
110.15606689453119
 21
72.764434814453125
 31
0.0
  0
LINE
  5
328
  8
0
  6
C_CENTER_L
 62
     0
 10
93.156066894531236
 20
55.764434814453118
 30
0.0
 11
93.156066894531236
 21
89.764434814453125
 31
0.0
  0
LINE
  5
329
  8
0
  6
C_CENTER_L
 62
     0
 10
90.156066894531236
 20
61.764434814453111
 30
0.0
 11
96.156066894531236
 21
61.764434814453111
 31
0.0
  0
LINE
  5
32A
  8
0
  6
C_CENTER_L
 62
     0
 10
90.156066894531236
 20
83.764434814453125
 30
0.0
 11
96.156066894531236
 21
83.764434814453125
 31
0.0
  0
CIRCLE
  5
32B
  8
0
  6
C_SOLID_L
 62
     0
 10
93.156066894531236
 20
61.764434814453111
 30
0.0
 40
1.25
  0
CIRCLE
  5
32C
  8
0
  6
C_SOLID_L
 62
     0
 10
93.156066894531236
 20
83.764434814453125
 30
0.0
 40
1.25
  0
CIRCLE
  5
32D
  8
0
  6
CONTINUOUS
 62
     0
 10
93.156066894531236
 20
61.764434814453111
 30
0.0
 40
0.899999976158142
  0
CIRCLE
  5
32E
  8
0
  6
CONTINUOUS
 62
     0
 10
93.156066894531236
 20
83.764434814453125
 30
0.0
 40
0.899999976158142
  0
CIRCLE
  5
32F
  8
0
  6
CONTINUOUS
 62
     0
 10
93.156066894531236
 20
72.764434814453125
 30
0.0
 40
1.5
  0
CIRCLE
  5
330
  8
0
  6
CONTINUOUS
 62
     0
 10
93.156066894531236
 20
72.764434814453125
 30
0.0
 40
1.2000000476837149
  0
ARC
  5
331
  8
0
  6
CONTINUOUS
 62
     0
 10
93.156066894531236
 20
72.764434814453125
 30
0.0
 40
2.5
 50
43.605088793520288
 51
316.39490756401398
  0
ARC
  5
332
  8
0
  6
CONTINUOUS
 62
     0
 10
93.156066894531236
 20
72.764434814453125
 30
0.0
 40
1.799999952316284
 50
90.000002504478175
 51
147.819199904226
  0
LINE
  5
333
  8
0
  6
CONTINUOUS
 62
     0
 10
91.796649300225425
 20
73.398370903150393
 30
0.0
 11
91.717394385424541
 21
73.43532807638212
 31
0.0
  0
LINE
  5
334
  8
0
  6
CONTINUOUS
 62
     0
 10
91.717397633481596
 20
72.093551123110956
 30
0.0
 11
91.796652548282495
 21
72.130508296342668
 31
0.0
  0
ARC
  5
335
  8
0
  6
CONTINUOUS
 62
     0
 10
93.156066894531236
 20
72.764434814453125
 30
0.0
 40
1.799999952316284
 50
212.1808000957738
 51
277.66229495173877
  0
ARC
  5
336
  8
0
  6
CONTINUOUS
 62
     0
 10
91.801872253417955
 20
71.912284851074219
 30
0.0
 40
0.2000000029802322
 50
114.9995125649112
 51
212.18097403822671
  0
ARC
  5
337
  8
0
  6
CONTINUOUS
 62
     0
 10
91.801872253417955
 20
73.616584777832031
 30
0.0
 40
0.2000000029802322
 50
147.81900865892931
 51
245.0004701322448
  0
LINE
  5
338
  8
0
  6
CONTINUOUS
 62
     0
 10
93.656066894531236
 20
74.17864990234375
 30
0.0
 11
93.656066894531236
 21
74.251045227050781
 31
0.0
  0
ARC
  5
339
  8
0
  6
CONTINUOUS
 62
     0
 10
93.156066894531236
 20
72.764434814453125
 30
0.0
 40
1.799999952316284
 50
82.337691387882771
 51
90.000009334667354
  0
ARC
  5
33A
  8
0
  6
CONTINUOUS
 62
     0
 10
93.356063842773438
 20
71.277824401855469
 30
0.0
 40
0.3000000119209289
 50
277.66243155552201
 51
359.99999749552182
  0
ARC
  5
33B
  8
0
  6
CONTINUOUS
 62
     0
 10
93.356063842773438
 20
74.251045227050781
 30
0.0
 40
0.3000000119209289
 50
359.99999749552182
 51
82.337575274666875
  0
LINE
  5
33C
  8
0
  6
CONTINUOUS
 62
     0
 10
93.656066894531236
 20
71.277824401855469
 30
0.0
 11
93.656066894531236
 21
71.3502197265625
 31
0.0
  0
LINE
  5
33D
  8
0
  6
CONTINUOUS
 62
     0
 10
94.961234039495352
 20
71.459261570599423
 30
0.0
 11
94.43683284405391
 21
71.983662766040879
 31
0.0
  0
LINE
  5
33E
  8
0
  6
CONTINUOUS
 62
     0
 10
94.43683284405391
 20
73.54520819709181
 30
0.0
 11
94.961234039495352
 21
74.069609392533266
 31
0.0
  0
ARC
  5
33F
  8
0
  6
CONTINUOUS
 62
     0
 10
94.749114990234375
 20
71.24713134765625
 30
0.0
 40
0.3000000119209289
 50
316.39480533854749
 51
44.999919289969043
  0
ARC
  5
340
  8
0
  6
CONTINUOUS
 62
     0
 10
94.749114990234375
 20
74.28173828125
 30
0.0
 40
0.3000000119209289
 50
315.00008071003077
 51
43.605191246357847
  0
ARC
  5
341
  8
0
  6
CONTINUOUS
 62
     0
 10
93.156066894531236
 20
72.764434814453125
 30
0.0
 40
2.0
 50
325.18208959257908
 51
34.817903577231753
  0
LINE
  5
342
  8
0
  6
CONTINUOUS
 62
     0
 10
-21.043935138233682
 20
58.064436601281393
 30
0.0
 11
-20.743936278036809
 21
57.764436957155112
 31
0.0
  0
LINE
  5
343
  8
0
  6
CONTINUOUS
 62
     0
 10
-21.04393511273156
 20
87.464439146983992
 30
0.0
 11
-20.743936252534699
 21
87.764438791110265
 31
0.0
  0
LINE
  5
344
  8
0
  6
CONTINUOUS
 62
     0
 10
-20.74393463134766
 20
57.764434814453118
 30
0.0
 11
-2.143933773040771
 21
57.764434814453118
 31
0.0
  0
LINE
  5
345
  8
0
  6
CONTINUOUS
 62
     0
 10
4.7560663223266602
 20
74.264434814453125
 30
0.0
 11
13.25606632232666
 21
74.264434814453125
 31
0.0
  0
LINE
  5
346
  8
0
  6
CONTINUOUS
 62
     0
 10
4.7560663223266602
 20
71.264434814453125
 30
0.0
 11
13.25606632232666
 21
71.264434814453125
 31
0.0
  0
LINE
  5
347
  8
0
  6
CONTINUOUS
 62
     0
 10
13.65606689453125
 20
71.664436340332031
 30
0.0
 11
13.65606689453125
 21
73.864433288574219
 31
0.0
  0
LINE
  5
348
  8
0
  6
CONTINUOUS
 62
     0
 10
4.2560663223266602
 20
71.764434814453125
 30
0.0
 11
4.3560667037963841
 21
71.764434814453125
 31
0.0
  0
LINE
  5
349
  8
0
  6
CONTINUOUS
 62
     0
 10
4.2560663223266602
 20
73.764434814453125
 30
0.0
 11
4.3560667037963841
 21
73.764434814453125
 31
0.0
  0
LINE
  5
34A
  8
0
  6
CONTINUOUS
 62
     0
 10
4.7560663223266602
 20
70.264434814453111
 30
0.0
 11
4.7560663223266602
 21
75.264434814453125
 31
0.0
  0
LINE
  5
34B
  8
0
  6
CONTINUOUS
 62
     0
 10
4.2560663223266602
 20
71.264434814453125
 30
0.0
 11
4.2560663223266602
 21
74.264434814453125
 31
0.0
  0
LINE
  5
34C
  8
0
  6
CONTINUOUS
 62
     0
 10
4.3560667037963841
 20
75.264434814453125
 30
0.0
 11
4.7560663223266602
 21
75.264434814453125
 31
0.0
  0
LINE
  5
34D
  8
0
  6
CONTINUOUS
 62
     0
 10
4.3560667037963841
 20
70.264434814453111
 30
0.0
 11
4.7560663223266602
 21
70.264434814453111
 31
0.0
  0
LINE
  5
34E
  8
0
  6
CONTINUOUS
 62
     0
 10
-1.84393310546875
 20
71.264434814453125
 30
0.0
 11
4.2560663223266602
 21
71.264434814453125
 31
0.0
  0
LINE
  5
34F
  8
0
  6
CONTINUOUS
 62
     0
 10
4.3560667037963841
 20
70.264434814453111
 30
0.0
 11
4.3560667037963841
 21
75.264434814453125
 31
0.0
  0
LINE
  5
350
  8
0
  6
C_CENTER_L
 62
     0
 10
-27.378620147705082
 20
72.764434814453125
 30
0.0
 11
15.90606689453125
 21
72.764434814453125
 31
0.0
  0
CIRCLE
  5
351
  8
0
  6
CONTINUOUS
 62
     0
 10
-109.84393310546881
 20
72.764434814453125
 30
0.0
 40
15.0
  0
CIRCLE
  5
352
  8
0
  6
CONTINUOUS
 62
     0
 10
-109.84393310546881
 20
72.764434814453125
 30
0.0
 40
14.69999980926514
  0
CIRCLE
  5
353
  8
0
  6
CONTINUOUS
 62
     0
 10
-109.84393310546881
 20
72.764434814453125
 30
0.0
 40
2.160000085830688
  0
LINE
  5
354
  8
0
  6
C_CENTER_L
 62
     0
 10
-109.84393310546881
 20
69.764434814453111
 30
0.0
 11
-109.84393310546881
 21
75.764434814453125
 31
0.0
  0
LINE
  5
355
  8
0
  6
C_CENTER_L
 62
     0
 10
-106.84393310546881
 20
72.764434814453125
 30
0.0
 11
-112.84393310546869
 21
72.764434814453125
 31
0.0
  0
LINE
  5
356
  8
0
  6
CONTINUOUS
 62
     0
 10
-109.8439345218799
 20
70.604438294528563
 30
0.0
 11
-111.7145526607062
 21
71.684439996837
 31
0.0
  0
LINE
  5
357
  8
0
  6
CONTINUOUS
 62
     0
 10
-111.71453857421881
 20
71.684432983398438
 30
0.0
 11
-111.71453857421881
 21
73.844436645507812
 31
0.0
  0
LINE
  5
358
  8
0
  6
CONTINUOUS
 62
     0
 10
-111.7145405719625
 20
73.844432146083349
 30
0.0
 11
-109.84392929787769
 21
74.924430419932364
 31
0.0
  0
LINE
  5
359
  8
0
  6
CONTINUOUS
 62
     0
 10
-109.8439314961477
 20
74.924443504852889
 30
0.0
 11
-107.9733136148139
 21
73.844441416305699
 31
0.0
  0
LINE
  5
35A
  8
0
  6
CONTINUOUS
 62
     0
 10
-107.9733123779297
 20
73.844436645507812
 30
0.0
 11
-107.9733123779297
 21
71.684432983398438
 31
0.0
  0
LINE
  5
35B
  8
0
  6
CONTINUOUS
 62
     0
 10
-107.97332728041739
 20
71.684425633471847
 30
0.0
 11
-109.8439388119937
 21
70.604427745860221
 31
0.0
  0
CIRCLE
  5
35C
  8
0
  6
CONTINUOUS
 62
     0
 10
-109.84393310546881
 20
72.764434814453125
 30
0.0
 40
1.0
  0
CIRCLE
  5
35D
  8
0
  6
CONTINUOUS
 62
     0
 10
-109.84393310546881
 20
72.764434814453125
 30
0.0
 40
0.8000000119209291
  0
CIRCLE
  5
35E
  8
0
  6
CONTINUOUS
 62
     0
 10
-109.84393310546881
 20
72.764434814453125
 30
0.0
 40
1.8706151247024541
  0
CIRCLE
  5
35F
  8
0
  6
CONTINUOUS
 62
     0
 10
93.156066894531236
 20
72.764434814453125
 30
0.0
 40
13.399999618530259
  0
CIRCLE
  5
360
  8
0
  6
CONTINUOUS
 62
     0
 10
-109.84393310546881
 20
72.764434814453125
 30
0.0
 40
2.160000085830688
  0
LINE
  5
361
  8
0
  6
C_CENTER_L
 62
     0
 10
-109.84393310546881
 20
69.764434814453111
 30
0.0
 11
-109.84393310546881
 21
75.764434814453125
 31
0.0
  0
LINE
  5
362
  8
0
  6
C_CENTER_L
 62
     0
 10
-106.84393310546881
 20
72.764434814453125
 30
0.0
 11
-112.84393310546869
 21
72.764434814453125
 31
0.0
  0
LINE
  5
363
  8
0
  6
C_CENTER_L
 62
     0
 10
-126.84393310546869
 20
72.764434814453125
 30
0.0
 11
-92.843933105468764
 21
72.764434814453125
 31
0.0
  0
LINE
  5
364
  8
0
  6
C_CENTER_L
 62
     0
 10
-109.84393310546881
 20
55.764434814453118
 30
0.0
 11
-109.84393310546881
 21
89.764434814453125
 31
0.0
  0
ARC
  5
365
  8
0
  6
CONTINUOUS
 62
     0
 10
-109.84393310546881
 20
72.764434814453125
 30
0.0
 40
12.899999618530259
 50
89.999988844099846
 51
160.76417057020581
  0
CIRCLE
  5
366
  8
0
  6
CONTINUOUS
 62
     0
 10
-114.7936706542969
 20
67.814697265625
 30
0.0
 40
1.0
  0
CIRCLE
  5
367
  8
0
  6
CONTINUOUS
 62
     0
 10
-114.7936706542969
 20
77.71417236328125
 30
0.0
 40
1.0
  0
CIRCLE
  5
368
  8
0
  6
CONTINUOUS
 62
     0
 10
-104.89418029785161
 20
67.814697265625
 30
0.0
 40
1.0
  0
CIRCLE
  5
369
  8
0
  6
CONTINUOUS
 62
     0
 10
-104.89418029785161
 20
77.71417236328125
 30
0.0
 40
1.0
  0
ARC
  5
36A
  8
0
  6
CONTINUOUS
 62
     0
 10
-109.84393310546881
 20
72.764434814453125
 30
0.0
 40
9.3500003814697266
 50
89.999988844099846
 51
150.55287383649701
  0
ARC
  5
36B
  8
0
  6
CONTINUOUS
 62
     0
 10
-109.84393310546881
 20
72.764434814453125
 30
0.0
 40
12.899999618530259
 50
199.2358430901721
 51
89.999988844099846
  0
ARC
  5
36C
  8
0
  6
CONTINUOUS
 62
     0
 10
-109.84393310546881
 20
72.764434814453125
 30
0.0
 40
12.899999618530259
 50
160.76415690982779
 51
199.23582578732811
  0
ARC
  5
36D
  8
0
  6
CONTINUOUS
 62
     0
 10
-109.84393310546881
 20
72.764434814453125
 30
0.0
 40
9.3500003814697266
 50
209.44712616350299
 51
89.999988844099846
  0
ARC
  5
36E
  8
0
  6
CONTINUOUS
 62
     0
 10
-109.84393310546881
 20
72.764434814453125
 30
0.0
 40
10.35000038146973
 50
168.0784152466974
 51
170.26948529092439
  0
ARC
  5
36F
  8
0
  6
CONTINUOUS
 62
     0
 10
-109.84393310546881
 20
72.764434814453125
 30
0.0
 40
12.0
 50
203.03569589150379
 51
156.96429044811791
  0
LINE
  5
370
  8
0
  6
C_CENTER_L
 62
     0
 10
-123.222900390625
 20
70.764434814453125
 30
0.0
 11
-116.0198974609375
 21
70.764434814453125
 31
0.0
  0
LINE
  5
371
  8
0
  6
C_CENTER_L
 62
     0
 10
-123.222900390625
 20
74.764434814453125
 30
0.0
 11
-116.0198974609375
 21
74.764434814453125
 31
0.0
  0
CIRCLE
  5
372
  8
0
  6
CONTINUOUS
 62
     0
 10
-109.84393310546881
 20
72.764434814453125
 30
0.0
 40
3.5
  0
CIRCLE
  5
373
  8
0
  6
CONTINUOUS
 62
     0
 10
-109.84393310546881
 20
72.764434814453125
 30
0.0
 40
1.0
  0
LINE
  5
374
  8
0
  6
CONTINUOUS
 62
     0
 10
-122.4993591308594
 20
70.264434814453111
 30
0.0
 11
-120.26422119140619
 21
70.264434814453111
 31
0.0
  0
LINE
  5
375
  8
0
  6
CONTINUOUS
 62
     0
 10
-122.65643310546869
 20
71.264434814453125
 30
0.0
 11
-120.34071350097661
 21
71.264434814453125
 31
0.0
  0
LINE
  5
376
  8
0
  6
CONTINUOUS
 62
     0
 10
-122.4993591308594
 20
75.264434814453125
 30
0.0
 11
-120.26422119140619
 21
75.264434814453125
 31
0.0
  0
LINE
  5
377
  8
0
  6
CONTINUOUS
 62
     0
 10
-122.65643310546869
 20
74.264434814453125
 30
0.0
 11
-120.34071350097661
 21
74.264434814453125
 31
0.0
  0
LINE
  5
378
  8
0
  6
CONTINUOUS
 62
     0
 10
-117.243927001953
 20
76.36444091796875
 30
0.0
 11
-117.243927001953
 21
69.164443969726563
 31
0.0
  0
ARC
  5
379
  8
0
  6
CONTINUOUS
 62
     0
 10
-109.84393310546881
 20
72.764434814453125
 30
0.0
 40
10.35000038146973
 50
189.73051470907549
 51
191.92158475330231
  0
ARC
  5
37A
  8
0
  6
CONTINUOUS
 62
     0
 10
-118.5988616943358
 20
70.764434814453125
 30
0.0
 40
0.3000000119209289
 50
146.44268456003661
 51
213.55731179749739
  0
LINE
  5
37B
  8
0
  6
C_CENTER_L
 62
     0
 10
-118.5988616943358
 20
75.764434814453125
 30
0.0
 11
-118.5988616943358
 21
69.764434814453111
 31
0.0
  0
LINE
  5
37C
  8
0
  6
CONTINUOUS
 62
     0
 10
-117.6439208984374
 20
76.764434814453125
 30
0.0
 11
-117.6376800537108
 21
76.764434814453125
 31
0.0
  0
LINE
  5
37D
  8
0
  6
CONTINUOUS
 62
     0
 10
-117.6439208984374
 20
76.764434814453125
 30
0.0
 11
-117.6376800537108
 21
76.764434814453125
 31
0.0
  0
LINE
  5
37E
  8
0
  6
CONTINUOUS
 62
     0
 10
-117.6376800537108
 20
68.764434814453111
 30
0.0
 11
-117.5439300537108
 21
68.764434814453111
 31
0.0
  0
LINE
  5
37F
  8
0
  6
CONTINUOUS
 62
     0
 10
-122.1081085205075
 20
68.764434814453509
 30
0.0
 11
-117.6439208984372
 21
68.764434814453494
 31
0.0
  0
ARC
  5
380
  8
0
  6
CONTINUOUS
 62
     0
 10
-117.6376800537108
 20
68.36444091796875
 30
0.0
 40
0.4000000059604645
 50
90.000002504478175
 51
209.4471771625507
  0
LINE
  5
381
  8
0
  6
CONTINUOUS
 62
     0
 10
-122.1081085205077
 20
76.764434814453125
 30
0.0
 11
-117.6376800537108
 21
76.764434814453125
 31
0.0
  0
ARC
  5
382
  8
0
  6
CONTINUOUS
 62
     0
 10
-117.6376800537108
 20
77.164436340332031
 30
0.0
 40
0.4000000059604645
 50
150.5529284780101
 51
270.00000068324528
  0
ARC
  5
383
  8
0
  6
CONTINUOUS
 62
     0
 10
-120.34071350097661
 20
70.964439392089844
 30
0.0
 40
0.3000000119209289
 50
9.730571798224366
 51
89.999988844099846
  0
ARC
  5
384
  8
0
  6
CONTINUOUS
 62
     0
 10
-120.26422119140619
 20
70.564437866210938
 30
0.0
 40
0.3000000119209289
 50
269.99999749552182
 51
11.92155902640741
  0
ARC
  5
385
  8
0
  6
CONTINUOUS
 62
     0
 10
-120.26422119140619
 20
74.964439392089844
 30
0.0
 40
0.3000000119209289
 50
348.0784623179336
 51
89.999988844099846
  0
ARC
  5
386
  8
0
  6
CONTINUOUS
 62
     0
 10
-120.34071350097661
 20
74.564437866210923
 30
0.0
 40
0.3000000119209289
 50
269.99999749552182
 51
350.26961347065691
  0
LINE
  5
387
  8
0
  6
CONTINUOUS
 62
     0
 10
-121.2439270019529
 20
70.264434814453111
 30
0.0
 11
-121.2439270019529
 21
69.264434814453111
 31
0.0
  0
LINE
  5
388
  8
0
  6
CONTINUOUS
 62
     0
 10
-121.2439270019529
 20
74.264434814453125
 30
0.0
 11
-121.2439270019529
 21
71.264434814453125
 31
0.0
  0
LINE
  5
389
  8
0
  6
CONTINUOUS
 62
     0
 10
-121.2439270019529
 20
76.264434814453125
 30
0.0
 11
-121.2439270019529
 21
75.264434814453125
 31
0.0
  0
ARC
  5
38A
  8
0
  6
CONTINUOUS
 62
     0
 10
-120.7439270019529
 20
76.264434814453125
 30
0.0
 40
0.5
 50
90.000002504478175
 51
179.99999134857799
  0
ARC
  5
38B
  8
0
  6
CONTINUOUS
 62
     0
 10
-120.7439270019529
 20
69.264434814453111
 30
0.0
 40
0.5
 50
180.00000865142201
 51
269.99999749552182
  0
ARC
  5
38C
  8
0
  6
CONTINUOUS
 62
     0
 10
-120.42694091796869
 20
77.264434814453125
 30
0.0
 40
0.5
 50
156.96424946698281
 51
270.00000068324528
  0
ARC
  5
38D
  8
0
  6
CONTINUOUS
 62
     0
 10
-120.42694091796869
 20
68.264434814453111
 30
0.0
 40
0.5
 50
90.000002504478175
 51
203.03573323017309
  0
ARC
  5
38E
  8
0
  6
CONTINUOUS
 62
     0
 10
-117.6439208984374
 20
69.164443969726563
 30
0.0
 40
0.4000000059604645
 50
269.99999749552182
 51
0.000010017912262
  0
ARC
  5
38F
  8
0
  6
CONTINUOUS
 62
     0
 10
-117.6439208984374
 20
76.36444091796875
 30
0.0
 40
0.4000000059604645
 50
0.0000111558998674
 51
89.999988844099846
  0
LINE
  5
390
  8
0
  6
CONTINUOUS
 62
     0
 10
13.25606555504714
 20
71.264431654378541
 30
0.0
 11
13.65606550763823
 21
71.664431472099736
 31
0.0
  0
LINE
  5
391
  8
0
  6
CONTINUOUS
 62
     0
 10
13.656065878531081
 20
73.864434886555955
 30
0.0
 11
13.25606606080987
 21
74.264434839147043
 31
0.0
  0
LINE
  5
392
  8
0
  6
C_SOLID_L
 62
     0
 10
13.25606632232666
 20
71.264434814453125
 30
0.0
 11
13.25606632232666
 21
74.264434814453125
 31
0.0
  0
LINE
  5
393
  8
0
  6
CONTINUOUS
 62
     0
 10
-26.700580596923832
 20
66.569435119628892
 30
0.0
 11
-21.0439338684082
 21
66.569435119628892
 31
0.0
  0
LINE
  5
394
  8
0
  6
CONTINUOUS
 62
     0
 10
-26.700580596923832
 20
64.969436645507813
 30
0.0
 11
-21.0439338684082
 21
64.969436645507813
 31
0.0
  0
LINE
  5
395
  8
0
  6
CONTINUOUS
 62
     0
 10
-27.34393310546875
 20
65.269432067871108
 30
0.0
 11
-27.34393310546875
 21
66.269432067871094
 31
0.0
  0
LINE
  5
396
  8
0
  6
CONTINUOUS
 62
     0
 10
-26.700584925372819
 20
64.969434393243318
 30
0.0
 11
-27.343938182903901
 21
65.269434940180858
 31
0.0
  0
LINE
  5
397
  8
0
  6
CONTINUOUS
 62
     0
 10
-27.34393862759978
 20
66.269438982453067
 30
0.0
 11
-26.700585370068691
 21
66.569439529390621
 31
0.0
  0
LINE
  5
398
  8
0
  6
CONTINUOUS
 62
     0
 10
-2.1439337730407679
 20
57.764434814453118
 30
0.0
 11
-2.143933773040763
 21
87.764434814453125
 31
0.0
  0
LINE
  5
399
  8
0
  6
CONTINUOUS
 62
     0
 10
-20.74393463134766
 20
57.764434814453118
 30
0.0
 11
-20.74393463134766
 21
87.764434814453125
 31
0.0
  0
LINE
  5
39A
  8
0
  6
CONTINUOUS
 62
     0
 10
-22.84393310546875
 20
70.264434814453111
 30
0.0
 11
-22.84393310546875
 21
75.264434814453125
 31
0.0
  0
LINE
  5
39B
  8
0
  6
CONTINUOUS
 62
     0
 10
-22.84393310546875
 20
75.264434814453125
 30
0.0
 11
-21.0439338684082
 21
75.264434814453125
 31
0.0
  0
LINE
  5
39C
  8
0
  6
CONTINUOUS
 62
     0
 10
-22.84393310546875
 20
70.264434814453111
 30
0.0
 11
-21.0439338684082
 21
70.264434814453111
 31
0.0
  0
LINE
  5
39D
  8
0
  6
CONTINUOUS
 62
     0
 10
-25.84393310546875
 20
71.964431762695313
 30
0.0
 11
-25.84393310546875
 21
73.564437866210937
 31
0.0
  0
LINE
  5
39E
  8
0
  6
CONTINUOUS
 62
     0
 10
-25.6439323425293
 20
73.764434814453125
 30
0.0
 11
-25.24393272399902
 21
73.764434814453125
 31
0.0
  0
LINE
  5
39F
  8
0
  6
CONTINUOUS
 62
     0
 10
-25.6439323425293
 20
71.764434814453125
 30
0.0
 11
-25.24393272399902
 21
71.764434814453125
 31
0.0
  0
LINE
  5
3A0
  8
0
  6
C_SOLID_L
 62
     0
 10
-25.84393310546875
 20
73.564437866210937
 30
0.0
 11
-25.24393272399902
 21
73.564437866210937
 31
0.0
  0
LINE
  5
3A1
  8
0
  6
C_SOLID_L
 62
     0
 10
-25.84393310546875
 20
71.964431762695313
 30
0.0
 11
-25.24393272399902
 21
71.964431762695313
 31
0.0
  0
LINE
  5
3A2
  8
0
  6
CONTINUOUS
 62
     0
 10
-25.643922478031978
 20
71.764426327782076
 30
0.0
 11
-25.843923769309189
 21
71.964427619059265
 31
0.0
  0
LINE
  5
3A3
  8
0
  6
CONTINUOUS
 62
     0
 10
-25.843923769309189
 20
73.564427159683873
 30
0.0
 11
-25.643927872828499
 21
73.76442305616456
 31
0.0
  0
LINE
  5
3A4
  8
0
  6
C_SOLID_L
 62
     0
 10
-25.6439323425293
 20
71.764434814453125
 30
0.0
 11
-25.6439323425293
 21
73.764434814453125
 31
0.0
  0
LINE
  5
3A5
  8
0
  6
CONTINUOUS
 62
     0
 10
-22.84393310546875
 20
70.264434814453111
 30
0.0
 11
-22.84393310546875
 21
75.264434814453125
 31
0.0
  0
LINE
  5
3A6
  8
0
  6
CONTINUOUS
 62
     0
 10
-23.1439323425293
 20
75.264434814453125
 30
0.0
 11
-22.84393310546875
 21
75.264434814453125
 31
0.0
  0
LINE
  5
3A7
  8
0
  6
CONTINUOUS
 62
     0
 10
-23.1439323425293
 20
70.264434814453111
 30
0.0
 11
-22.84393310546875
 21
70.264434814453111
 31
0.0
  0
LINE
  5
3A8
  8
0
  6
CONTINUOUS
 62
     0
 10
-23.1439323425293
 20
70.264434814453111
 30
0.0
 11
-23.1439323425293
 21
75.264434814453125
 31
0.0
  0
LINE
  5
3A9
  8
0
  6
CONTINUOUS
 62
     0
 10
-23.6439323425293
 20
74.964431762695312
 30
0.0
 11
-23.1439323425293
 21
74.964431762695312
 31
0.0
  0
LINE
  5
3AA
  8
0
  6
CONTINUOUS
 62
     0
 10
-23.6439323425293
 20
70.564437866210938
 30
0.0
 11
-23.1439323425293
 21
70.564437866210938
 31
0.0
  0
LINE
  5
3AB
  8
0
  6
CONTINUOUS
 62
     0
 10
-23.6439323425293
 20
70.564437866210938
 30
0.0
 11
-23.6439323425293
 21
74.964431762695312
 31
0.0
  0
LINE
  5
3AC
  8
0
  6
CONTINUOUS
 62
     0
 10
-25.24393272399902
 20
71.144439697265625
 30
0.0
 11
-25.24393272399902
 21
74.384429931640625
 31
0.0
  0
LINE
  5
3AD
  8
0
  6
CONTINUOUS
 62
     0
 10
-25.047389984130859
 20
74.9244384765625
 30
0.0
 11
-23.84047698974609
 21
74.9244384765625
 31
0.0
  0
LINE
  5
3AE
  8
0
  6
CONTINUOUS
 62
     0
 10
-25.047389984130859
 20
70.60443115234375
 30
0.0
 11
-23.84047698974609
 21
70.60443115234375
 31
0.0
  0
LINE
  5
3AF
  8
0
  6
CONTINUOUS
 62
     0
 10
-25.047390030597619
 20
70.604433908108376
 30
0.0
 11
-25.24393315208339
 21
71.144431677003226
 31
0.0
  0
LINE
  5
3B0
  8
0
  6
CONTINUOUS
 62
     0
 10
-23.84047101075021
 20
70.604433179555144
 30
0.0
 11
-23.643927889264429
 21
71.144430948449994
 31
0.0
  0
LINE
  5
3B1
  8
0
  6
CONTINUOUS
 62
     0
 10
-25.24392559303487
 20
74.384434002562557
 30
0.0
 11
-25.047382471549099
 21
74.924431771457421
 31
0.0
  0
LINE
  5
3B2
  8
0
  6
CONTINUOUS
 62
     0
 10
-23.643931046584822
 20
74.384428214181753
 30
0.0
 11
-23.840476777477299
 21
74.924433152362326
 31
0.0
  0
LINE
  5
3B3
  8
0
  6
CONTINUOUS
 62
     0
 10
-25.0439338684082
 20
71.684432983398438
 30
0.0
 11
-23.84393310546875
 21
71.684432983398438
 31
0.0
  0
LINE
  5
3B4
  8
0
  6
CONTINUOUS
 62
     0
 10
-25.0439338684082
 20
73.844436645507812
 30
0.0
 11
-23.84393310546875
 21
73.844436645507812
 31
0.0
  0
ARC
  5
3B5
  8
0
  6
CONTINUOUS
 62
     0
 10
-22.227933883666989
 20
72.764434814453125
 30
0.0
 40
3.0160002708435059
 50
159.0170491616519
 51
200.9829608562608
  0
ARC
  5
3B6
  8
0
  6
CONTINUOUS
 62
     0
 10
-26.65993499755859
 20
72.764434814453125
 30
0.0
 40
3.0160009860992432
 50
339.0170492753374
 51
20.982954139757169
  0
ARC
  5
3B7
  8
0
  6
CONTINUOUS
 62
     0
 10
-24.664640426635739
 20
71.24658203125
 30
0.0
 40
0.5792920589447022
 50
130.9007803489695
 51
200.00000101204759
  0
ARC
  5
3B8
  8
0
  6
CONTINUOUS
 62
     0
 10
-24.664640426635739
 20
74.28228759765625
 30
0.0
 40
0.5792924165725708
 50
159.99999534548661
 51
229.09920234818651
  0
ARC
  5
3B9
  8
0
  6
CONTINUOUS
 62
     0
 10
-24.223224639892571
 20
71.24658203125
 30
0.0
 40
0.5792923569679263
 50
340.0000022893613
 51
49.099204169419359
  0
ARC
  5
3BA
  8
0
  6
CONTINUOUS
 62
     0
 10
-24.223226547241211
 20
74.28228759765625
 30
0.0
 40
0.5792927145957947
 50
310.9008060758643
 51
20.000001125733132
  0
LINE
  5
3BB
  8
0
  6
CONTINUOUS
 62
     0
 10
-118.84886169433589
 20
70.514434814453125
 30
0.0
 11
-118.3488616943358
 21
70.514434814453125
 31
0.0
  0
LINE
  5
3BC
  8
0
  6
CONTINUOUS
 62
     0
 10
-118.84886169433589
 20
71.014434814453125
 30
0.0
 11
-118.3488616943358
 21
71.014434814453125
 31
0.0
  0
LINE
  5
3BD
  8
0
  6
CONTINUOUS
 62
     0
 10
-118.3488616943358
 20
70.514434814453125
 30
0.0
 11
-118.3488616943358
 21
71.014434814453125
 31
0.0
  0
LINE
  5
3BE
  8
0
  6
CONTINUOUS
 62
     0
 10
-118.84886169433589
 20
70.514434814453125
 30
0.0
 11
-118.84886169433589
 21
71.014434814453125
 31
0.0
  0
ARC
  5
3BF
  8
0
  6
CONTINUOUS
 62
     0
 10
-118.5988616943358
 20
70.764434814453125
 30
0.0
 40
0.3000000119209289
 50
56.442685470653153
 51
123.55731612320859
  0
ARC
  5
3C0
  8
0
  6
CONTINUOUS
 62
     0
 10
-118.5988616943358
 20
70.764434814453125
 30
0.0
 40
0.3000000119209289
 50
326.44268296617503
 51
33.557313618730433
  0
ARC
  5
3C1
  8
0
  6
CONTINUOUS
 62
     0
 10
-118.5988616943358
 20
70.764434814453125
 30
0.0
 40
0.3000000119209289
 50
236.44268387679139
 51
303.55732135953588
  0
ARC
  5
3C2
  8
0
  6
CONTINUOUS
 62
     0
 10
-118.5988616943358
 20
74.764434814453125
 30
0.0
 40
0.3000000119209289
 50
236.44268387679139
 51
303.55732135953588
  0
LINE
  5
3C3
  8
0
  6
CONTINUOUS
 62
     0
 10
-118.84886169433589
 20
74.514434814453125
 30
0.0
 11
-118.84886169433589
 21
75.014434814453125
 31
0.0
  0
ARC
  5
3C4
  8
0
  6
CONTINUOUS
 62
     0
 10
-118.5988616943358
 20
74.764434814453125
 30
0.0
 40
0.3000000119209289
 50
146.44268456003661
 51
213.55731179749739
  0
LINE
  5
3C5
  8
0
  6
CONTINUOUS
 62
     0
 10
-118.84886169433589
 20
74.514434814453125
 30
0.0
 11
-118.3488616943358
 21
74.514434814453125
 31
0.0
  0
LINE
  5
3C6
  8
0
  6
CONTINUOUS
 62
     0
 10
-118.3488616943358
 20
74.514434814453125
 30
0.0
 11
-118.3488616943358
 21
75.014434814453125
 31
0.0
  0
ARC
  5
3C7
  8
0
  6
CONTINUOUS
 62
     0
 10
-118.5988616943358
 20
74.764434814453125
 30
0.0
 40
0.3000000119209289
 50
326.44268296617503
 51
33.557313618730433
  0
LINE
  5
3C8
  8
0
  6
CONTINUOUS
 62
     0
 10
-118.84886169433589
 20
75.014434814453125
 30
0.0
 11
-118.3488616943358
 21
75.014434814453125
 31
0.0
  0
ARC
  5
3C9
  8
0
  6
CONTINUOUS
 62
     0
 10
-118.5988616943358
 20
74.764434814453125
 30
0.0
 40
0.3000000119209289
 50
56.442685470653153
 51
123.55731612320859
  0
LINE
  5
3CA
  8
0
  6
CONTINUOUS
 62
     0
 10
-23.5439338684082
 20
68.764434814453111
 30
0.0
 11
-21.0439338684082
 21
68.764434814453111
 31
0.0
  0
LINE
  5
3CB
  8
0
  6
CONTINUOUS
 62
     0
 10
-23.5439338684082
 20
76.764434814453125
 30
0.0
 11
-21.0439338684082
 21
76.764434814453125
 31
0.0
  0
LINE
  5
3CC
  8
0
  6
CONTINUOUS
 62
     0
 10
-23.5439338684082
 20
74.964431762695312
 30
0.0
 11
-23.5439338684082
 21
76.764434814453125
 31
0.0
  0
LINE
  5
3CD
  8
0
  6
CONTINUOUS
 62
     0
 10
-23.5439338684082
 20
68.764434814453111
 30
0.0
 11
-23.5439338684082
 21
70.564437866210938
 31
0.0
  0
LINE
  5
3CE
  8
0
  6
CONTINUOUS
 62
     0
 10
-20.74393463134766
 20
17.764434814453121
 30
0.0
 11
-2.1439344882965088
 21
17.764434814453121
 31
0.0
  0
LINE
  5
3CF
  8
0
  6
CONTINUOUS
 62
     0
 10
-1.84393310546875
 20
-11.935562133789061
 30
0.0
 11
-1.8439331054687489
 21
17.464435577392582
 31
0.0
  0
LINE
  5
3D0
  8
0
  6
CONTINUOUS
 62
     0
 10
-21.0439338684082
 20
-11.935562133789061
 30
0.0
 11
-21.0439338684082
 21
17.464435577392582
 31
0.0
  0
LINE
  5
3D1
  8
0
  6
CONTINUOUS
 62
     0
 10
-1.843932888731044
 20
17.464432202709581
 30
0.0
 11
-2.143935002664759
 21
17.76443398789576
 31
0.0
  0
LINE
  5
3D2
  8
0
  6
CONTINUOUS
 62
     0
 10
-2.1439340754341139
 20
-12.23556742977371
 30
0.0
 11
-1.8439322902479489
 21
-11.93556531583998
 31
0.0
  0
LINE
  5
3D3
  8
0
  6
CONTINUOUS
 62
     0
 10
-21.043934885360819
 20
-11.93557322542676
 30
0.0
 11
-20.743936025163961
 21
-12.23557286955303
 31
0.0
  0
LINE
  5
3D4
  8
0
  6
CONTINUOUS
 62
     0
 10
-21.04393688289252
 20
17.464430500385632
 30
0.0
 11
-20.743938022695659
 21
17.764430144511898
 31
0.0
  0
LINE
  5
3D5
  8
0
  6
CONTINUOUS
 62
     0
 10
-20.74393463134766
 20
-12.23556518554688
 30
0.0
 11
-2.143933773040771
 21
-12.23556518554688
 31
0.0
  0
LINE
  5
3D6
  8
0
  6
CONTINUOUS
 62
     0
 10
-1.4439334869384739
 20
4.264434814453125
 30
0.0
 11
7.0560665130615217
 21
4.264434814453125
 31
0.0
  0
LINE
  5
3D7
  8
0
  6
CONTINUOUS
 62
     0
 10
-1.4439334869384739
 20
1.264434814453125
 30
0.0
 11
7.0560665130615217
 21
1.264434814453125
 31
0.0
  0
LINE
  5
3D8
  8
0
  6
CONTINUOUS
 62
     0
 10
7.4560670852661124
 20
1.664436340332031
 30
0.0
 11
7.4560670852661124
 21
3.8644332885742179
 31
0.0
  0
LINE
  5
3D9
  8
0
  6
CONTINUOUS
 62
     0
 10
-1.4439334869384739
 20
0.2644348144531251
 30
0.0
 11
-1.4439334869384739
 21
5.264434814453125
 31
0.0
  0
LINE
  5
3DA
  8
0
  6
CONTINUOUS
 62
     0
 10
-1.84393310546875
 20
5.264434814453125
 30
0.0
 11
-1.4439334869384739
 21
5.264434814453125
 31
0.0
  0
LINE
  5
3DB
  8
0
  6
CONTINUOUS
 62
     0
 10
-1.84393310546875
 20
0.264434814453125
 30
0.0
 11
-1.4439334869384739
 21
0.264434814453125
 31
0.0
  0
LINE
  5
3DC
  8
0
  6
CONTINUOUS
 62
     0
 10
-1.84393310546875
 20
0.2644348144531251
 30
0.0
 11
-1.84393310546875
 21
5.264434814453125
 31
0.0
  0
LINE
  5
3DD
  8
0
  6
C_CENTER_L
 62
     0
 10
-36.106861114501953
 20
2.764434814453125
 30
0.0
 11
10.55606746673584
 21
2.764434814453125
 31
0.0
  0
LINE
  5
3DE
  8
0
  6
CONTINUOUS
 62
     0
 10
7.056063626205284
 20
1.2644413333501341
 30
0.0
 11
7.4560608813976579
 21
1.6644384536735399
 31
0.0
  0
LINE
  5
3DF
  8
0
  6
CONTINUOUS
 62
     0
 10
7.4560610837030321
 20
3.8644413623676002
 30
0.0
 11
7.0560612659818247
 21
4.2644413149586882
 31
0.0
  0
LINE
  5
3E0
  8
0
  6
C_SOLID_L
 62
     0
 10
7.0560665130615217
 20
1.264434814453125
 30
0.0
 11
7.0560665130615217
 21
4.264434814453125
 31
0.0
  0
LINE
  5
3E1
  8
0
  6
CONTINUOUS
 62
     0
 10
-27.5439338684082
 20
-4.730560302734375
 30
0.0
 11
-27.5439338684082
 21
-3.7305679321289058
 31
0.0
  0
LINE
  5
3E2
  8
0
  6
CONTINUOUS
 62
     0
 10
-27.243937003725481
 20
-4.8704671585196593
 30
0.0
 11
-27.543939881798
 21
-4.7305735208469706
 31
0.0
  0
LINE
  5
3E3
  8
0
  6
CONTINUOUS
 62
     0
 10
-27.543944264281208
 20
-3.7305802011862852
 30
0.0
 11
-27.243937928918729
 21
-3.5906849513528409
 31
0.0
  0
LINE
  5
3E4
  8
0
  6
CONTINUOUS
 62
     0
 10
-2.143933773040771
 20
-12.23556518554688
 30
0.0
 11
-2.143933773040771
 21
17.764434814453121
 31
0.0
  0
LINE
  5
3E5
  8
0
  6
CONTINUOUS
 62
     0
 10
-20.74393463134766
 20
-12.23556518554688
 30
0.0
 11
-20.74393463134766
 21
17.764434814453121
 31
0.0
  0
LINE
  5
3E6
  8
0
  6
CONTINUOUS
 62
     0
 10
-29.043933868408189
 20
0.264434814453125
 30
0.0
 11
-29.043933868408189
 21
5.264434814453125
 31
0.0
  0
LINE
  5
3E7
  8
0
  6
CONTINUOUS
 62
     0
 10
-29.043933868408189
 20
5.264434814453125
 30
0.0
 11
-27.24393463134766
 21
5.264434814453125
 31
0.0
  0
LINE
  5
3E8
  8
0
  6
CONTINUOUS
 62
     0
 10
-29.043933868408189
 20
0.264434814453125
 30
0.0
 11
-27.24393463134766
 21
0.264434814453125
 31
0.0
  0
LINE
  5
3E9
  8
0
  6
CONTINUOUS
 62
     0
 10
-32.043933868408189
 20
1.9644317626953101
 30
0.0
 11
-32.043933868408189
 21
3.5644378662109371
 31
0.0
  0
LINE
  5
3EA
  8
0
  6
CONTINUOUS
 62
     0
 10
-31.84393310546875
 20
3.764434814453125
 30
0.0
 11
-31.44393348693848
 21
3.764434814453125
 31
0.0
  0
LINE
  5
3EB
  8
0
  6
CONTINUOUS
 62
     0
 10
-31.84393310546875
 20
1.764434814453125
 30
0.0
 11
-31.44393348693848
 21
1.764434814453125
 31
0.0
  0
LINE
  5
3EC
  8
0
  6
C_SOLID_L
 62
     0
 10
-32.043933868408189
 20
3.5644378662109371
 30
0.0
 11
-31.44393348693848
 21
3.5644378662109371
 31
0.0
  0
LINE
  5
3ED
  8
0
  6
C_SOLID_L
 62
     0
 10
-32.043933868408189
 20
1.9644317626953101
 30
0.0
 11
-31.44393348693848
 21
1.9644317626953101
 31
0.0
  0
LINE
  5
3EE
  8
0
  6
CONTINUOUS
 62
     0
 10
-31.843923395350529
 20
1.7644261949691331
 30
0.0
 11
-32.043924686627733
 21
1.964427486246334
 31
0.0
  0
LINE
  5
3EF
  8
0
  6
CONTINUOUS
 62
     0
 10
-32.043924686627733
 20
3.564427026870931
 30
0.0
 11
-31.84392879014705
 21
3.7644229233516162
 31
0.0
  0
LINE
  5
3F0
  8
0
  6
C_SOLID_L
 62
     0
 10
-31.84393310546875
 20
1.764434814453125
 30
0.0
 11
-31.84393310546875
 21
3.764434814453125
 31
0.0
  0
LINE
  5
3F1
  8
0
  6
CONTINUOUS
 62
     0
 10
-29.043933868408189
 20
0.264434814453125
 30
0.0
 11
-29.043933868408189
 21
5.264434814453125
 31
0.0
  0
LINE
  5
3F2
  8
0
  6
CONTINUOUS
 62
     0
 10
-29.34393310546875
 20
5.264434814453125
 30
0.0
 11
-29.043933868408189
 21
5.264434814453125
 31
0.0
  0
LINE
  5
3F3
  8
0
  6
CONTINUOUS
 62
     0
 10
-29.34393310546875
 20
0.264434814453125
 30
0.0
 11
-29.043933868408189
 21
0.264434814453125
 31
0.0
  0
LINE
  5
3F4
  8
0
  6
CONTINUOUS
 62
     0
 10
-29.34393310546875
 20
0.264434814453125
 30
0.0
 11
-29.34393310546875
 21
5.264434814453125
 31
0.0
  0
LINE
  5
3F5
  8
0
  6
CONTINUOUS
 62
     0
 10
-29.84393310546875
 20
4.9644317626953107
 30
0.0
 11
-29.34393310546875
 21
4.9644317626953107
 31
0.0
  0
LINE
  5
3F6
  8
0
  6
CONTINUOUS
 62
     0
 10
-29.84393310546875
 20
0.5644378662109375
 30
0.0
 11
-29.34393310546875
 21
0.5644378662109375
 31
0.0
  0
LINE
  5
3F7
  8
0
  6
CONTINUOUS
 62
     0
 10
-29.84393310546875
 20
0.5644378662109375
 30
0.0
 11
-29.84393310546875
 21
4.9644317626953107
 31
0.0
  0
LINE
  5
3F8
  8
0
  6
CONTINUOUS
 62
     0
 10
-31.44393348693848
 20
1.144439697265625
 30
0.0
 11
-31.44393348693848
 21
4.384429931640625
 31
0.0
  0
LINE
  5
3F9
  8
0
  6
CONTINUOUS
 62
     0
 10
-31.247390747070309
 20
4.9244384765625
 30
0.0
 11
-30.04047775268555
 21
4.9244384765625
 31
0.0
  0
LINE
  5
3FA
  8
0
  6
CONTINUOUS
 62
     0
 10
-31.247390747070309
 20
0.60443115234375
 30
0.0
 11
-30.04047775268555
 21
0.60443115234375
 31
0.0
  0
LINE
  5
3FB
  8
0
  6
CONTINUOUS
 62
     0
 10
-31.247389708952142
 20
0.6044312139479189
 30
0.0
 11
-31.44393283043792
 21
1.144428982842782
 31
0.0
  0
LINE
  5
3FC
  8
0
  6
CONTINUOUS
 62
     0
 10
-30.040472522609551
 20
0.6044351340627827
 30
0.0
 11
-29.843929401123759
 21
1.1444329029576441
 31
0.0
  0
LINE
  5
3FD
  8
0
  6
CONTINUOUS
 62
     0
 10
-31.443925149484869
 20
4.3844357527988791
 30
0.0
 11
-31.247382027999091
 21
4.924433521693742
 31
0.0
  0
LINE
  5
3FE
  8
0
  6
CONTINUOUS
 62
     0
 10
-29.843928932617931
 20
4.3844261723729661
 30
0.0
 11
-30.040474663510391
 21
4.924431110553539
 31
0.0
  0
LINE
  5
3FF
  8
0
  6
CONTINUOUS
 62
     0
 10
-31.24393463134766
 20
1.6844329833984379
 30
0.0
 11
-30.0439338684082
 21
1.6844329833984379
 31
0.0
  0
LINE
  5
400
  8
0
  6
CONTINUOUS
 62
     0
 10
-31.24393463134766
 20
3.8444366455078121
 30
0.0
 11
-30.0439338684082
 21
3.8444366455078121
 31
0.0
  0
ARC
  5
401
  8
0
  6
CONTINUOUS
 62
     0
 10
-28.427934646606442
 20
2.764434814453125
 30
0.0
 40
3.0160002708435059
 50
159.0170491616519
 51
200.9829608562608
  0
ARC
  5
402
  8
0
  6
CONTINUOUS
 62
     0
 10
-32.859935760498047
 20
2.764434814453125
 30
0.0
 40
3.0160009860992432
 50
339.0170492753374
 51
20.982954139757169
  0
ARC
  5
403
  8
0
  6
CONTINUOUS
 62
     0
 10
-30.864641189575199
 20
1.24658203125
 30
0.0
 40
0.5792920589447022
 50
130.9007803489695
 51
200.00000101204759
  0
ARC
  5
404
  8
0
  6
CONTINUOUS
 62
     0
 10
-30.864641189575199
 20
4.28228759765625
 30
0.0
 40
0.5792924165725708
 50
159.99999534548661
 51
229.09920234818651
  0
ARC
  5
405
  8
0
  6
CONTINUOUS
 62
     0
 10
-30.423225402832031
 20
1.24658203125
 30
0.0
 40
0.5792923569679263
 50
340.0000022893613
 51
49.099204169419359
  0
ARC
  5
406
  8
0
  6
CONTINUOUS
 62
     0
 10
-30.423227310180661
 20
4.28228759765625
 30
0.0
 40
0.5792927145957947
 50
310.9008060758643
 51
20.000001125733132
  0
LINE
  5
407
  8
0
  6
CONTINUOUS
 62
     0
 10
-29.74393463134766
 20
-1.235565185546875
 30
0.0
 11
-27.24393463134766
 21
-1.235565185546875
 31
0.0
  0
LINE
  5
408
  8
0
  6
CONTINUOUS
 62
     0
 10
-29.74393463134766
 20
6.764434814453125
 30
0.0
 11
-27.24393463134766
 21
6.764434814453125
 31
0.0
  0
LINE
  5
409
  8
0
  6
CONTINUOUS
 62
     0
 10
-29.74393463134766
 20
4.9644317626953107
 30
0.0
 11
-29.74393463134766
 21
6.764434814453125
 31
0.0
  0
LINE
  5
40A
  8
0
  6
CONTINUOUS
 62
     0
 10
-29.74393463134766
 20
-1.235565185546875
 30
0.0
 11
-29.74393463134766
 21
0.5644378662109375
 31
0.0
  0
LINE
  5
40B
  8
0
  6
CONTINUOUS
 62
     0
 10
-27.24393463134766
 20
15.664436340332029
 30
0.0
 11
-27.24393463134766
 21
-10.135566711425779
 31
0.0
  0
LINE
  5
40C
  8
0
  6
CONTINUOUS
 62
     0
 10
-25.543935775756839
 20
15.664436340332029
 30
0.0
 11
-25.543935775756839
 21
-10.135566711425779
 31
0.0
  0
LINE
  5
40D
  8
0
  6
CONTINUOUS
 62
     0
 10
-27.24393463134766
 20
-10.135566711425779
 30
0.0
 11
-25.543935775756839
 21
-10.135566711425779
 31
0.0
  0
LINE
  5
40E
  8
0
  6
CONTINUOUS
 62
     0
 10
-27.24393463134766
 20
15.664436340332029
 30
0.0
 11
-25.543935775756839
 21
15.664436340332029
 31
0.0
  0
LINE
  5
40F
  8
0
  6
CONTINUOUS
 62
     0
 10
-25.543935775756839
 20
14.7644348144531
 30
0.0
 11
-21.0439338684082
 21
14.7644348144531
 31
0.0
  0
LINE
  5
410
  8
0
  6
CONTINUOUS
 62
     0
 10
-25.543935775756839
 20
-9.2355651855468768
 30
0.0
 11
-21.0439338684082
 21
-9.2355651855468768
 31
0.0
  0
LINE
  5
414
  8
0
  6
CONTINUOUS
 62
     0
 10
-9.84393310546875
 20
85.264434814453125
 30
0.0
 11
-9.84393310546875
 21
60.264434814453118
 31
0.0
  0
LINE
  5
415
  8
0
  6
CONTINUOUS
 62
     0
 10
-2.84393310546875
 20
85.264434814453125
 30
0.0
 11
-2.84393310546875
 21
60.264434814453118
 31
0.0
  0
LINE
  5
416
  8
0
  6
CONTINUOUS
 62
     0
 10
-8.34393310546875
 20
58.764434814453118
 30
0.0
 11
-4.34393310546875
 21
58.764434814453118
 31
0.0
  0
LINE
  5
417
  8
0
  6
CONTINUOUS
 62
     0
 10
-8.34393310546875
 20
86.764434814453125
 30
0.0
 11
-4.34393310546875
 21
86.764434814453125
 31
0.0
  0
ARC
  5
418
  8
0
  6
CONTINUOUS
 62
     0
 10
-8.34393310546875
 20
85.264434814453125
 30
0.0
 40
1.5
 50
90.000002504478175
 51
180.00000500895629
  0
ARC
  5
419
  8
0
  6
CONTINUOUS
 62
     0
 10
-4.34393310546875
 20
85.264434814453125
 30
0.0
 40
1.5
 50
0.000010017912262
 51
89.999988844099846
  0
ARC
  5
41A
  8
0
  6
CONTINUOUS
 62
     0
 10
-8.34393310546875
 20
60.264434814453118
 30
0.0
 40
1.5
 50
180.00000865142201
 51
269.99999749552182
  0
ARC
  5
41B
  8
0
  6
CONTINUOUS
 62
     0
 10
-4.34393310546875
 20
60.264434814453118
 30
0.0
 40
1.5
 50
269.99999749552182
 51
0.000010017912262
  0
LINE
  5
41C
  8
0
  6
CONTINUOUS
 62
     0
 10
-7.9037137031555167
 20
-11.23556518554688
 30
0.0
 11
-3.9037137031555171
 21
-11.23556518554688
 31
0.0
  0
ARC
  5
41D
  8
0
  6
CONTINUOUS
 62
     0
 10
-7.9037137031555167
 20
-9.7355651855468768
 30
0.0
 40
1.5
 50
180.00000865142201
 51
269.99999749552182
  0
LINE
  5
41E
  8
0
  6
CONTINUOUS
 62
     0
 10
-9.4037132263183594
 20
15.26443481445312
 30
0.0
 11
-9.4037132263183594
 21
-9.7355651855468768
 31
0.0
  0
ARC
  5
41F
  8
0
  6
CONTINUOUS
 62
     0
 10
-3.9037137031555171
 20
-9.7355651855468768
 30
0.0
 40
1.5
 50
269.99999749552182
 51
0.000010017912262
  0
LINE
  5
420
  8
0
  6
CONTINUOUS
 62
     0
 10
-2.403713703155518
 20
15.26443481445312
 30
0.0
 11
-2.403713703155518
 21
-9.7355651855468768
 31
0.0
  0
LINE
  5
421
  8
0
  6
CONTINUOUS
 62
     0
 10
-7.9037137031555167
 20
16.764434814453121
 30
0.0
 11
-3.9037137031555171
 21
16.764434814453121
 31
0.0
  0
ARC
  5
422
  8
0
  6
CONTINUOUS
 62
     0
 10
-3.9037137031555171
 20
15.26443481445312
 30
0.0
 40
1.5
 50
0.000010017912262
 51
89.999988844099846
  0
ARC
  5
423
  8
0
  6
CONTINUOUS
 62
     0
 10
-7.9037137031555167
 20
15.26443481445312
 30
0.0
 40
1.5
 50
90.000002504478175
 51
180.00000500895629
  0
LINE
  5
425
  8
0
  6
CONTINUOUS
 62
     0
 10
-34.743934631347663
 20
0.514434814453125
 30
0.0
 11
-29.74393463134766
 21
0.514434814453125
 31
0.0
  0
LINE
  5
426
  8
0
  6
CONTINUOUS
 62
     0
 10
-34.743934631347663
 20
1.014434814453125
 30
0.0
 11
-31.39661979675293
 21
1.014434814453125
 31
0.0
  0
LINE
  5
427
  8
0
  6
CONTINUOUS
 62
     0
 10
-34.743934631347663
 20
4.514434814453125
 30
0.0
 11
-31.396608352661129
 21
4.514434814453125
 31
0.0
  0
LINE
  5
428
  8
0
  6
CONTINUOUS
 62
     0
 10
-34.743934631347663
 20
5.014434814453125
 30
0.0
 11
-29.74393463134766
 21
5.014434814453125
 31
0.0
  0
LINE
  5
429
  8
0
  6
CONTINUOUS
 62
     0
 10
-34.743934631347663
 20
1.014434814453125
 30
0.0
 11
-34.743934631347663
 21
0.514434814453125
 31
0.0
  0
LINE
  5
42A
  8
0
  6
CONTINUOUS
 62
     0
 10
-34.743934631347663
 20
5.014434814453125
 30
0.0
 11
-34.743934631347663
 21
4.514434814453125
 31
0.0
  0
LINE
  5
42B
  8
0
  6
CONTINUOUS
 62
     0
 10
-28.5439338684082
 20
70.514434814453125
 30
0.0
 11
-23.5439338684082
 21
70.514434814453125
 31
0.0
  0
LINE
  5
42C
  8
0
  6
CONTINUOUS
 62
     0
 10
-28.5439338684082
 20
71.014434814453125
 30
0.0
 11
-25.19661903381348
 21
71.014434814453125
 31
0.0
  0
LINE
  5
42D
  8
0
  6
CONTINUOUS
 62
     0
 10
-28.5439338684082
 20
74.514434814453125
 30
0.0
 11
-25.19660758972168
 21
74.514434814453125
 31
0.0
  0
LINE
  5
42E
  8
0
  6
CONTINUOUS
 62
     0
 10
-28.5439338684082
 20
75.014434814453125
 30
0.0
 11
-23.5439338684082
 21
75.014434814453125
 31
0.0
  0
LINE
  5
42F
  8
0
  6
CONTINUOUS
 62
     0
 10
-28.5439338684082
 20
75.014434814453125
 30
0.0
 11
-28.5439338684082
 21
74.514434814453125
 31
0.0
  0
LINE
  5
430
  8
0
  6
CONTINUOUS
 62
     0
 10
-28.5439338684082
 20
71.014434814453125
 30
0.0
 11
-28.5439338684082
 21
70.514434814453125
 31
0.0
  0
ENDSEC
  0
EOF
