  0
SECTION
  2
HEADER
  9
$ACADVER
  1
AC1009
  9
$INSBASE
 10
0.0
 20
0.0
 30
0.0
  9
$EXTMIN
 10
-136.84393310546869
 20
-22.235572948753941
 30
0.0
  9
$EXTMAX
 10
120.15606689453099
 20
89.764434814453125
 30
0.0
  9
$LIMMIN
 10
-154.84393310546861
 20
-148.5
  9
$LIMMAX
 10
210.0
 20
128.49999999999989
  9
$ORTHOMODE
 70
     0
  9
$REGENMODE
 70
     1
  9
$FILLMODE
 70
     1
  9
$QTEXTMODE
 70
     0
  9
$MIRRTEXT
 70
     1
  9
$DRAGMODE
 70
     2
  9
$LTSCALE
 40
1.0
  9
$OSMODE
 70
    37
  9
$ATTMODE
 70
     1
  9
$TEXTSIZE
 40
4.1672001374149312
  9
$TRACEWID
 40
0.05
  9
$TEXTSTYLE
  7
STANDARD
  9
$CLAYER
  8
0
  9
$CELTYPE
  6
BYLAYER
  9
$CECOLOR
 62
   256
  9
$DIMSCALE
 40
1.0
  9
$DIMASZ
 40
4.5700000000000003
  9
$DIMEXO
 40
1.5800000000000001
  9
$DIMDLI
 40
9.6500000000000004
  9
$DIMRND
 40
0.0
  9
$DIMDLE
 40
0.0
  9
$DIMEXE
 40
4.5700000000000003
  9
$DIMTP
 40
0.0
  9
$DIMTM
 40
0.0
  9
$DIMTXT
 40
4.1600000000000001
  9
$DIMCEN
 40
2.279999999999998
  9
$DIMTSZ
 40
0.0
  9
$DIMTOL
 70
     0
  9
$DIMLIM
 70
     0
  9
$DIMTIH
 70
     0
  9
$DIMTOH
 70
     0
  9
$DIMSE1
 70
     0
  9
$DIMSE2
 70
     0
  9
$DIMTAD
 70
     1
  9
$DIMZIN
 70
     8
  9
$DIMBLK
  1

  9
$DIMASO
 70
     1
  9
$DIMSHO
 70
     1
  9
$DIMPOST
  1

  9
$DIMAPOST
  1

  9
$DIMALT
 70
     0
  9
$DIMALTD
 70
     4
  9
$DIMALTF
 40
25.399999999999999
  9
$DIMLFAC
 40
1.0
  9
$DIMTOFL
 70
     1
  9
$DIMTVP
 40
0.0
  9
$DIMTIX
 70
     1
  9
$DIMSOXD
 70
     0
  9
$DIMSAH
 70
     0
  9
$DIMBLK1
  1

  9
$DIMBLK2
  1

  9
$DIMSTYLE
  2
STANDARD
  9
$DIMCLRD
 70
     0
  9
$DIMCLRE
 70
     0
  9
$DIMCLRT
 70
     0
  9
$DIMTFAC
 40
1.0
  9
$DIMGAP
 40
2.279999999999998
  9
$LUNITS
 70
     2
  9
$LUPREC
 70
     6
  9
$SKETCHINC
 40
0.1
  9
$FILLETRAD
 40
0.5
  9
$AUNITS
 70
     0
  9
$AUPREC
 70
     4
  9
$MENU
  1
.
  9
$ELEVATION
 40
0.0
  9
$PELEVATION
 40
0.0
  9
$THICKNESS
 40
0.0
  9
$LIMCHECK
 70
     0
  9
$BLIPMODE
 70
     0
  9
$CHAMFERA
 40
0.0
  9
$CHAMFERB
 40
0.0
  9
$SKPOLY
 70
     0
  9
$TDCREATE
 40
2447893.375
  9
$TDUPDATE
 40
2459165.525192407
  9
$TDINDWG
 40
0.0055682639
  9
$TDUSRTIMER
 40
0.0055675347
  9
$USRTIMER
 70
     1
  9
$ANGBASE
 50
0.0
  9
$ANGDIR
 70
     0
  9
$PDMODE
 70
     0
  9
$PDSIZE
 40
0.0
  9
$PLINEWID
 40
0.0
  9
$COORDS
 70
     0
  9
$SPLFRAME
 70
     0
  9
$SPLINETYPE
 70
     6
  9
$SPLINESEGS
 70
     8
  9
$ATTDIA
 70
     0
  9
$ATTREQ
 70
     1
  9
$HANDLING
 70
 10241
  9
$HANDSEED
  5
9F0
  9
$SURFTAB1
 70
     6
  9
$SURFTAB2
 70
     6
  9
$SURFTYPE
 70
     6
  9
$SURFU
 70
     6
  9
$SURFV
 70
     6
  9
$UCSNAME
  2

  9
$UCSORG
 10
0.0
 20
0.0
 30
0.0
  9
$UCSXDIR
 10
1.0
 20
0.0
 30
0.0
  9
$UCSYDIR
 10
0.0
 20
1.0
 30
0.0
  9
$PUCSNAME
  2

  9
$PUCSORG
 10
0.0
 20
0.0
 30
0.0
  9
$PUCSXDIR
 10
1.0
 20
0.0
 30
0.0
  9
$PUCSYDIR
 10
0.0
 20
1.0
 30
0.0
  9
$USERI1
 70
     0
  9
$USERI2
 70
     0
  9
$USERI3
 70
     0
  9
$USERI4
 70
     0
  9
$USERI5
 70
     0
  9
$USERR1
 40
0.0
  9
$USERR2
 40
0.0
  9
$USERR3
 40
0.0
  9
$USERR4
 40
0.0
  9
$USERR5
 40
0.0
  9
$WORLDVIEW
 70
     1
  9
$SHADEDGE
 70
     3
  9
$SHADEDIF
 70
    70
  9
$TILEMODE
 70
     1
  9
$MAXACTVP
 70
    64
  9
$PLIMCHECK
 70
     0
  9
$PEXTMIN
 10
-154.84393310546861
 20
-148.5
 30
1.0000000000000000E+020
  9
$PEXTMAX
 10
210.0
 20
128.49999999999989
 30
-1.0000000000000000E+020
  9
$PLIMMIN
 10
0.0
 20
0.0
  9
$PLIMMAX
 10
12.0
 20
9.0
  9
$UNITMODE
 70
     0
  9
$VISRETAIN
 70
     0
  9
$PLINEGEN
 70
     0
  9
$PSLTSCALE
 70
     1
  0
ENDSEC
  0
SECTION
  2
TABLES
  0
TABLE
  2
VPORT
 70
     2
  0
VPORT
  2
*ACTIVE
 70
     0
 10
0.0
 20
0.0
 11
1.0
 21
1.0
 12
-8.3435276097542328
 22
43.714119915823296
 13
0.0
 23
0.0
 14
6.3499999046325666
 24
6.3499999046325666
 15
6.3499999046325666
 25
6.3499999046325666
 16
0.0
 26
0.0
 36
1.0
 17
0.0
 27
0.0
 37
0.0
 40
177.08273299745221
 41
1.458837772397094
 42
50.0
 43
0.0
 44
0.0
 50
0.0
 51
0.0
 71
     0
 72
   100
 73
     1
 74
     1
 75
     0
 76
     0
 77
     0
 78
     0
  0
ENDTAB
  0
TABLE
  2
LTYPE
 70
    36
  0
LTYPE
  2
CONTINUOUS
 70
     0
  3
DXF Default line type
 72
    65
 73
     0
 40
0.0
  0
LTYPE
  2
DASHED
 70
     0
  3
DXF Dashed
 72
    65
 73
     2
 40
0.75
 49
0.5
 49
-0.25
  0
LTYPE
  2
HIDDEN
 70
     0
  3
DXF Hidden
 72
    65
 73
     2
 40
0.375
 49
0.25
 49
-0.125
  0
LTYPE
  2
CENTER
 70
     0
  3
DXF Center
 72
    65
 73
     4
 40
2.0
 49
1.25
 49
-0.25
 49
0.25
 49
-0.25
  0
LTYPE
  2
PHANTOM
 70
     0
  3
DXF Phantom
 72
    65
 73
     6
 40
2.5
 49
1.25
 49
-0.25
 49
0.25
 49
-0.25
 49
0.25
 49
-0.25
  0
LTYPE
  2
DOT
 70
     0
  3
DXF DOT
 72
    65
 73
     2
 40
0.25
 49
0.0
 49
-0.25
  0
LTYPE
  2
DASHDOT
 70
     0
  3
DXF Dash Dot
 72
    65
 73
     4
 40
1.0
 49
0.5
 49
-0.25
 49
0.0
 49
-0.25
  0
LTYPE
  2
BORDER
 70
     0
  3
DXF Border
 72
    65
 73
     6
 40
1.75
 49
0.5
 49
-0.25
 49
0.5
 49
-0.25
 49
0.0
 49
-0.25
  0
LTYPE
  2
DIVIDE
 70
     0
  3
DXF Divide
 72
    65
 73
     6
 40
1.25
 49
0.5
 49
-0.25
 49
0.0
 49
-0.25
 49
0.0
 49
-0.25
  0
LTYPE
  2
C_SOLID_L
 70
     0
  3
CADAM Solid Light
 72
    65
 73
     0
 40
0.0
  0
LTYPE
  2
C_SOLID_M
 70
     0
  3
CADAM Solid Medium
 72
    65
 73
     0
 40
0.0
  0
LTYPE
  2
C_SOLID_H
 70
     0
  3
CADAM Solid Heavy
 72
    65
 73
     0
 40
0.0
  0
LTYPE
  2
C_DASHED_L
 70
     0
  3
CADAM Dashed Light
 72
    65
 73
     2
 40
0.375
 49
0.25
 49
-0.125
  0
LTYPE
  2
C_DASHED_M
 70
     0
  3
CADAM Dashed Medium
 72
    65
 73
     2
 40
0.225
 49
0.075
 49
-0.15
  0
LTYPE
  2
C_CENTER_L
 70
     0
  3
CADAM Center Light
 72
    65
 73
     5
 40
3.4500000000000002
 49
1.5
 49
-0.15
 49
0.15
 49
-0.15
 49
1.5
  0
LTYPE
  2
C_PHANTOM_L
 70
     0
  3
CADAM Phantom Light
 72
    65
 73
     7
 40
3.75
 49
1.5
 49
-0.15
 49
0.15
 49
-0.15
 49
0.15
 49
-0.15
 49
1.5
  0
LTYPE
  2
C_NC
 70
     0
  3
CADAM NC
 72
    65
 73
     0
 40
0.0
  0
LTYPE
  2
DSH1
 70
     0
  3
CADAM Style2 Type 1 Dashed Line
 72
    65
 73
     2
 40
0.1
 49
0.05
 49
-0.05
  0
LTYPE
  2
DSH2
 70
     0
  3
CADAM Style2 Type 2 Dashed Line
 72
    65
 73
     2
 40
0.15
 49
0.09
 49
-0.06
  0
LTYPE
  2
DSH3
 70
     0
  3
CADAM Style2 Type 3 Dashed Line
 72
    65
 73
     2
 40
0.24
 49
0.15
 49
-0.09
  0
LTYPE
  2
DSH4
 70
     0
  3
CADAM Style2 Type 4 Dashed Line
 72
    65
 73
     2
 40
0.48
 49
0.39
 49
-0.09
  0
LTYPE
  2
DSH5
 70
     0
  3
CADAM Style2 Type 5 Dashed Line
 72
    65
 73
     2
 40
0.6600000000000003
 49
0.57
 49
-0.09
  0
LTYPE
  2
DSH6
 70
     0
  3
CADAM Style2 Type 6 Dashed Line
 72
    65
 73
     2
 40
1.139999999999999
 49
1.05
 49
-0.09
  0
LTYPE
  2
PL1
 70
     0
  3
Style 2 Type 1 Phantom Line
 72
    65
 73
     6
 40
1.2399999999999971
 49
1.0
 49
-0.06
 49
0.03
 49
-0.06
 49
0.03
 49
-0.06
  0
LTYPE
  2
PL2
 70
     0
  3
Style 2 Type 2 Phantom Line
 72
    65
 73
     6
 40
1.409999999999999
 49
1.05
 49
-0.06
 49
0.09
 49
-0.06
 49
0.09
 49
-0.06
  0
LTYPE
  2
PL3
 70
     0
  3
Style 2 Type 3 Phantom Line
 72
    65
 73
     6
 40
3.0800000000000001
 49
2.4900000000000002
 49
-0.09
 49
0.16
 49
-0.09
 49
0.16
 49
-0.09
  0
LTYPE
  2
CL1
 70
     0
  3
CADAM Style 2 Type 1 Center Line
 72
    65
 73
     4
 40
0.7800000000000003
 49
0.5400000000000002
 49
-0.06
 49
0.12
 49
-0.06
  0
LTYPE
  2
CL2
 70
     0
  3
CADAM Style 2 Type 2 Center Line
 72
    65
 73
     4
 40
1.179999999999999
 49
1.0
 49
-0.06
 49
0.06
 49
-0.06
  0
LTYPE
  2
CL3
 70
     0
  3
CADAM Style 2 Type 3 Center Line
 72
    65
 73
     4
 40
1.26
 49
1.05
 49
-0.06
 49
0.09
 49
-0.06
  0
LTYPE
  2
CL4
 70
     0
  3
CADAM Style 2 Type 4 Center Line
 72
    65
 73
     4
 40
1.98
 49
1.74
 49
-0.06
 49
0.12
 49
-0.06
  0
LTYPE
  2
CL5
 70
     0
  3
CADAM Style 2 Type 5 Center Line
 72
    65
 73
     4
 40
3.9199999999999982
 49
3.6099999999999981
 49
-0.08
 49
0.15
 49
-0.08
  0
LTYPE
  2
SBK1
 70
     0
  3
CADAM Style 2 Type 1 SetBack Line
 72
    65
 73
     8
 40
2.3700000000000001
 49
1.74
 49
-0.09
 49
0.09
 49
-0.09
 49
0.09
 49
-0.09
 49
0.09
 49
-0.09
  0
LTYPE
  2
SBK2
 70
     0
  3
CADAM Style 2 Type 2 SetBack Line
 72
    65
 73
     8
 40
3.3300000000000001
 49
2.4900000000000002
 49
-0.09
 49
0.16
 49
-0.09
 49
0.16
 49
-0.09
 49
0.16
 49
-0.09
  0
LTYPE
  2
STCH
 70
     0
  3
CADAM Style2 Stitch Line
 72
    65
 73
     2
 40
0.12
 49
0.03
 49
-0.09
  0
LTYPE
  2
MTCH
 70
     0
  3
CADAM Style2 Match Line
 72
    65
 73
     6
 40
2.8900000000000001
 49
2.5899999999999981
 49
-0.06
 49
0.06
 49
-0.06
 49
0.06
 49
-0.06
  0
LTYPE
  2
SLD
 70
     0
  3
CADAM Solid_EXT2
 72
    65
 73
     0
 40
0.0
  0
ENDTAB
  0
TABLE
  2
LAYER
 70
     2
  0
LAYER
  2
0
 70
     0
 62
    32
  6
C_SOLID_M
  0
LAYER
  2
DEFPOINTS
 70
     0
 62
     7
  6
CONTINUOUS
  0
ENDTAB
  0
TABLE
  2
STYLE
 70
     1
  0
STYLE
  2
STANDARD
 70
     0
 40
4.1672001374149312
 41
1.0
 50
0.0
 71
     0
 42
4.1672001374149312
  3
monotxt
  4
BIGFONT
  0
ENDTAB
  0
TABLE
  2
VIEW
 70
     0
  0
ENDTAB
  0
TABLE
  2
UCS
 70
     2
  0
UCS
  2
MO_001_VIEW_PV_P
 70
     0
 10
0.0
 20
0.0
 30
0.0
 11
1.0
 21
0.0
 31
0.0
 12
0.0
 22
1.0
 32
0.0
  0
UCS
  2
MO_001_VIEW_ZZ_P
 70
     0
 10
210.0
 20
-148.5
 30
0.0
 11
1.0
 21
0.0
 31
0.0
 12
0.0
 22
1.0
 32
0.0
  0
ENDTAB
  0
TABLE
  2
APPID
 70
     3
  0
APPID
  2
ACAD
 70
     0
  0
APPID
  2
PDELIB
 70
     0
  0
APPID
  2
ACAD_MLEADERVER
 70
     0
  0
ENDTAB
  0
TABLE
  2
DIMSTYLE
 70
     1
  0
DIMSTYLE
  2
STANDARD
 70
     0
  3

  4

  5

  6

  7

 40
1.0
 41
4.5700000000000003
 42
1.5800000000000001
 43
9.6500000000000004
 44
4.5700000000000003
 45
0.0
 46
0.0
 47
0.0
 48
0.0
140
4.1600000000000001
141
2.279999999999998
142
0.0
143
25.399999999999999
144
1.0
145
0.0
146
1.0
147
2.279999999999998
 71
     0
 72
     0
 73
     0
 74
     0
 75
     0
 76
     0
 77
     1
 78
     8
170
     0
171
     4
172
     1
173
     0
174
     1
175
     0
176
     0
177
     0
178
     0
  0
ENDTAB
  0
ENDSEC
  0
SECTION
  2
BLOCKS
  0
BLOCK
  8
0
  2
$MODEL_SPACE
 70
     0
 10
0.0
 20
0.0
 30
0.0
  3
$MODEL_SPACE
  1

  0
ENDBLK
  5
21
  8
0
  0
BLOCK
 67
     1
  8
0
  2
$PAPER_SPACE
 70
     0
 10
0.0
 20
0.0
 30
0.0
  3
$PAPER_SPACE
  1

  0
ENDBLK
  5
1D
 67
     1
  8
0
  0
BLOCK
  8
0
  2
D_0001_
 70
     0
 10
0.0
 20
0.0
 30
0.0
  3
D_0001_
  1

  0
POINT
  5
102
  8
0
  6
CONTINUOUS
 10
0.0
 20
0.0
 30
0.0
  0
POINT
  5
103
  8
0
  6
CONTINUOUS
 10
0.0
 20
-5.5
 30
0.0
  0
POINT
  5
104
  8
0
  6
CONTINUOUS
 10
0.0
 20
-22.0
 30
0.0
  0
POINT
  5
105
  8
0
  6
CONTINUOUS
 10
0.0
 20
-33.0
 30
0.0
  0
POINT
  5
106
  8
0
  6
CONTINUOUS
 10
0.0
 20
-11.0
 30
0.0
  0
POINT
  5
107
  8
0
  6
CONTINUOUS
 10
0.0
 20
-16.5
 30
0.0
  0
POINT
  5
108
  8
0
  6
CONTINUOUS
 10
0.0
 20
-22.0
 30
0.0
  0
POINT
  5
109
  8
0
  6
CONTINUOUS
 10
0.0
 20
-27.5
 30
0.0
  0
POINT
  5
10A
  8
0
  6
CONTINUOUS
 10
0.0
 20
-27.5
 30
0.0
  0
POINT
  5
10B
  8
0
  6
CONTINUOUS
 10
0.0
 20
-38.5
 30
0.0
  0
POINT
  5
10C
  8
0
  6
CONTINUOUS
 10
0.0
 20
-44.0
 30
0.0
  0
POINT
  5
10D
  8
0
  6
CONTINUOUS
 10
0.0
 20
-49.5
 30
0.0
  0
POINT
  5
10E
  8
0
  6
CONTINUOUS
 10
0.0
 20
-55.0
 30
0.0
  0
POINT
  5
10F
  8
0
  6
CONTINUOUS
 10
0.0
 20
-66.0
 30
0.0
  0
POINT
  5
110
  8
0
  6
CONTINUOUS
 10
0.0
 20
-71.5
 30
0.0
  0
POINT
  5
111
  8
0
  6
CONTINUOUS
 10
0.0
 20
-77.0
 30
0.0
  0
POINT
  5
112
  8
0
  6
CONTINUOUS
 10
0.0
 20
-77.0
 30
0.0
  0
TEXT
  5
113
  8
0
 10
-1.2500001192092871
 20
-1.750000000000004
 30
0.0
 40
3.5
  1
注 記
  0
INSERT
  5
114
  8
0
  2
*U36
 10
0.0
 20
0.0
 30
0.0
  0
INSERT
  5
115
  8
0
  2
*U37
 10
0.0
 20
0.0
 30
0.0
  0
INSERT
  5
116
  8
0
  2
*U38
 10
0.0
 20
0.0
 30
0.0
  0
INSERT
  5
117
  8
0
  2
*U39
 10
0.0
 20
0.0
 30
0.0
  0
INSERT
  5
118
  8
0
  2
*U40
 10
0.0
 20
0.0
 30
0.0
  0
TEXT
  5
119
  8
0
 10
-1.2499982118606541
 20
-78.75
 30
0.0
 40
3.5
  1
6.出力その他特性は別紙のカタログにてご参照ください。
  0
ENDBLK
  5
98
  8
0
  0
BLOCK
  8
0
  2
D_0002_
 70
     0
 10
0.0
 20
0.0
 30
0.0
  3
D_0002_
  1

  0
POINT
  5
11A
  8
0
  6
CONTINUOUS
 10
0.0
 20
0.0
 30
0.0
  0
POINT
  5
11B
  8
0
  6
CONTINUOUS
 10
10.65721988677978
 20
-8.1659774780273402
 30
0.0
  0
LINE
  5
11C
  8
0
  6
CONTINUOUS
 10
-18.90000152587891
 20
15.0
 30
0.0
 11
-0.3000012636184683
 21
15.0
 31
0.0
  0
LINE
  5
11D
  8
0
  6
CONTINUOUS
 10
-0.0000000000000009
 20
-14.69999885559082
 30
0.0
 11
0.0000000000000009
 21
14.69999980926514
 31
0.0
  0
LINE
  5
11E
  8
0
  6
CONTINUOUS
 10
-19.20000076293945
 20
-14.69999885559082
 30
0.0
 11
-19.20000076293945
 21
14.69999980926514
 31
0.0
  0
LINE
  5
11F
  8
0
  6
C_CENTER_L
 10
-25.5
 20
0.0000000000000016
 30
0.0
 11
4.5
 21
-0.0000000000000003
 31
0.0
  0
LINE
  5
120
  8
0
  6
CONTINUOUS
 10
0.0000000000000001
 20
1.5
 30
0.0
 11
6.0999994277954102
 21
1.5
 31
0.0
  0
LINE
  5
121
  8
0
  6
CONTINUOUS
 10
0.0000000379326934
 20
14.699999770799369
 30
0.0
 11
-0.3000014016510589
 21
15.000000881636311
 31
0.0
  0
LINE
  5
122
  8
0
  6
CONTINUOUS
 10
-0.3000004744204148
 20
-15.000000536033159
 30
0.0
 11
-0.0000000379326934
 21
-14.699999770799369
 31
0.0
  0
CIRCLE
  5
123
  8
0
  6
CONTINUOUS
 10
85.0
 20
-0.0000000000000034
 30
0.0
 40
15.0
  0
CIRCLE
  5
124
  8
0
  6
CONTINUOUS
 10
85.0
 20
-0.0000000000000034
 30
0.0
 40
14.69999980926514
  0
LINE
  5
125
  8
0
  6
C_CENTER_L
 10
68.0
 20
-0.0000000000000023
 30
0.0
 11
102.0
 21
-0.0000000000000044
 31
0.0
  0
LINE
  5
126
  8
0
  6
C_CENTER_L
 10
85.0
 20
-17.0
 30
0.0
 11
85.0
 21
17.0
 31
0.0
  0
LINE
  5
127
  8
0
  6
C_CENTER_L
 10
82.0
 20
-11.0
 30
0.0
 11
88.0
 21
-11.0
 31
0.0
  0
LINE
  5
128
  8
0
  6
C_CENTER_L
 10
82.0
 20
10.999999999999989
 30
0.0
 11
88.0
 21
10.999999999999989
 31
0.0
  0
CIRCLE
  5
129
  8
0
  6
C_SOLID_L
 10
85.0
 20
-11.0
 30
0.0
 40
1.25
  0
CIRCLE
  5
12A
  8
0
  6
C_SOLID_L
 10
85.0
 20
11.0
 30
0.0
 40
1.25
  0
CIRCLE
  5
12B
  8
0
  6
CONTINUOUS
 10
85.0
 20
-11.0
 30
0.0
 40
0.899999976158142
  0
CIRCLE
  5
12C
  8
0
  6
CONTINUOUS
 10
85.0
 20
11.0
 30
0.0
 40
0.899999976158142
  0
CIRCLE
  5
12D
  8
0
  6
CONTINUOUS
 10
85.0
 20
-0.0000000000000034
 30
0.0
 40
1.5
  0
CIRCLE
  5
12E
  8
0
  6
CONTINUOUS
 10
85.0
 20
-0.0000000000000034
 30
0.0
 40
1.2000000476837149
  0
ARC
  5
12F
  8
0
  6
CONTINUOUS
 10
85.0
 20
-0.0000000000000034
 30
0.0
 40
2.5
 50
43.605088793520288
 51
316.39490756401398
  0
ARC
  5
130
  8
0
  6
CONTINUOUS
 10
85.0
 20
-0.0000000000000034
 30
0.0
 40
1.799999952316284
 50
90.000002504478175
 51
147.819199904226
  0
LINE
  5
131
  8
0
  6
CONTINUOUS
 10
83.640576991253525
 20
0.6339297625372639
 30
0.0
 11
83.561322076452555
 21
0.6708869357689764
 31
0.0
  0
LINE
  5
132
  8
0
  6
CONTINUOUS
 10
83.561322076452555
 20
-0.6708869357689764
 30
0.0
 11
83.640576991253525
 21
-0.6339297625372639
 31
0.0
  0
ARC
  5
133
  8
0
  6
CONTINUOUS
 10
85.0
 20
-0.0000000000000034
 30
0.0
 40
1.799999952316284
 50
212.1808000957738
 51
277.66229495173877
  0
ARC
  5
134
  8
0
  6
CONTINUOUS
 10
83.645805358886719
 20
-0.8521472811698911
 30
0.0
 40
0.2000000029802322
 50
114.9995125649112
 51
212.18097403822671
  0
ARC
  5
135
  8
0
  6
CONTINUOUS
 10
83.645805358886719
 20
0.8521472811698911
 30
0.0
 40
0.2000000029802322
 50
147.81900865892931
 51
245.0004701322448
  0
LINE
  5
136
  8
0
  6
CONTINUOUS
 10
85.5
 20
1.414213538169856
 30
0.0
 11
85.5
 21
1.4866067171096751
 31
0.0
  0
ARC
  5
137
  8
0
  6
CONTINUOUS
 10
85.0
 20
-0.0000000000000034
 30
0.0
 40
1.799999952316284
 50
82.337691387882771
 51
90.000009334667354
  0
ARC
  5
138
  8
0
  6
CONTINUOUS
 10
85.199996948242188
 20
-1.4866067171096791
 30
0.0
 40
0.3000000119209289
 50
277.66243155552201
 51
359.99999749552182
  0
ARC
  5
139
  8
0
  6
CONTINUOUS
 10
85.199996948242188
 20
1.4866067171096791
 30
0.0
 40
0.3000000119209289
 50
359.99999749552182
 51
82.337575274666875
  0
LINE
  5
13A
  8
0
  6
CONTINUOUS
 10
85.5
 20
-1.4866067171096859
 30
0.0
 11
85.5
 21
-1.4142135381698651
 31
0.0
  0
LINE
  5
13B
  8
0
  6
CONTINUOUS
 10
86.805167570531921
 20
-1.305173910966914
 30
0.0
 11
86.280766375090479
 21
-0.7807727155254725
 31
0.0
  0
LINE
  5
13C
  8
0
  6
CONTINUOUS
 10
86.280766375090479
 20
0.7807727155254725
 30
0.0
 11
86.805167570531921
 21
1.305173910966914
 31
0.0
  0
ARC
  5
13D
  8
0
  6
CONTINUOUS
 10
86.593048095703125
 20
-1.5173047780990601
 30
0.0
 40
0.3000000119209289
 50
316.39480533854749
 51
44.999919289969043
  0
ARC
  5
13E
  8
0
  6
CONTINUOUS
 10
86.593048095703125
 20
1.5173047780990601
 30
0.0
 40
0.3000000119209289
 50
315.00008071003077
 51
43.605191246357847
  0
ARC
  5
13F
  8
0
  6
CONTINUOUS
 10
85.0
 20
-0.0000000000000034
 30
0.0
 40
2.0
 50
325.18208959257908
 51
34.817903577231753
  0
LINE
  5
140
  8
0
  6
CONTINUOUS
 10
-19.20000084748693
 20
-14.700000478887249
 30
0.0
 11
-18.900001650115708
 21
-15.00000046018874
 31
0.0
  0
LINE
  5
141
  8
0
  6
CONTINUOUS
 10
-19.20000084748693
 20
14.700000478887249
 30
0.0
 11
-18.900001650115708
 21
15.00000046018874
 31
0.0
  0
LINE
  5
142
  8
0
  6
CONTINUOUS
 10
-18.90000152587891
 20
-15.0
 30
0.0
 11
-0.3000006675720224
 21
-15.0
 31
0.0
  0
LINE
  5
143
  8
0
  6
CONTINUOUS
 10
6.5999994277954102
 20
1.5
 30
0.0
 11
15.09999942779541
 21
1.4999999999999989
 31
0.0
  0
LINE
  5
144
  8
0
  6
CONTINUOUS
 10
6.5999994277954102
 20
-1.5
 30
0.0
 11
15.09999942779541
 21
-1.5
 31
0.0
  0
LINE
  5
145
  8
0
  6
CONTINUOUS
 10
15.5
 20
-1.100000143051147
 30
0.0
 11
15.5
 21
1.100000023841855
 31
0.0
  0
LINE
  5
146
  8
0
  6
CONTINUOUS
 10
6.0999994277954102
 20
-1.0
 30
0.0
 11
6.1999998092651367
 21
-1.0
 31
0.0
  0
LINE
  5
147
  8
0
  6
CONTINUOUS
 10
6.0999994277954102
 20
0.9999999999999996
 30
0.0
 11
6.1999998092651367
 21
0.9999999999999996
 31
0.0
  0
LINE
  5
148
  8
0
  6
CONTINUOUS
 10
6.5999994277954102
 20
-2.5
 30
0.0
 11
6.5999994277954102
 21
2.5
 31
0.0
  0
LINE
  5
149
  8
0
  6
CONTINUOUS
 10
6.0999994277954102
 20
-1.5
 30
0.0
 11
6.0999994277954102
 21
1.5
 31
0.0
  0
LINE
  5
14A
  8
0
  6
CONTINUOUS
 10
6.1999998092651367
 20
2.5
 30
0.0
 11
6.5999994277954102
 21
2.5
 31
0.0
  0
LINE
  5
14B
  8
0
  6
CONTINUOUS
 10
6.1999998092651367
 20
-2.5
 30
0.0
 11
6.5999994277954102
 21
-2.5
 31
0.0
  0
LINE
  5
14C
  8
0
  6
CONTINUOUS
 10
-0.0000000000000001
 20
-1.5
 30
0.0
 11
6.0999994277954102
 21
-1.5
 31
0.0
  0
LINE
  5
14D
  8
0
  6
CONTINUOUS
 10
6.1999998092651367
 20
-2.5
 30
0.0
 11
6.1999998092651367
 21
2.5
 31
0.0
  0
LINE
  5
14E
  8
0
  6
C_CENTER_L
 10
-25.53468704223631
 20
0.0000000000000016
 30
0.0
 11
17.75
 21
-0.0000000000000011
 31
0.0
  0
CIRCLE
  5
14F
  8
0
  6
CONTINUOUS
 10
-138.0
 20
0.0000000000000036
 30
0.0
 40
15.0
  0
CIRCLE
  5
150
  8
0
  6
CONTINUOUS
 10
-138.0
 20
0.0000000000000036
 30
0.0
 40
14.69999980926514
  0
CIRCLE
  5
151
  8
0
  6
CONTINUOUS
 10
-138.0
 20
0.0000000000000036
 30
0.0
 40
2.160000085830688
  0
LINE
  5
152
  8
0
  6
C_CENTER_L
 10
-138.0
 20
-2.9999999999999911
 30
0.0
 11
-138.0
 21
3.000000000000008
 31
0.0
  0
LINE
  5
153
  8
0
  6
C_CENTER_L
 10
-135.0
 20
0.0000000000000105
 30
0.0
 11
-141.0
 21
0.0000000000000112
 31
0.0
  0
LINE
  5
154
  8
0
  6
CONTINUOUS
 10
-138.00000079824889
 20
-2.1599994365747062
 30
0.0
 11
-139.87061232982521
 21
-1.0800015489630821
 31
0.0
  0
LINE
  5
155
  8
0
  6
CONTINUOUS
 10
-139.87060546875
 20
-1.079999923706044
 30
0.0
 11
-139.87060546875
 21
1.0799999237060629
 31
0.0
  0
LINE
  5
156
  8
0
  6
CONTINUOUS
 10
-139.8706088564459
 20
1.0799989882298171
 30
0.0
 11
-137.9999975823612
 21
2.1599972620788308
 31
0.0
  0
LINE
  5
157
  8
0
  6
CONTINUOUS
 10
-137.99999149761419
 20
2.1600042651625699
 30
0.0
 11
-136.12938022352941
 21
1.0800059913135549
 31
0.0
  0
LINE
  5
158
  8
0
  6
CONTINUOUS
 10
-136.12937927246091
 20
1.0799999237060629
 30
0.0
 11
-136.12937927246091
 21
-1.079999923706044
 31
0.0
  0
LINE
  5
159
  8
0
  6
CONTINUOUS
 10
-136.12939071565191
 20
-1.080008077504317
 30
0.0
 11
-138.00000224722791
 21
-2.1600059651159431
 31
0.0
  0
CIRCLE
  5
15A
  8
0
  6
CONTINUOUS
 10
-138.0
 20
0.0000000000000036
 30
0.0
 40
1.0
  0
CIRCLE
  5
15B
  8
0
  6
CONTINUOUS
 10
-138.0
 20
0.0000000000000036
 30
0.0
 40
0.8000000119209291
  0
CIRCLE
  5
15C
  8
0
  6
CONTINUOUS
 10
-138.0
 20
0.0000000000000036
 30
0.0
 40
1.8706151247024541
  0
CIRCLE
  5
15D
  8
0
  6
CONTINUOUS
 10
85.0
 20
-0.0000000000000034
 30
0.0
 40
13.399999618530259
  0
CIRCLE
  5
15E
  8
0
  6
CONTINUOUS
 10
-138.0
 20
0.0000000000000036
 30
0.0
 40
2.160000085830688
  0
LINE
  5
15F
  8
0
  6
C_CENTER_L
 10
-138.0
 20
-2.9999999999999911
 30
0.0
 11
-138.0
 21
3.000000000000008
 31
0.0
  0
LINE
  5
160
  8
0
  6
C_CENTER_L
 10
-135.0
 20
0.0000000000000036
 30
0.0
 11
-141.0
 21
0.0000000000000036
 31
0.0
  0
LINE
  5
161
  8
0
  6
C_CENTER_L
 10
-155.0
 20
0.0000000000000036
 30
0.0
 11
-121.0
 21
0.0000000000000036
 31
0.0
  0
LINE
  5
162
  8
0
  6
C_CENTER_L
 10
-138.0
 20
-16.999999999999989
 30
0.0
 11
-138.0
 21
17.000000000000011
 31
0.0
  0
ARC
  5
163
  8
0
  6
CONTINUOUS
 10
-138.0
 20
0.0000000000000036
 30
0.0
 40
12.899999618530259
 50
89.999988844099846
 51
160.76417057020581
  0
CIRCLE
  5
164
  8
0
  6
CONTINUOUS
 10
-142.9497375488279
 20
-4.949737548828125
 30
0.0
 40
1.0
  0
CIRCLE
  5
165
  8
0
  6
CONTINUOUS
 10
-142.9497375488279
 20
4.949737548828125
 30
0.0
 40
1.0
  0
CIRCLE
  5
166
  8
0
  6
CONTINUOUS
 10
-133.05024719238261
 20
-4.949737548828125
 30
0.0
 40
1.0
  0
CIRCLE
  5
167
  8
0
  6
CONTINUOUS
 10
-133.05024719238261
 20
4.949737548828125
 30
0.0
 40
1.0
  0
ARC
  5
168
  8
0
  6
CONTINUOUS
 10
-138.0
 20
0.0000000000000036
 30
0.0
 40
9.3500003814697266
 50
89.999988844099846
 51
150.55287383649701
  0
ARC
  5
169
  8
0
  6
CONTINUOUS
 10
-138.0
 20
0.0000000000000036
 30
0.0
 40
12.899999618530259
 50
199.2358430901721
 51
89.999988844099846
  0
ARC
  5
16A
  8
0
  6
CONTINUOUS
 10
-138.0
 20
0.0000000000000036
 30
0.0
 40
12.899999618530259
 50
160.76415690982779
 51
199.23582578732811
  0
ARC
  5
16B
  8
0
  6
CONTINUOUS
 10
-138.0
 20
0.0000000000000036
 30
0.0
 40
9.3500003814697266
 50
209.44712616350299
 51
89.999988844099846
  0
ARC
  5
16C
  8
0
  6
CONTINUOUS
 10
-138.0
 20
0.0000000000000036
 30
0.0
 40
10.35000038146973
 50
168.0784152466974
 51
170.26948529092439
  0
ARC
  5
16D
  8
0
  6
CONTINUOUS
 10
-138.0
 20
0.0000000000000036
 30
0.0
 40
12.0
 50
203.03569589150379
 51
156.96429044811791
  0
LINE
  5
16E
  8
0
  6
C_CENTER_L
 10
-151.37896728515619
 20
-2.0
 30
0.0
 11
-144.17596435546861
 21
-2.0
 31
0.0
  0
LINE
  5
16F
  8
0
  6
C_CENTER_L
 10
-151.37896728515619
 20
2.0
 30
0.0
 11
-144.17596435546861
 21
2.0
 31
0.0
  0
CIRCLE
  5
170
  8
0
  6
CONTINUOUS
 10
-138.0
 20
0.0000000000000036
 30
0.0
 40
3.5
  0
CIRCLE
  5
171
  8
0
  6
CONTINUOUS
 10
-138.0
 20
0.0000000000000036
 30
0.0
 40
1.0
  0
LINE
  5
172
  8
0
  6
CONTINUOUS
 10
-150.6554260253904
 20
-2.5000000000000191
 30
0.0
 11
-148.4202880859375
 21
-2.5000000000000191
 31
0.0
  0
LINE
  5
173
  8
0
  6
CONTINUOUS
 10
-150.81249999999989
 20
-1.500000000000004
 30
0.0
 11
-148.49678039550781
 21
-1.500000000000004
 31
0.0
  0
LINE
  5
174
  8
0
  6
CONTINUOUS
 10
-150.6554260253904
 20
2.4999999999999791
 30
0.0
 11
-148.4202880859375
 21
2.49999999999998
 31
0.0
  0
LINE
  5
175
  8
0
  6
CONTINUOUS
 10
-150.81249999999989
 20
1.4999999999999949
 30
0.0
 11
-148.49678039550781
 21
1.4999999999999949
 31
0.0
  0
LINE
  5
176
  8
0
  6
CONTINUOUS
 10
-145.3999938964844
 20
3.600006103515633
 30
0.0
 11
-145.3999938964844
 21
-3.5999908447265532
 31
0.0
  0
ARC
  5
177
  8
0
  6
CONTINUOUS
 10
-138.0
 20
0.0000000000000036
 30
0.0
 40
10.35000038146973
 50
189.73051470907549
 51
191.92158475330231
  0
ARC
  5
178
  8
0
  6
CONTINUOUS
 10
-146.7549285888669
 20
-2.0
 30
0.0
 40
0.3000000119209289
 50
146.44268456003661
 51
213.55731179749739
  0
LINE
  5
179
  8
0
  6
C_CENTER_L
 10
-146.7549285888669
 20
3.000000000000008
 30
0.0
 11
-146.7549285888669
 21
-2.9999999999999911
 31
0.0
  0
LINE
  5
17A
  8
0
  6
CONTINUOUS
 10
-145.79998779296881
 20
4.0000000000000062
 30
0.0
 11
-145.7937469482421
 21
4.0000000000000062
 31
0.0
  0
LINE
  5
17B
  8
0
  6
CONTINUOUS
 10
-145.79998779296881
 20
4.0000000000000062
 30
0.0
 11
-145.7937469482421
 21
4.0000000000000062
 31
0.0
  0
LINE
  5
17C
  8
0
  6
CONTINUOUS
 10
-145.7937469482421
 20
-3.9999999999999911
 30
0.0
 11
-145.6999969482419
 21
-3.9999999999999911
 31
0.0
  0
LINE
  5
17D
  8
0
  6
CONTINUOUS
 10
-150.26417541503889
 20
-3.9999999999999911
 30
0.0
 11
-145.79998779296881
 21
-3.9999999999999911
 31
0.0
  0
ARC
  5
17E
  8
0
  6
CONTINUOUS
 10
-145.7937469482421
 20
-4.399993896484375
 30
0.0
 40
0.4000000059604645
 50
90.000002504478175
 51
209.4471771625507
  0
LINE
  5
17F
  8
0
  6
CONTINUOUS
 10
-150.26417541503889
 20
3.9999999999999929
 30
0.0
 11
-145.7937469482421
 21
3.9999999999999929
 31
0.0
  0
ARC
  5
180
  8
0
  6
CONTINUOUS
 10
-145.7937469482421
 20
4.4000015258789062
 30
0.0
 40
0.4000000059604645
 50
150.5529284780101
 51
270.00000068324528
  0
ARC
  5
181
  8
0
  6
CONTINUOUS
 10
-148.49678039550781
 20
-1.799995422363281
 30
0.0
 40
0.3000000119209289
 50
9.730571798224366
 51
89.999988844099846
  0
ARC
  5
182
  8
0
  6
CONTINUOUS
 10
-148.4202880859375
 20
-2.1999969482421871
 30
0.0
 40
0.3000000119209289
 50
269.99999749552182
 51
11.92155902640741
  0
ARC
  5
183
  8
0
  6
CONTINUOUS
 10
-148.4202880859375
 20
2.2000045776367192
 30
0.0
 40
0.3000000119209289
 50
348.0784623179336
 51
89.999988844099846
  0
ARC
  5
184
  8
0
  6
CONTINUOUS
 10
-148.49678039550781
 20
1.8000030517578101
 30
0.0
 40
0.3000000119209289
 50
269.99999749552182
 51
350.26961347065691
  0
LINE
  5
185
  8
0
  6
CONTINUOUS
 10
-149.3999938964844
 20
-2.4999999999999898
 30
0.0
 11
-149.3999938964844
 21
-3.4999999999999911
 31
0.0
  0
LINE
  5
186
  8
0
  6
CONTINUOUS
 10
-149.3999938964844
 20
1.500000000000006
 30
0.0
 11
-149.3999938964844
 21
-1.4999999999999909
 31
0.0
  0
LINE
  5
187
  8
0
  6
CONTINUOUS
 10
-149.3999938964844
 20
3.500000000000008
 30
0.0
 11
-149.3999938964844
 21
2.5000000000000089
 31
0.0
  0
ARC
  5
188
  8
0
  6
CONTINUOUS
 10
-148.8999938964844
 20
3.5
 30
0.0
 40
0.5
 50
90.000002504478175
 51
179.99999134857799
  0
ARC
  5
189
  8
0
  6
CONTINUOUS
 10
-148.8999938964844
 20
-3.5
 30
0.0
 40
0.5
 50
180.00000865142201
 51
269.99999749552182
  0
ARC
  5
18A
  8
0
  6
CONTINUOUS
 10
-148.58300781249989
 20
4.5
 30
0.0
 40
0.5
 50
156.96424946698281
 51
270.00000068324528
  0
ARC
  5
18B
  8
0
  6
CONTINUOUS
 10
-148.58300781249989
 20
-4.5
 30
0.0
 40
0.5
 50
90.000002504478175
 51
203.03573323017309
  0
ARC
  5
18C
  8
0
  6
CONTINUOUS
 10
-145.79998779296881
 20
-3.5999908447265621
 30
0.0
 40
0.4000000059604645
 50
269.99999749552182
 51
0.000010017912262
  0
ARC
  5
18D
  8
0
  6
CONTINUOUS
 10
-145.79998779296881
 20
3.600006103515625
 30
0.0
 40
0.4000000059604645
 50
0.0000111558998674
 51
89.999988844099846
  0
LINE
  5
18E
  8
0
  6
CONTINUOUS
 10
15.0999994578612
 20
-1.500000766306073
 30
0.0
 11
15.499999410452279
 21
-1.1000009485848641
 31
0.0
  0
LINE
  5
18F
  8
0
  6
CONTINUOUS
 10
15.49999978134468
 20
1.0999997684730829
 30
0.0
 11
15.099999963623469
 21
1.49999972106417
 31
0.0
  0
LINE
  5
190
  8
0
  6
C_SOLID_L
 10
15.09999942779541
 20
-1.5
 30
0.0
 11
15.09999942779541
 21
1.4999999999999989
 31
0.0
  0
LINE
  5
191
  8
0
  6
CONTINUOUS
 10
-24.856647491455082
 20
-6.1950001716613743
 30
0.0
 11
-19.20000076293945
 21
-6.1950001716613761
 31
0.0
  0
LINE
  5
192
  8
0
  6
CONTINUOUS
 10
-24.856647491455082
 20
-7.7950005531311017
 30
0.0
 11
-19.20000076293945
 21
-7.7950005531311017
 31
0.0
  0
LINE
  5
193
  8
0
  6
CONTINUOUS
 10
-25.5
 20
-7.4949998855590794
 30
0.0
 11
-25.5
 21
-6.4950008392333967
 31
0.0
  0
LINE
  5
194
  8
0
  6
CONTINUOUS
 10
-24.856650064760728
 20
-7.795001128110016
 30
0.0
 11
-25.500003322291828
 21
-7.4950005811724623
 31
0.0
  0
LINE
  5
195
  8
0
  6
CONTINUOUS
 10
-25.50000308191197
 20
-6.4950012832419457
 30
0.0
 11
-24.856649824380881
 21
-6.195000736304392
 31
0.0
  0
LINE
  5
196
  8
0
  6
CONTINUOUS
 10
-0.3000006675720224
 20
-15.0
 30
0.0
 11
-0.3000006675720205
 21
15.0
 31
0.0
  0
LINE
  5
197
  8
0
  6
CONTINUOUS
 10
-18.90000152587891
 20
-15.0
 30
0.0
 11
-18.90000152587891
 21
15.0
 31
0.0
  0
LINE
  5
198
  8
0
  6
CONTINUOUS
 10
-21.0
 20
-2.4999999999999991
 30
0.0
 11
-21.0
 21
2.5
 31
0.0
  0
LINE
  5
199
  8
0
  6
CONTINUOUS
 10
-21.0
 20
2.5
 30
0.0
 11
-19.20000076293945
 21
2.5
 31
0.0
  0
LINE
  5
19A
  8
0
  6
CONTINUOUS
 10
-21.0
 20
-2.4999999999999991
 30
0.0
 11
-19.20000076293945
 21
-2.4999999999999991
 31
0.0
  0
LINE
  5
19B
  8
0
  6
CONTINUOUS
 10
-24.0
 20
-0.800003051757811
 30
0.0
 11
-24.0
 21
0.8000030517578139
 31
0.0
  0
LINE
  5
19C
  8
0
  6
CONTINUOUS
 10
-23.799999237060529
 20
1.0000000000000011
 30
0.0
 11
-23.39999961853027
 21
1.0000000000000011
 31
0.0
  0
LINE
  5
19D
  8
0
  6
CONTINUOUS
 10
-23.799999237060529
 20
-0.9999999999999985
 30
0.0
 11
-23.39999961853027
 21
-0.9999999999999985
 31
0.0
  0
LINE
  5
19E
  8
0
  6
C_SOLID_L
 10
-24.0
 20
0.8000030517578139
 30
0.0
 11
-23.39999961853027
 21
0.8000030517578139
 31
0.0
  0
LINE
  5
19F
  8
0
  6
C_SOLID_L
 10
-24.0
 20
-0.800003051757811
 30
0.0
 11
-23.39999961853027
 21
-0.800003051757811
 31
0.0
  0
LINE
  5
1A0
  8
0
  6
CONTINUOUS
 10
-23.799989120693439
 20
-1.000009153784275
 30
0.0
 11
-23.99999041197065
 21
-0.8000078625070726
 31
0.0
  0
LINE
  5
1A1
  8
0
  6
CONTINUOUS
 10
-23.99999041197065
 20
0.7999916781175216
 30
0.0
 11
-23.799994515489971
 21
0.9999875745982079
 31
0.0
  0
LINE
  5
1A2
  8
0
  6
C_SOLID_L
 10
-23.799999237060529
 20
-0.9999999999999985
 30
0.0
 11
-23.799999237060529
 21
1.0000000000000011
 31
0.0
  0
LINE
  5
1A3
  8
0
  6
CONTINUOUS
 10
-21.0
 20
-2.4999999999999991
 30
0.0
 11
-21.0
 21
2.5
 31
0.0
  0
LINE
  5
1A4
  8
0
  6
CONTINUOUS
 10
-21.29999923706054
 20
2.5
 30
0.0
 11
-21.0
 21
2.5
 31
0.0
  0
LINE
  5
1A5
  8
0
  6
CONTINUOUS
 10
-21.29999923706054
 20
-2.4999999999999991
 30
0.0
 11
-21.0
 21
-2.4999999999999991
 31
0.0
  0
LINE
  5
1A6
  8
0
  6
CONTINUOUS
 10
-21.29999923706054
 20
-2.4999999999999991
 30
0.0
 11
-21.29999923706054
 21
2.5
 31
0.0
  0
LINE
  5
1A7
  8
0
  6
CONTINUOUS
 10
-21.79999923706055
 20
2.1999969482421871
 30
0.0
 11
-21.29999923706054
 21
2.1999969482421871
 31
0.0
  0
LINE
  5
1A8
  8
0
  6
CONTINUOUS
 10
-21.79999923706055
 20
-2.1999969482421862
 30
0.0
 11
-21.29999923706054
 21
-2.1999969482421862
 31
0.0
  0
LINE
  5
1A9
  8
0
  6
CONTINUOUS
 10
-21.79999923706055
 20
-2.1999969482421862
 30
0.0
 11
-21.79999923706055
 21
2.1999969482421871
 31
0.0
  0
LINE
  5
1AA
  8
0
  6
CONTINUOUS
 10
-23.39999961853027
 20
-1.6199951171874989
 30
0.0
 11
-23.39999961853027
 21
1.6199951171875
 31
0.0
  0
LINE
  5
1AB
  8
0
  6
CONTINUOUS
 10
-23.203456878662109
 20
2.160003662109375
 30
0.0
 11
-21.99654388427734
 21
2.160003662109375
 31
0.0
  0
LINE
  5
1AC
  8
0
  6
CONTINUOUS
 10
-23.203456878662109
 20
-2.1600036621093741
 30
0.0
 11
-21.99654388427734
 21
-2.1600036621093741
 31
0.0
  0
LINE
  5
1AD
  8
0
  6
CONTINUOUS
 10
-23.203456413638889
 20
-2.1600023169511928
 30
0.0
 11
-23.39999953512466
 21
-1.620004548056329
 31
0.0
  0
LINE
  5
1AE
  8
0
  6
CONTINUOUS
 10
-21.99653859899388
 20
-2.1600011247595581
 30
0.0
 11
-21.799995477508109
 21
-1.620003355864696
 31
0.0
  0
LINE
  5
1AF
  8
0
  6
CONTINUOUS
 10
-23.399993344366461
 20
1.6199992501674929
 30
0.0
 11
-23.20345022288069
 21
2.1599970190623581
 31
0.0
  0
LINE
  5
1B0
  8
0
  6
CONTINUOUS
 10
-21.799997592714011
 20
1.61999243720254
 30
0.0
 11
-21.996543323606481
 21
2.1599973753831141
 31
0.0
  0
LINE
  5
1B1
  8
0
  6
CONTINUOUS
 10
-23.20000076293945
 20
-1.0800018310546851
 30
0.0
 11
-22.0
 21
-1.0800018310546851
 31
0.0
  0
LINE
  5
1B2
  8
0
  6
CONTINUOUS
 10
-23.20000076293945
 20
1.0800018310546891
 30
0.0
 11
-22.0
 21
1.0800018310546891
 31
0.0
  0
ARC
  5
1B3
  8
0
  6
CONTINUOUS
 10
-20.384000778198239
 20
0.0000000000000012
 30
0.0
 40
3.0160002708435059
 50
159.0170491616519
 51
200.9829608562608
  0
ARC
  5
1B4
  8
0
  6
CONTINUOUS
 10
-24.81600189208984
 20
0.0000000000000015
 30
0.0
 40
3.0160009860992432
 50
339.0170492753374
 51
20.982954139757169
  0
ARC
  5
1B5
  8
0
  6
CONTINUOUS
 10
-22.820707321166982
 20
-1.517852783203125
 30
0.0
 40
0.5792920589447022
 50
130.9007803489695
 51
200.00000101204759
  0
ARC
  5
1B6
  8
0
  6
CONTINUOUS
 10
-22.820707321166982
 20
1.517852783203125
 30
0.0
 40
0.5792924165725708
 50
159.99999534548661
 51
229.09920234818651
  0
ARC
  5
1B7
  8
0
  6
CONTINUOUS
 10
-22.379291534423832
 20
-1.517852783203125
 30
0.0
 40
0.5792923569679263
 50
340.0000022893613
 51
49.099204169419359
  0
ARC
  5
1B8
  8
0
  6
CONTINUOUS
 10
-22.379293441772461
 20
1.517852783203125
 30
0.0
 40
0.5792927145957947
 50
310.9008060758643
 51
20.000001125733132
  0
LINE
  5
1B9
  8
0
  6
CONTINUOUS
 10
-147.00492858886719
 20
-2.2499999999999898
 30
0.0
 11
-146.5049285888671
 21
-2.2499999999999898
 31
0.0
  0
LINE
  5
1BA
  8
0
  6
CONTINUOUS
 10
-147.00492858886719
 20
-1.7499999999999909
 30
0.0
 11
-146.5049285888671
 21
-1.7499999999999909
 31
0.0
  0
LINE
  5
1BB
  8
0
  6
CONTINUOUS
 10
-146.5049285888671
 20
-2.2499999999999898
 30
0.0
 11
-146.5049285888671
 21
-1.7499999999999909
 31
0.0
  0
LINE
  5
1BC
  8
0
  6
CONTINUOUS
 10
-147.00492858886719
 20
-2.2499999999999898
 30
0.0
 11
-147.00492858886719
 21
-1.7499999999999909
 31
0.0
  0
ARC
  5
1BD
  8
0
  6
CONTINUOUS
 10
-146.7549285888669
 20
-2.0
 30
0.0
 40
0.3000000119209289
 50
56.442685470653153
 51
123.55731612320859
  0
ARC
  5
1BE
  8
0
  6
CONTINUOUS
 10
-146.7549285888669
 20
-2.0
 30
0.0
 40
0.3000000119209289
 50
326.44268296617503
 51
33.557313618730433
  0
ARC
  5
1BF
  8
0
  6
CONTINUOUS
 10
-146.7549285888669
 20
-2.0
 30
0.0
 40
0.3000000119209289
 50
236.44268387679139
 51
303.55732135953588
  0
ARC
  5
1C0
  8
0
  6
CONTINUOUS
 10
-146.7549285888669
 20
2.0
 30
0.0
 40
0.3000000119209289
 50
236.44268387679139
 51
303.55732135953588
  0
LINE
  5
1C1
  8
0
  6
CONTINUOUS
 10
-147.00492858886719
 20
1.750000000000006
 30
0.0
 11
-147.00492858886719
 21
2.2500000000000089
 31
0.0
  0
ARC
  5
1C2
  8
0
  6
CONTINUOUS
 10
-146.7549285888669
 20
2.0
 30
0.0
 40
0.3000000119209289
 50
146.44268456003661
 51
213.55731179749739
  0
LINE
  5
1C3
  8
0
  6
CONTINUOUS
 10
-147.00492858886719
 20
1.750000000000006
 30
0.0
 11
-146.5049285888671
 21
1.750000000000006
 31
0.0
  0
LINE
  5
1C4
  8
0
  6
CONTINUOUS
 10
-146.5049285888671
 20
1.750000000000006
 30
0.0
 11
-146.5049285888671
 21
2.2500000000000089
 31
0.0
  0
ARC
  5
1C5
  8
0
  6
CONTINUOUS
 10
-146.7549285888669
 20
2.0
 30
0.0
 40
0.3000000119209289
 50
326.44268296617503
 51
33.557313618730433
  0
LINE
  5
1C6
  8
0
  6
CONTINUOUS
 10
-147.00492858886719
 20
2.2500000000000089
 30
0.0
 11
-146.5049285888671
 21
2.2500000000000089
 31
0.0
  0
ARC
  5
1C7
  8
0
  6
CONTINUOUS
 10
-146.7549285888669
 20
2.0
 30
0.0
 40
0.3000000119209289
 50
56.442685470653153
 51
123.55731612320859
  0
LINE
  5
1C8
  8
0
  6
CONTINUOUS
 10
-21.700000762939439
 20
-3.9999999999999978
 30
0.0
 11
-19.20000076293945
 21
-3.9999999999999978
 31
0.0
  0
LINE
  5
1C9
  8
0
  6
CONTINUOUS
 10
-21.700000762939439
 20
4.0
 30
0.0
 11
-19.20000076293945
 21
4.0
 31
0.0
  0
LINE
  5
1CA
  8
0
  6
CONTINUOUS
 10
-21.700000762939439
 20
2.1999969482421871
 30
0.0
 11
-21.700000762939439
 21
4.0
 31
0.0
  0
LINE
  5
1CB
  8
0
  6
CONTINUOUS
 10
-21.700000762939439
 20
-3.9999999999999978
 30
0.0
 11
-21.700000762939439
 21
-2.1999969482421862
 31
0.0
  0
LINE
  5
1CC
  8
0
  6
CONTINUOUS
 10
-18.90000152587891
 20
-55.0
 30
0.0
 11
-0.3000012636184726
 21
-55.0
 31
0.0
  0
LINE
  5
1CD
  8
0
  6
CONTINUOUS
 10
-0.0000000000000009
 20
-84.699996948242188
 30
0.0
 11
0.0000000000000009
 21
-55.299999237060533
 31
0.0
  0
LINE
  5
1CE
  8
0
  6
CONTINUOUS
 10
-19.20000076293946
 20
-84.699996948242188
 30
0.0
 11
-19.20000076293946
 21
-55.299999237060533
 31
0.0
  0
LINE
  5
1CF
  8
0
  6
CONTINUOUS
 10
0.0000006279883564
 20
-55.30000331231372
 30
0.0
 11
-0.3000014859453586
 21
-55.000001527127537
 31
0.0
  0
LINE
  5
1D0
  8
0
  6
CONTINUOUS
 10
-0.3000012330646769
 20
-85.000002270447794
 30
0.0
 11
0.0000005521214916
 21
-84.700000156514065
 31
0.0
  0
LINE
  5
1D1
  8
0
  6
CONTINUOUS
 10
-19.20000076319775
 20
-84.700007439609408
 30
0.0
 11
-18.900001903000881
 21
-85.000007083735667
 31
0.0
  0
LINE
  5
1D2
  8
0
  6
CONTINUOUS
 10
-19.200003966352369
 20
-55.300004121615302
 30
0.0
 11
-18.900005106155501
 21
-55.000004477489028
 31
0.0
  0
LINE
  5
1D3
  8
0
  6
CONTINUOUS
 10
-18.90000152587891
 20
-85.0
 30
0.0
 11
-0.3000006675720267
 21
-85.0
 31
0.0
  0
LINE
  5
1D4
  8
0
  6
CONTINUOUS
 10
0.3999996185302692
 20
-68.5
 30
0.0
 11
8.8999996185302699
 21
-68.5
 31
0.0
  0
LINE
  5
1D5
  8
0
  6
CONTINUOUS
 10
0.3999996185302691
 20
-71.5
 30
0.0
 11
8.8999996185302699
 21
-71.5
 31
0.0
  0
LINE
  5
1D6
  8
0
  6
CONTINUOUS
 10
9.3000001907348597
 20
-71.099998474121094
 30
0.0
 11
9.3000001907348597
 21
-68.900001525878892
 31
0.0
  0
LINE
  5
1D7
  8
0
  6
CONTINUOUS
 10
0.3999996185302689
 20
-72.5
 30
0.0
 11
0.3999996185302693
 21
-67.5
 31
0.0
  0
LINE
  5
1D8
  8
0
  6
CONTINUOUS
 10
-0.0000000000000027
 20
-67.5
 30
0.0
 11
0.3999996185302693
 21
-67.5
 31
0.0
  0
LINE
  5
1D9
  8
0
  6
CONTINUOUS
 10
-0.0000000000000036
 20
-72.5
 30
0.0
 11
0.3999996185302689
 21
-72.5
 31
0.0
  0
LINE
  5
1DA
  8
0
  6
CONTINUOUS
 10
-0.0000000000000036
 20
-72.5
 30
0.0
 11
-0.0000000000000032
 21
-67.5
 31
0.0
  0
LINE
  5
1DB
  8
0
  6
C_CENTER_L
 10
-34.26292800903321
 20
-70.0
 30
0.0
 11
12.40000057220459
 21
-70.0
 31
0.0
  0
LINE
  5
1DC
  8
0
  6
CONTINUOUS
 10
8.89999685466932
 20
-71.499993784732624
 30
0.0
 11
9.2999941098617001
 21
-71.099996664409218
 31
0.0
  0
LINE
  5
1DD
  8
0
  6
CONTINUOUS
 10
9.2999944807545472
 20
-68.899993249953013
 30
0.0
 11
8.8999946630333362
 21
-68.499993297361911
 31
0.0
  0
LINE
  5
1DE
  8
0
  6
C_SOLID_L
 10
8.8999996185302699
 20
-71.5
 30
0.0
 11
8.8999996185302699
 21
-68.5
 31
0.0
  0
LINE
  5
1DF
  8
0
  6
CONTINUOUS
 10
-25.70000076293946
 20
-77.4949951171875
 30
0.0
 11
-25.70000076293946
 21
-76.495002746582031
 31
0.0
  0
LINE
  5
1E0
  8
0
  6
CONTINUOUS
 10
-25.400003007435881
 20
-77.634902276832804
 30
0.0
 11
-25.700006749830891
 21
-77.495008236119943
 31
0.0
  0
LINE
  5
1E1
  8
0
  6
CONTINUOUS
 10
-25.70001069011278
 20
-76.49501454650499
 30
0.0
 11
-25.400004354750308
 21
-76.355119296671546
 31
0.0
  0
LINE
  5
1E2
  8
0
  6
CONTINUOUS
 10
-0.3000006675720267
 20
-85.0
 30
0.0
 11
-0.3000006675720249
 21
-55.0
 31
0.0
  0
LINE
  5
1E3
  8
0
  6
CONTINUOUS
 10
-18.90000152587891
 20
-85.0
 30
0.0
 11
-18.90000152587891
 21
-55.0
 31
0.0
  0
LINE
  5
1E4
  8
0
  6
CONTINUOUS
 10
-27.20000076293946
 20
-72.5
 30
0.0
 11
-27.20000076293946
 21
-67.5
 31
0.0
  0
LINE
  5
1E5
  8
0
  6
CONTINUOUS
 10
-27.20000076293946
 20
-67.5
 30
0.0
 11
-25.40000152587891
 21
-67.5
 31
0.0
  0
LINE
  5
1E6
  8
0
  6
CONTINUOUS
 10
-27.20000076293946
 20
-72.5
 30
0.0
 11
-25.40000152587891
 21
-72.5
 31
0.0
  0
LINE
  5
1E7
  8
0
  6
CONTINUOUS
 10
-30.20000076293946
 20
-70.800003051757813
 30
0.0
 11
-30.20000076293946
 21
-69.199996948242188
 31
0.0
  0
LINE
  5
1E8
  8
0
  6
CONTINUOUS
 10
-30.0
 20
-69.0
 30
0.0
 11
-29.60000038146973
 21
-69.0
 31
0.0
  0
LINE
  5
1E9
  8
0
  6
CONTINUOUS
 10
-30.0
 20
-71.0
 30
0.0
 11
-29.60000038146973
 21
-71.0
 31
0.0
  0
LINE
  5
1EA
  8
0
  6
C_SOLID_L
 10
-30.20000076293946
 20
-69.199996948242188
 30
0.0
 11
-29.60000038146973
 21
-69.199996948242188
 31
0.0
  0
LINE
  5
1EB
  8
0
  6
C_SOLID_L
 10
-30.20000076293946
 20
-70.800003051757813
 30
0.0
 11
-29.60000038146973
 21
-70.800003051757813
 31
0.0
  0
LINE
  5
1EC
  8
0
  6
CONTINUOUS
 10
-29.999991386711141
 20
-71.00000793789809
 30
0.0
 11
-30.199992677988352
 21
-70.800006646620872
 31
0.0
  0
LINE
  5
1ED
  8
0
  6
CONTINUOUS
 10
-30.199992677988352
 20
-69.200007105996264
 30
0.0
 11
-29.999996781507662
 21
-69.000011209515606
 31
0.0
  0
LINE
  5
1EE
  8
0
  6
C_SOLID_L
 10
-30.0
 20
-71.0
 30
0.0
 11
-30.0
 21
-69.0
 31
0.0
  0
LINE
  5
1EF
  8
0
  6
CONTINUOUS
 10
-27.20000076293946
 20
-72.5
 30
0.0
 11
-27.20000076293946
 21
-67.5
 31
0.0
  0
LINE
  5
1F0
  8
0
  6
CONTINUOUS
 10
-27.5
 20
-67.5
 30
0.0
 11
-27.20000076293946
 21
-67.5
 31
0.0
  0
LINE
  5
1F1
  8
0
  6
CONTINUOUS
 10
-27.5
 20
-72.5
 30
0.0
 11
-27.20000076293946
 21
-72.5
 31
0.0
  0
LINE
  5
1F2
  8
0
  6
CONTINUOUS
 10
-27.5
 20
-72.5
 30
0.0
 11
-27.5
 21
-67.5
 31
0.0
  0
LINE
  5
1F3
  8
0
  6
CONTINUOUS
 10
-28.0
 20
-67.800003051757813
 30
0.0
 11
-27.5
 21
-67.800003051757813
 31
0.0
  0
LINE
  5
1F4
  8
0
  6
CONTINUOUS
 10
-28.0
 20
-72.199996948242188
 30
0.0
 11
-27.5
 21
-72.199996948242188
 31
0.0
  0
LINE
  5
1F5
  8
0
  6
CONTINUOUS
 10
-28.0
 20
-72.199996948242188
 30
0.0
 11
-28.0
 21
-67.800003051757813
 31
0.0
  0
LINE
  5
1F6
  8
0
  6
CONTINUOUS
 10
-29.60000038146973
 20
-71.6199951171875
 30
0.0
 11
-29.60000038146973
 21
-68.3800048828125
 31
0.0
  0
LINE
  5
1F7
  8
0
  6
CONTINUOUS
 10
-29.40345764160157
 20
-67.839996337890611
 30
0.0
 11
-28.1965446472168
 21
-67.839996337890611
 31
0.0
  0
LINE
  5
1F8
  8
0
  6
CONTINUOUS
 10
-29.40345764160157
 20
-72.160003662109375
 30
0.0
 11
-28.1965446472168
 21
-72.160003662109375
 31
0.0
  0
LINE
  5
1F9
  8
0
  6
CONTINUOUS
 10
-29.40345658125716
 20
-72.16000366687058
 30
0.0
 11
-29.599999702742931
 21
-71.620005897975702
 31
0.0
  0
LINE
  5
1FA
  8
0
  6
CONTINUOUS
 10
-28.196538542571972
 20
-72.159999741059622
 30
0.0
 11
-27.99999542108619
 21
-71.620001972164744
 31
0.0
  0
LINE
  5
1FB
  8
0
  6
CONTINUOUS
 10
-29.59999200465575
 20
-68.379999325772033
 30
0.0
 11
-29.403448883169968
 21
-67.840001556877141
 31
0.0
  0
LINE
  5
1FC
  8
0
  6
CONTINUOUS
 10
-27.999995804922939
 20
-68.380008708445516
 30
0.0
 11
-28.19654153581541
 21
-67.840003770264957
 31
0.0
  0
LINE
  5
1FD
  8
0
  6
CONTINUOUS
 10
-29.40000152587891
 20
-71.080001831054688
 30
0.0
 11
-28.20000076293946
 21
-71.080001831054688
 31
0.0
  0
LINE
  5
1FE
  8
0
  6
CONTINUOUS
 10
-29.40000152587891
 20
-68.919998168945313
 30
0.0
 11
-28.20000076293946
 21
-68.919998168945313
 31
0.0
  0
ARC
  5
1FF
  8
0
  6
CONTINUOUS
 10
-26.584001541137699
 20
-70.0
 30
0.0
 40
3.0160002708435059
 50
159.0170491616519
 51
200.9829608562608
  0
ARC
  5
200
  8
0
  6
CONTINUOUS
 10
-31.0160026550293
 20
-70.0
 30
0.0
 40
3.0160009860992432
 50
339.0170492753374
 51
20.982954139757169
  0
ARC
  5
201
  8
0
  6
CONTINUOUS
 10
-29.020708084106449
 20
-71.517852783203125
 30
0.0
 40
0.5792920589447022
 50
130.9007803489695
 51
200.00000101204759
  0
ARC
  5
202
  8
0
  6
CONTINUOUS
 10
-29.020708084106449
 20
-68.482147216796875
 30
0.0
 40
0.5792924165725708
 50
159.99999534548661
 51
229.09920234818651
  0
ARC
  5
203
  8
0
  6
CONTINUOUS
 10
-28.579292297363281
 20
-71.517852783203125
 30
0.0
 40
0.5792923569679263
 50
340.0000022893613
 51
49.099204169419359
  0
ARC
  5
204
  8
0
  6
CONTINUOUS
 10
-28.579294204711911
 20
-68.482147216796875
 30
0.0
 40
0.5792927145957947
 50
310.9008060758643
 51
20.000001125733132
  0
LINE
  5
205
  8
0
  6
CONTINUOUS
 10
-27.90000152587891
 20
-74.0
 30
0.0
 11
-25.40000152587891
 21
-74.0
 31
0.0
  0
LINE
  5
206
  8
0
  6
CONTINUOUS
 10
-27.90000152587891
 20
-66.0
 30
0.0
 11
-25.40000152587891
 21
-66.0
 31
0.0
  0
LINE
  5
207
  8
0
  6
CONTINUOUS
 10
-27.90000152587891
 20
-67.800003051757813
 30
0.0
 11
-27.90000152587891
 21
-66.0
 31
0.0
  0
LINE
  5
208
  8
0
  6
CONTINUOUS
 10
-27.90000152587891
 20
-74.0
 30
0.0
 11
-27.90000152587891
 21
-72.199996948242188
 31
0.0
  0
LINE
  5
209
  8
0
  6
CONTINUOUS
 10
-25.40000152587891
 20
-57.099998474121101
 30
0.0
 11
-25.40000152587891
 21
-82.900001525878906
 31
0.0
  0
LINE
  5
20A
  8
0
  6
CONTINUOUS
 10
-23.700002670288072
 20
-57.099998474121101
 30
0.0
 11
-23.700002670288072
 21
-82.900001525878906
 31
0.0
  0
LINE
  5
20B
  8
0
  6
CONTINUOUS
 10
-25.40000152587891
 20
-82.900001525878906
 30
0.0
 11
-23.700002670288072
 21
-82.900001525878906
 31
0.0
  0
LINE
  5
20C
  8
0
  6
CONTINUOUS
 10
-25.40000152587891
 20
-57.099998474121101
 30
0.0
 11
-23.700002670288072
 21
-57.099998474121101
 31
0.0
  0
LINE
  5
20D
  8
0
  6
CONTINUOUS
 10
-23.700002670288072
 20
-58.0
 30
0.0
 11
-19.20000076293945
 21
-58.0
 31
0.0
  0
LINE
  5
20E
  8
0
  6
CONTINUOUS
 10
-23.700002670288072
 20
-82.0
 30
0.0
 11
-19.20000076293945
 21
-82.0
 31
0.0
  0
LINE
  5
20F
  8
0
  6
C_SOLID_L
 10
94.999992370605469
 20
25.0
 30
0.0
 11
159.33625793457031
 21
25.0
 31
0.0
  0
LINE
  5
210
  8
0
  6
C_SOLID_L
 10
-173.0
 20
10.0
 30
0.0
 11
-158.0
 21
10.0
 31
0.0
  0
LINE
  5
211
  8
0
  6
C_SOLID_L
 10
-173.0
 20
-10.0
 30
0.0
 11
-158.0
 21
-10.0
 31
0.0
  0
LINE
  5
212
  8
0
  6
CONTINUOUS
 10
-8.0
 20
12.5
 30
0.0
 11
-8.0
 21
-12.5
 31
0.0
  0
LINE
  5
213
  8
0
  6
CONTINUOUS
 10
-1.0
 20
12.5
 30
0.0
 11
-1.0
 21
-12.5
 31
0.0
  0
LINE
  5
214
  8
0
  6
CONTINUOUS
 10
-6.5
 20
-14.0
 30
0.0
 11
-2.5
 21
-14.0
 31
0.0
  0
LINE
  5
215
  8
0
  6
CONTINUOUS
 10
-6.5
 20
14.0
 30
0.0
 11
-2.5
 21
14.0
 31
0.0
  0
ARC
  5
216
  8
0
  6
CONTINUOUS
 10
-6.5
 20
12.5
 30
0.0
 40
1.5
 50
90.000002504478175
 51
180.00000500895629
  0
ARC
  5
217
  8
0
  6
CONTINUOUS
 10
-2.5
 20
12.5
 30
0.0
 40
1.5
 50
0.000010017912262
 51
89.999988844099846
  0
ARC
  5
218
  8
0
  6
CONTINUOUS
 10
-6.5
 20
-12.5
 30
0.0
 40
1.5
 50
180.00000865142201
 51
269.99999749552182
  0
ARC
  5
219
  8
0
  6
CONTINUOUS
 10
-2.5
 20
-12.5
 30
0.0
 40
1.5
 50
269.99999749552182
 51
0.000010017912262
  0
LINE
  5
21A
  8
0
  6
CONTINUOUS
 10
-6.0597805976867667
 20
-84.0
 30
0.0
 11
-2.059780597686768
 21
-84.0
 31
0.0
  0
ARC
  5
21B
  8
0
  6
CONTINUOUS
 10
-6.0597805976867667
 20
-82.5
 30
0.0
 40
1.5
 50
180.00000865142201
 51
269.99999749552182
  0
LINE
  5
21C
  8
0
  6
CONTINUOUS
 10
-7.5597805976867667
 20
-57.5
 30
0.0
 11
-7.5597805976867667
 21
-82.5
 31
0.0
  0
ARC
  5
21D
  8
0
  6
CONTINUOUS
 10
-2.059780597686768
 20
-82.5
 30
0.0
 40
1.5
 50
269.99999749552182
 51
0.000010017912262
  0
LINE
  5
21E
  8
0
  6
CONTINUOUS
 10
-0.5597805976867676
 20
-57.5
 30
0.0
 11
-0.5597805976867676
 21
-82.5
 31
0.0
  0
LINE
  5
21F
  8
0
  6
CONTINUOUS
 10
-6.0597805976867667
 20
-56.0
 30
0.0
 11
-2.059780597686768
 21
-56.0
 31
0.0
  0
ARC
  5
220
  8
0
  6
CONTINUOUS
 10
-2.059780597686768
 20
-57.5
 30
0.0
 40
1.5
 50
0.000010017912262
 51
89.999988844099846
  0
ARC
  5
221
  8
0
  6
CONTINUOUS
 10
-6.0597805976867667
 20
-57.5
 30
0.0
 40
1.5
 50
90.000002504478175
 51
180.00000500895629
  0
LINE
  5
222
  8
0
  6
C_SOLID_L
 10
-30.0
 20
-95.0
 30
0.0
 11
-15.0
 21
-95.0
 31
0.0
  0
LINE
  5
223
  8
0
  6
CONTINUOUS
 10
-55.099998474121087
 20
-2.5999999046325679
 30
0.0
 11
-31.70000076293945
 21
-2.5999999046325679
 31
0.0
  0
LINE
  5
224
  8
0
  6
CONTINUOUS
 10
-55.69999694824218
 20
-1.3999999761581421
 30
0.0
 11
-31.70000076293945
 21
-1.3999999761581421
 31
0.0
  0
LINE
  5
225
  8
0
  6
CONTINUOUS
 10
-85.699996948242173
 20
-1.3999999761581421
 30
0.0
 11
-85.699996948242173
 21
-2.5999999046325679
 31
0.0
  0
LINE
  5
226
  8
0
  6
CONTINUOUS
 10
-91.699996948242202
 20
-1.75
 30
0.0
 11
-91.699996948242202
 21
-2.25
 31
0.0
  0
LINE
  5
227
  8
0
  6
CONTINUOUS
 10
-91.699996948242202
 20
-2.25
 30
0.0
 11
-85.699996948242173
 21
-2.25
 31
0.0
  0
LINE
  5
228
  8
0
  6
CONTINUOUS
 10
-91.699996948242202
 20
-1.75
 30
0.0
 11
-85.699996948242173
 21
-1.75
 31
0.0
  0
LINE
  5
229
  8
0
  6
CONTINUOUS
 10
-31.70000076293945
 20
-1.2000000476837149
 30
0.0
 11
-31.70000076293945
 21
-2.7999999523162842
 31
0.0
  0
LINE
  5
22A
  8
0
  6
CONTINUOUS
 10
-31.70000076293945
 20
-2.7999999523162842
 30
0.0
 11
-21.700000762939439
 21
-2.7999999523162842
 31
0.0
  0
LINE
  5
22B
  8
0
  6
CONTINUOUS
 10
-31.70000076293945
 20
-1.2000000476837149
 30
0.0
 11
-23.39999961853027
 21
-1.2000000476837149
 31
0.0
  0
POLYLINE
  5
22C
  8
0
  6
CONTINUOUS
 66
     1
 10
0.0
 20
0.0
 30
0.0
 70
   128
  0
VERTEX
  5
80A
  8
0
  6
CONTINUOUS
 10
-55.099998474121087
 20
-0.699999988079071
 30
0.0
  0
VERTEX
  5
80B
  8
0
  6
CONTINUOUS
 10
-55.300874128646662
 20
-0.8412554864771664
 30
0.0
  0
VERTEX
  5
80C
  8
0
  6
CONTINUOUS
 10
-55.491651911754161
 20
-1.010583449155092
 30
0.0
  0
VERTEX
  5
80D
  8
0
  6
CONTINUOUS
 10
-55.572088717504819
 20
-1.103160792787093
 30
0.0
  0
VERTEX
  5
80E
  8
0
  6
CONTINUOUS
 10
-55.622211142646961
 20
-1.1751982395135201
 30
0.0
  0
VERTEX
  5
80F
  8
0
  6
CONTINUOUS
 10
-55.676479469681922
 20
-1.286383359195383
 30
0.0
  0
VERTEX
  5
810
  8
0
  6
CONTINUOUS
 10
-55.69999694824218
 20
-1.3999999761581421
 30
0.0
  0
VERTEX
  5
811
  8
0
  6
CONTINUOUS
 10
-55.696453837672941
 20
-1.4741372354910709
 30
0.0
  0
VERTEX
  5
812
  8
0
  6
CONTINUOUS
 10
-55.65873724586055
 20
-1.6046781663562799
 30
0.0
  0
VERTEX
  5
813
  8
0
  6
CONTINUOUS
 10
-55.609407533469223
 20
-1.7031184829169339
 30
0.0
  0
VERTEX
  5
814
  8
0
  6
CONTINUOUS
 10
-55.512106011785178
 20
-1.8513711147342491
 30
0.0
  0
VERTEX
  5
815
  8
0
  6
CONTINUOUS
 10
-55.399997719428278
 20
-1.999999940395355
 30
0.0
  0
VERTEX
  5
816
  8
0
  6
CONTINUOUS
 10
-55.286190147212821
 20
-2.150985915679485
 30
0.0
  0
VERTEX
  5
817
  8
0
  6
CONTINUOUS
 10
-55.21017258521065
 20
-2.2639881446884811
 30
0.0
  0
VERTEX
  5
818
  8
0
  6
CONTINUOUS
 10
-55.162829140462549
 20
-2.3484941388329621
 30
0.0
  0
VERTEX
  5
819
  8
0
  6
CONTINUOUS
 10
-55.113973764077699
 20
-2.4746901188548951
 30
0.0
  0
VERTEX
  5
81A
  8
0
  6
CONTINUOUS
 10
-55.099998474121087
 20
-2.5999999046325679
 30
0.0
  0
VERTEX
  5
81B
  8
0
  6
CONTINUOUS
 10
-55.119268028967639
 20
-2.7010853072279128
 30
0.0
  0
VERTEX
  5
81C
  8
0
  6
CONTINUOUS
 10
-55.150275687868728
 20
-2.775781525640014
 30
0.0
  0
VERTEX
  5
81D
  8
0
  6
CONTINUOUS
 10
-55.218880087798247
 20
-2.8849725791304759
 30
0.0
  0
VERTEX
  5
81E
  8
0
  6
CONTINUOUS
 10
-55.308343505334598
 20
-2.9894164614379402
 30
0.0
  0
VERTEX
  5
81F
  8
0
  6
CONTINUOUS
 10
-55.499121291738653
 20
-3.1587444390170281
 30
0.0
  0
VERTEX
  5
820
  8
0
  6
CONTINUOUS
 10
-55.69999694824218
 20
-3.2999999523162811
 30
0.0
  0
SEQEND
  5
821
  8
0
  6
CONTINUOUS
  0
POLYLINE
  5
245
  8
0
  6
CONTINUOUS
 66
     1
 10
0.0
 20
0.0
 30
0.0
 70
   128
  0
VERTEX
  5
822
  8
0
  6
CONTINUOUS
 10
-55.69999694824218
 20
-0.699999988079071
 30
0.0
  0
VERTEX
  5
823
  8
0
  6
CONTINUOUS
 10
-55.900872602767777
 20
-0.8412554864771664
 30
0.0
  0
VERTEX
  5
824
  8
0
  6
CONTINUOUS
 10
-56.091650385875262
 20
-1.010583449155092
 30
0.0
  0
VERTEX
  5
825
  8
0
  6
CONTINUOUS
 10
-56.172087191625913
 20
-1.103160792787093
 30
0.0
  0
VERTEX
  5
826
  8
0
  6
CONTINUOUS
 10
-56.222209616768048
 20
-1.1751982395135201
 30
0.0
  0
VERTEX
  5
827
  8
0
  6
CONTINUOUS
 10
-56.276477943803023
 20
-1.286383359195383
 30
0.0
  0
VERTEX
  5
828
  8
0
  6
CONTINUOUS
 10
-56.299995422363281
 20
-1.3999999761581421
 30
0.0
  0
VERTEX
  5
829
  8
0
  6
CONTINUOUS
 10
-56.296452311794063
 20
-1.4741372354910709
 30
0.0
  0
VERTEX
  5
82A
  8
0
  6
CONTINUOUS
 10
-56.258735719981637
 20
-1.6046781663562799
 30
0.0
  0
VERTEX
  5
82B
  8
0
  6
CONTINUOUS
 10
-56.209406007590317
 20
-1.7031184829169339
 30
0.0
  0
VERTEX
  5
82C
  8
0
  6
CONTINUOUS
 10
-56.112104485906279
 20
-1.8513711147342491
 30
0.0
  0
VERTEX
  5
82D
  8
0
  6
CONTINUOUS
 10
-55.99999619354935
 20
-1.999999940395355
 30
0.0
  0
VERTEX
  5
82E
  8
0
  6
CONTINUOUS
 10
-55.886188621333893
 20
-2.150985915679485
 30
0.0
  0
VERTEX
  5
82F
  8
0
  6
CONTINUOUS
 10
-55.810171059331743
 20
-2.2639881446884811
 30
0.0
  0
VERTEX
  5
830
  8
0
  6
CONTINUOUS
 10
-55.762827614583642
 20
-2.3484941388329621
 30
0.0
  0
VERTEX
  5
831
  8
0
  6
CONTINUOUS
 10
-55.713972238198792
 20
-2.4746901188548951
 30
0.0
  0
VERTEX
  5
832
  8
0
  6
CONTINUOUS
 10
-55.69999694824218
 20
-2.5999999046325679
 30
0.0
  0
VERTEX
  5
833
  8
0
  6
CONTINUOUS
 10
-55.719266503088718
 20
-2.7010853072279128
 30
0.0
  0
VERTEX
  5
834
  8
0
  6
CONTINUOUS
 10
-55.750274161989829
 20
-2.775781525640014
 30
0.0
  0
VERTEX
  5
835
  8
0
  6
CONTINUOUS
 10
-55.818878561919362
 20
-2.8849725791304759
 30
0.0
  0
VERTEX
  5
836
  8
0
  6
CONTINUOUS
 10
-55.908341979455699
 20
-2.9894164614379402
 30
0.0
  0
VERTEX
  5
837
  8
0
  6
CONTINUOUS
 10
-56.099119765859747
 20
-3.1587444390170281
 30
0.0
  0
VERTEX
  5
838
  8
0
  6
CONTINUOUS
 10
-56.299995422363281
 20
-3.2999999523162811
 30
0.0
  0
SEQEND
  5
839
  8
0
  6
CONTINUOUS
  0
LINE
  5
25E
  8
0
  6
CONTINUOUS
 10
-85.699996948242173
 20
-2.5999999046325679
 30
0.0
 11
-55.69999694824218
 21
-2.5999999046325679
 31
0.0
  0
LINE
  5
25F
  8
0
  6
CONTINUOUS
 10
-85.699996948242173
 20
-1.3999999761581421
 30
0.0
 11
-56.299995422363281
 21
-1.3999999761581421
 31
0.0
  0
LINE
  5
260
  8
0
  6
CONTINUOUS
 10
-55.19999694824218
 20
1.4000000953674321
 30
0.0
 11
-31.79999923706055
 21
1.4000000953674321
 31
0.0
  0
LINE
  5
261
  8
0
  6
CONTINUOUS
 10
-55.799995422363281
 20
2.5999999046325679
 30
0.0
 11
-31.79999923706055
 21
2.5999999046325679
 31
0.0
  0
LINE
  5
262
  8
0
  6
CONTINUOUS
 10
-85.799995422363267
 20
2.5999999046325679
 30
0.0
 11
-85.799995422363267
 21
1.4000000953674321
 31
0.0
  0
LINE
  5
263
  8
0
  6
CONTINUOUS
 10
-91.799995422363295
 20
2.25
 30
0.0
 11
-91.799995422363295
 21
1.75
 31
0.0
  0
LINE
  5
264
  8
0
  6
CONTINUOUS
 10
-91.799995422363295
 20
1.75
 30
0.0
 11
-85.799995422363267
 21
1.75
 31
0.0
  0
LINE
  5
265
  8
0
  6
CONTINUOUS
 10
-91.799995422363295
 20
2.25
 30
0.0
 11
-85.799995422363267
 21
2.25
 31
0.0
  0
LINE
  5
266
  8
0
  6
CONTINUOUS
 10
-31.79999923706055
 20
2.7999999523162842
 30
0.0
 11
-31.79999923706055
 21
1.2000000476837149
 31
0.0
  0
LINE
  5
267
  8
0
  6
CONTINUOUS
 10
-31.79999923706055
 20
1.2000000476837149
 30
0.0
 11
-23.305009841918942
 21
1.2000000476837149
 31
0.0
  0
LINE
  5
268
  8
0
  6
CONTINUOUS
 10
-31.79999923706055
 20
2.7999999523162842
 30
0.0
 11
-21.700000762939439
 21
2.7999999523162842
 31
0.0
  0
POLYLINE
  5
269
  8
0
  6
CONTINUOUS
 66
     1
 10
0.0
 20
0.0
 30
0.0
 70
   128
  0
VERTEX
  5
83A
  8
0
  6
CONTINUOUS
 10
-55.19999694824218
 20
3.2999999523162811
 30
0.0
  0
VERTEX
  5
83B
  8
0
  6
CONTINUOUS
 10
-55.400872602767777
 20
3.1587444446049631
 30
0.0
  0
VERTEX
  5
83C
  8
0
  6
CONTINUOUS
 10
-55.591650385875262
 20
2.9894164614379402
 30
0.0
  0
VERTEX
  5
83D
  8
0
  6
CONTINUOUS
 10
-55.672087191625913
 20
2.896839106862898
 30
0.0
  0
VERTEX
  5
83E
  8
0
  6
CONTINUOUS
 10
-55.722209616768048
 20
2.824801652769565
 30
0.0
  0
VERTEX
  5
83F
  8
0
  6
CONTINUOUS
 10
-55.776477943803023
 20
2.7136165247999311
 30
0.0
  0
VERTEX
  5
840
  8
0
  6
CONTINUOUS
 10
-55.799995422363281
 20
2.5999999046325679
 30
0.0
  0
VERTEX
  5
841
  8
0
  6
CONTINUOUS
 10
-55.796452311794063
 20
2.5258626466384162
 30
0.0
  0
VERTEX
  5
842
  8
0
  6
CONTINUOUS
 10
-55.758735719981637
 20
2.3953217237885811
 30
0.0
  0
VERTEX
  5
843
  8
0
  6
CONTINUOUS
 10
-55.709406007590317
 20
2.296881417026809
 30
0.0
  0
VERTEX
  5
844
  8
0
  6
CONTINUOUS
 10
-55.612104485906279
 20
2.1486288041027808
 30
0.0
  0
VERTEX
  5
845
  8
0
  6
CONTINUOUS
 10
-55.49999619354935
 20
2.0
 30
0.0
  0
VERTEX
  5
846
  8
0
  6
CONTINUOUS
 10
-55.386188621333901
 20
1.84901404660195
 30
0.0
  0
VERTEX
  5
847
  8
0
  6
CONTINUOUS
 10
-55.310171059331743
 20
1.7360118323267639
 30
0.0
  0
VERTEX
  5
848
  8
0
  6
CONTINUOUS
 10
-55.262827614583642
 20
1.651505847492216
 30
0.0
  0
VERTEX
  5
849
  8
0
  6
CONTINUOUS
 10
-55.213972238198778
 20
1.525309877446688
 30
0.0
  0
VERTEX
  5
84A
  8
0
  6
CONTINUOUS
 10
-55.19999694824218
 20
1.4000000953674321
 30
0.0
  0
VERTEX
  5
84B
  8
0
  6
CONTINUOUS
 10
-55.219266503088733
 20
1.298914692772086
 30
0.0
  0
VERTEX
  5
84C
  8
0
  6
CONTINUOUS
 10
-55.250274161989829
 20
1.2242184743599851
 30
0.0
  0
VERTEX
  5
84D
  8
0
  6
CONTINUOUS
 10
-55.318878561919362
 20
1.1150274208695241
 30
0.0
  0
VERTEX
  5
84E
  8
0
  6
CONTINUOUS
 10
-55.408341979455699
 20
1.010583538562059
 30
0.0
  0
VERTEX
  5
84F
  8
0
  6
CONTINUOUS
 10
-55.599119765859747
 20
0.8412555609829722
 30
0.0
  0
VERTEX
  5
850
  8
0
  6
CONTINUOUS
 10
-55.799995422363281
 20
0.7000000476837159
 30
0.0
  0
SEQEND
  5
851
  8
0
  6
CONTINUOUS
  0
POLYLINE
  5
282
  8
0
  6
CONTINUOUS
 66
     1
 10
0.0
 20
0.0
 30
0.0
 70
   128
  0
VERTEX
  5
852
  8
0
  6
CONTINUOUS
 10
-55.799995422363281
 20
3.2999999523162811
 30
0.0
  0
VERTEX
  5
853
  8
0
  6
CONTINUOUS
 10
-56.000871076888849
 20
3.1587444446049631
 30
0.0
  0
VERTEX
  5
854
  8
0
  6
CONTINUOUS
 10
-56.191648859996349
 20
2.9894164614379402
 30
0.0
  0
VERTEX
  5
855
  8
0
  6
CONTINUOUS
 10
-56.272085665747007
 20
2.896839106862898
 30
0.0
  0
VERTEX
  5
856
  8
0
  6
CONTINUOUS
 10
-56.322208090889148
 20
2.824801652769565
 30
0.0
  0
VERTEX
  5
857
  8
0
  6
CONTINUOUS
 10
-56.37647641792411
 20
2.7136165247999311
 30
0.0
  0
VERTEX
  5
858
  8
0
  6
CONTINUOUS
 10
-56.399993896484382
 20
2.5999999046325679
 30
0.0
  0
VERTEX
  5
859
  8
0
  6
CONTINUOUS
 10
-56.396450785915128
 20
2.5258626466384162
 30
0.0
  0
VERTEX
  5
85A
  8
0
  6
CONTINUOUS
 10
-56.358734194102738
 20
2.3953217237885811
 30
0.0
  0
VERTEX
  5
85B
  8
0
  6
CONTINUOUS
 10
-56.309404481711397
 20
2.296881417026809
 30
0.0
  0
VERTEX
  5
85C
  8
0
  6
CONTINUOUS
 10
-56.212102960027373
 20
2.1486288041027808
 30
0.0
  0
VERTEX
  5
85D
  8
0
  6
CONTINUOUS
 10
-56.099994667670472
 20
2.0
 30
0.0
  0
VERTEX
  5
85E
  8
0
  6
CONTINUOUS
 10
-55.986187095455008
 20
1.84901404660195
 30
0.0
  0
VERTEX
  5
85F
  8
0
  6
CONTINUOUS
 10
-55.910169533452851
 20
1.7360118323267639
 30
0.0
  0
VERTEX
  5
860
  8
0
  6
CONTINUOUS
 10
-55.862826088704722
 20
1.651505847492216
 30
0.0
  0
VERTEX
  5
861
  8
0
  6
CONTINUOUS
 10
-55.813970712319893
 20
1.525309877446688
 30
0.0
  0
VERTEX
  5
862
  8
0
  6
CONTINUOUS
 10
-55.799995422363281
 20
1.4000000953674321
 30
0.0
  0
VERTEX
  5
863
  8
0
  6
CONTINUOUS
 10
-55.819264977209812
 20
1.298914692772086
 30
0.0
  0
VERTEX
  5
864
  8
0
  6
CONTINUOUS
 10
-55.850272636110923
 20
1.2242184743599851
 30
0.0
  0
VERTEX
  5
865
  8
0
  6
CONTINUOUS
 10
-55.918877036040442
 20
1.1150274208695241
 30
0.0
  0
VERTEX
  5
866
  8
0
  6
CONTINUOUS
 10
-56.008340453576793
 20
1.010583538562059
 30
0.0
  0
VERTEX
  5
867
  8
0
  6
CONTINUOUS
 10
-56.199118239980841
 20
0.8412555609829722
 30
0.0
  0
VERTEX
  5
868
  8
0
  6
CONTINUOUS
 10
-56.399993896484382
 20
0.7000000476837159
 30
0.0
  0
SEQEND
  5
869
  8
0
  6
CONTINUOUS
  0
LINE
  5
29B
  8
0
  6
CONTINUOUS
 10
-85.799995422363267
 20
1.4000000953674321
 30
0.0
 11
-55.799995422363281
 21
1.4000000953674321
 31
0.0
  0
LINE
  5
29C
  8
0
  6
CONTINUOUS
 10
-85.799995422363267
 20
2.5999999046325679
 30
0.0
 11
-56.399993896484382
 21
2.5999999046325679
 31
0.0
  0
LINE
  5
29D
  8
0
  6
CONTINUOUS
 10
-61.299999237060547
 20
-72.599998474121094
 30
0.0
 11
-37.900001525878892
 21
-72.599998474121094
 31
0.0
  0
LINE
  5
29E
  8
0
  6
CONTINUOUS
 10
-61.899997711181641
 20
-71.400001525878906
 30
0.0
 11
-37.900001525878892
 21
-71.400001525878906
 31
0.0
  0
LINE
  5
29F
  8
0
  6
CONTINUOUS
 10
-91.899993896484375
 20
-71.400001525878906
 30
0.0
 11
-91.899993896484375
 21
-72.599998474121094
 31
0.0
  0
LINE
  5
2A0
  8
0
  6
CONTINUOUS
 10
-97.899993896484361
 20
-71.75
 30
0.0
 11
-97.899993896484361
 21
-72.25
 31
0.0
  0
LINE
  5
2A1
  8
0
  6
CONTINUOUS
 10
-97.899993896484361
 20
-72.25
 30
0.0
 11
-91.899993896484375
 21
-72.25
 31
0.0
  0
LINE
  5
2A2
  8
0
  6
CONTINUOUS
 10
-97.899993896484361
 20
-71.75
 30
0.0
 11
-91.899993896484375
 21
-71.75
 31
0.0
  0
LINE
  5
2A3
  8
0
  6
CONTINUOUS
 10
-37.900001525878892
 20
-71.199996948242187
 30
0.0
 11
-37.900001525878892
 21
-72.800003051757812
 31
0.0
  0
LINE
  5
2A4
  8
0
  6
CONTINUOUS
 10
-37.900001525878892
 20
-72.800003051757812
 30
0.0
 11
-27.90000152587891
 21
-72.800003051757812
 31
0.0
  0
LINE
  5
2A5
  8
0
  6
CONTINUOUS
 10
-37.900001525878892
 20
-71.199996948242187
 30
0.0
 11
-29.60000038146973
 21
-71.199996948242187
 31
0.0
  0
POLYLINE
  5
2A6
  8
0
  6
CONTINUOUS
 66
     1
 10
0.0
 20
0.0
 30
0.0
 70
   128
  0
VERTEX
  5
86A
  8
0
  6
CONTINUOUS
 10
-61.299999237060547
 20
-70.699996948242173
 30
0.0
  0
VERTEX
  5
86B
  8
0
  6
CONTINUOUS
 10
-61.50087489158615
 20
-70.841253163758665
 30
0.0
  0
VERTEX
  5
86C
  8
0
  6
CONTINUOUS
 10
-61.691652674693607
 20
-71.010582704097033
 30
0.0
  0
VERTEX
  5
86D
  8
0
  6
CONTINUOUS
 10
-61.772089480444272
 20
-71.103160890343119
 30
0.0
  0
VERTEX
  5
86E
  8
0
  6
CONTINUOUS
 10
-61.822211905586407
 20
-71.175198904321405
 30
0.0
  0
VERTEX
  5
86F
  8
0
  6
CONTINUOUS
 10
-61.876480232621383
 20
-71.286384662161595
 30
0.0
  0
VERTEX
  5
870
  8
0
  6
CONTINUOUS
 10
-61.899997711181641
 20
-71.400001525878906
 30
0.0
  0
VERTEX
  5
871
  8
0
  6
CONTINUOUS
 10
-61.896454600612422
 20
-71.474138751742444
 30
0.0
  0
VERTEX
  5
872
  8
0
  6
CONTINUOUS
 10
-61.858738008800003
 20
-71.604679482223219
 30
0.0
  0
VERTEX
  5
873
  8
0
  6
CONTINUOUS
 10
-61.809408296408677
 20
-71.703119553811831
 30
0.0
  0
VERTEX
  5
874
  8
0
  6
CONTINUOUS
 10
-61.712106774724639
 20
-71.85137171329697
 30
0.0
  0
VERTEX
  5
875
  8
0
  6
CONTINUOUS
 10
-61.599998482367717
 20
-72.0
 30
0.0
  0
VERTEX
  5
876
  8
0
  6
CONTINUOUS
 10
-61.486190910152267
 20
-72.150985428132131
 30
0.0
  0
VERTEX
  5
877
  8
0
  6
CONTINUOUS
 10
-61.410173348150103
 20
-72.263987288795761
 30
0.0
  0
VERTEX
  5
878
  8
0
  6
CONTINUOUS
 10
-61.362829903402002
 20
-72.348493050192019
 30
0.0
  0
VERTEX
  5
879
  8
0
  6
CONTINUOUS
 10
-61.313974527017137
 20
-72.474688780803859
 30
0.0
  0
VERTEX
  5
87A
  8
0
  6
CONTINUOUS
 10
-61.299999237060547
 20
-72.599998474121094
 30
0.0
  0
VERTEX
  5
87B
  8
0
  6
CONTINUOUS
 10
-61.319268791907092
 20
-72.701084071362857
 30
0.0
  0
VERTEX
  5
87C
  8
0
  6
CONTINUOUS
 10
-61.350276450808181
 20
-72.775780650589709
 30
0.0
  0
VERTEX
  5
87D
  8
0
  6
CONTINUOUS
 10
-61.418880850737708
 20
-72.884972483253335
 30
0.0
  0
VERTEX
  5
87E
  8
0
  6
CONTINUOUS
 10
-61.508344268274051
 20
-72.989417295902953
 30
0.0
  0
VERTEX
  5
87F
  8
0
  6
CONTINUOUS
 10
-61.699122054678099
 20
-73.158746830653413
 30
0.0
  0
VERTEX
  5
880
  8
0
  6
CONTINUOUS
 10
-61.899997711181641
 20
-73.300003051757812
 30
0.0
  0
SEQEND
  5
881
  8
0
  6
CONTINUOUS
  0
POLYLINE
  5
2BF
  8
0
  6
CONTINUOUS
 66
     1
 10
0.0
 20
0.0
 30
0.0
 70
   128
  0
VERTEX
  5
882
  8
0
  6
CONTINUOUS
 10
-61.899997711181641
 20
-70.699996948242173
 30
0.0
  0
VERTEX
  5
883
  8
0
  6
CONTINUOUS
 10
-62.100873365707223
 20
-70.841253163758665
 30
0.0
  0
VERTEX
  5
884
  8
0
  6
CONTINUOUS
 10
-62.291651148814708
 20
-71.010582704097033
 30
0.0
  0
VERTEX
  5
885
  8
0
  6
CONTINUOUS
 10
-62.372087954565359
 20
-71.103160890343119
 30
0.0
  0
VERTEX
  5
886
  8
0
  6
CONTINUOUS
 10
-62.422210379707501
 20
-71.175198904321405
 30
0.0
  0
VERTEX
  5
887
  8
0
  6
CONTINUOUS
 10
-62.476478706742469
 20
-71.286384662161595
 30
0.0
  0
VERTEX
  5
888
  8
0
  6
CONTINUOUS
 10
-62.499996185302727
 20
-71.400001525878906
 30
0.0
  0
VERTEX
  5
889
  8
0
  6
CONTINUOUS
 10
-62.496453074733502
 20
-71.474138751742444
 30
0.0
  0
VERTEX
  5
88A
  8
0
  6
CONTINUOUS
 10
-62.458736482921111
 20
-71.604679482223219
 30
0.0
  0
VERTEX
  5
88B
  8
0
  6
CONTINUOUS
 10
-62.409406770529792
 20
-71.703119553811831
 30
0.0
  0
VERTEX
  5
88C
  8
0
  6
CONTINUOUS
 10
-62.312105248845732
 20
-71.85137171329697
 30
0.0
  0
VERTEX
  5
88D
  8
0
  6
CONTINUOUS
 10
-62.199996956488818
 20
-72.0
 30
0.0
  0
VERTEX
  5
88E
  8
0
  6
CONTINUOUS
 10
-62.086189384273368
 20
-72.150985428132131
 30
0.0
  0
VERTEX
  5
88F
  8
0
  6
CONTINUOUS
 10
-62.010171822271197
 20
-72.263987288795761
 30
0.0
  0
VERTEX
  5
890
  8
0
  6
CONTINUOUS
 10
-61.962828377523103
 20
-72.348493050192019
 30
0.0
  0
VERTEX
  5
891
  8
0
  6
CONTINUOUS
 10
-61.913973001138231
 20
-72.474688780803859
 30
0.0
  0
VERTEX
  5
892
  8
0
  6
CONTINUOUS
 10
-61.899997711181641
 20
-72.599998474121094
 30
0.0
  0
VERTEX
  5
893
  8
0
  6
CONTINUOUS
 10
-61.919267266028193
 20
-72.701084071362857
 30
0.0
  0
VERTEX
  5
894
  8
0
  6
CONTINUOUS
 10
-61.950274924929282
 20
-72.775780650589709
 30
0.0
  0
VERTEX
  5
895
  8
0
  6
CONTINUOUS
 10
-62.018879324858801
 20
-72.884972483253335
 30
0.0
  0
VERTEX
  5
896
  8
0
  6
CONTINUOUS
 10
-62.108342742395152
 20
-72.989417295902953
 30
0.0
  0
VERTEX
  5
897
  8
0
  6
CONTINUOUS
 10
-62.2991205287992
 20
-73.158746830653413
 30
0.0
  0
VERTEX
  5
898
  8
0
  6
CONTINUOUS
 10
-62.499996185302727
 20
-73.300003051757812
 30
0.0
  0
SEQEND
  5
899
  8
0
  6
CONTINUOUS
  0
LINE
  5
2D8
  8
0
  6
CONTINUOUS
 10
-91.899993896484375
 20
-72.599998474121094
 30
0.0
 11
-61.899997711181641
 21
-72.599998474121094
 31
0.0
  0
LINE
  5
2D9
  8
0
  6
CONTINUOUS
 10
-91.899993896484375
 20
-71.400001525878906
 30
0.0
 11
-62.499996185302727
 21
-71.400001525878906
 31
0.0
  0
LINE
  5
2DA
  8
0
  6
CONTINUOUS
 10
-61.399997711181641
 20
-68.599998474121108
 30
0.0
 11
-38.0
 21
-68.599998474121108
 31
0.0
  0
LINE
  5
2DB
  8
0
  6
CONTINUOUS
 10
-61.999996185302727
 20
-67.400001525878892
 30
0.0
 11
-38.0
 21
-67.400001525878892
 31
0.0
  0
LINE
  5
2DC
  8
0
  6
CONTINUOUS
 10
-92.0
 20
-67.400001525878892
 30
0.0
 11
-92.0
 21
-68.599998474121108
 31
0.0
  0
LINE
  5
2DD
  8
0
  6
CONTINUOUS
 10
-98.0
 20
-67.75
 30
0.0
 11
-98.0
 21
-68.25
 31
0.0
  0
LINE
  5
2DE
  8
0
  6
CONTINUOUS
 10
-98.0
 20
-68.25
 30
0.0
 11
-92.0
 21
-68.25
 31
0.0
  0
LINE
  5
2DF
  8
0
  6
CONTINUOUS
 10
-98.0
 20
-67.75
 30
0.0
 11
-92.0
 21
-67.75
 31
0.0
  0
LINE
  5
2E0
  8
0
  6
CONTINUOUS
 10
-38.0
 20
-67.199996948242187
 30
0.0
 11
-38.0
 21
-68.800003051757812
 31
0.0
  0
LINE
  5
2E1
  8
0
  6
CONTINUOUS
 10
-38.0
 20
-68.800003051757812
 30
0.0
 11
-29.505010604858391
 21
-68.800003051757812
 31
0.0
  0
LINE
  5
2E2
  8
0
  6
CONTINUOUS
 10
-38.0
 20
-67.199996948242187
 30
0.0
 11
-27.90000152587891
 21
-67.199996948242187
 31
0.0
  0
POLYLINE
  5
2E3
  8
0
  6
CONTINUOUS
 66
     1
 10
0.0
 20
0.0
 30
0.0
 70
   128
  0
VERTEX
  5
89A
  8
0
  6
CONTINUOUS
 10
-61.399997711181641
 20
-66.699996948242187
 30
0.0
  0
VERTEX
  5
89B
  8
0
  6
CONTINUOUS
 10
-61.600873365707223
 20
-66.841253163758665
 30
0.0
  0
VERTEX
  5
89C
  8
0
  6
CONTINUOUS
 10
-61.791651148814701
 20
-67.010582704097033
 30
0.0
  0
VERTEX
  5
89D
  8
0
  6
CONTINUOUS
 10
-61.872087954565373
 20
-67.103160890343133
 30
0.0
  0
VERTEX
  5
89E
  8
0
  6
CONTINUOUS
 10
-61.922210379707501
 20
-67.175198904321391
 30
0.0
  0
VERTEX
  5
89F
  8
0
  6
CONTINUOUS
 10
-61.976478706742469
 20
-67.286384662161595
 30
0.0
  0
VERTEX
  5
8A0
  8
0
  6
CONTINUOUS
 10
-61.999996185302727
 20
-67.400001525878892
 30
0.0
  0
VERTEX
  5
8A1
  8
0
  6
CONTINUOUS
 10
-61.996453074733502
 20
-67.47413875174243
 30
0.0
  0
VERTEX
  5
8A2
  8
0
  6
CONTINUOUS
 10
-61.958736482921097
 20
-67.604679482223219
 30
0.0
  0
VERTEX
  5
8A3
  8
0
  6
CONTINUOUS
 10
-61.909406770529777
 20
-67.703119553811831
 30
0.0
  0
VERTEX
  5
8A4
  8
0
  6
CONTINUOUS
 10
-61.812105248845732
 20
-67.85137171329697
 30
0.0
  0
VERTEX
  5
8A5
  8
0
  6
CONTINUOUS
 10
-61.699996956488818
 20
-68.0
 30
0.0
  0
VERTEX
  5
8A6
  8
0
  6
CONTINUOUS
 10
-61.586189384273368
 20
-68.150985428132117
 30
0.0
  0
VERTEX
  5
8A7
  8
0
  6
CONTINUOUS
 10
-61.510171822271197
 20
-68.263987288795761
 30
0.0
  0
VERTEX
  5
8A8
  8
0
  6
CONTINUOUS
 10
-61.462828377523088
 20
-68.348493050192019
 30
0.0
  0
VERTEX
  5
8A9
  8
0
  6
CONTINUOUS
 10
-61.413973001138238
 20
-68.474688780803859
 30
0.0
  0
VERTEX
  5
8AA
  8
0
  6
CONTINUOUS
 10
-61.399997711181641
 20
-68.599998474121108
 30
0.0
  0
VERTEX
  5
8AB
  8
0
  6
CONTINUOUS
 10
-61.419267266028179
 20
-68.701084071362843
 30
0.0
  0
VERTEX
  5
8AC
  8
0
  6
CONTINUOUS
 10
-61.450274924929282
 20
-68.775780650589709
 30
0.0
  0
VERTEX
  5
8AD
  8
0
  6
CONTINUOUS
 10
-61.518879324858801
 20
-68.88497248325335
 30
0.0
  0
VERTEX
  5
8AE
  8
0
  6
CONTINUOUS
 10
-61.608342742395152
 20
-68.989417295902967
 30
0.0
  0
VERTEX
  5
8AF
  8
0
  6
CONTINUOUS
 10
-61.7991205287992
 20
-69.158746830653385
 30
0.0
  0
VERTEX
  5
8B0
  8
0
  6
CONTINUOUS
 10
-61.999996185302727
 20
-69.300003051757812
 30
0.0
  0
SEQEND
  5
8B1
  8
0
  6
CONTINUOUS
  0
POLYLINE
  5
2FC
  8
0
  6
CONTINUOUS
 66
     1
 10
0.0
 20
0.0
 30
0.0
 70
   128
  0
VERTEX
  5
8B2
  8
0
  6
CONTINUOUS
 10
-61.999996185302727
 20
-66.699996948242187
 30
0.0
  0
VERTEX
  5
8B3
  8
0
  6
CONTINUOUS
 10
-62.200871839828316
 20
-66.841253163758665
 30
0.0
  0
VERTEX
  5
8B4
  8
0
  6
CONTINUOUS
 10
-62.391649622935802
 20
-67.010582704097033
 30
0.0
  0
VERTEX
  5
8B5
  8
0
  6
CONTINUOUS
 10
-62.472086428686453
 20
-67.103160890343133
 30
0.0
  0
VERTEX
  5
8B6
  8
0
  6
CONTINUOUS
 10
-62.522208853828602
 20
-67.175198904321391
 30
0.0
  0
VERTEX
  5
8B7
  8
0
  6
CONTINUOUS
 10
-62.57647718086357
 20
-67.286384662161595
 30
0.0
  0
VERTEX
  5
8B8
  8
0
  6
CONTINUOUS
 10
-62.599994659423821
 20
-67.400001525878892
 30
0.0
  0
VERTEX
  5
8B9
  8
0
  6
CONTINUOUS
 10
-62.596451548854589
 20
-67.47413875174243
 30
0.0
  0
VERTEX
  5
8BA
  8
0
  6
CONTINUOUS
 10
-62.558734957042191
 20
-67.604679482223219
 30
0.0
  0
VERTEX
  5
8BB
  8
0
  6
CONTINUOUS
 10
-62.509405244650857
 20
-67.703119553811831
 30
0.0
  0
VERTEX
  5
8BC
  8
0
  6
CONTINUOUS
 10
-62.412103722966819
 20
-67.85137171329697
 30
0.0
  0
VERTEX
  5
8BD
  8
0
  6
CONTINUOUS
 10
-62.299995430609918
 20
-68.0
 30
0.0
  0
VERTEX
  5
8BE
  8
0
  6
CONTINUOUS
 10
-62.186187858394462
 20
-68.150985428132117
 30
0.0
  0
VERTEX
  5
8BF
  8
0
  6
CONTINUOUS
 10
-62.11017029639229
 20
-68.263987288795761
 30
0.0
  0
VERTEX
  5
8C0
  8
0
  6
CONTINUOUS
 10
-62.062826851644189
 20
-68.348493050192019
 30
0.0
  0
VERTEX
  5
8C1
  8
0
  6
CONTINUOUS
 10
-62.013971475259339
 20
-68.474688780803859
 30
0.0
  0
VERTEX
  5
8C2
  8
0
  6
CONTINUOUS
 10
-61.999996185302727
 20
-68.599998474121108
 30
0.0
  0
VERTEX
  5
8C3
  8
0
  6
CONTINUOUS
 10
-62.01926574014928
 20
-68.701084071362843
 30
0.0
  0
VERTEX
  5
8C4
  8
0
  6
CONTINUOUS
 10
-62.050273399050361
 20
-68.775780650589709
 30
0.0
  0
VERTEX
  5
8C5
  8
0
  6
CONTINUOUS
 10
-62.118877798979902
 20
-68.88497248325335
 30
0.0
  0
VERTEX
  5
8C6
  8
0
  6
CONTINUOUS
 10
-62.208341216516239
 20
-68.989417295902967
 30
0.0
  0
VERTEX
  5
8C7
  8
0
  6
CONTINUOUS
 10
-62.399119002920287
 20
-69.158746830653385
 30
0.0
  0
VERTEX
  5
8C8
  8
0
  6
CONTINUOUS
 10
-62.599994659423821
 20
-69.300003051757812
 30
0.0
  0
SEQEND
  5
8C9
  8
0
  6
CONTINUOUS
  0
LINE
  5
315
  8
0
  6
CONTINUOUS
 10
-92.0
 20
-68.599998474121108
 30
0.0
 11
-61.999996185302727
 21
-68.599998474121108
 31
0.0
  0
LINE
  5
316
  8
0
  6
CONTINUOUS
 10
-92.0
 20
-67.400001525878892
 30
0.0
 11
-62.599994659423821
 21
-67.400001525878892
 31
0.0
  0
LINE
  5
317
  8
0
  6
C_SOLID_L
 10
-119.5111846923827
 20
-90.0
 30
0.0
 11
-65.0
 21
-90.0
 31
0.0
  0
LINE
  5
318
  8
0
  6
C_SOLID_L
 10
-119.5111846923827
 20
-55.0
 30
0.0
 11
-65.0
 21
-55.0
 31
0.0
  0
LINE
  5
319
  8
0
  6
C_SOLID_L
 10
10.65721988677978
 20
-8.1659774780273402
 30
0.0
 11
14.99751758575438
 21
-8.1659774780273402
 31
0.0
  0
TEXT
  5
31A
  8
0
 10
96.386437654495239
 20
26.748930215835571
 30
0.0
 40
4.1671900749206534
  1
2×M2.5P0.45 深さ3
  0
TEXT
  5
31B
  8
0
 10
-171.0989520549773
 20
-8.9313066005706805
 30
0.0
 40
4.1671900749206534
  1
端子Ａ
  0
TEXT
  5
31C
  8
0
 10
-171.26205325126651
 20
10.802869081497191
 30
0.0
 40
4.1671900749206534
  1
端子Ｂ
  0
INSERT
  5
31D
  8
0
  2
*U41
 10
0.0
 20
0.0
 30
0.0
  0
TEXT
  5
31E
  8
0
 10
-28.161139249801629
 20
-93.83696722984314
 30
0.0
 40
4.1671900749206534
  1
銘 板
  0
INSERT
  5
31F
  8
0
  2
*U42
 10
0.0
 20
0.0
 30
0.0
  0
INSERT
  5
320
  8
0
  2
*U43
 10
0.0
 20
0.0
 30
0.0
  0
TEXT
  5
321
  8
0
 10
30.020642518997189
 20
27.502748608589169
 30
0.0
 40
2.083595037460324
  1
±0.5
  0
TEXT
  5
322
  8
0
 10
17.816729784011841
 20
26.460951089859009
 30
0.0
 40
4.1671900749206534
  1
6.5
  0
TEXT
  5
323
  8
0
 10
17.816729784011841
 20
20.21017098426816
 30
0.0
 40
4.1671900749206534
  1
有効ストローク6mm
  0
INSERT
  5
324
  8
0
  2
*U44
 10
0.0
 20
0.0
 30
0.0
  0
TEXT
  5
325
  8
0
 10
17.239751100540161
 20
-9.8551638126373309
 30
0.0
 40
4.1671900749206534
  1
Eリング
  0
DIMENSION
  5
326
  8
0
  6
CONTINUOUS
  2
*D4
 10
-40.0
 20
25.07763671875
 30
0.0
 11
-40.0
 21
25.57763671875
 31
0.0
 70
     0
  1
%%c^A30
  3
STANDARD
 13
-18.90000152587891
 23
-15.0
 33
0.0
 14
-18.90000152587891
 24
15.0
 34
0.0
 50
90.0
  0
DIMENSION
  5
328
  8
0
  6
CONTINUOUS
  2
*D7
 10
-34.159099578857422
 20
35.0
 30
0.0
 11
-34.159099578857422
 21
35.5
 31
0.0
 70
     0
  1
4.8
  3
STANDARD
 13
-24.0
 23
0.8000030517578125
 33
0.0
 14
-19.20000076293945
 24
14.69999980926514
 34
0.0
  0
DIMENSION
  5
32A
  8
0
  6
CONTINUOUS
  2
*D10
 10
-10.0
 20
35.0
 30
0.0
 11
-10.0
 21
35.5
 31
0.0
 70
     0
  1
19.2
  3
STANDARD
 13
-19.20000076293945
 23
14.69999980926514
 33
0.0
 14
0.0000000000000009
 24
14.69999980926514
 34
0.0
  0
DIMENSION
  5
32C
  8
0
  6
CONTINUOUS
  2
*D11
 10
24.828409194946289
 20
35.0
 30
0.0
 11
24.828409194946289
 21
35.5
 31
0.0
 70
     0
  1
15.5
  3
STANDARD
 13
0.0000000000000009
 23
14.69999980926514
 33
0.0
 14
15.5
 24
1.100000023841855
 34
0.0
  0
DIMENSION
  5
32E
  8
0
  6
CONTINUOUS
  2
*D12
 10
58.97443771362304
 20
25.0
 30
0.0
 11
58.97443771362304
 21
25.5
 31
0.0
 70
     0
  1
<>
  3
STANDARD
 13
0.0000000000000009
 23
14.69999980926514
 33
0.0
 14
6.1999998092651367
 24
2.5
 34
0.0
  0
DIMENSION
  5
330
  8
0
  6
CONTINUOUS
  2
*D13
 10
110.0
 20
-0.0000000000000551
 30
0.0
 11
110.0
 21
-0.0000000000000551
 31
0.0
 70
     0
  1
22
  3
STANDARD
 13
88.0
 23
11.0
 33
0.0
 14
88.0
 24
-11.0
 34
0.0
 50
90.0
  0
LINE
  5
332
  8
0
 10
-147.0049235642405
 20
2.249999308429778
 30
0.0
 11
-158.00000257888689
 21
10.00000483485292
 31
0.0
  0
POLYLINE
  5
333
  8
0
 66
     1
 10
0.0
 20
0.0
 30
0.0
  0
VERTEX
  5
8DE
  8
0
 10
-150.05331577823151
 20
3.6847957893830361
 30
0.0
  0
VERTEX
  5
8DF
  8
0
 10
-147.42014288034579
 20
2.542671329268098
 30
0.0
  0
VERTEX
  5
8E0
  8
0
 10
-149.38096331315029
 20
4.6386749129602087
 30
0.0
  0
SEQEND
  5
8E1
  8
0
  0
LINE
  5
338
  8
0
 10
-147.0049235642405
 20
-2.249999308429778
 30
0.0
 11
-158.00000257888689
 21
-10.00000483485292
 31
0.0
  0
POLYLINE
  5
339
  8
0
 66
     1
 10
0.0
 20
0.0
 30
0.0
  0
VERTEX
  5
8E2
  8
0
 10
-149.38096331315029
 20
-4.6386749129601954
 30
0.0
  0
VERTEX
  5
8E3
  8
0
 10
-147.42014288034579
 20
-2.5426713292680949
 30
0.0
  0
VERTEX
  5
8E4
  8
0
 10
-150.05331577823151
 20
-3.6847957893830161
 30
0.0
  0
SEQEND
  5
8E5
  8
0
  0
DIMENSION
  5
33E
  8
0
  6
CONTINUOUS
  2
*D14
 10
-43.847537994384773
 20
-45.0
 30
0.0
 11
-43.847537994384773
 21
-45.0
 31
0.0
 70
     0
  1
(11.3)
  3
STANDARD
 13
-19.20000076293945
 23
-55.299999237060533
 33
0.0
 14
-30.200000762939439
 24
-69.199996948242188
 34
0.0
  0
DIMENSION
  5
340
  8
0
  6
CONTINUOUS
  2
*D15
 10
23.868743896484379
 20
-45.0
 30
0.0
 11
23.868743896484379
 21
-45.0
 31
0.0
 70
     0
  1
(9)
  3
STANDARD
 13
9.3000001907348633
 23
-68.900001525878892
 33
0.0
 14
0.0000000000000009
 24
-55.299999237060533
 34
0.0
  0
LINE
  5
342
  8
0
 10
-4.1439037735044613
 20
-81.515629299591637
 30
0.0
 11
-14.990035933978101
 21
-95.000006059969564
 31
0.0
  0
POLYLINE
  5
343
  8
0
 66
     1
 10
0.0
 20
0.0
 30
0.0
  0
VERTEX
  5
8E6
  8
0
 10
-5.768972293170866
 20
-84.466982944695431
 30
0.0
  0
VERTEX
  5
8E7
  8
0
 10
-4.4622972142445736
 20
-81.911469683006729
 30
0.0
  0
VERTEX
  5
8E8
  8
0
 10
-6.678332391227312
 20
-83.735540922550001
 30
0.0
  0
SEQEND
  5
8E9
  8
0
  0
INSERT
  5
348
  8
0
  6
CONTINUOUS
  2
*X16
 10
0.0
 20
0.0
 30
0.0
  0
INSERT
  5
349
  8
0
  6
CONTINUOUS
  2
*X17
 10
0.0
 20
0.0
 30
0.0
  0
INSERT
  5
34A
  8
0
  6
CONTINUOUS
  2
*X18
 10
0.0
 20
0.0
 30
0.0
  0
INSERT
  5
34B
  8
0
  6
CONTINUOUS
  2
*X19
 10
0.0
 20
0.0
 30
0.0
  0
DIMENSION
  5
34C
  8
0
  6
CONTINUOUS
  2
*D20
 10
-40.0
 20
-93.691909790039063
 30
0.0
 11
-40.0
 21
-93.191909790039063
 31
0.0
 70
     0
  1
(%%c30)
  3
STANDARD
 13
-25.40000152587891
 23
-82.900001525878906
 33
0.0
 14
-25.40000152587891
 24
-57.099998474121101
 34
0.0
 50
90.0
  0
LINE
  5
34E
  8
0
 10
85.523117555879693
 20
11.7323620375505
 30
0.0
 11
94.999993470134996
 21
24.999998424564641
 31
0.0
  0
POLYLINE
  5
34F
  8
0
 66
     1
 10
0.0
 20
0.0
 30
0.0
  0
VERTEX
  5
8EA
  8
0
 10
86.976993047491931
 20
14.77170112474815
 30
0.0
  0
VERTEX
  5
8EB
  8
0
 10
85.818386404913767
 20
12.145738741101431
 30
0.0
  0
VERTEX
  5
8EC
  8
0
 10
87.926639155936485
 20
14.093382992590669
 30
0.0
  0
SEQEND
  5
8ED
  8
0
  0
LINE
  5
354
  8
0
 10
-51.199994555110642
 20
-72.599995300362423
 30
0.0
 11
-65.000000466630837
 21
-90.000000509472045
 31
0.0
  0
POLYLINE
  5
355
  8
0
 66
     1
 10
0.0
 20
0.0
 30
0.0
  0
VERTEX
  5
8EE
  8
0
 10
-52.804764033625482
 20
-75.562435334001165
 30
0.0
  0
VERTEX
  5
8EF
  8
0
 10
-51.515663088555691
 20
-72.998012095537192
 30
0.0
  0
VERTEX
  5
8F0
  8
0
 10
-53.719123980343412
 20
-74.837253213747601
 30
0.0
  0
SEQEND
  5
8F1
  8
0
  0
LINE
  5
35A
  8
0
 10
-51.200001524333487
 20
-67.400005227685739
 30
0.0
 11
-65.000001095367836
 21
-55.000003866253607
 31
0.0
  0
POLYLINE
  5
35B
  8
0
 66
     1
 10
0.0
 20
0.0
 30
0.0
  0
VERTEX
  5
8F2
  8
0
 10
-54.058223648510932
 20
-65.616216473112814
 30
0.0
  0
VERTEX
  5
8F3
  8
0
 10
-51.577867102818928
 20
-67.060473790489709
 30
0.0
  0
VERTEX
  5
8F4
  8
0
 10
-53.278221521496889
 20
-64.748149712113985
 30
0.0
  0
SEQEND
  5
8F5
  8
0
  0
DIMENSION
  5
360
  8
0
  6
CONTINUOUS
  2
*D21
 10
-55.0
 20
-25.0
 30
0.0
 11
-55.0
 21
-24.5
 31
0.0
 70
     0
  1
^Q^U^PN薇^J)
  3
STANDARD
 13
-21.700000762939439
 23
-4.0
 33
0.0
 14
-91.699996948242202
 24
-2.25
 34
0.0
 50
180.0
  0
LINE
  5
362
  8
0
 10
6.71148858627474
 20
-2.7854373199348279
 30
0.0
 11
10.65721972637577
 21
-8.1659779398387133
 31
0.0
  0
POLYLINE
  5
363
  8
0
 66
     1
 10
0.0
 20
0.0
 30
0.0
  0
VERTEX
  5
8F6
  8
0
 10
9.1443341104282805
 20
-5.1162308945965398
 30
0.0
  0
VERTEX
  5
8F7
  8
0
 10
7.0119013898324631
 20
-3.195091002582898
 30
0.0
  0
VERTEX
  5
8F8
  8
0
 10
8.2032408601436302
 20
-5.8063661813092926
 30
0.0
  0
SEQEND
  5
8F9
  8
0
  0
ENDBLK
  5
9B
  8
0
  0
BLOCK
  8
0
  2
D_0003_
 70
     0
 10
0.0
 20
0.0
 30
0.0
  3
D_0003_
  1

  0
POINT
  5
368
  8
0
  6
CONTINUOUS
 10
0.0
 20
0.0
 30
0.0
  0
LINE
  5
369
  8
0
  6
CONTINUOUS
 10
55.880386352539063
 20
-20.40987396240234
 30
0.0
 11
63.991004943847642
 21
-20.40987396240234
 31
0.0
  0
LINE
  5
36A
  8
0
  6
CONTINUOUS
 10
47.859664916992188
 20
-20.40987396240234
 30
0.0
 11
54.037460327148438
 21
-20.40987396240234
 31
0.0
  0
TEXT
  5
36B
  8
0
 10
-0.2826089859008755
 20
-9.6709363460540771
 30
0.0
 40
4.1671900749206534
  1
（表示例）
  0
TEXT
  5
36C
  8
0
 10
30.271448016166691
 20
-9.3100042343139666
 30
0.0
 40
3.5
  1
製品名
  0
TEXT
  5
36D
  8
0
 10
58.77357470989228
 20
-31.266578674316388
 30
0.0
 40
3.5
  1
週番
  0
TEXT
  5
36E
  8
0
 10
36.760566592216492
 20
-31.46455383300782
 30
0.0
 40
3.5
  1
西暦年下二桁
  0
TEXT
  5
36F
  8
0
 10
62.508590579032898
 20
-9.4299068450927752
 30
0.0
 40
3.5
  1
ロット番号
  0
TEXT
  5
370
  8
0
 10
-1.4882800579071001
 20
-2.083595037460332
 30
0.0
 40
4.1671900749206534
  1
銘板表示
  0
TEXT
  5
371
  8
0
 10
4.7173931598663366
 20
-18.67093634605407
 30
0.0
 40
4.1671900749206534
  1
MM30C-12L
  0
TEXT
  5
372
  8
0
 10
42.717393159866312
 20
-18.67093634605407
 30
0.0
 40
4.1671900749206534
  1
．1812
  0
LINE
  5
373
  8
0
 10
24.263641367954019
 20
-13.943877642573989
 30
0.0
 11
29.331715608548109
 21
-8.0695221533279096
 31
0.0
  0
POLYLINE
  5
374
  8
0
 66
     1
 10
0.0
 20
0.0
 30
0.0
  0
VERTEX
  5
8FA
  8
0
 10
25.989430288073951
 20
-11.05026594864032
 30
0.0
  0
VERTEX
  5
8FB
  8
0
 10
24.595483963830311
 20
-13.55924212183959
 30
0.0
  0
VERTEX
  5
8FC
  8
0
 10
26.873049568738011
 20
-11.812604578473669
 30
0.0
  0
SEQEND
  5
8FD
  8
0
  0
LINE
  5
379
  8
0
 10
50.650392618560993
 20
-20.70683566471325
 30
0.0
 11
45.008186086471603
 21
-26.547017828867752
 31
0.0
  0
POLYLINE
  5
37A
  8
0
 66
     1
 10
0.0
 20
0.0
 30
0.0
  0
VERTEX
  5
8FE
  8
0
 10
48.764482957507099
 20
-23.49873121835093
 30
0.0
  0
VERTEX
  5
8FF
  8
0
 10
50.297428225798448
 20
-21.07218499027756
 30
0.0
  0
VERTEX
  5
900
  8
0
 10
47.92516965739938
 20
-22.687869698756032
 30
0.0
  0
SEQEND
  5
901
  8
0
  0
LINE
  5
37F
  8
0
 10
58.668124781152748
 20
-20.60784737579683
 30
0.0
 11
63.320446400044347
 21
-26.44799324380482
 31
0.0
  0
POLYLINE
  5
380
  8
0
 66
     1
 10
0.0
 20
0.0
 30
0.0
  0
VERTEX
  5
902
  8
0
 10
61.192056573468207
 20
-22.839686155775698
 30
0.0
  0
VERTEX
  5
903
  8
0
 10
58.984647980172063
 20
-21.00518483530843
 30
0.0
  0
VERTEX
  5
904
  8
0
 10
60.279257257679177
 20
-23.5668316905846
 30
0.0
  0
SEQEND
  5
905
  8
0
  0
LINE
  5
385
  8
0
 10
56.92395770825555
 20
-14.055638553942339
 30
0.0
 11
62.070633569564961
 21
-7.8335380294629422
 31
0.0
  0
POLYLINE
  5
386
  8
0
 66
     1
 10
0.0
 20
0.0
 30
0.0
  0
VERTEX
  5
906
  8
0
 10
58.589299118493273
 20
-11.126820700366309
 30
0.0
  0
VERTEX
  5
907
  8
0
 10
57.247743192932752
 20
-13.664196409863701
 30
0.0
  0
VERTEX
  5
908
  8
0
 10
59.4885551859307
 20
-11.87064981036024
 30
0.0
  0
SEQEND
  5
909
  8
0
  0
ENDBLK
  5
9E
  8
0
  0
BLOCK
  8
0
  2
D_0004_
 70
     0
 10
0.0
 20
0.0
 30
0.0
  3
D_0004_
  1

  0
POINT
  5
38B
  8
0
  6
CONTINUOUS
 10
0.0
 20
0.0
 30
0.0
  0
POINT
  5
38C
  8
0
  6
CONTINUOUS
 10
0.0
 20
-5.5
 30
0.0
  0
POINT
  5
38D
  8
0
  6
CONTINUOUS
 10
0.0
 20
0.0
 30
0.0
  0
POINT
  5
38E
  8
0
  6
CONTINUOUS
 10
30.0
 20
-5.5
 30
0.0
  0
POINT
  5
38F
  8
0
  6
CONTINUOUS
 10
15.0
 20
-2.75
 30
0.0
  0
POINT
  5
390
  8
0
  6
CONTINUOUS
 10
0.0
 20
-11.0
 30
0.0
  0
POINT
  5
391
  8
0
  6
CONTINUOUS
 10
0.0
 20
-16.5
 30
0.0
  0
POINT
  5
392
  8
0
  6
CONTINUOUS
 10
0.0
 20
-22.0
 30
0.0
  0
POINT
  5
393
  8
0
  6
CONTINUOUS
 10
15.0
 20
-11.0
 30
0.0
  0
POINT
  5
394
  8
0
  6
CONTINUOUS
 10
15.0
 20
-5.5
 30
0.0
  0
POINT
  5
395
  8
0
  6
CONTINUOUS
 10
22.5
 20
-8.25
 30
0.0
  0
POINT
  5
396
  8
0
  6
CONTINUOUS
 10
7.5
 20
-8.25
 30
0.0
  0
POINT
  5
397
  8
0
  6
CONTINUOUS
 10
15.0
 20
-16.5
 30
0.0
  0
POINT
  5
398
  8
0
  6
CONTINUOUS
 10
7.5
 20
-13.75
 30
0.0
  0
POINT
  5
399
  8
0
  6
CONTINUOUS
 10
0.0
 20
-16.5
 30
0.0
  0
POINT
  5
39A
  8
0
  6
CONTINUOUS
 10
15.0
 20
-22.0
 30
0.0
  0
POINT
  5
39B
  8
0
  6
CONTINUOUS
 10
7.5
 20
-19.25
 30
0.0
  0
POINT
  5
39C
  8
0
  6
CONTINUOUS
 10
30.0
 20
-16.5
 30
0.0
  0
POINT
  5
39D
  8
0
  6
CONTINUOUS
 10
22.5
 20
-13.75
 30
0.0
  0
POINT
  5
39E
  8
0
  6
CONTINUOUS
 10
22.5
 20
-19.25
 30
0.0
  0
POINT
  5
39F
  8
0
  6
CONTINUOUS
 10
0.0
 20
-22.0
 30
0.0
  0
POINT
  5
3A0
  8
0
  6
CONTINUOUS
 10
34.242115020751939
 20
-3.4979324340820308
 30
0.0
  0
POINT
  5
3A1
  8
0
  6
CONTINUOUS
 10
60.0
 20
-5.5
 30
0.0
  0
POINT
  5
3A2
  8
0
  6
CONTINUOUS
 10
60.0
 20
0.0
 30
0.0
  0
POINT
  5
3A3
  8
0
  6
CONTINUOUS
 10
60.0
 20
-22.0
 30
0.0
  0
POINT
  5
3A4
  8
0
  6
CONTINUOUS
 10
30.0
 20
0.0
 30
0.0
  0
POINT
  5
3A5
  8
0
  6
CONTINUOUS
 10
60.0
 20
-11.0
 30
0.0
  0
POINT
  5
3A6
  8
0
  6
CONTINUOUS
 10
45.0
 20
-5.5
 30
0.0
  0
POINT
  5
3A7
  8
0
  6
CONTINUOUS
 10
30.0
 20
-11.0
 30
0.0
  0
POINT
  5
3A8
  8
0
  6
CONTINUOUS
 10
60.0
 20
-16.5
 30
0.0
  0
POINT
  5
3A9
  8
0
  6
CONTINUOUS
 10
30.0
 20
-22.0
 30
0.0
  0
POINT
  5
3AA
  8
0
  6
CONTINUOUS
 10
60.0
 20
-22.0
 30
0.0
  0
POINT
  5
3AB
  8
0
  6
CONTINUOUS
 10
45.0
 20
-19.25
 30
0.0
  0
POINT
  5
3AC
  8
0
  6
CONTINUOUS
 10
45.0
 20
-13.75
 30
0.0
  0
LINE
  5
3AD
  8
0
  6
CONTINUOUS
 10
0.0
 20
0.0
 30
0.0
 11
0.0
 21
-22.0
 31
0.0
  0
LINE
  5
3AE
  8
0
  6
CONTINUOUS
 10
0.0
 20
0.0
 30
0.0
 11
60.0
 21
0.0
 31
0.0
  0
LINE
  5
3AF
  8
0
  6
CONTINUOUS
 10
0.0
 20
-5.5
 30
0.0
 11
30.0
 21
-5.5
 31
0.0
  0
LINE
  5
3B0
  8
0
  6
CONTINUOUS
 10
15.0
 20
-5.5
 30
0.0
 11
15.0
 21
-22.0
 31
0.0
  0
LINE
  5
3B1
  8
0
  6
CONTINUOUS
 10
30.0
 20
0.0
 30
0.0
 11
30.0
 21
-22.0
 31
0.0
  0
LINE
  5
3B2
  8
0
  6
CONTINUOUS
 10
0.0
 20
-22.0
 30
0.0
 11
60.0
 21
-22.0
 31
0.0
  0
LINE
  5
3B3
  8
0
  6
CONTINUOUS
 10
0.0
 20
-16.5
 30
0.0
 11
60.0
 21
-16.5
 31
0.0
  0
LINE
  5
3B4
  8
0
  6
CONTINUOUS
 10
0.0
 20
-11.0
 30
0.0
 11
60.0
 21
-11.0
 31
0.0
  0
LINE
  5
3B5
  8
0
  6
CONTINUOUS
 10
60.0
 20
0.0
 30
0.0
 11
60.0
 21
-22.0
 31
0.0
  0
TEXT
  5
3B6
  8
0
 10
8.5000017881393486
 20
-4.5000000000000044
 30
0.0
 40
3.5
  1
通電極性
  0
TEXT
  5
3B7
  8
0
 10
2.750001788139345
 20
-10.0
 30
0.0
 40
3.5
  1
端子Ａ
  0
TEXT
  5
3B8
  8
0
 10
17.75000178813935
 20
-10.0
 30
0.0
 40
3.5
  1
端子Ｂ
  0
TEXT
  5
3B9
  8
0
 10
5.8928593397140521
 20
-15.5
 30
0.0
 40
4.5
  1
+
  0
TEXT
  5
3BA
  8
0
 10
5.8928593397140521
 20
-21.0
 30
0.0
 40
4.5
  1
-
  0
TEXT
  5
3BB
  8
0
 10
20.89285933971404
 20
-15.5
 30
0.0
 40
4.5
  1
-
  0
TEXT
  5
3BC
  8
0
 10
20.89285933971404
 20
-21.0
 30
0.0
 40
4.5
  1
+
  0
TEXT
  5
3BD
  8
0
 10
32.614674687385559
 20
-7.2500000000000018
 30
0.0
 40
3.5
  1
シャフト作動方向
 41
0.9200000000000002
  0
TEXT
  5
3BE
  8
0
 10
40.250001788139343
 20
-15.5
 30
0.0
 40
3.5
  1
引込み
  0
TEXT
  5
3BF
  8
0
 10
40.250001788139343
 20
-21.0
 30
0.0
 40
3.5
  1
突出し
  0
ENDBLK
  5
A1
  8
0
  0
BLOCK
  8
0
  2
*D4
 70
     1
 10
0.0
 20
0.0
 30
0.0
  3
*D4
  1

  0
LINE
  5
3C0
  8
0
 62
     0
 10
-40.0
 20
-15.0
 30
0.0
 11
-40.0
 21
15.0
 31
0.0
  0
INSERT
  5
3C1
  8
0
  6
C_SOLID_L
 62
     0
  2
CCD_OARW
 10
-40.0
 20
-15.0
 30
0.0
 50
89.999999999999915
  0
INSERT
  5
3C2
  8
0
  6
C_SOLID_L
 62
     0
  2
CCD_OARWRT
 10
-40.0
 20
15.0
 30
0.0
 50
269.99999999999977
  0
LINE
  5
3C3
  8
0
 62
     0
 10
-21.122501492500302
 20
-14.999999999999989
 30
0.0
 11
-42.285999298095703
 21
-15.0
 31
0.0
  0
LINE
  5
3C4
  8
0
 62
     0
 10
-21.122501492500302
 20
15.0
 30
0.0
 11
-42.285999298095703
 21
15.0
 31
0.0
  0
INSERT
  5
3C5
  8
0
  2
*U45
 10
0.0
 20
0.0
 30
0.0
  0
LINE
  5
3C6
  8
0
 62
     0
 10
-40.0
 20
15.0
 30
0.0
 11
-40.0
 21
32.072559356689439
 31
0.0
  0
ENDBLK
  5
A4
  8
0
  0
BLOCK
  8
0
  2
CCD_OARW
 70
     0
 10
0.0
 20
0.0
 30
0.0
  3
CCD_OARW
  1

  0
POLYLINE
  5
3C7
  8
0
 62
     0
 66
     1
 10
0.0
 20
0.0
 30
0.0
  0
VERTEX
  5
90F
  8
0
 62
     0
 10
3.3182601204778792
 20
0.5835116150723609
 30
0.0
  0
VERTEX
  5
910
  8
0
 62
     0
 10
0.5079999923706055
 20
0.0
 30
0.0
  0
VERTEX
  5
911
  8
0
 62
     0
 10
3.3182601204778792
 20
-0.5835116150723609
 30
0.0
  0
SEQEND
  5
912
  8
0
 62
     0
  0
ENDBLK
  5
A7
  8
0
  0
BLOCK
  8
0
  2
CCD_OARWRT
 70
     0
 10
0.0
 20
0.0
 30
0.0
  3
CCD_OARWRT
  1

  0
POLYLINE
  5
3CC
  8
0
 62
     0
 66
     1
 10
0.0
 20
0.0
 30
0.0
  0
VERTEX
  5
913
  8
0
 62
     0
 10
3.3182601204778792
 20
0.5835116150723609
 30
0.0
  0
VERTEX
  5
914
  8
0
 62
     0
 10
0.5079999923706055
 20
0.0
 30
0.0
  0
VERTEX
  5
915
  8
0
 62
     0
 10
3.3182601204778792
 20
-0.5835116150723609
 30
0.0
  0
SEQEND
  5
916
  8
0
 62
     0
  0
ENDBLK
  5
AA
  8
0
  0
BLOCK
  8
0
  2
*D7
 70
     1
 10
0.0
 20
0.0
 30
0.0
  3
*D7
  1

  0
LINE
  5
3D1
  8
0
 62
     0
 10
-24.0
 20
35.0
 30
0.0
 11
-19.20000076293945
 21
35.0
 31
0.0
  0
LINE
  5
3D2
  8
0
 62
     0
 10
-24.0
 20
35.0
 30
0.0
 11
-30.349999904632568
 21
35.000000000000021
 31
0.0
  0
LINE
  5
3D3
  8
0
 62
     0
 10
-19.20000076293945
 20
35.0
 30
0.0
 11
-12.850000858306879
 21
34.999999999999957
 31
0.0
  0
INSERT
  5
3D4
  8
0
  6
C_SOLID_L
 62
     0
  2
CCD_IARW
 10
-24.0
 20
35.0
 30
0.0
  0
INSERT
  5
3D5
  8
0
  6
C_SOLID_L
 62
     0
  2
CCD_IARWRT
 10
-19.20000076293945
 20
35.0
 30
0.0
 50
179.9999999999998
  0
LINE
  5
3D6
  8
0
 62
     0
 10
-24.0
 20
3.022503018379211
 30
0.0
 11
-24.0
 21
37.285999298095703
 31
0.0
  0
LINE
  5
3D7
  8
0
 62
     0
 10
-19.20000076293945
 20
16.922499775886529
 30
0.0
 11
-19.20000076293945
 21
37.285999298095703
 31
0.0
  0
TEXT
  5
3D8
  8
0
 10
-39.814566493034349
 20
38.040774270057668
 30
0.0
 40
4.1671876907348633
  1
4.8
  0
LINE
  5
3D9
  8
0
 62
     0
 10
-41.154022216796882
 20
35.0
 30
0.0
 11
-24.0
 21
35.0
 31
0.0
  0
ENDBLK
  5
AD
  8
0
  0
BLOCK
  8
0
  2
CCD_IARW
 70
     0
 10
0.0
 20
0.0
 30
0.0
  3
CCD_IARW
  1

  0
POLYLINE
  5
3DA
  8
0
 62
     0
 66
     1
 10
0.0
 20
0.0
 30
0.0
  0
VERTEX
  5
917
  8
0
 62
     0
 10
-3.318260120477881
 20
-0.5835116150723501
 30
0.0
  0
VERTEX
  5
918
  8
0
 62
     0
 10
-0.5079999923706055
 20
0.0000000000000016
 30
0.0
  0
VERTEX
  5
919
  8
0
 62
     0
 10
-3.3182601204778761
 20
0.5835116150723715
 30
0.0
  0
SEQEND
  5
91A
  8
0
 62
     0
  0
ENDBLK
  5
B0
  8
0
  0
BLOCK
  8
0
  2
CCD_IARWRT
 70
     0
 10
0.0
 20
0.0
 30
0.0
  3
CCD_IARWRT
  1

  0
POLYLINE
  5
3DF
  8
0
 62
     0
 66
     1
 10
0.0
 20
0.0
 30
0.0
  0
VERTEX
  5
91B
  8
0
 62
     0
 10
-3.318260120477881
 20
-0.5835116150723501
 30
0.0
  0
VERTEX
  5
91C
  8
0
 62
     0
 10
-0.5079999923706055
 20
0.0000000000000016
 30
0.0
  0
VERTEX
  5
91D
  8
0
 62
     0
 10
-3.3182601204778761
 20
0.5835116150723715
 30
0.0
  0
SEQEND
  5
91E
  8
0
 62
     0
  0
ENDBLK
  5
B3
  8
0
  0
BLOCK
  8
0
  2
*D10
 70
     1
 10
0.0
 20
0.0
 30
0.0
  3
*D10
  1

  0
LINE
  5
3E4
  8
0
 62
     0
 10
-19.20000076293945
 20
35.0
 30
0.0
 11
0.0000000000000009
 21
35.0
 31
0.0
  0
INSERT
  5
3E5
  8
0
  6
C_SOLID_L
 62
     0
  2
CCD_OARW
 10
-19.20000076293945
 20
35.0
 30
0.0
  0
INSERT
  5
3E6
  8
0
  6
C_SOLID_L
 62
     0
  2
CCD_OARWRT
 10
0.0000000000000009
 20
35.0
 30
0.0
 50
179.9999999999998
  0
LINE
  5
3E7
  8
0
 62
     0
 10
-19.20000076293945
 20
16.922499775886529
 30
0.0
 11
-19.20000076293945
 21
37.285999298095703
 31
0.0
  0
LINE
  5
3E8
  8
0
 62
     0
 10
0.0000000000000045
 20
16.922499775886529
 30
0.0
 11
0.0000000000000009
 21
37.285999298095703
 31
0.0
  0
TEXT
  5
3E9
  8
0
 10
-17.739060759544351
 20
38.040774270057668
 30
0.0
 40
4.1671876907348633
  1
19.2
  0
ENDBLK
  5
B6
  8
0
  0
BLOCK
  8
0
  2
*D11
 70
     1
 10
0.0
 20
0.0
 30
0.0
  3
*D11
  1

  0
LINE
  5
3EA
  8
0
 62
     0
 10
0.0000000000000009
 20
35.0
 30
0.0
 11
15.5
 21
35.0
 31
0.0
  0
INSERT
  5
3EB
  8
0
  6
C_SOLID_L
 62
     0
  2
CCD_OARW
 10
0.0000000000000009
 20
35.0
 30
0.0
  0
INSERT
  5
3EC
  8
0
  6
C_SOLID_L
 62
     0
  2
CCD_OARWRT
 10
15.5
 20
35.0
 30
0.0
 50
179.9999999999998
  0
LINE
  5
3ED
  8
0
 62
     0
 10
0.0000000000000045
 20
16.922499775886529
 30
0.0
 11
0.0000000000000009
 21
37.285999298095703
 31
0.0
  0
LINE
  5
3EE
  8
0
 62
     0
 10
15.5
 20
3.3224999904632559
 30
0.0
 11
15.5
 21
37.285999298095703
 31
0.0
  0
TEXT
  5
3EF
  8
0
 10
17.08934843540192
 20
38.040774270057668
 30
0.0
 40
4.1671876907348633
  1
15.5
  0
LINE
  5
3F0
  8
0
 62
     0
 10
15.5
 20
35.0
 30
0.0
 11
33.906925201416023
 21
35.0
 31
0.0
  0
ENDBLK
  5
B9
  8
0
  0
BLOCK
  8
0
  2
*D12
 70
     1
 10
0.0
 20
0.0
 30
0.0
  3
*D12
  1

  0
LINE
  5
3F1
  8
0
 62
     0
 10
0.0000000000000009
 20
25.0
 30
0.0
 11
6.1999998092651367
 21
25.0
 31
0.0
  0
LINE
  5
3F2
  8
0
 62
     0
 10
0.0000000000000009
 20
25.0
 30
0.0
 11
-6.3499999046325666
 21
25.000000000000011
 31
0.0
  0
LINE
  5
3F3
  8
0
 62
     0
 10
6.1999998092651367
 20
25.0
 30
0.0
 11
12.54999971389771
 21
24.999999999999961
 31
0.0
  0
INSERT
  5
3F4
  8
0
  6
C_SOLID_L
 62
     0
  2
CCD_IARW
 10
0.0000000000000009
 20
25.0
 30
0.0
  0
INSERT
  5
3F5
  8
0
  6
C_SOLID_L
 62
     0
  2
CCD_IARWRT
 10
6.1999998092651367
 20
25.0
 30
0.0
 50
179.9999999999998
  0
LINE
  5
3F6
  8
0
 62
     0
 10
0.0000000000000045
 20
16.922499775886529
 30
0.0
 11
0.0000000000000009
 21
27.2859992980957
 31
0.0
  0
LINE
  5
3F7
  8
0
 62
     0
 10
6.1999998092651394
 20
4.722499966621398
 30
0.0
 11
6.1999998092651367
 21
27.2859992980957
 31
0.0
  0
LINE
  5
3F8
  8
0
 62
     0
 10
6.1999998092651367
 20
25.0
 30
0.0
 11
58.979518890380859
 21
25.0
 31
0.0
  0
ENDBLK
  5
BC
  8
0
  0
BLOCK
  8
0
  2
*D13
 70
     1
 10
0.0
 20
0.0
 30
0.0
  3
*D13
  1

  0
LINE
  5
3F9
  8
0
 62
     0
 10
110.0
 20
-11.0
 30
0.0
 11
110.0
 21
11.0
 31
0.0
  0
INSERT
  5
3FA
  8
0
  6
C_SOLID_L
 62
     0
  2
CCD_OARW
 10
110.0
 20
-11.0
 30
0.0
 50
89.999999999999915
  0
INSERT
  5
3FB
  8
0
  6
C_SOLID_L
 62
     0
  2
CCD_OARWRT
 10
110.0
 20
11.0
 30
0.0
 50
269.99999999999977
  0
LINE
  5
3FC
  8
0
 62
     0
 10
90.222499966621385
 20
-11.0
 30
0.0
 11
112.2859954833983
 21
-11.0
 31
0.0
  0
LINE
  5
3FD
  8
0
 62
     0
 10
90.222499966621385
 20
11.0
 30
0.0
 11
112.2859954833983
 21
11.0
 31
0.0
  0
TEXT
  5
3FE
  8
0
 10
106.9592257299422
 20
-3.5718730688095608
 30
0.0
 40
4.1671876907348633
  1
22
 50
90.0
  0
ENDBLK
  5
BF
  8
0
  0
BLOCK
  8
0
  2
*D14
 70
     1
 10
0.0
 20
0.0
 30
0.0
  3
*D14
  1

  0
LINE
  5
3FF
  8
0
 62
     0
 10
-30.200000762939439
 20
-45.0
 30
0.0
 11
-19.20000076293945
 21
-45.0
 31
0.0
  0
INSERT
  5
400
  8
0
  6
C_SOLID_L
 62
     0
  2
CCD_OARW
 10
-30.200000762939439
 20
-45.0
 30
0.0
  0
INSERT
  5
401
  8
0
  6
C_SOLID_L
 62
     0
  2
CCD_OARWRT
 10
-19.20000076293945
 20
-45.0
 30
0.0
 50
179.9999999999998
  0
LINE
  5
402
  8
0
 62
     0
 10
-30.200000762939439
 20
-66.977496981620789
 30
0.0
 11
-30.200000762939439
 21
-42.714000701904297
 31
0.0
  0
LINE
  5
403
  8
0
 62
     0
 10
-19.20000076293945
 20
-53.077499270439141
 30
0.0
 11
-19.20000076293945
 21
-42.714000701904297
 31
0.0
  0
TEXT
  5
404
  8
0
 10
-55.753786444664001
 20
-41.959225729942318
 30
0.0
 40
4.1671876907348633
  1
(11.3)
  0
LINE
  5
405
  8
0
 62
     0
 10
-57.093242645263672
 20
-45.0
 30
0.0
 11
-30.200000762939439
 21
-45.0
 31
0.0
  0
ENDBLK
  5
C2
  8
0
  0
BLOCK
  8
0
  2
*D15
 70
     1
 10
0.0
 20
0.0
 30
0.0
  3
*D15
  1

  0
LINE
  5
406
  8
0
 62
     0
 10
0.0000000000000009
 20
-45.0
 30
0.0
 11
9.3000001907348633
 21
-45.0
 31
0.0
  0
LINE
  5
407
  8
0
 62
     0
 10
0.0000000000000009
 20
-45.0
 30
0.0
 11
-6.3499999046325666
 21
-44.999999999999979
 31
0.0
  0
LINE
  5
408
  8
0
 62
     0
 10
9.3000001907348633
 20
-45.0
 30
0.0
 11
15.65000009536743
 21
-45.000000000000021
 31
0.0
  0
INSERT
  5
409
  8
0
  6
C_SOLID_L
 62
     0
  2
CCD_IARW
 10
0.0000000000000009
 20
-45.0
 30
0.0
  0
INSERT
  5
40A
  8
0
  6
C_SOLID_L
 62
     0
  2
CCD_IARWRT
 10
9.3000001907348633
 20
-45.0
 30
0.0
 50
179.9999999999998
  0
LINE
  5
40B
  8
0
 62
     0
 10
0.0000000000000045
 20
-53.077499270439141
 30
0.0
 11
0.0000000000000009
 21
-42.714000701904297
 31
0.0
  0
LINE
  5
40C
  8
0
 62
     0
 10
9.3000001907348668
 20
-66.677501559257507
 30
0.0
 11
9.3000001907348633
 21
-42.714000701904297
 31
0.0
  0
TEXT
  5
40D
  8
0
 10
18.213276982307441
 20
-41.959225729942318
 30
0.0
 40
4.1671876907348633
  1
(9)
  0
LINE
  5
40E
  8
0
 62
     0
 10
9.3000001907348633
 20
-45.0
 30
0.0
 11
30.863664627075199
 21
-45.0
 31
0.0
  0
ENDBLK
  5
C5
  8
0
  0
BLOCK
  8
0
  2
*X16
 70
     1
 10
0.0
 20
0.0
 30
0.0
  3
*X16
  1

  0
LINE
  5
40F
  8
0
  6
CONTINUOUS
 10
-31.785832226454762
 20
-2.5999992535149641
 30
0.0
 11
-31.700001013868249
 21
-2.514168040928439
 31
0.0
  0
LINE
  5
410
  8
0
  6
CONTINUOUS
 10
-34.030895678819768
 20
-2.5999992535149641
 30
0.0
 11
-32.830896023351329
 21
-1.3999995980465201
 31
0.0
  0
LINE
  5
411
  8
0
  6
CONTINUOUS
 10
-36.275959131184777
 20
-2.5999992535149641
 30
0.0
 11
-35.075959475716331
 21
-1.3999995980465201
 31
0.0
  0
LINE
  5
412
  8
0
  6
CONTINUOUS
 10
-38.521022583549779
 20
-2.5999992535149641
 30
0.0
 11
-37.321022928081319
 21
-1.3999995980465201
 31
0.0
  0
LINE
  5
413
  8
0
  6
CONTINUOUS
 10
-40.766086035914782
 20
-2.5999992535149641
 30
0.0
 11
-39.566086380446343
 21
-1.3999995980465201
 31
0.0
  0
LINE
  5
414
  8
0
  6
CONTINUOUS
 10
-43.011150836978892
 20
-2.599997904815837
 30
0.0
 11
-41.811151181510468
 21
-1.399998249347389
 31
0.0
  0
LINE
  5
415
  8
0
  6
CONTINUOUS
 10
-45.256215638043052
 20
-2.5999992535149641
 30
0.0
 11
-44.056215982574599
 21
-1.3999995980465201
 31
0.0
  0
LINE
  5
416
  8
0
  6
CONTINUOUS
 10
-47.501277741708897
 20
-2.599997904815837
 30
0.0
 11
-46.301278086240472
 21
-1.399998249347389
 31
0.0
  0
LINE
  5
417
  8
0
  6
CONTINUOUS
 10
-49.746343891472179
 20
-2.599997904815837
 30
0.0
 11
-48.546344236003733
 21
-1.399998249347389
 31
0.0
  0
LINE
  5
418
  8
0
  6
CONTINUOUS
 10
-51.991407343837182
 20
-2.6000006022140951
 30
0.0
 11
-50.79140499097047
 21
-1.399998249347389
 31
0.0
  0
LINE
  5
419
  8
0
  6
CONTINUOUS
 10
-54.236470796202177
 20
-2.599997904815837
 30
0.0
 11
-53.036471140733738
 21
-1.399998249347389
 31
0.0
  0
LINE
  5
41A
  8
0
  6
CONTINUOUS
 10
-55.560507613191021
 20
-1.678973966837928
 30
0.0
 11
-55.281534593098748
 21
-1.4000009467456489
 31
0.0
  0
ENDBLK
  5
C8
  8
0
  0
BLOCK
  8
0
  2
*X17
 70
     1
 10
0.0
 20
0.0
 30
0.0
  3
*X17
  1

  0
LINE
  5
41B
  8
0
  6
CONTINUOUS
 10
-56.481534248567193
 20
-2.6000006022140951
 30
0.0
 11
-55.960507498347162
 21
-2.0789738519940779
 31
0.0
  0
LINE
  5
41C
  8
0
  6
CONTINUOUS
 10
-58.726597700932189
 20
-2.599997904815837
 30
0.0
 11
-57.526598045463743
 21
-1.399998249347389
 31
0.0
  0
LINE
  5
41D
  8
0
  6
CONTINUOUS
 10
-60.97166385069545
 20
-2.599997904815837
 30
0.0
 11
-59.771664195226997
 21
-1.399998249347389
 31
0.0
  0
LINE
  5
41E
  8
0
  6
CONTINUOUS
 10
-63.216724605662193
 20
-2.599997904815837
 30
0.0
 11
-62.016724950193748
 21
-1.399998249347389
 31
0.0
  0
LINE
  5
41F
  8
0
  6
CONTINUOUS
 10
-65.461790755425454
 20
-2.599997904815837
 30
0.0
 11
-64.261791099956994
 21
-1.399998249347389
 31
0.0
  0
LINE
  5
420
  8
0
  6
CONTINUOUS
 10
-67.706854207790457
 20
-2.6000006022140951
 30
0.0
 11
-66.506851854923752
 21
-1.399998249347389
 31
0.0
  0
LINE
  5
421
  8
0
  6
CONTINUOUS
 10
-69.951917660155459
 20
-2.599997904815837
 30
0.0
 11
-68.751918004686999
 21
-1.399998249347389
 31
0.0
  0
LINE
  5
422
  8
0
  6
CONTINUOUS
 10
-72.196983809918706
 20
-2.599997904815837
 30
0.0
 11
-70.99698415445026
 21
-1.399998249347389
 31
0.0
  0
LINE
  5
423
  8
0
  6
CONTINUOUS
 10
-74.44204456488545
 20
-2.599997904815837
 30
0.0
 11
-73.242044909417018
 21
-1.399998249347389
 31
0.0
  0
LINE
  5
424
  8
0
  6
CONTINUOUS
 10
-76.687110714648711
 20
-2.599997904815837
 30
0.0
 11
-75.487111059180279
 21
-1.399998249347389
 31
0.0
  0
LINE
  5
425
  8
0
  6
CONTINUOUS
 10
-78.932171469615454
 20
-2.599997904815837
 30
0.0
 11
-77.73217181414698
 21
-1.399998249347389
 31
0.0
  0
LINE
  5
426
  8
0
  6
CONTINUOUS
 10
-81.177237619378744
 20
-2.599997904815837
 30
0.0
 11
-79.977237963910284
 21
-1.399998249347389
 31
0.0
  0
LINE
  5
427
  8
0
  6
CONTINUOUS
 10
-83.422303769142005
 20
-2.599997904815837
 30
0.0
 11
-82.222304113673545
 21
-1.399998249347389
 31
0.0
  0
LINE
  5
428
  8
0
  6
CONTINUOUS
 10
-85.667364524108734
 20
-2.599997904815837
 30
0.0
 11
-84.467364868640317
 21
-1.399998249347389
 31
0.0
  0
ENDBLK
  5
CB
  8
0
  0
BLOCK
  8
0
  2
*X18
 70
     1
 10
0.0
 20
0.0
 30
0.0
  3
*X18
  1

  0
LINE
  5
429
  8
0
  6
CONTINUOUS
 10
-37.985833143773313
 20
-72.59999668892965
 30
0.0
 11
-37.900001931186807
 21
-72.514165476343123
 31
0.0
  0
LINE
  5
42A
  8
0
  6
CONTINUOUS
 10
-40.230897944837473
 20
-72.599998037628779
 30
0.0
 11
-39.030900986767278
 21
-71.400001079558592
 31
0.0
  0
LINE
  5
42B
  8
0
  6
CONTINUOUS
 10
-42.47595735110508
 20
-72.599993991531392
 30
0.0
 11
-41.275960393034893
 21
-71.399997033461204
 31
0.0
  0
LINE
  5
42C
  8
0
  6
CONTINUOUS
 10
-44.721022152169212
 20
-72.599995340230507
 30
0.0
 11
-43.521025194099032
 21
-71.399998382160334
 31
0.0
  0
LINE
  5
42D
  8
0
  6
CONTINUOUS
 10
-46.966086953233336
 20
-72.59999668892965
 30
0.0
 11
-45.766089995163163
 21
-71.399999730859449
 31
0.0
  0
LINE
  5
42E
  8
0
  6
CONTINUOUS
 10
-49.211153102996597
 20
-72.59999668892965
 30
0.0
 11
-48.011156144926417
 21
-71.399999730859449
 31
0.0
  0
LINE
  5
42F
  8
0
  6
CONTINUOUS
 10
-51.45621790406075
 20
-72.599998037628779
 30
0.0
 11
-50.256220945990542
 21
-71.400001079558592
 31
0.0
  0
LINE
  5
430
  8
0
  6
CONTINUOUS
 10
-53.701277310328351
 20
-72.599993991531392
 30
0.0
 11
-52.501280352258163
 21
-71.399997033461204
 31
0.0
  0
LINE
  5
431
  8
0
  6
CONTINUOUS
 10
-55.946342111392482
 20
-72.599995340230507
 30
0.0
 11
-54.746345153322302
 21
-71.399998382160334
 31
0.0
  0
LINE
  5
432
  8
0
  6
CONTINUOUS
 10
-58.191407586806179
 20
-72.5999960145801
 30
0.0
 11
-56.991410628735991
 21
-71.399999056509898
 31
0.0
  0
LINE
  5
433
  8
0
  6
CONTINUOUS
 10
-60.43647238787031
 20
-72.599997363279201
 30
0.0
 11
-59.236475429800109
 21
-71.400000405209042
 31
0.0
  0
LINE
  5
434
  8
0
  6
CONTINUOUS
 10
-61.760510890733059
 20
-71.678971739427411
 30
0.0
 11
-61.48154056803903
 21
-71.400001416733375
 31
0.0
  0
ENDBLK
  5
CE
  8
0
  0
BLOCK
  8
0
  2
*X19
 70
     1
 10
0.0
 20
0.0
 30
0.0
  3
*X19
  1

  0
LINE
  5
435
  8
0
  6
CONTINUOUS
 10
-62.68153752610921
 20
-72.599998374803562
 30
0.0
 11
-62.16050807849097
 21
-72.078968927185301
 31
0.0
  0
LINE
  5
436
  8
0
  6
CONTINUOUS
 10
-64.926597269551621
 20
-72.599993991531392
 30
0.0
 11
-63.726600311481427
 21
-71.399997033461204
 31
0.0
  0
LINE
  5
437
  8
0
  6
CONTINUOUS
 10
-67.171662407790535
 20
-72.599995003055739
 30
0.0
 11
-65.971665449720348
 21
-71.399998044985537
 31
0.0
  0
LINE
  5
438
  8
0
  6
CONTINUOUS
 10
-69.416727377442029
 20
-72.599996183167491
 30
0.0
 11
-68.216730419371871
 21
-71.399999225097289
 31
0.0
  0
LINE
  5
439
  8
0
  6
CONTINUOUS
 10
-71.661792515680972
 20
-72.599997194691809
 30
0.0
 11
-70.461795557610785
 21
-71.400000236621636
 31
0.0
  0
LINE
  5
43A
  8
0
  6
CONTINUOUS
 10
-73.906857569626212
 20
-72.599998290509859
 30
0.0
 11
-72.70686061155601
 21
-71.400001332439672
 31
0.0
  0
LINE
  5
43B
  8
0
  6
CONTINUOUS
 10
-76.151917228774892
 20
-72.599993991531392
 30
0.0
 11
-74.951920270704704
 21
-71.399997033461204
 31
0.0
  0
LINE
  5
43C
  8
0
  6
CONTINUOUS
 10
-78.396982367013791
 20
-72.599995003055739
 30
0.0
 11
-77.196985408943618
 21
-71.399998044985537
 31
0.0
  0
LINE
  5
43D
  8
0
  6
CONTINUOUS
 10
-80.642047505252719
 20
-72.5999960145801
 30
0.0
 11
-79.442050547182532
 21
-71.399999056509898
 31
0.0
  0
LINE
  5
43E
  8
0
  6
CONTINUOUS
 10
-82.887112306316808
 20
-72.599997363279201
 30
0.0
 11
-81.687115348246664
 21
-71.400000405209042
 31
0.0
  0
LINE
  5
43F
  8
0
  6
CONTINUOUS
 10
-85.13217238693403
 20
-72.599992642832277
 30
0.0
 11
-83.932175428863843
 21
-71.399995684762061
 31
0.0
  0
LINE
  5
440
  8
0
  6
CONTINUOUS
 10
-87.377237187998162
 20
-72.599993991531392
 30
0.0
 11
-86.177240229927961
 21
-71.399997033461204
 31
0.0
  0
LINE
  5
441
  8
0
  6
CONTINUOUS
 10
-89.622301989062294
 20
-72.599995340230507
 30
0.0
 11
-88.422305030992092
 21
-71.399998382160334
 31
0.0
  0
LINE
  5
442
  8
0
  6
CONTINUOUS
 10
-91.867367464475976
 20
-72.5999960145801
 30
0.0
 11
-90.667370506405788
 21
-71.399999056509898
 31
0.0
  0
ENDBLK
  5
D1
  8
0
  0
BLOCK
  8
0
  2
*D20
 70
     1
 10
0.0
 20
0.0
 30
0.0
  3
*D20
  1

  0
LINE
  5
443
  8
0
 62
     0
 10
-40.0
 20
-82.900001525878906
 30
0.0
 11
-40.0
 21
-57.099998474121101
 31
0.0
  0
INSERT
  5
444
  8
0
  6
C_SOLID_L
 62
     0
  2
CCD_OARW
 10
-40.0
 20
-82.900001525878906
 30
0.0
 50
89.999999999999915
  0
INSERT
  5
445
  8
0
  6
C_SOLID_L
 62
     0
  2
CCD_OARWRT
 10
-40.0
 20
-57.099998474121101
 30
0.0
 50
269.99999999999977
  0
LINE
  5
446
  8
0
 62
     0
 10
-27.622501492500302
 20
-82.900001525878892
 30
0.0
 11
-42.285999298095703
 21
-82.900001525878906
 31
0.0
  0
LINE
  5
447
  8
0
 62
     0
 10
-27.622501492500302
 20
-57.099998474121101
 30
0.0
 11
-42.285999298095703
 21
-57.099998474121101
 31
0.0
  0
INSERT
  5
448
  8
0
  2
*U46
 10
0.0
 20
0.0
 30
0.0
  0
LINE
  5
449
  8
0
 62
     0
 10
-40.0
 20
-104.85401916503911
 30
0.0
 11
-40.0
 21
-82.900001525878906
 31
0.0
  0
ENDBLK
  5
D4
  8
0
  0
BLOCK
  8
0
  2
*D21
 70
     1
 10
0.0
 20
0.0
 30
0.0
  3
*D21
  1

  0
LINE
  5
44A
  8
0
 62
     0
 10
-21.700000762939439
 20
-25.0
 30
0.0
 11
-91.699996948242202
 21
-25.0
 31
0.0
  0
INSERT
  5
44B
  8
0
  6
C_SOLID_L
 62
     0
  2
CCD_OARW
 10
-21.700000762939439
 20
-25.0
 30
0.0
 50
179.9999999999998
  0
INSERT
  5
44C
  8
0
  6
C_SOLID_L
 62
     0
  2
CCD_OARWRT
 10
-91.699996948242202
 20
-25.0
 30
0.0
  0
LINE
  5
44D
  8
0
 62
     0
 10
-21.70000076293946
 20
-6.222499966621398
 30
0.0
 11
-21.700000762939439
 21
-27.2859992980957
 31
0.0
  0
LINE
  5
44E
  8
0
 62
     0
 10
-91.699996948242202
 20
-4.472499966621398
 30
0.0
 11
-91.699996948242202
 21
-27.2859992980957
 31
0.0
  0
TEXT
  5
44F
  8
0
 10
-64.82265460491179
 20
-21.959225729942322
 30
0.0
 40
4.1671876907348633
  1
１５０以上
  0
ENDBLK
  5
D7
  8
0
  0
BLOCK
  8
0
  2
*D22
 70
     1
 10
0.0
 20
0.0
 30
0.0
  3
*D22
  1

  0
LINE
  5
7C1
  8
0
  6
CONTINUOUS
 62
     0
 10
-2.3239346313476541
 20
87.764434814453125
 30
0.0
 11
-26.41393310546875
 21
87.764434814453125
 31
0.0
  0
LINE
  5
7C2
  8
0
  6
CONTINUOUS
 62
     0
 10
-2.3239346313476541
 20
57.764434814453118
 30
0.0
 11
-26.413933105468761
 21
57.764434814453118
 31
0.0
  0
LINE
  5
7C3
  8
0
  6
CONTINUOUS
 62
     0
 10
-21.843933105468739
 20
83.194434814453132
 30
0.0
 11
-21.843933105468739
 21
62.334434814453132
 31
0.0
  0
SOLID
  5
7C4
  8
0
  6
CONTINUOUS
 62
     0
 10
-22.60559977213542
 20
83.194434814453132
 30
0.0
 11
-21.082266438802069
 21
83.194434814453132
 31
0.0
 12
-21.843933105468739
 22
87.764434814453125
 32
0.0
 13
-21.843933105468739
 23
87.764434814453125
 33
0.0
  0
SOLID
  5
7C5
  8
0
  6
CONTINUOUS
 62
     0
 10
-22.60559977213542
 20
62.334434814453132
 30
0.0
 11
-21.08226643880209
 21
62.334434814453132
 31
0.0
 12
-21.843933105468739
 22
57.764434814453118
 32
0.0
 13
-21.843933105468739
 23
57.764434814453118
 33
0.0
  0
INSERT
  5
7C6
  8
0
  2
*U48
 10
0.0
 20
0.0
 30
0.0
  0
POINT
  5
7C7
  8
DEFPOINTS
  6
CONTINUOUS
 62
     0
 10
-0.7439346313476563
 20
87.764434814453125
 30
0.0
  0
POINT
  5
7C8
  8
DEFPOINTS
  6
CONTINUOUS
 62
     0
 10
-0.7439346313476563
 20
57.764434814453118
 30
0.0
  0
POINT
  5
7C9
  8
DEFPOINTS
  6
CONTINUOUS
 62
     0
 10
-21.843933105468739
 20
57.764434814453118
 30
0.0
  0
ENDBLK
  5
DA
  8
0
  0
BLOCK
  8
0
  2
*D23
 70
     1
 10
0.0
 20
0.0
 30
0.0
  3
*D23
  1

  0
LINE
  5
7B6
  8
0
  6
CONTINUOUS
 62
     0
 10
-1.043933868408202
 20
89.044431762695311
 30
0.0
 11
-1.0439338684082
 21
112.33443481445291
 31
0.0
  0
LINE
  5
7B7
  8
0
  6
CONTINUOUS
 62
     0
 10
-5.84393310546875
 20
75.144437866210936
 30
0.0
 11
-5.8439331054687473
 21
112.33443481445291
 31
0.0
  0
LINE
  5
7B8
  8
0
  6
CONTINUOUS
 62
     0
 10
3.526066131591798
 20
107.7644348144529
 30
0.0
 11
8.0960661315917992
 21
107.7644348144529
 31
0.0
  0
LINE
  5
7B9
  8
0
  6
CONTINUOUS
 62
     0
 10
-10.41393310546874
 20
107.7644348144529
 30
0.0
 11
-14.98393310546874
 21
107.7644348144529
 31
0.0
  0
LINE
  5
7BA
  8
0
  6
CONTINUOUS
 62
     0
 10
-1.0439338684082
 20
107.7644348144529
 30
0.0
 11
-5.8439331054687473
 21
107.7644348144529
 31
0.0
  0
SOLID
  5
7BB
  8
0
  6
CONTINUOUS
 62
     0
 10
3.526066131591798
 20
108.5261014811197
 30
0.0
 11
3.526066131591798
 21
107.0027681477864
 31
0.0
 12
-1.0439338684082
 22
107.7644348144529
 32
0.0
 13
-1.0439338684082
 23
107.7644348144529
 33
0.0
  0
SOLID
  5
7BC
  8
0
  6
CONTINUOUS
 62
     0
 10
-10.41393310546874
 20
108.5261014811197
 30
0.0
 11
-10.41393310546874
 21
107.0027681477864
 31
0.0
 12
-5.8439331054687473
 22
107.7644348144529
 32
0.0
 13
-5.8439331054687473
 23
107.7644348144529
 33
0.0
  0
TEXT
  5
7BD
  8
0
 62
     0
 10
-9.0002003368250492
 20
110.0444348144529
 30
0.0
 40
4.1672001374149312
  1
4.8
  0
POINT
  5
7BE
  8
DEFPOINTS
  6
CONTINUOUS
 62
     0
 10
-1.043933868408202
 20
87.464431762695312
 30
0.0
  0
POINT
  5
7BF
  8
DEFPOINTS
  6
CONTINUOUS
 62
     0
 10
-5.84393310546875
 20
73.564437866210937
 30
0.0
  0
POINT
  5
7C0
  8
DEFPOINTS
  6
CONTINUOUS
 62
     0
 10
-5.8439331054687473
 20
107.7644348144529
 30
0.0
  0
ENDBLK
  5
DD
  8
0
  0
BLOCK
  8
0
  2
*D24
 70
     1
 10
0.0
 20
0.0
 30
0.0
  3
*D24
  1

  0
LINE
  5
7AB
  8
0
  6
CONTINUOUS
 62
     0
 10
18.15606689453125
 20
89.044431762695311
 30
0.0
 11
18.15606689453125
 21
112.33443481445291
 31
0.0
  0
LINE
  5
7AC
  8
0
  6
CONTINUOUS
 62
     0
 10
-1.043933868408202
 20
89.044431762695311
 30
0.0
 11
-1.0439338684082
 21
112.33443481445291
 31
0.0
  0
LINE
  5
7AD
  8
0
  6
CONTINUOUS
 62
     0
 10
22.72606689453124
 20
107.7644348144529
 30
0.0
 11
27.296066894531251
 21
107.7644348144529
 31
0.0
  0
LINE
  5
7AE
  8
0
  6
CONTINUOUS
 62
     0
 10
-5.6139338684081999
 20
107.7644348144529
 30
0.0
 11
-10.1839338684082
 21
107.7644348144529
 31
0.0
  0
LINE
  5
7AF
  8
0
  6
CONTINUOUS
 62
     0
 10
18.15606689453125
 20
107.7644348144529
 30
0.0
 11
-1.0439338684082
 21
107.7644348144529
 31
0.0
  0
SOLID
  5
7B0
  8
0
  6
CONTINUOUS
 62
     0
 10
22.72606689453124
 20
108.5261014811197
 30
0.0
 11
22.72606689453124
 21
107.0027681477864
 31
0.0
 12
18.15606689453125
 22
107.7644348144529
 32
0.0
 13
18.15606689453125
 23
107.7644348144529
 33
0.0
  0
SOLID
  5
7B1
  8
0
  6
CONTINUOUS
 62
     0
 10
-5.6139338684081999
 20
108.5261014811197
 30
0.0
 11
-5.6139338684081999
 21
107.0027681477864
 31
0.0
 12
-1.0439338684082
 22
107.7644348144529
 32
0.0
 13
-1.0439338684082
 23
107.7644348144529
 33
0.0
  0
TEXT
  5
7B2
  8
0
 62
     0
 10
0.9161995944674812
 20
110.0444348144529
 30
0.0
 40
4.1672001374149312
  1
19.2
  0
POINT
  5
7B3
  8
DEFPOINTS
  6
CONTINUOUS
 62
     0
 10
18.15606689453125
 20
87.464431762695312
 30
0.0
  0
POINT
  5
7B4
  8
DEFPOINTS
  6
CONTINUOUS
 62
     0
 10
-1.043933868408202
 20
87.464431762695312
 30
0.0
  0
POINT
  5
7B5
  8
DEFPOINTS
  6
CONTINUOUS
 62
     0
 10
-1.0439338684082
 20
107.7644348144529
 30
0.0
  0
ENDBLK
  5
E0
  8
0
  0
BLOCK
  8
0
  2
*D25
 70
     1
 10
0.0
 20
0.0
 30
0.0
  3
*D25
  1

  0
LINE
  5
7A0
  8
0
  6
CONTINUOUS
 62
     0
 10
33.65606689453125
 20
75.444433288574217
 30
0.0
 11
33.65606689453125
 21
112.33443481445291
 31
0.0
  0
LINE
  5
7A1
  8
0
  6
CONTINUOUS
 62
     0
 10
18.15606689453125
 20
89.044431762695311
 30
0.0
 11
18.15606689453125
 21
112.33443481445291
 31
0.0
  0
LINE
  5
7A2
  8
0
  6
CONTINUOUS
 62
     0
 10
38.22606689453125
 20
107.7644348144529
 30
0.0
 11
42.796066894531251
 21
107.7644348144529
 31
0.0
  0
LINE
  5
7A3
  8
0
  6
CONTINUOUS
 62
     0
 10
13.58606689453125
 20
107.7644348144529
 30
0.0
 11
9.0160668945312477
 21
107.7644348144529
 31
0.0
  0
LINE
  5
7A4
  8
0
  6
CONTINUOUS
 62
     0
 10
33.65606689453125
 20
107.7644348144529
 30
0.0
 11
18.15606689453125
 21
107.7644348144529
 31
0.0
  0
SOLID
  5
7A5
  8
0
  6
CONTINUOUS
 62
     0
 10
38.22606689453125
 20
108.5261014811197
 30
0.0
 11
38.22606689453125
 21
107.0027681477864
 31
0.0
 12
33.65606689453125
 22
107.7644348144529
 32
0.0
 13
33.65606689453125
 23
107.7644348144529
 33
0.0
  0
SOLID
  5
7A6
  8
0
  6
CONTINUOUS
 62
     0
 10
13.58606689453125
 20
108.5261014811197
 30
0.0
 11
13.58606689453125
 21
107.0027681477864
 31
0.0
 12
18.15606689453125
 22
107.7644348144529
 32
0.0
 13
18.15606689453125
 23
107.7644348144529
 33
0.0
  0
TEXT
  5
7A7
  8
0
 62
     0
 10
18.266199975937209
 20
110.0444348144529
 30
0.0
 40
4.1672001374149312
  1
15.5
  0
POINT
  5
7A8
  8
DEFPOINTS
  6
CONTINUOUS
 62
     0
 10
33.65606689453125
 20
73.864433288574219
 30
0.0
  0
POINT
  5
7A9
  8
DEFPOINTS
  6
CONTINUOUS
 62
     0
 10
18.15606689453125
 20
87.464431762695312
 30
0.0
  0
POINT
  5
7AA
  8
DEFPOINTS
  6
CONTINUOUS
 62
     0
 10
18.15606689453125
 20
107.7644348144529
 30
0.0
  0
ENDBLK
  5
E3
  8
0
  0
BLOCK
  8
0
  2
*D26
 70
     1
 10
0.0
 20
0.0
 30
0.0
  3
*D26
  1

  0
LINE
  5
795
  8
0
  6
CONTINUOUS
 62
     0
 10
24.3560676574707
 20
76.844434814453123
 30
0.0
 11
24.3560676574707
 21
102.3344348144531
 31
0.0
  0
LINE
  5
796
  8
0
  6
CONTINUOUS
 62
     0
 10
18.15606689453125
 20
89.044431762695311
 30
0.0
 11
18.15606689453125
 21
102.3344348144531
 31
0.0
  0
LINE
  5
797
  8
0
  6
CONTINUOUS
 62
     0
 10
28.926067657470689
 20
97.764434814453125
 30
0.0
 11
33.496067657470689
 21
97.764434814453125
 31
0.0
  0
LINE
  5
798
  8
0
  6
CONTINUOUS
 62
     0
 10
13.58606689453125
 20
97.764434814453125
 30
0.0
 11
9.0160668945312477
 21
97.764434814453125
 31
0.0
  0
LINE
  5
799
  8
0
  6
CONTINUOUS
 62
     0
 10
24.3560676574707
 20
97.764434814453125
 30
0.0
 11
18.15606689453125
 21
97.764434814453125
 31
0.0
  0
SOLID
  5
79A
  8
0
  6
CONTINUOUS
 62
     0
 10
28.926067657470689
 20
98.526101481119809
 30
0.0
 11
28.926067657470689
 21
97.002768147786455
 31
0.0
 12
24.3560676574707
 22
97.764434814453125
 32
0.0
 13
24.3560676574707
 23
97.764434814453125
 33
0.0
  0
SOLID
  5
79B
  8
0
  6
CONTINUOUS
 62
     0
 10
13.58606689453125
 20
98.526101481119809
 30
0.0
 11
13.58606689453125
 21
97.002768147786455
 31
0.0
 12
18.15606689453125
 22
97.764434814453125
 32
0.0
 13
18.15606689453125
 23
97.764434814453125
 33
0.0
  0
TEXT
  5
79C
  8
0
 62
     0
 10
15.699800426114381
 20
100.0444348144531
 30
0.0
 40
4.1672001374149312
  1
6.2
  0
POINT
  5
79D
  8
DEFPOINTS
  6
CONTINUOUS
 62
     0
 10
24.3560676574707
 20
75.264434814453125
 30
0.0
  0
POINT
  5
79E
  8
DEFPOINTS
  6
CONTINUOUS
 62
     0
 10
18.15606689453125
 20
87.464431762695312
 30
0.0
  0
POINT
  5
79F
  8
DEFPOINTS
  6
CONTINUOUS
 62
     0
 10
18.15606689453125
 20
97.764434814453125
 30
0.0
  0
ENDBLK
  5
E6
  8
0
  0
BLOCK
  8
0
  2
*D27
 70
     1
 10
0.0
 20
0.0
 30
0.0
  3
*D27
  1

  0
LINE
  5
78C
  8
0
  6
CONTINUOUS
 62
     0
 10
107.73606689453121
 20
83.764434814453125
 30
0.0
 11
132.72606689453119
 21
83.764434814453125
 31
0.0
  0
LINE
  5
78D
  8
0
  6
CONTINUOUS
 62
     0
 10
107.73606689453121
 20
61.764434814453111
 30
0.0
 11
132.7260668945311
 21
61.764434814453111
 31
0.0
  0
LINE
  5
78E
  8
0
  6
CONTINUOUS
 62
     0
 10
128.15606689453119
 20
79.194434814453132
 30
0.0
 11
128.15606689453119
 21
66.334434814453104
 31
0.0
  0
SOLID
  5
78F
  8
0
  6
CONTINUOUS
 62
     0
 10
127.39440022786449
 20
79.194434814453132
 30
0.0
 11
128.91773356119771
 21
79.194434814453132
 31
0.0
 12
128.15606689453119
 22
83.764434814453125
 32
0.0
 13
128.15606689453119
 23
83.764434814453125
 33
0.0
  0
SOLID
  5
790
  8
0
  6
CONTINUOUS
 62
     0
 10
127.39440022786449
 20
66.334434814453104
 30
0.0
 11
128.91773356119771
 21
66.334434814453104
 31
0.0
 12
128.15606689453119
 22
61.764434814453111
 32
0.0
 13
128.15606689453119
 23
61.764434814453111
 33
0.0
  0
TEXT
  5
791
  8
0
 62
     0
 10
125.87606689453111
 20
69.291768033274025
 30
0.0
 40
4.1672001374149312
  1
22
 50
90.0
  0
POINT
  5
792
  8
DEFPOINTS
  6
CONTINUOUS
 62
     0
 10
106.15606689453119
 20
83.764434814453125
 30
0.0
  0
POINT
  5
793
  8
DEFPOINTS
  6
CONTINUOUS
 62
     0
 10
106.15606689453119
 20
61.764434814453111
 30
0.0
  0
POINT
  5
794
  8
DEFPOINTS
  6
CONTINUOUS
 62
     0
 10
128.15606689453119
 20
61.764434814453111
 30
0.0
  0
ENDBLK
  5
E9
  8
0
  0
BLOCK
  8
0
  2
*D28
 70
     1
 10
0.0
 20
0.0
 30
0.0
  3
*D28
  1

  0
LINE
  5
781
  8
0
  6
CONTINUOUS
 62
     0
 10
-1.043933868408202
 20
9.0444355773925764
 30
0.0
 11
-1.043933868408202
 21
22.334434814453122
 31
0.0
  0
LINE
  5
782
  8
0
  6
CONTINUOUS
 62
     0
 10
-12.04393386840818
 20
-4.8555621337890607
 30
0.0
 11
-12.04393386840818
 21
22.334434814453122
 31
0.0
  0
LINE
  5
783
  8
0
  6
CONTINUOUS
 62
     0
 10
3.526066131591798
 20
17.764434814453121
 30
0.0
 11
8.0960661315917974
 21
17.764434814453121
 31
0.0
  0
LINE
  5
784
  8
0
  6
CONTINUOUS
 62
     0
 10
-16.613933868408189
 20
17.764434814453121
 30
0.0
 11
-21.183933868408189
 21
17.764434814453121
 31
0.0
  0
LINE
  5
785
  8
0
  6
CONTINUOUS
 62
     0
 10
-1.043933868408202
 20
17.764434814453121
 30
0.0
 11
-12.04393386840818
 21
17.764434814453121
 31
0.0
  0
SOLID
  5
786
  8
0
  6
CONTINUOUS
 62
     0
 10
3.526066131591798
 20
18.526101481119781
 30
0.0
 11
3.526066131591798
 21
17.002768147786451
 31
0.0
 12
-1.043933868408202
 22
17.764434814453121
 32
0.0
 13
-1.043933868408202
 23
17.764434814453121
 33
0.0
  0
SOLID
  5
787
  8
0
  6
CONTINUOUS
 62
     0
 10
-16.613933868408189
 20
18.526101481119781
 30
0.0
 11
-16.613933868408189
 21
17.002768147786451
 31
0.0
 12
-12.04393386840818
 22
17.764434814453121
 32
0.0
 13
-12.04393386840818
 23
17.764434814453121
 33
0.0
  0
TEXT
  5
788
  8
0
 62
     0
 10
-17.656467568181341
 20
20.044434814453101
 30
0.0
 40
4.1672001374149312
  1
(11.3)
  0
POINT
  5
789
  8
DEFPOINTS
  6
CONTINUOUS
 62
     0
 10
-1.043933868408202
 20
7.4644355773925772
 30
0.0
  0
POINT
  5
78A
  8
DEFPOINTS
  6
CONTINUOUS
 62
     0
 10
-12.04393386840818
 20
-6.4355621337890616
 30
0.0
  0
POINT
  5
78B
  8
DEFPOINTS
  6
CONTINUOUS
 62
     0
 10
-12.04393386840818
 20
17.764434814453121
 30
0.0
  0
ENDBLK
  5
EC
  8
0
  0
BLOCK
  8
0
  2
*D29
 70
     1
 10
0.0
 20
0.0
 30
0.0
  3
*D29
  1

  0
LINE
  5
776
  8
0
  6
CONTINUOUS
 62
     0
 10
27.4560661315918
 20
-4.5555667114257812
 30
0.0
 11
27.4560661315918
 21
22.334434814453122
 31
0.0
  0
LINE
  5
777
  8
0
  6
CONTINUOUS
 62
     0
 10
18.15606689453125
 20
9.0444355773925764
 30
0.0
 11
18.15606689453125
 21
22.334434814453122
 31
0.0
  0
LINE
  5
778
  8
0
  6
CONTINUOUS
 62
     0
 10
32.026066131591797
 20
17.764434814453121
 30
0.0
 11
36.596066131591797
 21
17.764434814453121
 31
0.0
  0
LINE
  5
779
  8
0
  6
CONTINUOUS
 62
     0
 10
13.58606689453125
 20
17.764434814453121
 30
0.0
 11
9.0160668945312477
 21
17.764434814453121
 31
0.0
  0
LINE
  5
77A
  8
0
  6
CONTINUOUS
 62
     0
 10
27.4560661315918
 20
17.764434814453121
 30
0.0
 11
18.15606689453125
 21
17.764434814453121
 31
0.0
  0
SOLID
  5
77B
  8
0
  6
CONTINUOUS
 62
     0
 10
32.026066131591797
 20
18.526101481119781
 30
0.0
 11
32.026066131591797
 21
17.002768147786451
 31
0.0
 12
27.4560661315918
 22
17.764434814453121
 32
0.0
 13
27.4560661315918
 23
17.764434814453121
 33
0.0
  0
SOLID
  5
77C
  8
0
  6
CONTINUOUS
 62
     0
 10
13.58606689453125
 20
18.526101481119781
 30
0.0
 11
13.58606689453125
 21
17.002768147786451
 31
0.0
 12
18.15606689453125
 22
17.764434814453121
 32
0.0
 13
18.15606689453125
 23
17.764434814453121
 33
0.0
  0
TEXT
  5
77D
  8
0
 62
     0
 10
17.94433301941076
 20
20.044434814453101
 30
0.0
 40
4.1672001374149312
  1
(9)
  0
POINT
  5
77E
  8
DEFPOINTS
  6
CONTINUOUS
 62
     0
 10
27.4560661315918
 20
-6.1355667114257813
 30
0.0
  0
POINT
  5
77F
  8
DEFPOINTS
  6
CONTINUOUS
 62
     0
 10
18.15606689453125
 20
7.4644355773925772
 30
0.0
  0
POINT
  5
780
  8
DEFPOINTS
  6
CONTINUOUS
 62
     0
 10
18.15606689453125
 20
17.764434814453121
 30
0.0
  0
ENDBLK
  5
EF
  8
0
  0
BLOCK
  8
0
  2
*X30
 70
     1
 10
0.0
 20
0.0
 30
0.0
  3
*X30
  1

  0
LINE
  5
6E2
  8
0
  6
CONTINUOUS
 10
-13.62976188509197
 20
70.164434879352257
 30
0.0
 11
-13.5439333699037
 21
70.250263394540525
 31
0.0
  0
LINE
  5
6E3
  8
0
  6
CONTINUOUS
 10
-15.87482533745697
 20
70.16443757675053
 30
0.0
 11
-14.674828379386771
 21
71.364434534820703
 31
0.0
  0
LINE
  5
6E4
  8
0
  6
CONTINUOUS
 10
-18.11988878982196
 20
70.164434879352257
 30
0.0
 11
-16.919891831751752
 21
71.364431837422444
 31
0.0
  0
LINE
  5
6E5
  8
0
  6
CONTINUOUS
 10
-20.364954939585228
 20
70.164434879352257
 30
0.0
 11
-19.16495798151503
 21
71.364431837422444
 31
0.0
  0
LINE
  5
6E6
  8
0
  6
CONTINUOUS
 10
-22.610018391950231
 20
70.16443757675053
 30
0.0
 11
-21.410021433880051
 21
71.364434534820703
 31
0.0
  0
LINE
  5
6E7
  8
0
  6
CONTINUOUS
 10
-24.855084541713499
 20
70.16443757675053
 30
0.0
 11
-23.655087583643311
 21
71.364434534820703
 31
0.0
  0
LINE
  5
6E8
  8
0
  6
CONTINUOUS
 10
-27.10014394798111
 20
70.164433530653099
 30
0.0
 11
-25.90014564121179
 21
71.364431837422444
 31
0.0
  0
LINE
  5
6E9
  8
0
  6
CONTINUOUS
 10
-29.345208749045231
 20
70.164434879352257
 30
0.0
 11
-28.145211790975051
 21
71.364431837422444
 31
0.0
  0
LINE
  5
6EA
  8
0
  6
CONTINUOUS
 10
-31.590273550109369
 20
70.164436228051386
 30
0.0
 11
-30.390276592039179
 21
71.364433186121559
 31
0.0
  0
LINE
  5
6EB
  8
0
  6
CONTINUOUS
 10
-33.835338351173483
 20
70.16443757675053
 30
0.0
 11
-32.635341393103317
 21
71.364434534820703
 31
0.0
  0
LINE
  5
6EC
  8
0
  6
CONTINUOUS
 10
-36.080403152237629
 20
70.164438925449645
 30
0.0
 11
-34.880406194167449
 21
71.364435883519832
 31
0.0
  0
LINE
  5
6ED
  8
0
  6
CONTINUOUS
 10
-37.404439969226473
 20
71.085457468631049
 30
0.0
 11
-37.125465600435057
 21
71.364431837422444
 31
0.0
  0
ENDBLK
  5
F2
  8
0
  0
BLOCK
  8
0
  2
*X31
 70
     1
 10
0.0
 20
0.0
 30
0.0
  3
*X31
  1

  0
LINE
  5
6EE
  8
0
  6
CONTINUOUS
 10
-38.325462558505251
 20
70.164434879352257
 30
0.0
 11
-37.804438505683493
 21
70.685458932174015
 31
0.0
  0
LINE
  5
6EF
  8
0
  6
CONTINUOUS
 10
-40.570528708268512
 20
70.164434879352257
 30
0.0
 11
-39.370531750198317
 21
71.364431837422444
 31
0.0
  0
LINE
  5
6F0
  8
0
  6
CONTINUOUS
 10
-42.815593509332643
 20
70.164436228051386
 30
0.0
 11
-41.615596551262463
 21
71.364433186121559
 31
0.0
  0
LINE
  5
6F1
  8
0
  6
CONTINUOUS
 10
-45.060658310396789
 20
70.16443757675053
 30
0.0
 11
-43.860661352326588
 21
71.364434534820703
 31
0.0
  0
LINE
  5
6F2
  8
0
  6
CONTINUOUS
 10
-47.305723111460878
 20
70.164438925449645
 30
0.0
 11
-46.105726153390719
 21
71.364435883519832
 31
0.0
  0
LINE
  5
6F3
  8
0
  6
CONTINUOUS
 10
-49.550783192078093
 20
70.164434205002692
 30
0.0
 11
-48.35078555965832
 21
71.364431837422444
 31
0.0
  0
LINE
  5
6F4
  8
0
  6
CONTINUOUS
 10
-51.795847993142218
 20
70.164435553701821
 30
0.0
 11
-50.59585103507203
 21
71.364432511772009
 31
0.0
  0
LINE
  5
6F5
  8
0
  6
CONTINUOUS
 10
-54.040912794206349
 20
70.164436902400951
 30
0.0
 11
-52.840915836136162
 21
71.364433860471138
 31
0.0
  0
LINE
  5
6F6
  8
0
  6
CONTINUOUS
 10
-56.285977595270481
 20
70.16443825110008
 30
0.0
 11
-55.085981311549858
 21
71.364434534820703
 31
0.0
  0
LINE
  5
6F7
  8
0
  6
CONTINUOUS
 10
-58.53104307068417
 20
70.164438925449645
 30
0.0
 11
-57.33104611261399
 21
71.364435883519832
 31
0.0
  0
LINE
  5
6F8
  8
0
  6
CONTINUOUS
 10
-60.776102476951792
 20
70.164434879352257
 30
0.0
 11
-59.57610551888159
 21
71.364431837422444
 31
0.0
  0
LINE
  5
6F9
  8
0
  6
CONTINUOUS
 10
-63.021167615190699
 20
70.164435890876604
 30
0.0
 11
-61.821170657120518
 21
71.364432848946805
 31
0.0
  0
LINE
  5
6FA
  8
0
  6
CONTINUOUS
 10
-65.266232584842228
 20
70.164437070988342
 30
0.0
 11
-64.066235795359432
 21
71.364433860471138
 31
0.0
  0
LINE
  5
6FB
  8
0
  6
CONTINUOUS
 10
-67.511297638787454
 20
70.164438166806377
 30
0.0
 11
-66.311300765010955
 21
71.364435040582876
 31
0.0
  0
ENDBLK
  5
F5
  8
0
  0
BLOCK
  8
0
  2
*X32
 70
     1
 10
0.0
 20
0.0
 30
0.0
  3
*X32
  1

  0
LINE
  5
6FC
  8
0
  6
CONTINUOUS
 10
-19.829764488284439
 20
-9.8355633938887461
 30
0.0
 11
-19.743934624397031
 21
-9.749733530001345
 31
0.0
  0
LINE
  5
6FD
  8
0
  6
CONTINUOUS
 10
-22.074828277824221
 20
-9.8355630567139674
 30
0.0
 11
-20.87483131975404
 21
-8.6355660986437766
 31
0.0
  0
LINE
  5
6FE
  8
0
  6
CONTINUOUS
 10
-24.31989173018923
 20
-9.8355630567139674
 30
0.0
 11
-23.119894772119029
 21
-8.6355660986437766
 31
0.0
  0
LINE
  5
6FF
  8
0
  6
CONTINUOUS
 10
-26.564955182554229
 20
-9.8355630567139674
 30
0.0
 11
-25.364958224484031
 21
-8.6355660986437766
 31
0.0
  0
LINE
  5
700
  8
0
  6
CONTINUOUS
 10
-28.810019309268789
 20
-9.8355623823643992
 30
0.0
 11
-27.610022351198609
 21
-8.6355654242942137
 31
0.0
  0
LINE
  5
701
  8
0
  6
CONTINUOUS
 10
-31.055082761633798
 20
-9.8355623823643992
 30
0.0
 11
-29.85508715226274
 21
-8.6355667729933412
 31
0.0
  0
LINE
  5
702
  8
0
  6
CONTINUOUS
 10
-33.30014756269793
 20
-9.8355637310635249
 30
0.0
 11
-32.100150604627721
 21
-8.6355667729933412
 31
0.0
  0
LINE
  5
703
  8
0
  6
CONTINUOUS
 10
-35.545212363762062
 20
-9.8355623823643992
 30
0.0
 11
-34.345215405691867
 21
-8.6355654242942137
 31
0.0
  0
LINE
  5
704
  8
0
  6
CONTINUOUS
 10
-37.790274467427928
 20
-9.8355610336652735
 30
0.0
 11
-36.590278858056877
 21
-8.6355654242942137
 31
0.0
  0
LINE
  5
705
  8
0
  6
CONTINUOUS
 10
-40.035339268492073
 20
-9.8355623823643992
 30
0.0
 11
-38.835342310421879
 21
-8.6355654242942137
 31
0.0
  0
LINE
  5
706
  8
0
  6
CONTINUOUS
 10
-42.280404069556198
 20
-9.8355637310635249
 30
0.0
 11
-41.080407111485997
 21
-8.6355667729933412
 31
0.0
  0
LINE
  5
707
  8
0
  6
CONTINUOUS
 10
-43.604442235244157
 20
-8.9145384443864941
 30
0.0
 11
-43.325469215151877
 21
-8.6355654242942137
 31
0.0
  0
ENDBLK
  5
F8
  8
0
  0
BLOCK
  8
0
  2
*X33
 70
     1
 10
0.0
 20
0.0
 30
0.0
  3
*X33
  1

  0
LINE
  5
708
  8
0
  6
CONTINUOUS
 10
-44.525466173222071
 20
-9.8355623823643992
 30
0.0
 11
-44.004442120400313
 21
-9.3145383295426445
 31
0.0
  0
LINE
  5
709
  8
0
  6
CONTINUOUS
 10
-46.770532322985318
 20
-9.8355623823643992
 30
0.0
 11
-45.570535364915152
 21
-8.6355654242942137
 31
0.0
  0
LINE
  5
70A
  8
0
  6
CONTINUOUS
 10
-49.015594426651212
 20
-9.8355610336652735
 30
0.0
 11
-47.815597468581032
 21
-8.6355640755950844
 31
0.0
  0
LINE
  5
70B
  8
0
  6
CONTINUOUS
 10
-51.260659227715337
 20
-9.8355623823643992
 30
0.0
 11
-50.06066226964515
 21
-8.6355654242942137
 31
0.0
  0
LINE
  5
70C
  8
0
  6
CONTINUOUS
 10
-53.505724028779468
 20
-9.8355637310635249
 30
0.0
 11
-52.305727070709288
 21
-8.6355667729933412
 31
0.0
  0
LINE
  5
70D
  8
0
  6
CONTINUOUS
 10
-55.750787481144457
 20
-9.8355610336652735
 30
0.0
 11
-54.550790523074291
 21
-8.6355640755950844
 31
0.0
  0
LINE
  5
70E
  8
0
  6
CONTINUOUS
 10
-57.995850933509459
 20
-9.8355637310635249
 30
0.0
 11
-56.795853975439293
 21
-8.6355667729933412
 31
0.0
  0
LINE
  5
70F
  8
0
  6
CONTINUOUS
 10
-60.240914385874483
 20
-9.8355610336652735
 30
0.0
 11
-59.040917427804288
 21
-8.6355640755950844
 31
0.0
  0
LINE
  5
710
  8
0
  6
CONTINUOUS
 10
-62.485977838239478
 20
-9.8355637310635249
 30
0.0
 11
-61.285980880169291
 21
-8.6355667729933412
 31
0.0
  0
LINE
  5
711
  8
0
  6
CONTINUOUS
 10
-64.73104129060448
 20
-9.8355610336652735
 30
0.0
 11
-63.531044332534279
 21
-8.6355640755950844
 31
0.0
  0
LINE
  5
712
  8
0
  6
CONTINUOUS
 10
-66.976107440367741
 20
-9.8355610336652735
 30
0.0
 11
-65.77611048229754
 21
-8.6355640755950844
 31
0.0
  0
LINE
  5
713
  8
0
  6
CONTINUOUS
 10
-69.221170892732744
 20
-9.8355637310635249
 30
0.0
 11
-68.021173934662542
 21
-8.6355667729933412
 31
0.0
  0
LINE
  5
714
  8
0
  6
CONTINUOUS
 10
-71.466234345097732
 20
-9.8355610336652735
 30
0.0
 11
-70.266237387027559
 21
-8.6355640755950844
 31
0.0
  0
LINE
  5
715
  8
0
  6
CONTINUOUS
 10
-73.711297797462748
 20
-9.8355637310635249
 30
0.0
 11
-72.511300839392561
 21
-8.6355667729933412
 31
0.0
  0
ENDBLK
  5
FB
  8
0
  0
BLOCK
  8
0
  2
*D34
 70
     1
 10
0.0
 20
0.0
 30
0.0
  3
*D34
  1

  0
LINE
  5
76D
  8
0
  6
CONTINUOUS
 62
     0
 10
-8.8239346313476563
 20
5.6644363403320312
 30
0.0
 11
-26.41393310546874
 21
5.6644363403320339
 31
0.0
  0
LINE
  5
76E
  8
0
  6
CONTINUOUS
 62
     0
 10
-8.8239346313476563
 20
-20.13556671142576
 30
0.0
 11
-26.41393310546874
 21
-20.13556671142576
 31
0.0
  0
LINE
  5
76F
  8
0
  6
CONTINUOUS
 62
     0
 10
-21.843933105468739
 20
1.0944363403320341
 30
0.0
 11
-21.843933105468739
 21
-15.565566711425751
 31
0.0
  0
SOLID
  5
770
  8
0
  6
CONTINUOUS
 62
     0
 10
-22.605599772135399
 20
1.0944363403320341
 30
0.0
 11
-21.082266438802069
 21
1.0944363403320341
 31
0.0
 12
-21.843933105468739
 22
5.6644363403320321
 32
0.0
 13
-21.843933105468739
 23
5.6644363403320321
 33
0.0
  0
SOLID
  5
771
  8
0
  6
CONTINUOUS
 62
     0
 10
-22.605599772135399
 20
-15.565566711425751
 30
0.0
 11
-21.082266438802069
 21
-15.565566711425751
 31
0.0
 12
-21.843933105468739
 22
-20.13556671142576
 32
0.0
 13
-21.843933105468739
 23
-20.13556671142576
 33
0.0
  0
INSERT
  5
772
  8
0
  2
*U47
 10
0.0
 20
0.0
 30
0.0
  0
POINT
  5
773
  8
DEFPOINTS
  6
CONTINUOUS
 62
     0
 10
-7.2439346313476563
 20
5.6644363403320312
 30
0.0
  0
POINT
  5
774
  8
DEFPOINTS
  6
CONTINUOUS
 62
     0
 10
-7.2439346313476563
 20
-20.135566711425781
 30
0.0
  0
POINT
  5
775
  8
DEFPOINTS
  6
CONTINUOUS
 62
     0
 10
-21.843933105468739
 20
-20.13556671142576
 30
0.0
  0
ENDBLK
  5
FE
  8
0
  0
BLOCK
  8
0
  2
*D35
 70
     1
 10
0.0
 20
0.0
 30
0.0
  3
*D35
  1

  0
LINE
  5
7D4
  8
0
  6
CONTINUOUS
 62
     0
 10
-73.543930053710923
 20
68.934434814453141
 30
0.0
 11
-73.543930053710923
 21
43.194434814453103
 31
0.0
  0
LINE
  5
7D5
  8
0
  6
CONTINUOUS
 62
     0
 10
-3.5439338684082031
 20
67.184434814453112
 30
0.0
 11
-3.5439338684082031
 21
43.194434814453103
 31
0.0
  0
LINE
  5
7D6
  8
0
  6
CONTINUOUS
 62
     0
 10
-68.973930053710944
 20
47.764434814453097
 30
0.0
 11
-8.1139338684082052
 21
47.764434814453097
 31
0.0
  0
SOLID
  5
7D7
  8
0
  6
CONTINUOUS
 62
     0
 10
-68.973930053710944
 20
48.526101481119781
 30
0.0
 11
-68.973930053710944
 21
47.002768147786462
 31
0.0
 12
-73.543930053710923
 22
47.764434814453097
 32
0.0
 13
-73.543930053710923
 23
47.764434814453097
 33
0.0
  0
SOLID
  5
7D8
  8
0
  6
CONTINUOUS
 62
     0
 10
-8.1139338684082052
 20
48.526101481119781
 30
0.0
 11
-8.1139338684082052
 21
47.002768147786462
 31
0.0
 12
-3.5439338684082031
 22
47.764434814453097
 32
0.0
 13
-3.5439338684082031
 23
47.764434814453097
 33
0.0
  0
TEXT
  5
7D9
  8
0
 62
     0
 10
-49.795372332079893
 20
50.044434814453112
 30
0.0
 40
4.1672001374149312
  1
150以上
  0
POINT
  5
7DA
  8
DEFPOINTS
  6
CONTINUOUS
 62
     0
 10
-73.543930053710923
 20
70.514434814453125
 30
0.0
  0
POINT
  5
7DB
  8
DEFPOINTS
  6
CONTINUOUS
 62
     0
 10
-3.5439338684082031
 20
68.764434814453111
 30
0.0
  0
POINT
  5
7DC
  8
DEFPOINTS
  6
CONTINUOUS
 62
     0
 10
-3.5439338684082031
 20
47.764434814453097
 30
0.0
  0
ENDBLK
  5
101
  8
0
  0
BLOCK
  8
0
  2
*U36
 70
     1
 10
0.0
 20
0.0
 30
0.0
  3
*U36
  1

  0
TEXT
  5
7EF
  8
0
 10
-1.2499980926513641
 20
-6.0833247502644934
 30
0.0
 40
3.5
  1
1.作動耐久性・温度上昇は動作条件、負荷条件、取り付状態等で
  0
TEXT
  5
7F0
  8
0
 10
-1.2499980926513641
 20
-11.91665808359782
 30
0.0
 40
3.5
  1
  大きく変化します。実際の作動耐久性・温度上昇については、
  0
TEXT
  5
7F1
  8
0
 10
-1.2499980926513641
 20
-17.749991416931159
 30
0.0
 40
3.5
  1
  お客様の実機にVCMを装着してご確認下さい。
  0
ENDBLK
  5
7F3
  8
0
  0
BLOCK
  8
0
  2
*U37
 70
     1
 10
0.0
 20
0.0
 30
0.0
  3
*U37
  1

  0
TEXT
  5
7F5
  8
0
 10
-1.2499982118606541
 20
-22.583324750264481
 30
0.0
 40
3.5
  1
2.コイルへの配線はコイルの動作に影響を与えないように
  0
TEXT
  5
7F6
  8
0
 10
-1.2499982118606541
 20
-28.41665808359781
 30
0.0
 40
3.5
  1
  配線してください。又、動作に伴うストレスで
  0
TEXT
  5
7F7
  8
0
 10
-1.2499982118606541
 20
-34.249991416931138
 30
0.0
 40
3.5
  1
  断線しないものを選択してください。
  0
ENDBLK
  5
7F9
  8
0
  0
BLOCK
  8
0
  2
*U38
 70
     1
 10
0.0
 20
0.0
 30
0.0
  3
*U38
  1

  0
TEXT
  5
7FB
  8
0
 10
-1.2499982118606541
 20
-39.66666237513224
 30
0.0
 40
3.5
  1
3.シャフトに負荷等を連結する際には、シャフトを
  0
TEXT
  5
7FC
  8
0
 10
-1.2499982118606541
 20
-45.499995708465583
 30
0.0
 40
3.5
  1
  回転させないように固定して取り付けてください。
  0
ENDBLK
  5
7FE
  8
0
  0
BLOCK
  8
0
  2
*U39
 70
     1
 10
0.0
 20
0.0
 30
0.0
  3
*U39
  1

  0
TEXT
  5
800
  8
0
 10
-1.2499982118606541
 20
-50.083324750264481
 30
0.0
 40
3.5
  1
4.コイルには回転止めを取付けておりますが負荷等の
  0
TEXT
  5
801
  8
0
 10
-1.2499982118606541
 20
-55.916658083597817
 30
0.0
 40
3.5
  1
  回転止めではありませんので回転負荷が掛からない
  0
TEXT
  5
802
  8
0
 10
-1.2499982118606541
 20
-61.749991416931152
 30
0.0
 40
3.5
  1
  ようにして下さい。
  0
ENDBLK
  5
804
  8
0
  0
BLOCK
  8
0
  2
*U40
 70
     1
 10
0.0
 20
0.0
 30
0.0
  3
*U40
  1

  0
TEXT
  5
806
  8
0
 10
-1.2499982118606541
 20
-67.166662375132248
 30
0.0
 40
3.5
  1
5.ストッパーとして、直接Eリングを当ててのご使用は
  0
TEXT
  5
807
  8
0
 10
-1.2499982118606541
 20
-72.999995708465576
 30
0.0
 40
3.5
  1
　　破損の原因になりますのでご注意ください。
  0
ENDBLK
  5
809
  8
0
  0
BLOCK
  8
0
  2
*U41
 70
     1
 10
0.0
 20
0.0
 30
0.0
  3
*U41
  1

  0
TEXT
  5
8CB
  8
0
 10
8.5117199420928973
 20
-86.389058351516724
 30
0.0
 40
4.1671900749206534
  1
出力シャフト
  0
TEXT
  5
8CC
  8
0
 10
8.5117199420928973
 20
-93.334375143051147
 30
0.0
 40
4.1671900749206534
  1
（引込時）
  0
ENDBLK
  5
8CE
  8
0
  0
BLOCK
  8
0
  2
*U42
 70
     1
 10
0.0
 20
0.0
 30
0.0
  3
*U42
  1

  0
TEXT
  5
8D0
  8
0
 10
-116.6701037883759
 20
-80.589856386184692
 30
0.0
 40
4.1671900749206534
  1
0.125SQ
  0
TEXT
  5
8D1
  8
0
 10
-116.6701037883759
 20
-87.535173177719116
 30
0.0
 40
4.1671900749206534
  1
(3/22/0.05)赤
  0
ENDBLK
  5
8D3
  8
0
  0
BLOCK
  8
0
  2
*U43
 70
     1
 10
0.0
 20
0.0
 30
0.0
  3
*U43
  1

  0
TEXT
  5
8D5
  8
0
 10
-116.6701037883759
 20
-45.589856386184692
 30
0.0
 40
4.1671900749206534
  1
0.125SQ
  0
TEXT
  5
8D6
  8
0
 10
-116.6701037883759
 20
-52.535173177719123
 30
0.0
 40
4.1671900749206534
  1
(3/22/0.05)白
  0
ENDBLK
  5
8D8
  8
0
  0
BLOCK
  8
0
  2
*U44
 70
     1
 10
0.0
 20
0.0
 30
0.0
  3
*U44
  1

  0
TEXT
  5
8DA
  8
0
 10
8.5117199420928973
 20
-18.38905835151672
 30
0.0
 40
4.1671900749206534
  1
出力シャフト
  0
TEXT
  5
8DB
  8
0
 10
8.5117199420928973
 20
-25.334375143051151
 30
0.0
 40
4.1671900749206534
  1
（突出し時）
  0
ENDBLK
  5
8DD
  8
0
  0
BLOCK
  8
0
  2
*U45
 70
     1
 10
0.0
 20
0.0
 30
0.0
  3
*U45
  1

  0
TEXT
  5
90B
  8
0
 10
-43.040774270057668
 20
19.422169804573048
 30
0.0
 40
4.1671876907348633
  1
\U+2205
 50
90.0
  0
TEXT
  5
90C
  8
0
 10
-43.040774270057668
 20
23.589357495307912
 30
0.0
 40
4.1671876907348633
  1
30
 50
90.0
  0
ENDBLK
  5
90E
  8
0
  0
BLOCK
  8
0
  2
*U46
 70
     1
 10
0.0
 20
0.0
 30
0.0
  3
*U46
  1

  0
TEXT
  5
920
  8
0
 10
-43.040774270057668
 20
-103.5145643949509
 30
0.0
 40
4.1671876907348633
  1
(
 50
90.0
  0
TEXT
  5
921
  8
0
 10
-43.040774270057668
 20
-99.347376704216046
 30
0.0
 40
4.1671876907348633
  1
\U+2205
 50
90.0
  0
TEXT
  5
922
  8
0
 10
-43.040774270057668
 20
-95.180189013481197
 30
0.0
 40
4.1671876907348633
  1
30)
 50
90.0
  0
ENDBLK
  5
924
  8
0
  0
BLOCK
  8
0
  2
*U47
 70
     1
 10
0.0
 20
0.0
 30
0.0
  3
*U47
  1

  0
TEXT
  5
9E6
  8
0
 62
     0
 10
-24.123933105468751
 20
-16.264498816612551
 30
0.0
 40
4.1672001374149312
  1
(
 50
90.0
  0
TEXT
  5
9E7
  8
0
 62
     0
 10
-24.123933105468751
 20
-12.097298679197619
 30
0.0
 40
4.1672001374149312
  1
\U+2205
 50
90.0
  0
TEXT
  5
9E8
  8
0
 62
     0
 10
-24.123933105468751
 20
-7.9300985417826917
 30
0.0
 40
4.1672001374149312
  1
30)
 50
90.0
  0
ENDBLK
  5
9EA
  8
0
  0
BLOCK
  8
0
  2
*U48
 70
     1
 10
0.0
 20
0.0
 30
0.0
  3
*U48
  1

  0
TEXT
  5
9EC
  8
0
 62
     0
 10
-24.123933105468758
 20
67.208167964566556
 30
0.0
 40
4.1672001374149312
  1
\U+2205
 50
90.0
  0
TEXT
  5
9ED
  8
0
 62
     0
 10
-24.123933105468758
 20
71.375368101981493
 30
0.0
 40
4.1672001374149312
  1
^A30
 50
90.0
  0
ENDBLK
  5
9EF
  8
0
  0
ENDSEC
  0
SECTION
  2
ENTITIES
  0
POINT
  5
450
  8
0
  6
CONTINUOUS
 62
     0
 10
0.0
 20
-10.0
 30
0.0
  0
POINT
  5
451
  8
0
  6
CONTINUOUS
 62
     0
 10
0.0
 20
-10.0
 30
0.0
  0
POINT
  5
452
  8
0
  6
CONTINUOUS
 62
     0
 10
18.15606689453125
 20
72.764434814453125
 30
0.0
  0
POINT
  5
453
  8
0
  6
CONTINUOUS
 62
     0
 10
28.813285827636701
 20
64.598457336425781
 30
0.0
  0
LINE
  5
454
  8
0
  6
CONTINUOUS
 62
     0
 10
-0.7439346313476563
 20
87.764434814453125
 30
0.0
 11
17.85606575012207
 21
87.764434814453125
 31
0.0
  0
LINE
  5
455
  8
0
  6
CONTINUOUS
 62
     0
 10
18.15606689453125
 20
58.064437866210938
 30
0.0
 11
18.15606689453125
 21
87.464431762695312
 31
0.0
  0
LINE
  5
456
  8
0
  6
CONTINUOUS
 62
     0
 10
-1.043933868408202
 20
58.064437866210938
 30
0.0
 11
-1.043933868408202
 21
87.464431762695312
 31
0.0
  0
LINE
  5
457
  8
0
  6
C_CENTER_L
 62
     0
 10
-7.34393310546875
 20
72.764434814453125
 30
0.0
 11
22.65606689453125
 21
72.764434814453125
 31
0.0
  0
LINE
  5
458
  8
0
  6
CONTINUOUS
 62
     0
 10
18.15606689453125
 20
74.264434814453125
 30
0.0
 11
24.25606536865234
 21
74.264434814453125
 31
0.0
  0
LINE
  5
459
  8
0
  6
CONTINUOUS
 62
     0
 10
18.15606499371097
 20
87.464436128758265
 30
0.0
 11
17.856065577177102
 21
87.764435216547525
 31
0.0
  0
LINE
  5
45A
  8
0
  6
CONTINUOUS
 62
     0
 10
17.85606583005778
 20
57.764434473227311
 30
0.0
 11
18.156067615243959
 21
58.064436587161033
 31
0.0
  0
CIRCLE
  5
45B
  8
0
  6
CONTINUOUS
 62
     0
 10
103.15606689453119
 20
72.764434814453125
 30
0.0
 40
15.0
  0
CIRCLE
  5
45C
  8
0
  6
CONTINUOUS
 62
     0
 10
103.15606689453119
 20
72.764434814453125
 30
0.0
 40
14.69999980926514
  0
LINE
  5
45D
  8
0
  6
C_CENTER_L
 62
     0
 10
86.15606689453125
 20
72.764434814453125
 30
0.0
 11
120.15606689453099
 21
72.764434814453125
 31
0.0
  0
LINE
  5
45E
  8
0
  6
C_CENTER_L
 62
     0
 10
103.15606689453119
 20
55.764434814453118
 30
0.0
 11
103.15606689453119
 21
89.764434814453125
 31
0.0
  0
LINE
  5
45F
  8
0
  6
C_CENTER_L
 62
     0
 10
100.15606689453119
 20
61.764434814453111
 30
0.0
 11
106.15606689453119
 21
61.764434814453111
 31
0.0
  0
LINE
  5
460
  8
0
  6
C_CENTER_L
 62
     0
 10
100.15606689453119
 20
83.764434814453125
 30
0.0
 11
106.15606689453119
 21
83.764434814453125
 31
0.0
  0
CIRCLE
  5
461
  8
0
  6
C_SOLID_L
 62
     0
 10
103.15606689453119
 20
61.764434814453111
 30
0.0
 40
1.25
  0
CIRCLE
  5
462
  8
0
  6
C_SOLID_L
 62
     0
 10
103.15606689453119
 20
83.764434814453125
 30
0.0
 40
1.25
  0
CIRCLE
  5
463
  8
0
  6
CONTINUOUS
 62
     0
 10
103.15606689453119
 20
61.764434814453111
 30
0.0
 40
0.899999976158142
  0
CIRCLE
  5
464
  8
0
  6
CONTINUOUS
 62
     0
 10
103.15606689453119
 20
83.764434814453125
 30
0.0
 40
0.899999976158142
  0
CIRCLE
  5
465
  8
0
  6
CONTINUOUS
 62
     0
 10
103.15606689453119
 20
72.764434814453125
 30
0.0
 40
1.5
  0
CIRCLE
  5
466
  8
0
  6
CONTINUOUS
 62
     0
 10
103.15606689453119
 20
72.764434814453125
 30
0.0
 40
1.2000000476837149
  0
ARC
  5
467
  8
0
  6
CONTINUOUS
 62
     0
 10
103.15606689453119
 20
72.764434814453125
 30
0.0
 40
2.5
 50
43.605088793520288
 51
316.39490756401398
  0
ARC
  5
468
  8
0
  6
CONTINUOUS
 62
     0
 10
103.15606689453119
 20
72.764434814453125
 30
0.0
 40
1.799999952316284
 50
90.000002504478175
 51
147.819199904226
  0
LINE
  5
469
  8
0
  6
CONTINUOUS
 62
     0
 10
101.7966472534727
 20
73.398370297426482
 30
0.0
 11
101.7173923386714
 21
73.435327470658208
 31
0.0
  0
LINE
  5
46A
  8
0
  6
CONTINUOUS
 62
     0
 10
101.71739212943869
 20
72.093550116674123
 30
0.0
 11
101.79664704423951
 21
72.13050728990585
 31
0.0
  0
ARC
  5
46B
  8
0
  6
CONTINUOUS
 62
     0
 10
103.15606689453119
 20
72.764434814453125
 30
0.0
 40
1.799999952316284
 50
212.1808000957738
 51
277.66229495173877
  0
ARC
  5
46C
  8
0
  6
CONTINUOUS
 62
     0
 10
101.801872253418
 20
71.912284851074219
 30
0.0
 40
0.2000000029802322
 50
114.9995125649112
 51
212.18097403822671
  0
ARC
  5
46D
  8
0
  6
CONTINUOUS
 62
     0
 10
101.801872253418
 20
73.616584777832031
 30
0.0
 40
0.2000000029802322
 50
147.81900865892931
 51
245.0004701322448
  0
LINE
  5
46E
  8
0
  6
CONTINUOUS
 62
     0
 10
103.65606689453119
 20
74.17864990234375
 30
0.0
 11
103.65606689453119
 21
74.251045227050781
 31
0.0
  0
ARC
  5
46F
  8
0
  6
CONTINUOUS
 62
     0
 10
103.15606689453119
 20
72.764434814453125
 30
0.0
 40
1.799999952316284
 50
82.337691387882771
 51
90.000009334667354
  0
ARC
  5
470
  8
0
  6
CONTINUOUS
 62
     0
 10
103.35606384277339
 20
71.277824401855469
 30
0.0
 40
0.3000000119209289
 50
277.66243155552201
 51
359.99999749552182
  0
ARC
  5
471
  8
0
  6
CONTINUOUS
 62
     0
 10
103.35606384277339
 20
74.251045227050781
 30
0.0
 40
0.3000000119209289
 50
359.99999749552182
 51
82.337575274666875
  0
LINE
  5
472
  8
0
  6
CONTINUOUS
 62
     0
 10
103.65606689453119
 20
71.277824401855469
 30
0.0
 11
103.65606689453119
 21
71.3502197265625
 31
0.0
  0
LINE
  5
473
  8
0
  6
CONTINUOUS
 62
     0
 10
104.9612338657972
 20
71.459261570599423
 30
0.0
 11
104.4368326703559
 21
71.983662766040879
 31
0.0
  0
LINE
  5
474
  8
0
  6
CONTINUOUS
 62
     0
 10
104.4368326703559
 20
73.54520819709181
 30
0.0
 11
104.9612338657972
 21
74.069609392533266
 31
0.0
  0
ARC
  5
475
  8
0
  6
CONTINUOUS
 62
     0
 10
104.7491149902344
 20
71.24713134765625
 30
0.0
 40
0.3000000119209289
 50
316.39480533854749
 51
44.999919289969043
  0
ARC
  5
476
  8
0
  6
CONTINUOUS
 62
     0
 10
104.7491149902344
 20
74.28173828125
 30
0.0
 40
0.3000000119209289
 50
315.00008071003077
 51
43.605191246357847
  0
ARC
  5
477
  8
0
  6
CONTINUOUS
 62
     0
 10
103.15606689453119
 20
72.764434814453125
 30
0.0
 40
2.0
 50
325.18208959257908
 51
34.817903577231753
  0
LINE
  5
478
  8
0
  6
CONTINUOUS
 62
     0
 10
-1.0439359913584669
 20
58.064436095521607
 30
0.0
 11
-0.7439344337667535
 21
57.764433753993437
 31
0.0
  0
LINE
  5
479
  8
0
  6
CONTINUOUS
 62
     0
 10
-1.0439346171554
 20
87.464438304046325
 30
0.0
 11
-0.7439357569585355
 21
87.764437948172585
 31
0.0
  0
LINE
  5
47A
  8
0
  6
CONTINUOUS
 62
     0
 10
-0.7439346313476563
 20
57.764434814453118
 30
0.0
 11
17.85606575012207
 21
57.764434814453118
 31
0.0
  0
LINE
  5
47B
  8
0
  6
CONTINUOUS
 62
     0
 10
24.75606536865234
 20
74.264434814453125
 30
0.0
 11
33.25606536865233
 21
74.264434814453125
 31
0.0
  0
LINE
  5
47C
  8
0
  6
CONTINUOUS
 62
     0
 10
24.75606536865234
 20
71.264434814453125
 30
0.0
 11
33.25606536865233
 21
71.264434814453125
 31
0.0
  0
LINE
  5
47D
  8
0
  6
CONTINUOUS
 62
     0
 10
33.65606689453125
 20
71.664436340332031
 30
0.0
 11
33.65606689453125
 21
73.864433288574219
 31
0.0
  0
LINE
  5
47E
  8
0
  6
CONTINUOUS
 62
     0
 10
24.25606536865234
 20
71.764434814453125
 30
0.0
 11
24.3560676574707
 21
71.764434814453125
 31
0.0
  0
LINE
  5
47F
  8
0
  6
CONTINUOUS
 62
     0
 10
24.25606536865234
 20
73.764434814453125
 30
0.0
 11
24.3560676574707
 21
73.764434814453125
 31
0.0
  0
LINE
  5
480
  8
0
  6
CONTINUOUS
 62
     0
 10
24.75606536865234
 20
70.264434814453111
 30
0.0
 11
24.75606536865234
 21
75.264434814453125
 31
0.0
  0
LINE
  5
481
  8
0
  6
CONTINUOUS
 62
     0
 10
24.25606536865234
 20
71.264434814453125
 30
0.0
 11
24.25606536865234
 21
74.264434814453125
 31
0.0
  0
LINE
  5
482
  8
0
  6
CONTINUOUS
 62
     0
 10
24.3560676574707
 20
75.264434814453125
 30
0.0
 11
24.75606536865234
 21
75.264434814453125
 31
0.0
  0
LINE
  5
483
  8
0
  6
CONTINUOUS
 62
     0
 10
24.3560676574707
 20
70.264434814453111
 30
0.0
 11
24.75606536865234
 21
70.264434814453111
 31
0.0
  0
LINE
  5
484
  8
0
  6
CONTINUOUS
 62
     0
 10
18.15606689453125
 20
71.264434814453125
 30
0.0
 11
24.25606536865234
 21
71.264434814453125
 31
0.0
  0
LINE
  5
485
  8
0
  6
CONTINUOUS
 62
     0
 10
24.3560676574707
 20
70.264434814453111
 30
0.0
 11
24.3560676574707
 21
75.264434814453125
 31
0.0
  0
LINE
  5
486
  8
0
  6
C_CENTER_L
 62
     0
 10
-7.3786201477050772
 20
72.764434814453125
 30
0.0
 11
35.90606689453125
 21
72.764434814453125
 31
0.0
  0
CIRCLE
  5
487
  8
0
  6
CONTINUOUS
 62
     0
 10
-119.84393310546869
 20
72.764434814453125
 30
0.0
 40
15.0
  0
CIRCLE
  5
488
  8
0
  6
CONTINUOUS
 62
     0
 10
-119.84393310546869
 20
72.764434814453125
 30
0.0
 40
14.69999980926514
  0
CIRCLE
  5
489
  8
0
  6
CONTINUOUS
 62
     0
 10
-119.84393310546869
 20
72.764434814453125
 30
0.0
 40
2.160000085830688
  0
LINE
  5
48A
  8
0
  6
C_CENTER_L
 62
     0
 10
-119.84393310546869
 20
69.764434814453111
 30
0.0
 11
-119.84393310546869
 21
75.764434814453125
 31
0.0
  0
LINE
  5
48B
  8
0
  6
C_CENTER_L
 62
     0
 10
-116.84393310546869
 20
72.764434814453125
 30
0.0
 11
-122.84393310546869
 21
72.764434814453125
 31
0.0
  0
LINE
  5
48C
  8
0
  6
CONTINUOUS
 62
     0
 10
-119.84392998053291
 20
70.604433098379843
 30
0.0
 11
-121.71454811935899
 21
71.68443480068828
 31
0.0
  0
LINE
  5
48D
  8
0
  6
CONTINUOUS
 62
     0
 10
-121.71453857421869
 20
71.684432983398438
 30
0.0
 11
-121.71453857421869
 21
73.844436645507812
 31
0.0
  0
LINE
  5
48E
  8
0
  6
CONTINUOUS
 62
     0
 10
-121.714538421067
 20
73.844431948165933
 30
0.0
 11
-119.8439271469824
 21
74.924430222014948
 31
0.0
  0
LINE
  5
48F
  8
0
  6
CONTINUOUS
 62
     0
 10
-119.8439267568837
 20
74.924440556562047
 30
0.0
 11
-117.9733088755501
 21
73.844438468014843
 31
0.0
  0
LINE
  5
490
  8
0
  6
CONTINUOUS
 62
     0
 10
-117.9733123779294
 20
73.844436645507812
 30
0.0
 11
-117.9733123779294
 21
71.684432983398438
 31
0.0
  0
LINE
  5
491
  8
0
  6
CONTINUOUS
 62
     0
 10
-117.9733252678347
 20
71.684427580174557
 30
0.0
 11
-119.843936799411
 21
70.604429692562917
 31
0.0
  0
CIRCLE
  5
492
  8
0
  6
CONTINUOUS
 62
     0
 10
-119.84393310546869
 20
72.764434814453125
 30
0.0
 40
1.0
  0
CIRCLE
  5
493
  8
0
  6
CONTINUOUS
 62
     0
 10
-119.84393310546869
 20
72.764434814453125
 30
0.0
 40
0.8000000119209291
  0
CIRCLE
  5
494
  8
0
  6
CONTINUOUS
 62
     0
 10
-119.84393310546869
 20
72.764434814453125
 30
0.0
 40
1.8706151247024541
  0
CIRCLE
  5
495
  8
0
  6
CONTINUOUS
 62
     0
 10
103.15606689453119
 20
72.764434814453125
 30
0.0
 40
13.399999618530259
  0
CIRCLE
  5
496
  8
0
  6
CONTINUOUS
 62
     0
 10
-119.84393310546869
 20
72.764434814453125
 30
0.0
 40
2.160000085830688
  0
LINE
  5
497
  8
0
  6
C_CENTER_L
 62
     0
 10
-119.84393310546869
 20
69.764434814453111
 30
0.0
 11
-119.84393310546869
 21
75.764434814453125
 31
0.0
  0
LINE
  5
498
  8
0
  6
C_CENTER_L
 62
     0
 10
-116.84393310546869
 20
72.764434814453125
 30
0.0
 11
-122.84393310546869
 21
72.764434814453125
 31
0.0
  0
LINE
  5
499
  8
0
  6
C_CENTER_L
 62
     0
 10
-136.84393310546869
 20
72.764434814453125
 30
0.0
 11
-102.84393310546869
 21
72.764434814453125
 31
0.0
  0
LINE
  5
49A
  8
0
  6
C_CENTER_L
 62
     0
 10
-119.84393310546869
 20
55.764434814453118
 30
0.0
 11
-119.84393310546869
 21
89.764434814453125
 31
0.0
  0
ARC
  5
49B
  8
0
  6
CONTINUOUS
 62
     0
 10
-119.84393310546869
 20
72.764434814453125
 30
0.0
 40
12.899999618530259
 50
89.999988844099846
 51
160.76417057020581
  0
CIRCLE
  5
49C
  8
0
  6
CONTINUOUS
 62
     0
 10
-124.7936706542969
 20
67.814697265625
 30
0.0
 40
1.0
  0
CIRCLE
  5
49D
  8
0
  6
CONTINUOUS
 62
     0
 10
-124.7936706542969
 20
77.71417236328125
 30
0.0
 40
1.0
  0
CIRCLE
  5
49E
  8
0
  6
CONTINUOUS
 62
     0
 10
-114.89418029785161
 20
67.814697265625
 30
0.0
 40
1.0
  0
CIRCLE
  5
49F
  8
0
  6
CONTINUOUS
 62
     0
 10
-114.89418029785161
 20
77.71417236328125
 30
0.0
 40
1.0
  0
ARC
  5
4A0
  8
0
  6
CONTINUOUS
 62
     0
 10
-119.84393310546869
 20
72.764434814453125
 30
0.0
 40
9.3500003814697266
 50
89.999988844099846
 51
150.55287383649701
  0
ARC
  5
4A1
  8
0
  6
CONTINUOUS
 62
     0
 10
-119.84393310546869
 20
72.764434814453125
 30
0.0
 40
12.899999618530259
 50
199.2358430901721
 51
89.999988844099846
  0
ARC
  5
4A2
  8
0
  6
CONTINUOUS
 62
     0
 10
-119.84393310546869
 20
72.764434814453125
 30
0.0
 40
12.899999618530259
 50
160.76415690982779
 51
199.23582578732811
  0
ARC
  5
4A3
  8
0
  6
CONTINUOUS
 62
     0
 10
-119.84393310546869
 20
72.764434814453125
 30
0.0
 40
9.3500003814697266
 50
209.44712616350299
 51
89.999988844099846
  0
ARC
  5
4A4
  8
0
  6
CONTINUOUS
 62
     0
 10
-119.84393310546869
 20
72.764434814453125
 30
0.0
 40
10.35000038146973
 50
168.0784152466974
 51
170.26948529092439
  0
ARC
  5
4A5
  8
0
  6
CONTINUOUS
 62
     0
 10
-119.84393310546869
 20
72.764434814453125
 30
0.0
 40
12.0
 50
203.03569589150379
 51
156.96429044811791
  0
LINE
  5
4A6
  8
0
  6
C_CENTER_L
 62
     0
 10
-133.222900390625
 20
70.764434814453125
 30
0.0
 11
-126.0198974609375
 21
70.764434814453125
 31
0.0
  0
LINE
  5
4A7
  8
0
  6
C_CENTER_L
 62
     0
 10
-133.222900390625
 20
74.764434814453125
 30
0.0
 11
-126.0198974609375
 21
74.764434814453125
 31
0.0
  0
CIRCLE
  5
4A8
  8
0
  6
CONTINUOUS
 62
     0
 10
-119.84393310546869
 20
72.764434814453125
 30
0.0
 40
3.5
  0
CIRCLE
  5
4A9
  8
0
  6
CONTINUOUS
 62
     0
 10
-119.84393310546869
 20
72.764434814453125
 30
0.0
 40
1.0
  0
LINE
  5
4AA
  8
0
  6
CONTINUOUS
 62
     0
 10
-132.4993591308592
 20
70.264434814453111
 30
0.0
 11
-130.26422119140619
 21
70.264434814453111
 31
0.0
  0
LINE
  5
4AB
  8
0
  6
CONTINUOUS
 62
     0
 10
-132.65643310546869
 20
71.264434814453125
 30
0.0
 11
-130.34071350097659
 21
71.264434814453125
 31
0.0
  0
LINE
  5
4AC
  8
0
  6
CONTINUOUS
 62
     0
 10
-132.4993591308592
 20
75.264434814453125
 30
0.0
 11
-130.26422119140619
 21
75.264434814453125
 31
0.0
  0
LINE
  5
4AD
  8
0
  6
CONTINUOUS
 62
     0
 10
-132.65643310546869
 20
74.264434814453125
 30
0.0
 11
-130.34071350097659
 21
74.264434814453125
 31
0.0
  0
LINE
  5
4AE
  8
0
  6
CONTINUOUS
 62
     0
 10
-127.2439270019529
 20
76.36444091796875
 30
0.0
 11
-127.2439270019529
 21
69.164443969726563
 31
0.0
  0
ARC
  5
4AF
  8
0
  6
CONTINUOUS
 62
     0
 10
-119.84393310546869
 20
72.764434814453125
 30
0.0
 40
10.35000038146973
 50
189.73051470907549
 51
191.92158475330231
  0
ARC
  5
4B0
  8
0
  6
CONTINUOUS
 62
     0
 10
-128.59886169433591
 20
70.764434814453125
 30
0.0
 40
0.3000000119209289
 50
146.44268456003661
 51
213.55731179749739
  0
LINE
  5
4B1
  8
0
  6
C_CENTER_L
 62
     0
 10
-128.59886169433591
 20
75.764434814453125
 30
0.0
 11
-128.59886169433591
 21
69.764434814453111
 31
0.0
  0
LINE
  5
4B2
  8
0
  6
CONTINUOUS
 62
     0
 10
-127.6439208984375
 20
76.764434814453125
 30
0.0
 11
-127.63768005371089
 21
76.764434814453125
 31
0.0
  0
LINE
  5
4B3
  8
0
  6
CONTINUOUS
 62
     0
 10
-127.6439208984375
 20
76.764434814453125
 30
0.0
 11
-127.63768005371089
 21
76.764434814453125
 31
0.0
  0
LINE
  5
4B4
  8
0
  6
CONTINUOUS
 62
     0
 10
-127.63768005371089
 20
68.764434814453111
 30
0.0
 11
-127.5439300537108
 21
68.764434814453111
 31
0.0
  0
LINE
  5
4B5
  8
0
  6
CONTINUOUS
 62
     0
 10
-132.10810852050761
 20
68.764434814453111
 30
0.0
 11
-127.6439208984375
 21
68.764434814453111
 31
0.0
  0
ARC
  5
4B6
  8
0
  6
CONTINUOUS
 62
     0
 10
-127.63768005371089
 20
68.36444091796875
 30
0.0
 40
0.4000000059604645
 50
90.000002504478175
 51
209.4471771625507
  0
LINE
  5
4B7
  8
0
  6
CONTINUOUS
 62
     0
 10
-132.10810852050761
 20
76.764434814453125
 30
0.0
 11
-127.63768005371089
 21
76.764434814453125
 31
0.0
  0
ARC
  5
4B8
  8
0
  6
CONTINUOUS
 62
     0
 10
-127.63768005371089
 20
77.164436340332031
 30
0.0
 40
0.4000000059604645
 50
150.5529284780101
 51
270.00000068324528
  0
ARC
  5
4B9
  8
0
  6
CONTINUOUS
 62
     0
 10
-130.34071350097659
 20
70.964439392089844
 30
0.0
 40
0.3000000119209289
 50
9.730571798224366
 51
89.999988844099846
  0
ARC
  5
4BA
  8
0
  6
CONTINUOUS
 62
     0
 10
-130.26422119140619
 20
70.564437866210938
 30
0.0
 40
0.3000000119209289
 50
269.99999749552182
 51
11.92155902640741
  0
ARC
  5
4BB
  8
0
  6
CONTINUOUS
 62
     0
 10
-130.26422119140619
 20
74.964439392089844
 30
0.0
 40
0.3000000119209289
 50
348.0784623179336
 51
89.999988844099846
  0
ARC
  5
4BC
  8
0
  6
CONTINUOUS
 62
     0
 10
-130.34071350097659
 20
74.564437866210923
 30
0.0
 40
0.3000000119209289
 50
269.99999749552182
 51
350.26961347065691
  0
LINE
  5
4BD
  8
0
  6
CONTINUOUS
 62
     0
 10
-131.2439270019531
 20
70.264434814453111
 30
0.0
 11
-131.2439270019531
 21
69.264434814453111
 31
0.0
  0
LINE
  5
4BE
  8
0
  6
CONTINUOUS
 62
     0
 10
-131.2439270019531
 20
74.264434814453125
 30
0.0
 11
-131.2439270019531
 21
71.264434814453125
 31
0.0
  0
LINE
  5
4BF
  8
0
  6
CONTINUOUS
 62
     0
 10
-131.2439270019531
 20
76.264434814453125
 30
0.0
 11
-131.2439270019531
 21
75.264434814453125
 31
0.0
  0
ARC
  5
4C0
  8
0
  6
CONTINUOUS
 62
     0
 10
-130.7439270019529
 20
76.264434814453125
 30
0.0
 40
0.5
 50
90.000002504478175
 51
179.99999134857799
  0
ARC
  5
4C1
  8
0
  6
CONTINUOUS
 62
     0
 10
-130.7439270019529
 20
69.264434814453111
 30
0.0
 40
0.5
 50
180.00000865142201
 51
269.99999749552182
  0
ARC
  5
4C2
  8
0
  6
CONTINUOUS
 62
     0
 10
-130.42694091796869
 20
77.264434814453125
 30
0.0
 40
0.5
 50
156.96424946698281
 51
270.00000068324528
  0
ARC
  5
4C3
  8
0
  6
CONTINUOUS
 62
     0
 10
-130.42694091796869
 20
68.264434814453111
 30
0.0
 40
0.5
 50
90.000002504478175
 51
203.03573323017309
  0
ARC
  5
4C4
  8
0
  6
CONTINUOUS
 62
     0
 10
-127.6439208984375
 20
69.164443969726563
 30
0.0
 40
0.4000000059604645
 50
269.99999749552182
 51
0.000010017912262
  0
ARC
  5
4C5
  8
0
  6
CONTINUOUS
 62
     0
 10
-127.6439208984375
 20
76.36444091796875
 30
0.0
 40
0.4000000059604645
 50
0.0000111558998674
 51
89.999988844099846
  0
LINE
  5
4C6
  8
0
  6
CONTINUOUS
 62
     0
 10
33.256066556350902
 20
71.264432328727793
 30
0.0
 11
33.656063811543277
 21
71.664429449051241
 31
0.0
  0
LINE
  5
4C7
  8
0
  6
CONTINUOUS
 62
     0
 10
33.656068228533741
 20
73.864434212205879
 30
0.0
 11
33.256068410812532
 21
74.264434164796953
 31
0.0
  0
LINE
  5
4C8
  8
0
  6
C_SOLID_L
 62
     0
 10
33.25606536865233
 20
71.264434814453125
 30
0.0
 11
33.25606536865233
 21
74.264434814453125
 31
0.0
  0
LINE
  5
4C9
  8
0
  6
CONTINUOUS
 62
     0
 10
-6.7005805969238272
 20
66.569435119628892
 30
0.0
 11
-1.043933868408202
 21
66.569435119628892
 31
0.0
  0
LINE
  5
4CA
  8
0
  6
CONTINUOUS
 62
     0
 10
-6.7005805969238272
 20
64.969436645507813
 30
0.0
 11
-1.043933868408202
 21
64.969436645507813
 31
0.0
  0
LINE
  5
4CB
  8
0
  6
CONTINUOUS
 62
     0
 10
-7.34393310546875
 20
65.269432067871108
 30
0.0
 11
-7.34393310546875
 21
66.269432067871094
 31
0.0
  0
LINE
  5
4CC
  8
0
  6
CONTINUOUS
 62
     0
 10
-6.7005839494277089
 20
64.969435026924657
 30
0.0
 11
-7.343937206958798
 21
65.269435573862211
 31
0.0
  0
LINE
  5
4CD
  8
0
  6
CONTINUOUS
 62
     0
 10
-7.343936687735777
 20
66.269434589201623
 30
0.0
 11
-6.7005834302046861
 21
66.569435136139177
 31
0.0
  0
LINE
  5
4CE
  8
0
  6
CONTINUOUS
 62
     0
 10
17.85606575012207
 20
57.764434814453118
 30
0.0
 11
17.85606575012207
 21
87.764434814453125
 31
0.0
  0
LINE
  5
4CF
  8
0
  6
CONTINUOUS
 62
     0
 10
-0.7439346313476563
 20
57.764434814453118
 30
0.0
 11
-0.7439346313476563
 21
87.764434814453125
 31
0.0
  0
LINE
  5
4D0
  8
0
  6
CONTINUOUS
 62
     0
 10
-2.84393310546875
 20
70.264434814453111
 30
0.0
 11
-2.84393310546875
 21
75.264434814453125
 31
0.0
  0
LINE
  5
4D1
  8
0
  6
CONTINUOUS
 62
     0
 10
-2.84393310546875
 20
75.264434814453125
 30
0.0
 11
-1.043933868408202
 21
75.264434814453125
 31
0.0
  0
LINE
  5
4D2
  8
0
  6
CONTINUOUS
 62
     0
 10
-2.84393310546875
 20
70.264434814453111
 30
0.0
 11
-1.043933868408202
 21
70.264434814453111
 31
0.0
  0
LINE
  5
4D3
  8
0
  6
CONTINUOUS
 62
     0
 10
-5.84393310546875
 20
71.964431762695313
 30
0.0
 11
-5.84393310546875
 21
73.564437866210937
 31
0.0
  0
LINE
  5
4D4
  8
0
  6
CONTINUOUS
 62
     0
 10
-5.6439323425292969
 20
73.764434814453125
 30
0.0
 11
-5.2439327239990234
 21
73.764434814453125
 31
0.0
  0
LINE
  5
4D5
  8
0
  6
CONTINUOUS
 62
     0
 10
-5.6439323425292969
 20
71.764434814453125
 30
0.0
 11
-5.2439327239990234
 21
71.764434814453125
 31
0.0
  0
LINE
  5
4D6
  8
0
  6
C_SOLID_L
 62
     0
 10
-5.84393310546875
 20
73.564437866210937
 30
0.0
 11
-5.2439327239990234
 21
73.564437866210937
 31
0.0
  0
LINE
  5
4D7
  8
0
  6
C_SOLID_L
 62
     0
 10
-5.84393310546875
 20
71.964431762695313
 30
0.0
 11
-5.2439327239990234
 21
71.964431762695313
 31
0.0
  0
LINE
  5
4D8
  8
0
  6
CONTINUOUS
 62
     0
 10
-5.6439228254280351
 20
71.764426327782076
 30
0.0
 11
-5.8439241167052369
 21
71.964427619059265
 31
0.0
  0
LINE
  5
4D9
  8
0
  6
CONTINUOUS
 62
     0
 10
-5.8439241167052369
 20
73.564427159683873
 30
0.0
 11
-5.6439282202245522
 21
73.76442305616456
 31
0.0
  0
LINE
  5
4DA
  8
0
  6
C_SOLID_L
 62
     0
 10
-5.6439323425292969
 20
71.764434814453125
 30
0.0
 11
-5.6439323425292969
 21
73.764434814453125
 31
0.0
  0
LINE
  5
4DB
  8
0
  6
CONTINUOUS
 62
     0
 10
-2.84393310546875
 20
70.264434814453111
 30
0.0
 11
-2.84393310546875
 21
75.264434814453125
 31
0.0
  0
LINE
  5
4DC
  8
0
  6
CONTINUOUS
 62
     0
 10
-3.143932342529296
 20
75.264434814453125
 30
0.0
 11
-2.84393310546875
 21
75.264434814453125
 31
0.0
  0
LINE
  5
4DD
  8
0
  6
CONTINUOUS
 62
     0
 10
-3.143932342529296
 20
70.264434814453111
 30
0.0
 11
-2.84393310546875
 21
70.264434814453111
 31
0.0
  0
LINE
  5
4DE
  8
0
  6
CONTINUOUS
 62
     0
 10
-3.143932342529296
 20
70.264434814453111
 30
0.0
 11
-3.143932342529296
 21
75.264434814453125
 31
0.0
  0
LINE
  5
4DF
  8
0
  6
CONTINUOUS
 62
     0
 10
-3.643932342529296
 20
74.964431762695312
 30
0.0
 11
-3.143932342529296
 21
74.964431762695312
 31
0.0
  0
LINE
  5
4E0
  8
0
  6
CONTINUOUS
 62
     0
 10
-3.643932342529296
 20
70.564437866210938
 30
0.0
 11
-3.143932342529296
 21
70.564437866210938
 31
0.0
  0
LINE
  5
4E1
  8
0
  6
CONTINUOUS
 62
     0
 10
-3.643932342529296
 20
70.564437866210938
 30
0.0
 11
-3.643932342529296
 21
74.964431762695312
 31
0.0
  0
LINE
  5
4E2
  8
0
  6
CONTINUOUS
 62
     0
 10
-5.2439327239990234
 20
71.144439697265625
 30
0.0
 11
-5.2439327239990234
 21
74.384429931640625
 31
0.0
  0
LINE
  5
4E3
  8
0
  6
CONTINUOUS
 62
     0
 10
-5.0473899841308576
 20
74.9244384765625
 30
0.0
 11
-3.8404769897460929
 21
74.9244384765625
 31
0.0
  0
LINE
  5
4E4
  8
0
  6
CONTINUOUS
 62
     0
 10
-5.0473899841308576
 20
70.60443115234375
 30
0.0
 11
-3.8404769897460929
 21
70.60443115234375
 31
0.0
  0
LINE
  5
4E5
  8
0
  6
CONTINUOUS
 62
     0
 10
-5.0473887011858078
 20
70.604428816136533
 30
0.0
 11
-5.2439318226715841
 21
71.144426585031411
 31
0.0
  0
LINE
  5
4E6
  8
0
  6
CONTINUOUS
 62
     0
 10
-3.8404722907450828
 20
70.604431102241264
 30
0.0
 11
-3.6439291692593061
 21
71.144428871136142
 31
0.0
  0
LINE
  5
4E7
  8
0
  6
CONTINUOUS
 62
     0
 10
-5.243926873029749
 20
74.384431925248691
 30
0.0
 11
-5.0473837515439719
 21
74.924429694143569
 31
0.0
  0
LINE
  5
4E8
  8
0
  6
CONTINUOUS
 62
     0
 10
-3.6439323265797161
 20
74.384430291495633
 30
0.0
 11
-3.8404780574721809
 21
74.924435229676192
 31
0.0
  0
LINE
  5
4E9
  8
0
  6
CONTINUOUS
 62
     0
 10
-5.0439338684082031
 20
71.684432983398438
 30
0.0
 11
-3.84393310546875
 21
71.684432983398438
 31
0.0
  0
LINE
  5
4EA
  8
0
  6
CONTINUOUS
 62
     0
 10
-5.0439338684082031
 20
73.844436645507812
 30
0.0
 11
-3.84393310546875
 21
73.844436645507812
 31
0.0
  0
ARC
  5
4EB
  8
0
  6
CONTINUOUS
 62
     0
 10
-2.2279338836669891
 20
72.764434814453125
 30
0.0
 40
3.0160002708435059
 50
159.0170491616519
 51
200.9829608562608
  0
ARC
  5
4EC
  8
0
  6
CONTINUOUS
 62
     0
 10
-6.659934997558592
 20
72.764434814453125
 30
0.0
 40
3.0160009860992432
 50
339.0170492753374
 51
20.982954139757169
  0
ARC
  5
4ED
  8
0
  6
CONTINUOUS
 62
     0
 10
-4.6646404266357422
 20
71.24658203125
 30
0.0
 40
0.5792920589447022
 50
130.9007803489695
 51
200.00000101204759
  0
ARC
  5
4EE
  8
0
  6
CONTINUOUS
 62
     0
 10
-4.6646404266357422
 20
74.28228759765625
 30
0.0
 40
0.5792924165725708
 50
159.99999534548661
 51
229.09920234818651
  0
ARC
  5
4EF
  8
0
  6
CONTINUOUS
 62
     0
 10
-4.2232246398925781
 20
71.24658203125
 30
0.0
 40
0.5792923569679263
 50
340.0000022893613
 51
49.099204169419359
  0
ARC
  5
4F0
  8
0
  6
CONTINUOUS
 62
     0
 10
-4.2232265472412109
 20
74.28228759765625
 30
0.0
 40
0.5792927145957947
 50
310.9008060758643
 51
20.000001125733132
  0
LINE
  5
4F1
  8
0
  6
CONTINUOUS
 62
     0
 10
-128.84886169433591
 20
70.514434814453125
 30
0.0
 11
-128.34886169433591
 21
70.514434814453125
 31
0.0
  0
LINE
  5
4F2
  8
0
  6
CONTINUOUS
 62
     0
 10
-128.84886169433591
 20
71.014434814453125
 30
0.0
 11
-128.34886169433591
 21
71.014434814453125
 31
0.0
  0
LINE
  5
4F3
  8
0
  6
CONTINUOUS
 62
     0
 10
-128.34886169433591
 20
70.514434814453125
 30
0.0
 11
-128.34886169433591
 21
71.014434814453125
 31
0.0
  0
LINE
  5
4F4
  8
0
  6
CONTINUOUS
 62
     0
 10
-128.84886169433591
 20
70.514434814453125
 30
0.0
 11
-128.84886169433591
 21
71.014434814453125
 31
0.0
  0
ARC
  5
4F5
  8
0
  6
CONTINUOUS
 62
     0
 10
-128.59886169433591
 20
70.764434814453125
 30
0.0
 40
0.3000000119209289
 50
56.442685470653153
 51
123.55731612320859
  0
ARC
  5
4F6
  8
0
  6
CONTINUOUS
 62
     0
 10
-128.59886169433591
 20
70.764434814453125
 30
0.0
 40
0.3000000119209289
 50
326.44268296617503
 51
33.557313618730433
  0
ARC
  5
4F7
  8
0
  6
CONTINUOUS
 62
     0
 10
-128.59886169433591
 20
70.764434814453125
 30
0.0
 40
0.3000000119209289
 50
236.44268387679139
 51
303.55732135953588
  0
ARC
  5
4F8
  8
0
  6
CONTINUOUS
 62
     0
 10
-128.59886169433591
 20
74.764434814453125
 30
0.0
 40
0.3000000119209289
 50
236.44268387679139
 51
303.55732135953588
  0
LINE
  5
4F9
  8
0
  6
CONTINUOUS
 62
     0
 10
-128.84886169433591
 20
74.514434814453125
 30
0.0
 11
-128.84886169433591
 21
75.014434814453125
 31
0.0
  0
ARC
  5
4FA
  8
0
  6
CONTINUOUS
 62
     0
 10
-128.59886169433591
 20
74.764434814453125
 30
0.0
 40
0.3000000119209289
 50
146.44268456003661
 51
213.55731179749739
  0
LINE
  5
4FB
  8
0
  6
CONTINUOUS
 62
     0
 10
-128.84886169433591
 20
74.514434814453125
 30
0.0
 11
-128.34886169433591
 21
74.514434814453125
 31
0.0
  0
LINE
  5
4FC
  8
0
  6
CONTINUOUS
 62
     0
 10
-128.34886169433591
 20
74.514434814453125
 30
0.0
 11
-128.34886169433591
 21
75.014434814453125
 31
0.0
  0
ARC
  5
4FD
  8
0
  6
CONTINUOUS
 62
     0
 10
-128.59886169433591
 20
74.764434814453125
 30
0.0
 40
0.3000000119209289
 50
326.44268296617503
 51
33.557313618730433
  0
LINE
  5
4FE
  8
0
  6
CONTINUOUS
 62
     0
 10
-128.84886169433591
 20
75.014434814453125
 30
0.0
 11
-128.34886169433591
 21
75.014434814453125
 31
0.0
  0
ARC
  5
4FF
  8
0
  6
CONTINUOUS
 62
     0
 10
-128.59886169433591
 20
74.764434814453125
 30
0.0
 40
0.3000000119209289
 50
56.442685470653153
 51
123.55731612320859
  0
LINE
  5
500
  8
0
  6
CONTINUOUS
 62
     0
 10
-3.5439338684082031
 20
68.764434814453111
 30
0.0
 11
-1.043933868408202
 21
68.764434814453111
 31
0.0
  0
LINE
  5
501
  8
0
  6
CONTINUOUS
 62
     0
 10
-3.5439338684082031
 20
76.764434814453125
 30
0.0
 11
-1.043933868408202
 21
76.764434814453125
 31
0.0
  0
LINE
  5
502
  8
0
  6
CONTINUOUS
 62
     0
 10
-3.5439338684082031
 20
74.964431762695312
 30
0.0
 11
-3.5439338684082031
 21
76.764434814453125
 31
0.0
  0
LINE
  5
503
  8
0
  6
CONTINUOUS
 62
     0
 10
-3.5439338684082031
 20
68.764434814453111
 30
0.0
 11
-3.5439338684082031
 21
70.564437866210938
 31
0.0
  0
LINE
  5
504
  8
0
  6
CONTINUOUS
 62
     0
 10
-0.7439346313476563
 20
7.764434814453125
 30
0.0
 11
17.85606575012207
 21
7.764434814453125
 31
0.0
  0
LINE
  5
505
  8
0
  6
CONTINUOUS
 62
     0
 10
18.15606689453125
 20
-21.935562133789059
 30
0.0
 11
18.15606689453125
 21
7.4644355773925772
 31
0.0
  0
LINE
  5
506
  8
0
  6
CONTINUOUS
 62
     0
 10
-1.043933868408202
 20
-21.935562133789059
 30
0.0
 11
-1.043933868408202
 21
7.4644355773925772
 31
0.0
  0
LINE
  5
507
  8
0
  6
CONTINUOUS
 62
     0
 10
18.15606802828432
 20
7.4644317863486824
 30
0.0
 11
17.856065914350602
 21
7.7644335715348518
 31
0.0
  0
LINE
  5
508
  8
0
  6
CONTINUOUS
 62
     0
 10
17.85606616723166
 20
-22.23556784613498
 30
0.0
 11
18.156067952417821
 21
-21.935565732201269
 31
0.0
  0
LINE
  5
509
  8
0
  6
CONTINUOUS
 62
     0
 10
-1.0439332939671431
 20
-21.93557330462767
 30
0.0
 11
-0.7439344337702778
 21
-22.235572948753941
 31
0.0
  0
LINE
  5
50A
  8
0
  6
CONTINUOUS
 62
     0
 10
-1.0439376517246051
 20
7.4644312641201784
 30
0.0
 11
-0.7439387915277395
 21
7.7644309082464513
 31
0.0
  0
LINE
  5
50B
  8
0
  6
CONTINUOUS
 62
     0
 10
-0.7439346313476563
 20
-22.235565185546871
 30
0.0
 11
17.85606575012207
 21
-22.235565185546871
 31
0.0
  0
LINE
  5
50C
  8
0
  6
CONTINUOUS
 62
     0
 10
18.556066513061509
 20
-5.735565185546875
 30
0.0
 11
27.05606651306152
 21
-5.735565185546875
 31
0.0
  0
LINE
  5
50D
  8
0
  6
CONTINUOUS
 62
     0
 10
18.556066513061509
 20
-8.735565185546875
 30
0.0
 11
27.05606651306152
 21
-8.735565185546875
 31
0.0
  0
LINE
  5
50E
  8
0
  6
CONTINUOUS
 62
     0
 10
27.4560661315918
 20
-8.3355636596679652
 30
0.0
 11
27.4560661315918
 21
-6.1355667114257813
 31
0.0
  0
LINE
  5
50F
  8
0
  6
CONTINUOUS
 62
     0
 10
18.556066513061509
 20
-9.7355651855468768
 30
0.0
 11
18.556066513061509
 21
-4.735565185546875
 31
0.0
  0
LINE
  5
510
  8
0
  6
CONTINUOUS
 62
     0
 10
18.15606689453125
 20
-4.735565185546875
 30
0.0
 11
18.556066513061509
 21
-4.735565185546875
 31
0.0
  0
LINE
  5
511
  8
0
  6
CONTINUOUS
 62
     0
 10
18.15606689453125
 20
-9.7355651855468768
 30
0.0
 11
18.556066513061509
 21
-9.7355651855468768
 31
0.0
  0
LINE
  5
512
  8
0
  6
CONTINUOUS
 62
     0
 10
18.15606689453125
 20
-9.7355651855468768
 30
0.0
 11
18.15606689453125
 21
-4.735565185546875
 31
0.0
  0
LINE
  5
513
  8
0
  6
C_CENTER_L
 62
     0
 10
-16.10686111450195
 20
-7.235565185546875
 30
0.0
 11
30.55606651306152
 21
-7.235565185546875
 31
0.0
  0
LINE
  5
514
  8
0
  6
CONTINUOUS
 62
     0
 10
27.05606159293562
 20
-8.7355598416510212
 30
0.0
 11
27.456058848128009
 21
-8.3355627213276193
 31
0.0
  0
LINE
  5
515
  8
0
  6
CONTINUOUS
 62
     0
 10
27.456059219020862
 20
-6.1355593068714143
 30
0.0
 11
27.056059401299649
 21
-5.7355593542803263
 31
0.0
  0
LINE
  5
516
  8
0
  6
C_SOLID_L
 62
     0
 10
27.05606651306152
 20
-8.735565185546875
 30
0.0
 11
27.05606651306152
 21
-5.735565185546875
 31
0.0
  0
LINE
  5
517
  8
0
  6
CONTINUOUS
 62
     0
 10
-7.5439338684082022
 20
-14.73056030273438
 30
0.0
 11
-7.5439338684082022
 21
-13.73056793212891
 31
0.0
  0
LINE
  5
518
  8
0
  6
CONTINUOUS
 62
     0
 10
-7.2439369761913959
 20
-14.87046852734075
 30
0.0
 11
-7.5439406915763243
 21
-14.730574499222881
 31
0.0
  0
LINE
  5
519
  8
0
  6
CONTINUOUS
 62
     0
 10
-7.543944008216954
 20
-13.73058045851768
 30
0.0
 11
-7.2439376728544858
 21
-13.590685208684249
 31
0.0
  0
LINE
  5
51A
  8
0
  6
CONTINUOUS
 62
     0
 10
17.85606575012207
 20
-22.235565185546871
 30
0.0
 11
17.85606575012207
 21
7.764434814453125
 31
0.0
  0
LINE
  5
51B
  8
0
  6
CONTINUOUS
 62
     0
 10
-0.7439346313476563
 20
-22.235565185546871
 30
0.0
 11
-0.7439346313476563
 21
7.764434814453125
 31
0.0
  0
LINE
  5
51C
  8
0
  6
CONTINUOUS
 62
     0
 10
-9.0439338684082031
 20
-9.7355651855468768
 30
0.0
 11
-9.0439338684082031
 21
-4.735565185546875
 31
0.0
  0
LINE
  5
51D
  8
0
  6
CONTINUOUS
 62
     0
 10
-9.0439338684082031
 20
-4.735565185546875
 30
0.0
 11
-7.2439346313476563
 21
-4.735565185546875
 31
0.0
  0
LINE
  5
51E
  8
0
  6
CONTINUOUS
 62
     0
 10
-9.0439338684082031
 20
-9.7355651855468768
 30
0.0
 11
-7.2439346313476563
 21
-9.7355651855468768
 31
0.0
  0
LINE
  5
51F
  8
0
  6
CONTINUOUS
 62
     0
 10
-12.04393386840818
 20
-8.0355682373046875
 30
0.0
 11
-12.04393386840818
 21
-6.4355621337890616
 31
0.0
  0
LINE
  5
520
  8
0
  6
CONTINUOUS
 62
     0
 10
-11.84393310546875
 20
-6.235565185546875
 30
0.0
 11
-11.44393348693848
 21
-6.235565185546875
 31
0.0
  0
LINE
  5
521
  8
0
  6
CONTINUOUS
 62
     0
 10
-11.84393310546875
 20
-8.235565185546875
 30
0.0
 11
-11.44393348693848
 21
-8.235565185546875
 31
0.0
  0
LINE
  5
522
  8
0
  6
C_SOLID_L
 62
     0
 10
-12.04393386840818
 20
-6.4355621337890616
 30
0.0
 11
-11.44393348693848
 21
-6.4355621337890616
 31
0.0
  0
LINE
  5
523
  8
0
  6
C_SOLID_L
 62
     0
 10
-12.04393386840818
 20
-8.0355682373046875
 30
0.0
 11
-11.44393348693848
 21
-8.0355682373046875
 31
0.0
  0
LINE
  5
524
  8
0
  6
CONTINUOUS
 62
     0
 10
-11.84392441709616
 20
-8.2355729569832761
 30
0.0
 11
-12.04392570837337
 21
-8.0355716657060725
 31
0.0
  0
LINE
  5
525
  8
0
  6
CONTINUOUS
 62
     0
 10
-12.04392553978597
 20
-6.4355722936688693
 30
0.0
 11
-11.84392964330527
 21
-6.2355763971881819
 31
0.0
  0
LINE
  5
526
  8
0
  6
C_SOLID_L
 62
     0
 10
-11.84393310546875
 20
-8.235565185546875
 30
0.0
 11
-11.84393310546875
 21
-6.235565185546875
 31
0.0
  0
LINE
  5
527
  8
0
  6
CONTINUOUS
 62
     0
 10
-9.0439338684082031
 20
-9.7355651855468768
 30
0.0
 11
-9.0439338684082031
 21
-4.735565185546875
 31
0.0
  0
LINE
  5
528
  8
0
  6
CONTINUOUS
 62
     0
 10
-9.34393310546875
 20
-4.735565185546875
 30
0.0
 11
-9.0439338684082031
 21
-4.735565185546875
 31
0.0
  0
LINE
  5
529
  8
0
  6
CONTINUOUS
 62
     0
 10
-9.34393310546875
 20
-9.7355651855468768
 30
0.0
 11
-9.0439338684082031
 21
-9.7355651855468768
 31
0.0
  0
LINE
  5
52A
  8
0
  6
CONTINUOUS
 62
     0
 10
-9.34393310546875
 20
-9.7355651855468768
 30
0.0
 11
-9.34393310546875
 21
-4.735565185546875
 31
0.0
  0
LINE
  5
52B
  8
0
  6
CONTINUOUS
 62
     0
 10
-9.84393310546875
 20
-5.0355682373046884
 30
0.0
 11
-9.34393310546875
 21
-5.0355682373046884
 31
0.0
  0
LINE
  5
52C
  8
0
  6
CONTINUOUS
 62
     0
 10
-9.84393310546875
 20
-9.4355621337890625
 30
0.0
 11
-9.34393310546875
 21
-9.4355621337890625
 31
0.0
  0
LINE
  5
52D
  8
0
  6
CONTINUOUS
 62
     0
 10
-9.84393310546875
 20
-9.4355621337890625
 30
0.0
 11
-9.84393310546875
 21
-5.0355682373046884
 31
0.0
  0
LINE
  5
52E
  8
0
  6
CONTINUOUS
 62
     0
 10
-11.44393348693848
 20
-8.855560302734375
 30
0.0
 11
-11.44393348693848
 21
-5.615570068359375
 31
0.0
  0
LINE
  5
52F
  8
0
  6
CONTINUOUS
 62
     0
 10
-11.247390747070311
 20
-5.0755615234375
 30
0.0
 11
-10.04047775268555
 21
-5.0755615234375
 31
0.0
  0
LINE
  5
530
  8
0
  6
CONTINUOUS
 62
     0
 10
-11.247390747070311
 20
-9.39556884765625
 30
0.0
 11
-10.04047775268555
 21
-9.39556884765625
 31
0.0
  0
LINE
  5
531
  8
0
  6
CONTINUOUS
 62
     0
 10
-11.24738986792326
 20
-9.3955690833987564
 30
0.0
 11
-11.44393298940906
 21
-8.8555713145038908
 31
0.0
  0
LINE
  5
532
  8
0
  6
CONTINUOUS
 62
     0
 10
-10.04047239658826
 20
-9.3955651632838908
 30
0.0
 11
-9.8439292751024823
 21
-8.8555673943890252
 31
0.0
  0
LINE
  5
533
  8
0
  6
CONTINUOUS
 62
     0
 10
-11.443924290390781
 20
-5.6155653188039878
 30
0.0
 11
-11.24738116890501
 21
-5.0755675499091231
 31
0.0
  0
LINE
  5
534
  8
0
  6
CONTINUOUS
 62
     0
 10
-9.8439291323610565
 20
-5.6155740129536156
 30
0.0
 11
-10.0404747001656
 21
-5.0755695228533977
 31
0.0
  0
LINE
  5
535
  8
0
  6
CONTINUOUS
 62
     0
 10
-11.24393463134766
 20
-8.3155670166015625
 30
0.0
 11
-10.043933868408191
 21
-8.3155670166015625
 31
0.0
  0
LINE
  5
536
  8
0
  6
CONTINUOUS
 62
     0
 10
-11.24393463134766
 20
-6.1555633544921866
 30
0.0
 11
-10.043933868408191
 21
-6.1555633544921866
 31
0.0
  0
ARC
  5
537
  8
0
  6
CONTINUOUS
 62
     0
 10
-8.4279346466064453
 20
-7.235565185546875
 30
0.0
 40
3.0160002708435059
 50
159.0170491616519
 51
200.9829608562608
  0
ARC
  5
538
  8
0
  6
CONTINUOUS
 62
     0
 10
-12.85993576049805
 20
-7.235565185546875
 30
0.0
 40
3.0160009860992432
 50
339.0170492753374
 51
20.982954139757169
  0
ARC
  5
539
  8
0
  6
CONTINUOUS
 62
     0
 10
-10.864641189575201
 20
-8.75341796875
 30
0.0
 40
0.5792920589447022
 50
130.9007803489695
 51
200.00000101204759
  0
ARC
  5
53A
  8
0
  6
CONTINUOUS
 62
     0
 10
-10.864641189575201
 20
-5.71771240234375
 30
0.0
 40
0.5792924165725708
 50
159.99999534548661
 51
229.09920234818651
  0
ARC
  5
53B
  8
0
  6
CONTINUOUS
 62
     0
 10
-10.423225402832029
 20
-8.75341796875
 30
0.0
 40
0.5792923569679263
 50
340.0000022893613
 51
49.099204169419359
  0
ARC
  5
53C
  8
0
  6
CONTINUOUS
 62
     0
 10
-10.423227310180661
 20
-5.71771240234375
 30
0.0
 40
0.5792927145957947
 50
310.9008060758643
 51
20.000001125733132
  0
LINE
  5
53D
  8
0
  6
CONTINUOUS
 62
     0
 10
-9.7439346313476563
 20
-11.23556518554688
 30
0.0
 11
-7.2439346313476563
 21
-11.23556518554688
 31
0.0
  0
LINE
  5
53E
  8
0
  6
CONTINUOUS
 62
     0
 10
-9.7439346313476563
 20
-3.235565185546875
 30
0.0
 11
-7.2439346313476563
 21
-3.235565185546875
 31
0.0
  0
LINE
  5
53F
  8
0
  6
CONTINUOUS
 62
     0
 10
-9.7439346313476563
 20
-5.0355682373046884
 30
0.0
 11
-9.7439346313476563
 21
-3.235565185546875
 31
0.0
  0
LINE
  5
540
  8
0
  6
CONTINUOUS
 62
     0
 10
-9.7439346313476563
 20
-11.23556518554688
 30
0.0
 11
-9.7439346313476563
 21
-9.4355621337890625
 31
0.0
  0
LINE
  5
541
  8
0
  6
CONTINUOUS
 62
     0
 10
-7.2439346313476563
 20
5.6644363403320312
 30
0.0
 11
-7.2439346313476563
 21
-20.135566711425781
 31
0.0
  0
LINE
  5
542
  8
0
  6
CONTINUOUS
 62
     0
 10
-5.543935775756835
 20
5.6644363403320312
 30
0.0
 11
-5.543935775756835
 21
-20.135566711425781
 31
0.0
  0
LINE
  5
543
  8
0
  6
CONTINUOUS
 62
     0
 10
-7.2439346313476563
 20
-20.135566711425781
 30
0.0
 11
-5.543935775756835
 21
-20.135566711425781
 31
0.0
  0
LINE
  5
544
  8
0
  6
CONTINUOUS
 62
     0
 10
-7.2439346313476563
 20
5.6644363403320312
 30
0.0
 11
-5.543935775756835
 21
5.6644363403320312
 31
0.0
  0
LINE
  5
545
  8
0
  6
CONTINUOUS
 62
     0
 10
-5.543935775756835
 20
4.764434814453125
 30
0.0
 11
-1.043933868408202
 21
4.764434814453125
 31
0.0
  0
LINE
  5
546
  8
0
  6
CONTINUOUS
 62
     0
 10
-5.543935775756835
 20
-19.235565185546871
 30
0.0
 11
-1.043933868408202
 21
-19.235565185546871
 31
0.0
  0
LINE
  5
54A
  8
0
  6
CONTINUOUS
 62
     0
 10
10.15606689453125
 20
85.264434814453125
 30
0.0
 11
10.15606689453125
 21
60.264434814453118
 31
0.0
  0
LINE
  5
54B
  8
0
  6
CONTINUOUS
 62
     0
 10
17.15606689453125
 20
85.264434814453125
 30
0.0
 11
17.15606689453125
 21
60.264434814453118
 31
0.0
  0
LINE
  5
54C
  8
0
  6
CONTINUOUS
 62
     0
 10
11.656066894531239
 20
58.764434814453118
 30
0.0
 11
15.65606689453125
 21
58.764434814453118
 31
0.0
  0
LINE
  5
54D
  8
0
  6
CONTINUOUS
 62
     0
 10
11.656066894531239
 20
86.764434814453125
 30
0.0
 11
15.65606689453125
 21
86.764434814453125
 31
0.0
  0
ARC
  5
54E
  8
0
  6
CONTINUOUS
 62
     0
 10
11.656066894531239
 20
85.264434814453125
 30
0.0
 40
1.5
 50
90.000002504478175
 51
180.00000500895629
  0
ARC
  5
54F
  8
0
  6
CONTINUOUS
 62
     0
 10
15.65606689453125
 20
85.264434814453125
 30
0.0
 40
1.5
 50
0.000010017912262
 51
89.999988844099846
  0
ARC
  5
550
  8
0
  6
CONTINUOUS
 62
     0
 10
11.656066894531239
 20
60.264434814453118
 30
0.0
 40
1.5
 50
180.00000865142201
 51
269.99999749552182
  0
ARC
  5
551
  8
0
  6
CONTINUOUS
 62
     0
 10
15.65606689453125
 20
60.264434814453118
 30
0.0
 40
1.5
 50
269.99999749552182
 51
0.000010017912262
  0
LINE
  5
552
  8
0
  6
CONTINUOUS
 62
     0
 10
12.096286773681641
 20
-21.235565185546871
 30
0.0
 11
16.096286773681641
 21
-21.235565185546871
 31
0.0
  0
ARC
  5
553
  8
0
  6
CONTINUOUS
 62
     0
 10
12.096286773681641
 20
-19.735565185546871
 30
0.0
 40
1.5
 50
180.00000865142201
 51
269.99999749552182
  0
LINE
  5
554
  8
0
  6
CONTINUOUS
 62
     0
 10
10.596286773681641
 20
5.264434814453125
 30
0.0
 11
10.596286773681641
 21
-19.735565185546871
 31
0.0
  0
ARC
  5
555
  8
0
  6
CONTINUOUS
 62
     0
 10
16.096286773681641
 20
-19.735565185546871
 30
0.0
 40
1.5
 50
269.99999749552182
 51
0.000010017912262
  0
LINE
  5
556
  8
0
  6
CONTINUOUS
 62
     0
 10
17.596286773681641
 20
5.264434814453125
 30
0.0
 11
17.596286773681641
 21
-19.735565185546871
 31
0.0
  0
LINE
  5
557
  8
0
  6
CONTINUOUS
 62
     0
 10
12.096286773681641
 20
6.764434814453125
 30
0.0
 11
16.096286773681641
 21
6.764434814453125
 31
0.0
  0
ARC
  5
558
  8
0
  6
CONTINUOUS
 62
     0
 10
16.096286773681641
 20
5.264434814453125
 30
0.0
 40
1.5
 50
0.000010017912262
 51
89.999988844099846
  0
ARC
  5
559
  8
0
  6
CONTINUOUS
 62
     0
 10
12.096286773681641
 20
5.264434814453125
 30
0.0
 40
1.5
 50
90.000002504478175
 51
180.00000500895629
  0
LINE
  5
55B
  8
0
  6
CONTINUOUS
 62
     0
 10
-36.943931579589837
 20
70.164436340332031
 30
0.0
 11
-13.54393386840818
 21
70.164436340332031
 31
0.0
  0
LINE
  5
55C
  8
0
  6
CONTINUOUS
 62
     0
 10
-37.543930053710937
 20
71.364433288574219
 30
0.0
 11
-13.54393386840818
 21
71.364433288574219
 31
0.0
  0
LINE
  5
55D
  8
0
  6
CONTINUOUS
 62
     0
 10
-67.543930053710938
 20
71.364433288574219
 30
0.0
 11
-67.543930053710938
 21
70.164436340332031
 31
0.0
  0
LINE
  5
55E
  8
0
  6
CONTINUOUS
 62
     0
 10
-73.543930053710923
 20
71.014434814453125
 30
0.0
 11
-73.543930053710923
 21
70.514434814453125
 31
0.0
  0
LINE
  5
55F
  8
0
  6
CONTINUOUS
 62
     0
 10
-73.543930053710923
 20
70.514434814453125
 30
0.0
 11
-67.543930053710938
 21
70.514434814453125
 31
0.0
  0
LINE
  5
560
  8
0
  6
CONTINUOUS
 62
     0
 10
-73.543930053710923
 20
71.014434814453125
 30
0.0
 11
-67.543930053710938
 21
71.014434814453125
 31
0.0
  0
LINE
  5
561
  8
0
  6
CONTINUOUS
 62
     0
 10
-13.54393386840818
 20
71.564437866210923
 30
0.0
 11
-13.54393386840818
 21
69.964431762695312
 31
0.0
  0
LINE
  5
562
  8
0
  6
CONTINUOUS
 62
     0
 10
-13.54393386840818
 20
69.964431762695312
 30
0.0
 11
-3.5439338684082031
 21
69.964431762695312
 31
0.0
  0
LINE
  5
563
  8
0
  6
CONTINUOUS
 62
     0
 10
-13.54393386840818
 20
71.564437866210923
 30
0.0
 11
-5.2439327239990234
 21
71.564437866210923
 31
0.0
  0
POLYLINE
  5
564
  8
0
  6
CONTINUOUS
 62
     0
 66
     1
 10
0.0
 20
0.0
 30
0.0
 70
   128
  0
VERTEX
  5
925
  8
0
  6
CONTINUOUS
 62
     0
 10
-36.943931579589837
 20
72.064437866210923
 30
0.0
  0
VERTEX
  5
926
  8
0
  6
CONTINUOUS
 62
     0
 10
-37.144807234115419
 20
71.92318165069446
 30
0.0
  0
VERTEX
  5
927
  8
0
  6
CONTINUOUS
 62
     0
 10
-37.335585017222883
 20
71.753852110356092
 30
0.0
  0
VERTEX
  5
928
  8
0
  6
CONTINUOUS
 62
     0
 10
-37.416021822973562
 20
71.661273924109977
 30
0.0
  0
VERTEX
  5
929
  8
0
  6
CONTINUOUS
 62
     0
 10
-37.466144248115711
 20
71.58923591013172
 30
0.0
  0
VERTEX
  5
92A
  8
0
  6
CONTINUOUS
 62
     0
 10
-37.520412575150672
 20
71.47805015229153
 30
0.0
  0
VERTEX
  5
92B
  8
0
  6
CONTINUOUS
 62
     0
 10
-37.543930053710937
 20
71.364433288574219
 30
0.0
  0
VERTEX
  5
92C
  8
0
  6
CONTINUOUS
 62
     0
 10
-37.540386943141712
 20
71.290296062710709
 30
0.0
  0
VERTEX
  5
92D
  8
0
  6
CONTINUOUS
 62
     0
 10
-37.5026703513293
 20
71.159755332229906
 30
0.0
  0
VERTEX
  5
92E
  8
0
  6
CONTINUOUS
 62
     0
 10
-37.453340638937959
 20
71.061315260641294
 30
0.0
  0
VERTEX
  5
92F
  8
0
  6
CONTINUOUS
 62
     0
 10
-37.356039117253928
 20
70.913063101156155
 30
0.0
  0
VERTEX
  5
930
  8
0
  6
CONTINUOUS
 62
     0
 10
-37.243930824897028
 20
70.764434814453125
 30
0.0
  0
VERTEX
  5
931
  8
0
  6
CONTINUOUS
 62
     0
 10
-37.130123252681571
 20
70.613449386321022
 30
0.0
  0
VERTEX
  5
932
  8
0
  6
CONTINUOUS
 62
     0
 10
-37.054105690679393
 20
70.500447525657364
 30
0.0
  0
VERTEX
  5
933
  8
0
  6
CONTINUOUS
 62
     0
 10
-37.006762245931277
 20
70.415941764261092
 30
0.0
  0
VERTEX
  5
934
  8
0
  6
CONTINUOUS
 62
     0
 10
-36.957906869546427
 20
70.28974603364928
 30
0.0
  0
VERTEX
  5
935
  8
0
  6
CONTINUOUS
 62
     0
 10
-36.943931579589837
 20
70.164436340332031
 30
0.0
  0
VERTEX
  5
936
  8
0
  6
CONTINUOUS
 62
     0
 10
-36.963201134436389
 20
70.063350743090282
 30
0.0
  0
VERTEX
  5
937
  8
0
  6
CONTINUOUS
 62
     0
 10
-36.994208793337492
 20
69.98865416386343
 30
0.0
  0
VERTEX
  5
938
  8
0
  6
CONTINUOUS
 62
     0
 10
-37.062813193266997
 20
69.879462331199761
 30
0.0
  0
VERTEX
  5
939
  8
0
  6
CONTINUOUS
 62
     0
 10
-37.152276610803362
 20
69.775017518550143
 30
0.0
  0
VERTEX
  5
93A
  8
0
  6
CONTINUOUS
 62
     0
 10
-37.343054397207382
 20
69.605687983799726
 30
0.0
  0
VERTEX
  5
93B
  8
0
  6
CONTINUOUS
 62
     0
 10
-37.543930053710937
 20
69.464431762695312
 30
0.0
  0
SEQEND
  5
93C
  8
0
  6
CONTINUOUS
 62
     0
  0
POLYLINE
  5
57D
  8
0
  6
CONTINUOUS
 62
     0
 66
     1
 10
0.0
 20
0.0
 30
0.0
 70
   128
  0
VERTEX
  5
93D
  8
0
  6
CONTINUOUS
 62
     0
 10
-37.543930053710937
 20
72.064437866210923
 30
0.0
  0
VERTEX
  5
93E
  8
0
  6
CONTINUOUS
 62
     0
 10
-37.744805708236527
 20
71.92318165069446
 30
0.0
  0
VERTEX
  5
93F
  8
0
  6
CONTINUOUS
 62
     0
 10
-37.935583491343998
 20
71.753852110356092
 30
0.0
  0
VERTEX
  5
940
  8
0
  6
CONTINUOUS
 62
     0
 10
-38.016020297094649
 20
71.661273924109977
 30
0.0
  0
VERTEX
  5
941
  8
0
  6
CONTINUOUS
 62
     0
 10
-38.066142722236791
 20
71.58923591013172
 30
0.0
  0
VERTEX
  5
942
  8
0
  6
CONTINUOUS
 62
     0
 10
-38.120411049271773
 20
71.47805015229153
 30
0.0
  0
VERTEX
  5
943
  8
0
  6
CONTINUOUS
 62
     0
 10
-38.143928527832031
 20
71.364433288574219
 30
0.0
  0
VERTEX
  5
944
  8
0
  6
CONTINUOUS
 62
     0
 10
-38.140385417262813
 20
71.290296062710709
 30
0.0
  0
VERTEX
  5
945
  8
0
  6
CONTINUOUS
 62
     0
 10
-38.102668825450387
 20
71.159755332229906
 30
0.0
  0
VERTEX
  5
946
  8
0
  6
CONTINUOUS
 62
     0
 10
-38.053339113059067
 20
71.061315260641294
 30
0.0
  0
VERTEX
  5
947
  8
0
  6
CONTINUOUS
 62
     0
 10
-37.956037591375022
 20
70.913063101156155
 30
0.0
  0
VERTEX
  5
948
  8
0
  6
CONTINUOUS
 62
     0
 10
-37.843929299018107
 20
70.764434814453125
 30
0.0
  0
VERTEX
  5
949
  8
0
  6
CONTINUOUS
 62
     0
 10
-37.730121726802658
 20
70.613449386321022
 30
0.0
  0
VERTEX
  5
94A
  8
0
  6
CONTINUOUS
 62
     0
 10
-37.654104164800493
 20
70.500447525657364
 30
0.0
  0
VERTEX
  5
94B
  8
0
  6
CONTINUOUS
 62
     0
 10
-37.606760720052392
 20
70.415941764261092
 30
0.0
  0
VERTEX
  5
94C
  8
0
  6
CONTINUOUS
 62
     0
 10
-37.557905343667542
 20
70.28974603364928
 30
0.0
  0
VERTEX
  5
94D
  8
0
  6
CONTINUOUS
 62
     0
 10
-37.543930053710937
 20
70.164436340332031
 30
0.0
  0
VERTEX
  5
94E
  8
0
  6
CONTINUOUS
 62
     0
 10
-37.563199608557461
 20
70.063350743090282
 30
0.0
  0
VERTEX
  5
94F
  8
0
  6
CONTINUOUS
 62
     0
 10
-37.594207267458579
 20
69.98865416386343
 30
0.0
  0
VERTEX
  5
950
  8
0
  6
CONTINUOUS
 62
     0
 10
-37.662811667388098
 20
69.879462331199761
 30
0.0
  0
VERTEX
  5
951
  8
0
  6
CONTINUOUS
 62
     0
 10
-37.752275084924449
 20
69.775017518550143
 30
0.0
  0
VERTEX
  5
952
  8
0
  6
CONTINUOUS
 62
     0
 10
-37.943052871328497
 20
69.605687983799726
 30
0.0
  0
VERTEX
  5
953
  8
0
  6
CONTINUOUS
 62
     0
 10
-38.143928527832031
 20
69.464431762695312
 30
0.0
  0
SEQEND
  5
954
  8
0
  6
CONTINUOUS
 62
     0
  0
LINE
  5
596
  8
0
  6
CONTINUOUS
 62
     0
 10
-67.543930053710938
 20
70.164436340332031
 30
0.0
 11
-37.543930053710937
 21
70.164436340332031
 31
0.0
  0
LINE
  5
597
  8
0
  6
CONTINUOUS
 62
     0
 10
-67.543930053710938
 20
71.364433288574219
 30
0.0
 11
-38.143928527832031
 21
71.364433288574219
 31
0.0
  0
LINE
  5
598
  8
0
  6
CONTINUOUS
 62
     0
 10
-37.04393005371093
 20
74.164436340332031
 30
0.0
 11
-13.6439323425293
 21
74.164436340332031
 31
0.0
  0
LINE
  5
599
  8
0
  6
CONTINUOUS
 62
     0
 10
-37.643928527832031
 20
75.364433288574219
 30
0.0
 11
-13.6439323425293
 21
75.364433288574219
 31
0.0
  0
LINE
  5
59A
  8
0
  6
CONTINUOUS
 62
     0
 10
-67.643928527832031
 20
75.364433288574219
 30
0.0
 11
-67.643928527832031
 21
74.164436340332031
 31
0.0
  0
LINE
  5
59B
  8
0
  6
CONTINUOUS
 62
     0
 10
-73.643928527832031
 20
75.014434814453125
 30
0.0
 11
-73.643928527832031
 21
74.514434814453125
 31
0.0
  0
LINE
  5
59C
  8
0
  6
CONTINUOUS
 62
     0
 10
-73.643928527832031
 20
74.514434814453125
 30
0.0
 11
-67.643928527832031
 21
74.514434814453125
 31
0.0
  0
LINE
  5
59D
  8
0
  6
CONTINUOUS
 62
     0
 10
-73.643928527832031
 20
75.014434814453125
 30
0.0
 11
-67.643928527832031
 21
75.014434814453125
 31
0.0
  0
LINE
  5
59E
  8
0
  6
CONTINUOUS
 62
     0
 10
-13.6439323425293
 20
75.564437866210938
 30
0.0
 11
-13.6439323425293
 21
73.964431762695312
 31
0.0
  0
LINE
  5
59F
  8
0
  6
CONTINUOUS
 62
     0
 10
-13.6439323425293
 20
73.964431762695312
 30
0.0
 11
-5.1489429473876953
 21
73.964431762695312
 31
0.0
  0
LINE
  5
5A0
  8
0
  6
CONTINUOUS
 62
     0
 10
-13.6439323425293
 20
75.564437866210938
 30
0.0
 11
-3.5439338684082031
 21
75.564437866210938
 31
0.0
  0
POLYLINE
  5
5A1
  8
0
  6
CONTINUOUS
 62
     0
 66
     1
 10
0.0
 20
0.0
 30
0.0
 70
   128
  0
VERTEX
  5
955
  8
0
  6
CONTINUOUS
 62
     0
 10
-37.04393005371093
 20
76.064437866210937
 30
0.0
  0
VERTEX
  5
956
  8
0
  6
CONTINUOUS
 62
     0
 10
-37.244805708236527
 20
75.92318165069446
 30
0.0
  0
VERTEX
  5
957
  8
0
  6
CONTINUOUS
 62
     0
 10
-37.435583491343991
 20
75.753852110356092
 30
0.0
  0
VERTEX
  5
958
  8
0
  6
CONTINUOUS
 62
     0
 10
-37.516020297094649
 20
75.661273924109949
 30
0.0
  0
VERTEX
  5
959
  8
0
  6
CONTINUOUS
 62
     0
 10
-37.566142722236791
 20
75.58923591013172
 30
0.0
  0
VERTEX
  5
95A
  8
0
  6
CONTINUOUS
 62
     0
 10
-37.620411049271773
 20
75.47805015229153
 30
0.0
  0
VERTEX
  5
95B
  8
0
  6
CONTINUOUS
 62
     0
 10
-37.643928527832031
 20
75.364433288574219
 30
0.0
  0
VERTEX
  5
95C
  8
0
  6
CONTINUOUS
 62
     0
 10
-37.640385417262813
 20
75.290296062710709
 30
0.0
  0
VERTEX
  5
95D
  8
0
  6
CONTINUOUS
 62
     0
 10
-37.602668825450387
 20
75.159755332229906
 30
0.0
  0
VERTEX
  5
95E
  8
0
  6
CONTINUOUS
 62
     0
 10
-37.553339113059067
 20
75.061315260641294
 30
0.0
  0
VERTEX
  5
95F
  8
0
  6
CONTINUOUS
 62
     0
 10
-37.456037591375029
 20
74.913063101156155
 30
0.0
  0
VERTEX
  5
960
  8
0
  6
CONTINUOUS
 62
     0
 10
-37.343929299018107
 20
74.764434814453125
 30
0.0
  0
VERTEX
  5
961
  8
0
  6
CONTINUOUS
 62
     0
 10
-37.230121726802651
 20
74.613449386321022
 30
0.0
  0
VERTEX
  5
962
  8
0
  6
CONTINUOUS
 62
     0
 10
-37.154104164800493
 20
74.500447525657364
 30
0.0
  0
VERTEX
  5
963
  8
0
  6
CONTINUOUS
 62
     0
 10
-37.106760720052392
 20
74.415941764261092
 30
0.0
  0
VERTEX
  5
964
  8
0
  6
CONTINUOUS
 62
     0
 10
-37.057905343667542
 20
74.289746033649266
 30
0.0
  0
VERTEX
  5
965
  8
0
  6
CONTINUOUS
 62
     0
 10
-37.04393005371093
 20
74.164436340332031
 30
0.0
  0
VERTEX
  5
966
  8
0
  6
CONTINUOUS
 62
     0
 10
-37.063199608557468
 20
74.063350743090254
 30
0.0
  0
VERTEX
  5
967
  8
0
  6
CONTINUOUS
 62
     0
 10
-37.094207267458572
 20
73.988654163863444
 30
0.0
  0
VERTEX
  5
968
  8
0
  6
CONTINUOUS
 62
     0
 10
-37.162811667388091
 20
73.879462331199775
 30
0.0
  0
VERTEX
  5
969
  8
0
  6
CONTINUOUS
 62
     0
 10
-37.252275084924449
 20
73.775017518550158
 30
0.0
  0
VERTEX
  5
96A
  8
0
  6
CONTINUOUS
 62
     0
 10
-37.443052871328497
 20
73.60568798379974
 30
0.0
  0
VERTEX
  5
96B
  8
0
  6
CONTINUOUS
 62
     0
 10
-37.643928527832031
 20
73.464431762695312
 30
0.0
  0
SEQEND
  5
96C
  8
0
  6
CONTINUOUS
 62
     0
  0
POLYLINE
  5
5BA
  8
0
  6
CONTINUOUS
 62
     0
 66
     1
 10
0.0
 20
0.0
 30
0.0
 70
   128
  0
VERTEX
  5
96D
  8
0
  6
CONTINUOUS
 62
     0
 10
-37.643928527832031
 20
76.064437866210937
 30
0.0
  0
VERTEX
  5
96E
  8
0
  6
CONTINUOUS
 62
     0
 10
-37.844804182357613
 20
75.92318165069446
 30
0.0
  0
VERTEX
  5
96F
  8
0
  6
CONTINUOUS
 62
     0
 10
-38.035581965465099
 20
75.753852110356092
 30
0.0
  0
VERTEX
  5
970
  8
0
  6
CONTINUOUS
 62
     0
 10
-38.116018771215742
 20
75.661273924109949
 30
0.0
  0
VERTEX
  5
971
  8
0
  6
CONTINUOUS
 62
     0
 10
-38.166141196357898
 20
75.58923591013172
 30
0.0
  0
VERTEX
  5
972
  8
0
  6
CONTINUOUS
 62
     0
 10
-38.220409523392853
 20
75.47805015229153
 30
0.0
  0
VERTEX
  5
973
  8
0
  6
CONTINUOUS
 62
     0
 10
-38.243927001953111
 20
75.364433288574219
 30
0.0
  0
VERTEX
  5
974
  8
0
  6
CONTINUOUS
 62
     0
 10
-38.2403838913839
 20
75.290296062710709
 30
0.0
  0
VERTEX
  5
975
  8
0
  6
CONTINUOUS
 62
     0
 10
-38.202667299571488
 20
75.159755332229906
 30
0.0
  0
VERTEX
  5
976
  8
0
  6
CONTINUOUS
 62
     0
 10
-38.153337587180147
 20
75.061315260641294
 30
0.0
  0
VERTEX
  5
977
  8
0
  6
CONTINUOUS
 62
     0
 10
-38.056036065496109
 20
74.913063101156155
 30
0.0
  0
VERTEX
  5
978
  8
0
  6
CONTINUOUS
 62
     0
 10
-37.943927773139222
 20
74.764434814453125
 30
0.0
  0
VERTEX
  5
979
  8
0
  6
CONTINUOUS
 62
     0
 10
-37.830120200923758
 20
74.613449386321022
 30
0.0
  0
VERTEX
  5
97A
  8
0
  6
CONTINUOUS
 62
     0
 10
-37.754102638921587
 20
74.500447525657364
 30
0.0
  0
VERTEX
  5
97B
  8
0
  6
CONTINUOUS
 62
     0
 10
-37.706759194173493
 20
74.415941764261092
 30
0.0
  0
VERTEX
  5
97C
  8
0
  6
CONTINUOUS
 62
     0
 10
-37.657903817788629
 20
74.289746033649266
 30
0.0
  0
VERTEX
  5
97D
  8
0
  6
CONTINUOUS
 62
     0
 10
-37.643928527832031
 20
74.164436340332031
 30
0.0
  0
VERTEX
  5
97E
  8
0
  6
CONTINUOUS
 62
     0
 10
-37.663198082678583
 20
74.063350743090254
 30
0.0
  0
VERTEX
  5
97F
  8
0
  6
CONTINUOUS
 62
     0
 10
-37.694205741579673
 20
73.988654163863444
 30
0.0
  0
VERTEX
  5
980
  8
0
  6
CONTINUOUS
 62
     0
 10
-37.762810141509192
 20
73.879462331199775
 30
0.0
  0
VERTEX
  5
981
  8
0
  6
CONTINUOUS
 62
     0
 10
-37.852273559045521
 20
73.775017518550158
 30
0.0
  0
VERTEX
  5
982
  8
0
  6
CONTINUOUS
 62
     0
 10
-38.043051345449591
 20
73.60568798379974
 30
0.0
  0
VERTEX
  5
983
  8
0
  6
CONTINUOUS
 62
     0
 10
-38.243927001953111
 20
73.464431762695312
 30
0.0
  0
SEQEND
  5
984
  8
0
  6
CONTINUOUS
 62
     0
  0
LINE
  5
5D3
  8
0
  6
CONTINUOUS
 62
     0
 10
-67.643928527832031
 20
74.164436340332031
 30
0.0
 11
-37.643928527832031
 21
74.164436340332031
 31
0.0
  0
LINE
  5
5D4
  8
0
  6
CONTINUOUS
 62
     0
 10
-67.643928527832031
 20
75.364433288574219
 30
0.0
 11
-38.243927001953111
 21
75.364433288574219
 31
0.0
  0
LINE
  5
5D5
  8
0
  6
CONTINUOUS
 62
     0
 10
-43.143932342529283
 20
-9.8355636596679652
 30
0.0
 11
-19.74393463134766
 21
-9.8355636596679652
 31
0.0
  0
LINE
  5
5D6
  8
0
  6
CONTINUOUS
 62
     0
 10
-43.743930816650391
 20
-8.6355667114257813
 30
0.0
 11
-19.74393463134766
 21
-8.6355667114257813
 31
0.0
  0
LINE
  5
5D7
  8
0
  6
CONTINUOUS
 62
     0
 10
-73.743927001953125
 20
-8.6355667114257813
 30
0.0
 11
-73.743927001953125
 21
-9.8355636596679652
 31
0.0
  0
LINE
  5
5D8
  8
0
  6
CONTINUOUS
 62
     0
 10
-79.743927001953125
 20
-8.985565185546875
 30
0.0
 11
-79.743927001953125
 21
-9.4855651855468768
 31
0.0
  0
LINE
  5
5D9
  8
0
  6
CONTINUOUS
 62
     0
 10
-79.743927001953125
 20
-9.4855651855468768
 30
0.0
 11
-73.743927001953125
 21
-9.4855651855468768
 31
0.0
  0
LINE
  5
5DA
  8
0
  6
CONTINUOUS
 62
     0
 10
-79.743927001953125
 20
-8.985565185546875
 30
0.0
 11
-73.743927001953125
 21
-8.985565185546875
 31
0.0
  0
LINE
  5
5DB
  8
0
  6
CONTINUOUS
 62
     0
 10
-19.74393463134766
 20
-8.4355621337890625
 30
0.0
 11
-19.74393463134766
 21
-10.035568237304689
 31
0.0
  0
LINE
  5
5DC
  8
0
  6
CONTINUOUS
 62
     0
 10
-19.74393463134766
 20
-10.035568237304689
 30
0.0
 11
-9.7439346313476563
 21
-10.035568237304689
 31
0.0
  0
LINE
  5
5DD
  8
0
  6
CONTINUOUS
 62
     0
 10
-19.74393463134766
 20
-8.4355621337890625
 30
0.0
 11
-11.44393348693848
 21
-8.4355621337890625
 31
0.0
  0
POLYLINE
  5
5DE
  8
0
  6
CONTINUOUS
 62
     0
 66
     1
 10
0.0
 20
0.0
 30
0.0
 70
   128
  0
VERTEX
  5
985
  8
0
  6
CONTINUOUS
 62
     0
 10
-43.143932342529283
 20
-7.9355621337890616
 30
0.0
  0
VERTEX
  5
986
  8
0
  6
CONTINUOUS
 62
     0
 10
-43.344807997054893
 20
-8.0768183493055403
 30
0.0
  0
VERTEX
  5
987
  8
0
  6
CONTINUOUS
 62
     0
 10
-43.535585780162357
 20
-8.2461478896439075
 30
0.0
  0
VERTEX
  5
988
  8
0
  6
CONTINUOUS
 62
     0
 10
-43.616022585913022
 20
-8.3387260758900084
 30
0.0
  0
VERTEX
  5
989
  8
0
  6
CONTINUOUS
 62
     0
 10
-43.666145011055143
 20
-8.4107640898682803
 30
0.0
  0
VERTEX
  5
98A
  8
0
  6
CONTINUOUS
 62
     0
 10
-43.720413338090133
 20
-8.5219498477084681
 30
0.0
  0
VERTEX
  5
98B
  8
0
  6
CONTINUOUS
 62
     0
 10
-43.743930816650391
 20
-8.6355667114257813
 30
0.0
  0
VERTEX
  5
98C
  8
0
  6
CONTINUOUS
 62
     0
 10
-43.740387706081172
 20
-8.709703937289305
 30
0.0
  0
VERTEX
  5
98D
  8
0
  6
CONTINUOUS
 62
     0
 10
-43.702671114268753
 20
-8.8402446677700919
 30
0.0
  0
VERTEX
  5
98E
  8
0
  6
CONTINUOUS
 62
     0
 10
-43.653341401877427
 20
-8.9386847393587061
 30
0.0
  0
VERTEX
  5
98F
  8
0
  6
CONTINUOUS
 62
     0
 10
-43.556039880193381
 20
-9.086936898843847
 30
0.0
  0
VERTEX
  5
990
  8
0
  6
CONTINUOUS
 62
     0
 10
-43.443931587836452
 20
-9.2355651855468768
 30
0.0
  0
VERTEX
  5
991
  8
0
  6
CONTINUOUS
 62
     0
 10
-43.330124015621017
 20
-9.3865506136789918
 30
0.0
  0
VERTEX
  5
992
  8
0
  6
CONTINUOUS
 62
     0
 10
-43.254106453618853
 20
-9.4995524743426376
 30
0.0
  0
VERTEX
  5
993
  8
0
  6
CONTINUOUS
 62
     0
 10
-43.206763008870738
 20
-9.5840582357388957
 30
0.0
  0
VERTEX
  5
994
  8
0
  6
CONTINUOUS
 62
     0
 10
-43.157907632485887
 20
-9.7102539663507343
 30
0.0
  0
VERTEX
  5
995
  8
0
  6
CONTINUOUS
 62
     0
 10
-43.143932342529283
 20
-9.8355636596679652
 30
0.0
  0
VERTEX
  5
996
  8
0
  6
CONTINUOUS
 62
     0
 10
-43.163201897375842
 20
-9.9366492569097336
 30
0.0
  0
VERTEX
  5
997
  8
0
  6
CONTINUOUS
 62
     0
 10
-43.194209556276938
 20
-10.01134583613657
 30
0.0
  0
VERTEX
  5
998
  8
0
  6
CONTINUOUS
 62
     0
 10
-43.262813956206458
 20
-10.120537668800241
 30
0.0
  0
VERTEX
  5
999
  8
0
  6
CONTINUOUS
 62
     0
 10
-43.352277373742808
 20
-10.224982481449841
 30
0.0
  0
VERTEX
  5
99A
  8
0
  6
CONTINUOUS
 62
     0
 10
-43.543055160146857
 20
-10.39431201620026
 30
0.0
  0
VERTEX
  5
99B
  8
0
  6
CONTINUOUS
 62
     0
 10
-43.743930816650391
 20
-10.53556823730467
 30
0.0
  0
SEQEND
  5
99C
  8
0
  6
CONTINUOUS
 62
     0
  0
POLYLINE
  5
5F7
  8
0
  6
CONTINUOUS
 62
     0
 66
     1
 10
0.0
 20
0.0
 30
0.0
 70
   128
  0
VERTEX
  5
99D
  8
0
  6
CONTINUOUS
 62
     0
 10
-43.743930816650391
 20
-7.9355621337890616
 30
0.0
  0
VERTEX
  5
99E
  8
0
  6
CONTINUOUS
 62
     0
 10
-43.944806471175951
 20
-8.0768183493055403
 30
0.0
  0
VERTEX
  5
99F
  8
0
  6
CONTINUOUS
 62
     0
 10
-44.135584254283451
 20
-8.2461478896439075
 30
0.0
  0
VERTEX
  5
9A0
  8
0
  6
CONTINUOUS
 62
     0
 10
-44.216021060034109
 20
-8.3387260758900084
 30
0.0
  0
VERTEX
  5
9A1
  8
0
  6
CONTINUOUS
 62
     0
 10
-44.266143485176258
 20
-8.4107640898682803
 30
0.0
  0
VERTEX
  5
9A2
  8
0
  6
CONTINUOUS
 62
     0
 10
-44.320411812211219
 20
-8.5219498477084681
 30
0.0
  0
VERTEX
  5
9A3
  8
0
  6
CONTINUOUS
 62
     0
 10
-44.343929290771463
 20
-8.6355667114257813
 30
0.0
  0
VERTEX
  5
9A4
  8
0
  6
CONTINUOUS
 62
     0
 10
-44.340386180202238
 20
-8.709703937289305
 30
0.0
  0
VERTEX
  5
9A5
  8
0
  6
CONTINUOUS
 62
     0
 10
-44.302669588389847
 20
-8.8402446677700919
 30
0.0
  0
VERTEX
  5
9A6
  8
0
  6
CONTINUOUS
 62
     0
 10
-44.25333987599852
 20
-8.9386847393587061
 30
0.0
  0
VERTEX
  5
9A7
  8
0
  6
CONTINUOUS
 62
     0
 10
-44.156038354314482
 20
-9.086936898843847
 30
0.0
  0
VERTEX
  5
9A8
  8
0
  6
CONTINUOUS
 62
     0
 10
-44.04393006195756
 20
-9.2355651855468768
 30
0.0
  0
VERTEX
  5
9A9
  8
0
  6
CONTINUOUS
 62
     0
 10
-43.930122489742111
 20
-9.3865506136789918
 30
0.0
  0
VERTEX
  5
9AA
  8
0
  6
CONTINUOUS
 62
     0
 10
-43.854104927739947
 20
-9.4995524743426376
 30
0.0
  0
VERTEX
  5
9AB
  8
0
  6
CONTINUOUS
 62
     0
 10
-43.806761482991838
 20
-9.5840582357388957
 30
0.0
  0
VERTEX
  5
9AC
  8
0
  6
CONTINUOUS
 62
     0
 10
-43.757906106607003
 20
-9.7102539663507343
 30
0.0
  0
VERTEX
  5
9AD
  8
0
  6
CONTINUOUS
 62
     0
 10
-43.743930816650391
 20
-9.8355636596679652
 30
0.0
  0
VERTEX
  5
9AE
  8
0
  6
CONTINUOUS
 62
     0
 10
-43.763200371496922
 20
-9.9366492569097336
 30
0.0
  0
VERTEX
  5
9AF
  8
0
  6
CONTINUOUS
 62
     0
 10
-43.794208030398032
 20
-10.01134583613657
 30
0.0
  0
VERTEX
  5
9B0
  8
0
  6
CONTINUOUS
 62
     0
 10
-43.862812430327551
 20
-10.120537668800241
 30
0.0
  0
VERTEX
  5
9B1
  8
0
  6
CONTINUOUS
 62
     0
 10
-43.952275847863902
 20
-10.224982481449841
 30
0.0
  0
VERTEX
  5
9B2
  8
0
  6
CONTINUOUS
 62
     0
 10
-44.14305363426795
 20
-10.39431201620026
 30
0.0
  0
VERTEX
  5
9B3
  8
0
  6
CONTINUOUS
 62
     0
 10
-44.343929290771463
 20
-10.53556823730467
 30
0.0
  0
SEQEND
  5
9B4
  8
0
  6
CONTINUOUS
 62
     0
  0
LINE
  5
610
  8
0
  6
CONTINUOUS
 62
     0
 10
-73.743927001953125
 20
-9.8355636596679652
 30
0.0
 11
-43.743930816650391
 21
-9.8355636596679652
 31
0.0
  0
LINE
  5
611
  8
0
  6
CONTINUOUS
 62
     0
 10
-73.743927001953125
 20
-8.6355667114257813
 30
0.0
 11
-44.343929290771463
 21
-8.6355667114257813
 31
0.0
  0
LINE
  5
612
  8
0
  6
CONTINUOUS
 62
     0
 10
-43.243930816650384
 20
-5.835563659667967
 30
0.0
 11
-19.84393310546875
 21
-5.835563659667967
 31
0.0
  0
LINE
  5
613
  8
0
  6
CONTINUOUS
 62
     0
 10
-43.843929290771463
 20
-4.6355667114257812
 30
0.0
 11
-19.84393310546875
 21
-4.6355667114257812
 31
0.0
  0
LINE
  5
614
  8
0
  6
CONTINUOUS
 62
     0
 10
-73.84393310546875
 20
-4.6355667114257812
 30
0.0
 11
-73.84393310546875
 21
-5.835563659667967
 31
0.0
  0
LINE
  5
615
  8
0
  6
CONTINUOUS
 62
     0
 10
-79.84393310546875
 20
-4.985565185546875
 30
0.0
 11
-79.84393310546875
 21
-5.485565185546875
 31
0.0
  0
LINE
  5
616
  8
0
  6
CONTINUOUS
 62
     0
 10
-79.84393310546875
 20
-5.485565185546875
 30
0.0
 11
-73.84393310546875
 21
-5.485565185546875
 31
0.0
  0
LINE
  5
617
  8
0
  6
CONTINUOUS
 62
     0
 10
-79.84393310546875
 20
-4.985565185546875
 30
0.0
 11
-73.84393310546875
 21
-4.985565185546875
 31
0.0
  0
LINE
  5
618
  8
0
  6
CONTINUOUS
 62
     0
 10
-19.84393310546875
 20
-4.4355621337890607
 30
0.0
 11
-19.84393310546875
 21
-6.0355682373046866
 31
0.0
  0
LINE
  5
619
  8
0
  6
CONTINUOUS
 62
     0
 10
-19.84393310546875
 20
-6.0355682373046866
 30
0.0
 11
-11.34894371032715
 21
-6.0355682373046866
 31
0.0
  0
LINE
  5
61A
  8
0
  6
CONTINUOUS
 62
     0
 10
-19.84393310546875
 20
-4.4355621337890607
 30
0.0
 11
-9.7439346313476563
 21
-4.4355621337890607
 31
0.0
  0
POLYLINE
  5
61B
  8
0
  6
CONTINUOUS
 62
     0
 66
     1
 10
0.0
 20
0.0
 30
0.0
 70
   128
  0
VERTEX
  5
9B5
  8
0
  6
CONTINUOUS
 62
     0
 10
-43.243930816650384
 20
-3.9355621337890621
 30
0.0
  0
VERTEX
  5
9B6
  8
0
  6
CONTINUOUS
 62
     0
 10
-43.444806471175951
 20
-4.0768183493055403
 30
0.0
  0
VERTEX
  5
9B7
  8
0
  6
CONTINUOUS
 62
     0
 10
-43.635584254283458
 20
-4.2461478896439084
 30
0.0
  0
VERTEX
  5
9B8
  8
0
  6
CONTINUOUS
 62
     0
 10
-43.716021060034109
 20
-4.3387260758900084
 30
0.0
  0
VERTEX
  5
9B9
  8
0
  6
CONTINUOUS
 62
     0
 10
-43.766143485176258
 20
-4.4107640898682803
 30
0.0
  0
VERTEX
  5
9BA
  8
0
  6
CONTINUOUS
 62
     0
 10
-43.820411812211191
 20
-4.5219498477084681
 30
0.0
  0
VERTEX
  5
9BB
  8
0
  6
CONTINUOUS
 62
     0
 10
-43.843929290771463
 20
-4.6355667114257812
 30
0.0
  0
VERTEX
  5
9BC
  8
0
  6
CONTINUOUS
 62
     0
 10
-43.840386180202238
 20
-4.709703937289305
 30
0.0
  0
VERTEX
  5
9BD
  8
0
  6
CONTINUOUS
 62
     0
 10
-43.802669588389847
 20
-4.840244667770091
 30
0.0
  0
VERTEX
  5
9BE
  8
0
  6
CONTINUOUS
 62
     0
 10
-43.75333987599852
 20
-4.9386847393587061
 30
0.0
  0
VERTEX
  5
9BF
  8
0
  6
CONTINUOUS
 62
     0
 10
-43.656038354314482
 20
-5.086936898843847
 30
0.0
  0
VERTEX
  5
9C0
  8
0
  6
CONTINUOUS
 62
     0
 10
-43.543930061957553
 20
-5.235565185546875
 30
0.0
  0
VERTEX
  5
9C1
  8
0
  6
CONTINUOUS
 62
     0
 10
-43.430122489742097
 20
-5.3865506136789909
 30
0.0
  0
VERTEX
  5
9C2
  8
0
  6
CONTINUOUS
 62
     0
 10
-43.354104927739947
 20
-5.4995524743426358
 30
0.0
  0
VERTEX
  5
9C3
  8
0
  6
CONTINUOUS
 62
     0
 10
-43.306761482991838
 20
-5.584058235738893
 30
0.0
  0
VERTEX
  5
9C4
  8
0
  6
CONTINUOUS
 62
     0
 10
-43.257906106606988
 20
-5.7102539663507308
 30
0.0
  0
VERTEX
  5
9C5
  8
0
  6
CONTINUOUS
 62
     0
 10
-43.243930816650384
 20
-5.835563659667967
 30
0.0
  0
VERTEX
  5
9C6
  8
0
  6
CONTINUOUS
 62
     0
 10
-43.263200371496929
 20
-5.9366492569097318
 30
0.0
  0
VERTEX
  5
9C7
  8
0
  6
CONTINUOUS
 62
     0
 10
-43.294208030398032
 20
-6.0113458361365701
 30
0.0
  0
VERTEX
  5
9C8
  8
0
  6
CONTINUOUS
 62
     0
 10
-43.362812430327551
 20
-6.1205376688002371
 30
0.0
  0
VERTEX
  5
9C9
  8
0
  6
CONTINUOUS
 62
     0
 10
-43.452275847863902
 20
-6.2249824814498416
 30
0.0
  0
VERTEX
  5
9CA
  8
0
  6
CONTINUOUS
 62
     0
 10
-43.64305363426795
 20
-6.3943120162002733
 30
0.0
  0
VERTEX
  5
9CB
  8
0
  6
CONTINUOUS
 62
     0
 10
-43.843929290771463
 20
-6.5355682373046866
 30
0.0
  0
SEQEND
  5
9CC
  8
0
  6
CONTINUOUS
 62
     0
  0
POLYLINE
  5
634
  8
0
  6
CONTINUOUS
 62
     0
 66
     1
 10
0.0
 20
0.0
 30
0.0
 70
   128
  0
VERTEX
  5
9CD
  8
0
  6
CONTINUOUS
 62
     0
 10
-43.843929290771463
 20
-3.9355621337890621
 30
0.0
  0
VERTEX
  5
9CE
  8
0
  6
CONTINUOUS
 62
     0
 10
-44.044804945297059
 20
-4.0768183493055403
 30
0.0
  0
VERTEX
  5
9CF
  8
0
  6
CONTINUOUS
 62
     0
 10
-44.235582728404538
 20
-4.2461478896439084
 30
0.0
  0
VERTEX
  5
9D0
  8
0
  6
CONTINUOUS
 62
     0
 10
-44.31601953415521
 20
-4.3387260758900084
 30
0.0
  0
VERTEX
  5
9D1
  8
0
  6
CONTINUOUS
 62
     0
 10
-44.366141959297352
 20
-4.4107640898682803
 30
0.0
  0
VERTEX
  5
9D2
  8
0
  6
CONTINUOUS
 62
     0
 10
-44.420410286332313
 20
-4.5219498477084681
 30
0.0
  0
VERTEX
  5
9D3
  8
0
  6
CONTINUOUS
 62
     0
 10
-44.443927764892578
 20
-4.6355667114257812
 30
0.0
  0
VERTEX
  5
9D4
  8
0
  6
CONTINUOUS
 62
     0
 10
-44.440384654323339
 20
-4.709703937289305
 30
0.0
  0
VERTEX
  5
9D5
  8
0
  6
CONTINUOUS
 62
     0
 10
-44.402668062510941
 20
-4.840244667770091
 30
0.0
  0
VERTEX
  5
9D6
  8
0
  6
CONTINUOUS
 62
     0
 10
-44.353338350119593
 20
-4.9386847393587061
 30
0.0
  0
VERTEX
  5
9D7
  8
0
  6
CONTINUOUS
 62
     0
 10
-44.256036828435569
 20
-5.086936898843847
 30
0.0
  0
VERTEX
  5
9D8
  8
0
  6
CONTINUOUS
 62
     0
 10
-44.143928536078668
 20
-5.235565185546875
 30
0.0
  0
VERTEX
  5
9D9
  8
0
  6
CONTINUOUS
 62
     0
 10
-44.030120963863212
 20
-5.3865506136789909
 30
0.0
  0
VERTEX
  5
9DA
  8
0
  6
CONTINUOUS
 62
     0
 10
-43.95410340186104
 20
-5.4995524743426358
 30
0.0
  0
VERTEX
  5
9DB
  8
0
  6
CONTINUOUS
 62
     0
 10
-43.906759957112932
 20
-5.584058235738893
 30
0.0
  0
VERTEX
  5
9DC
  8
0
  6
CONTINUOUS
 62
     0
 10
-43.857904580728089
 20
-5.7102539663507308
 30
0.0
  0
VERTEX
  5
9DD
  8
0
  6
CONTINUOUS
 62
     0
 10
-43.843929290771463
 20
-5.835563659667967
 30
0.0
  0
VERTEX
  5
9DE
  8
0
  6
CONTINUOUS
 62
     0
 10
-43.863198845618022
 20
-5.9366492569097318
 30
0.0
  0
VERTEX
  5
9DF
  8
0
  6
CONTINUOUS
 62
     0
 10
-43.894206504519133
 20
-6.0113458361365701
 30
0.0
  0
VERTEX
  5
9E0
  8
0
  6
CONTINUOUS
 62
     0
 10
-43.962810904448652
 20
-6.1205376688002371
 30
0.0
  0
VERTEX
  5
9E1
  8
0
  6
CONTINUOUS
 62
     0
 10
-44.052274321985003
 20
-6.2249824814498416
 30
0.0
  0
VERTEX
  5
9E2
  8
0
  6
CONTINUOUS
 62
     0
 10
-44.243052108389037
 20
-6.3943120162002733
 30
0.0
  0
VERTEX
  5
9E3
  8
0
  6
CONTINUOUS
 62
     0
 10
-44.443927764892578
 20
-6.5355682373046866
 30
0.0
  0
SEQEND
  5
9E4
  8
0
  6
CONTINUOUS
 62
     0
  0
LINE
  5
64D
  8
0
  6
CONTINUOUS
 62
     0
 10
-73.84393310546875
 20
-5.835563659667967
 30
0.0
 11
-43.843929290771463
 21
-5.835563659667967
 31
0.0
  0
LINE
  5
64E
  8
0
  6
CONTINUOUS
 62
     0
 10
-73.84393310546875
 20
-4.6355667114257812
 30
0.0
 11
-44.443927764892578
 21
-4.6355667114257812
 31
0.0
  0
INSERT
  5
681
  8
0
  6
CONTINUOUS
 62
     0
  2
*X30
 10
0.0
 20
0.0
 30
0.0
  0
INSERT
  5
682
  8
0
  6
CONTINUOUS
 62
     0
  2
*X31
 10
0.0
 20
0.0
 30
0.0
  0
INSERT
  5
683
  8
0
  6
CONTINUOUS
 62
     0
  2
*X32
 10
0.0
 20
0.0
 30
0.0
  0
INSERT
  5
684
  8
0
  6
CONTINUOUS
 62
     0
  2
*X33
 10
0.0
 20
0.0
 30
0.0
  0
ENDSEC
  0
EOF
