  0
SECTION
  2
HEADER
  9
$ACADVER
  1
AC1012
  9
$DWGCODEPAGE
  3
dos932
  9
$INSBASE
 10
0.0
 20
0.0
 30
0.0
  9
$EXTMIN
 10
-49.77992823859199
 20
-44.09059680872025
 30
-0.0015258207003583
  9
$EXTMAX
 10
97.1389569957239
 20
27.00065563839456
 30
0.0000000349246037
  9
$LIMMIN
 10
-123.676361
 20
-121.479095
  9
$LIMMAX
 10
95.776085
 20
29.25
  9
$ORTHOMODE
 70
     0
  9
$REGENMODE
 70
     1
  9
$FILLMODE
 70
     1
  9
$QTEXTMODE
 70
     0
  9
$MIRRTEXT
 70
     1
  9
$DRAGMODE
 70
     2
  9
$LTSCALE
 40
1.0
  9
$OSMODE
 70
    37
  9
$ATTMODE
 70
     1
  9
$TEXTSIZE
 40
4.1672
  9
$TRACEWID
 40
0.05
  9
$TEXTSTYLE
  7
STANDARD
  9
$CLAYER
  8
0
  9
$CELTYPE
  6
CONTINUOUS
  9
$CECOLOR
 62
   256
  9
$CELTSCALE
 40
1.0
  9
$DELOBJ
 70
     1
  9
$DISPSILH
 70
     0
  9
$DIMSCALE
 40
1.0
  9
$DIMASZ
 40
0.18
  9
$DIMEXO
 40
0.0625
  9
$DIMDLI
 40
0.38
  9
$DIMRND
 40
0.0
  9
$DIMDLE
 40
0.0
  9
$DIMEXE
 40
0.18
  9
$DIMTP
 40
0.0
  9
$DIMTM
 40
0.0
  9
$DIMTXT
 40
0.18
  9
$DIMCEN
 40
0.09
  9
$DIMTSZ
 40
0.0
  9
$DIMTOL
 70
     0
  9
$DIMLIM
 70
     0
  9
$DIMTIH
 70
     1
  9
$DIMTOH
 70
     1
  9
$DIMSE1
 70
     0
  9
$DIMSE2
 70
     0
  9
$DIMTAD
 70
     0
  9
$DIMZIN
 70
     0
  9
$DIMBLK
  1

  9
$DIMASO
 70
     1
  9
$DIMSHO
 70
     1
  9
$DIMPOST
  1

  9
$DIMAPOST
  1

  9
$DIMALT
 70
     0
  9
$DIMALTD
 70
     2
  9
$DIMALTF
 40
25.4
  9
$DIMLFAC
 40
1.0
  9
$DIMTOFL
 70
     0
  9
$DIMTVP
 40
0.0
  9
$DIMTIX
 70
     0
  9
$DIMSOXD
 70
     0
  9
$DIMSAH
 70
     0
  9
$DIMBLK1
  1

  9
$DIMBLK2
  1

  9
$DIMSTYLE
  2
STANDARD
  9
$DIMCLRD
 70
     0
  9
$DIMCLRE
 70
     0
  9
$DIMCLRT
 70
     0
  9
$DIMTFAC
 40
1.0
  9
$DIMGAP
 40
0.09
  9
$DIMJUST
 70
     0
  9
$DIMSD1
 70
     0
  9
$DIMSD2
 70
     0
  9
$DIMTOLJ
 70
     1
  9
$DIMTZIN
 70
     0
  9
$DIMALTZ
 70
     0
  9
$DIMALTTZ
 70
     0
  9
$DIMFIT
 70
     3
  9
$DIMUPT
 70
     0
  9
$DIMUNIT
 70
     2
  9
$DIMDEC
 70
     4
  9
$DIMTDEC
 70
     4
  9
$DIMALTU
 70
     2
  9
$DIMALTTD
 70
     2
  9
$DIMTXSTY
  7
STANDARD
  9
$DIMAUNIT
 70
     0
  9
$LUNITS
 70
     2
  9
$LUPREC
 70
     6
  9
$SKETCHINC
 40
0.1
  9
$FILLETRAD
 40
0.0
  9
$AUNITS
 70
     0
  9
$AUPREC
 70
     4
  9
$MENU
  1
acad
  9
$ELEVATION
 40
0.0
  9
$PELEVATION
 40
0.0
  9
$THICKNESS
 40
0.0
  9
$LIMCHECK
 70
     0
  9
$BLIPMODE
 70
     0
  9
$CHAMFERA
 40
0.0
  9
$CHAMFERB
 40
0.0
  9
$CHAMFERC
 40
0.0
  9
$CHAMFERD
 40
0.0
  9
$SKPOLY
 70
     0
  9
$TDCREATE
 40
2376126.114255949
  9
$TDUPDATE
 40
2451683.858424421
  9
$TDINDWG
 40
0.0009961806
  9
$TDUSRTIMER
 40
0.0009954861
  9
$USRTIMER
 70
     1
  9
$ANGBASE
 50
0.0
  9
$ANGDIR
 70
     0
  9
$PDMODE
 70
     0
  9
$PDSIZE
 40
0.0
  9
$PLINEWID
 40
0.0
  9
$COORDS
 70
     1
  9
$SPLFRAME
 70
     0
  9
$SPLINETYPE
 70
     6
  9
$SPLINESEGS
 70
     8
  9
$ATTDIA
 70
     0
  9
$ATTREQ
 70
     1
  9
$HANDLING
 70
 10241
  9
$HANDSEED
  5
158
  9
$SURFTAB1
 70
     6
  9
$SURFTAB2
 70
     6
  9
$SURFTYPE
 70
     6
  9
$SURFU
 70
     6
  9
$SURFV
 70
     6
  9
$UCSNAME
  2

  9
$UCSORG
 10
0.0
 20
0.0
 30
0.0
  9
$UCSXDIR
 10
1.0
 20
0.0
 30
0.0
  9
$UCSYDIR
 10
0.0
 20
1.0
 30
0.0
  9
$PUCSNAME
  2

  9
$PUCSORG
 10
0.0
 20
0.0
 30
0.0
  9
$PUCSXDIR
 10
1.0
 20
0.0
 30
0.0
  9
$PUCSYDIR
 10
0.0
 20
1.0
 30
0.0
  9
$USERI1
 70
     0
  9
$USERI2
 70
     0
  9
$USERI3
 70
     0
  9
$USERI4
 70
     0
  9
$USERI5
 70
     0
  9
$USERR1
 40
0.0
  9
$USERR2
 40
0.0
  9
$USERR3
 40
0.0
  9
$USERR4
 40
0.0
  9
$USERR5
 40
0.0
  9
$WORLDVIEW
 70
     1
  9
$SHADEDGE
 70
     3
  9
$SHADEDIF
 70
    70
  9
$TILEMODE
 70
     1
  9
$MAXACTVP
 70
    16
  9
$PINSBASE
 10
0.0
 20
0.0
 30
0.0
  9
$PLIMCHECK
 70
     0
  9
$PEXTMIN
 10
-123.676361
 20
-121.479095
 30
1.000000000000000E+20
  9
$PEXTMAX
 10
95.776085
 20
29.25
 30
-1.000000000000000E+20
  9
$PLIMMIN
 10
0.0
 20
0.0
  9
$PLIMMAX
 10
12.0
 20
9.0
  9
$UNITMODE
 70
     0
  9
$VISRETAIN
 70
     0
  9
$PLINEGEN
 70
     0
  9
$PSLTSCALE
 70
     1
  9
$TREEDEPTH
 70
  3020
  9
$PICKSTYLE
 70
     1
  9
$CMLSTYLE
  2
STANDARD
  9
$CMLJUST
 70
     0
  9
$CMLSCALE
 40
1.0
  9
$SAVEIMAGES
 70
     1
  0
ENDSEC
  0
SECTION
  2
CLASSES
  0
CLASS
  1
ACDBDICTIONARYWDFLT
  2
AcDbDictionaryWithDefault
  3
AutoCAD 2000
 90
    32768
280
     0
281
     0
  0
CLASS
  1
ACDBPLACEHOLDER
  2
AcDbPlaceHolder
  3
AutoCAD 2000
 90
    32768
280
     0
281
     0
  0
CLASS
  1
LAYOUT
  2
AcDbLayout
  3
AutoCAD 2000
 90
    32768
280
     0
281
     0
  0
CLASS
  1
LONG_TRANSACTION
  2
AcDbLongTransaction
  3
AutoCAD 2000
 90
    32768
280
     0
281
     0
  0
CLASS
  1
LWPOLYLINE
  2
AcDbPolyline
  3
AutoCAD 2000
 90
    32768
280
     0
281
     1
  0
CLASS
  1
HATCH
  2
AcDbHatch
  3
AutoCAD 2000
 90
    32768
280
     0
281
     1
  0
CLASS
  1
XRECORD
  2
AcDbXrecord
  3
AutoCAD 2000
 90
    32768
280
     0
281
     0
  0
ENDSEC
  0
SECTION
  2
TABLES
  0
TABLE
  2
VPORT
  5
7
330
0
100
AcDbSymbolTable
 70
     2
  0
VPORT
  5
14B
330
7
100
AcDbSymbolTableRecord
100
AcDbViewportTableRecord
  2
*ACTIVE
 70
     0
 10
0.0
 20
0.0
 11
1.0
 21
1.0
 12
24.96892992459549
 22
-8.544022309659446
 13
0.0
 23
0.0
 14
6.349999999999999
 24
6.349999999999999
 15
6.349999999999999
 25
6.349999999999999
 16
0.0
 26
0.0
 36
1.0
 17
0.0
 27
0.0
 37
0.0
 40
94.38980931259926
 41
1.619666048237476
 42
50.0
 43
0.0
 44
0.0
 50
0.0
 51
0.0
 71
     0
 72
   100
 73
     1
 74
     1
 75
     0
 76
     0
 77
     0
 78
     0
  0
ENDTAB
  0
TABLE
  2
LTYPE
  5
4
330
0
100
AcDbSymbolTable
 70
    37
  0
LTYPE
  5
12
330
4
100
AcDbSymbolTableRecord
100
AcDbLinetypeTableRecord
  2
BYBLOCK
 70
     0
  3

 72
    65
 73
     0
 40
0.0
  0
LTYPE
  5
13
330
4
100
AcDbSymbolTableRecord
100
AcDbLinetypeTableRecord
  2
BYLAYER
 70
     0
  3

 72
    65
 73
     0
 40
0.0
  0
LTYPE
  5
14
330
4
100
AcDbSymbolTableRecord
100
AcDbLinetypeTableRecord
  2
CONTINUOUS
 70
     0
  3
DXF Default line type
 72
    65
 73
     0
 40
0.0
  0
LTYPE
  5
20
330
4
100
AcDbSymbolTableRecord
100
AcDbLinetypeTableRecord
  2
DASHED
 70
     0
  3
DXF Dashed
 72
    65
 73
     2
 40
0.75
 49
0.5
 74
     0
 49
-0.25
 74
     0
  0
LTYPE
  5
21
330
4
100
AcDbSymbolTableRecord
100
AcDbLinetypeTableRecord
  2
HIDDEN
 70
     0
  3
DXF Hidden
 72
    65
 73
     2
 40
0.375
 49
0.25
 74
     0
 49
-0.125
 74
     0
  0
LTYPE
  5
22
330
4
100
AcDbSymbolTableRecord
100
AcDbLinetypeTableRecord
  2
CENTER
 70
     0
  3
DXF Center
 72
    65
 73
     4
 40
2.0
 49
1.25
 74
     0
 49
-0.25
 74
     0
 49
0.25
 74
     0
 49
-0.25
 74
     0
  0
LTYPE
  5
23
330
4
100
AcDbSymbolTableRecord
100
AcDbLinetypeTableRecord
  2
PHANTOM
 70
     0
  3
DXF Phantom
 72
    65
 73
     6
 40
2.5
 49
1.25
 74
     0
 49
-0.25
 74
     0
 49
0.25
 74
     0
 49
-0.25
 74
     0
 49
0.25
 74
     0
 49
-0.25
 74
     0
  0
LTYPE
  5
24
330
4
100
AcDbSymbolTableRecord
100
AcDbLinetypeTableRecord
  2
DOT
 70
     0
  3
DXF DOT
 72
    65
 73
     2
 40
0.25
 49
0.0
 74
     0
 49
-0.25
 74
     0
  0
LTYPE
  5
25
330
4
100
AcDbSymbolTableRecord
100
AcDbLinetypeTableRecord
  2
DASHDOT
 70
     0
  3
DXF Dash Dot
 72
    65
 73
     4
 40
1.0
 49
0.5
 74
     0
 49
-0.25
 74
     0
 49
0.0
 74
     0
 49
-0.25
 74
     0
  0
LTYPE
  5
26
330
4
100
AcDbSymbolTableRecord
100
AcDbLinetypeTableRecord
  2
BORDER
 70
     0
  3
DXF Border
 72
    65
 73
     6
 40
1.75
 49
0.5
 74
     0
 49
-0.25
 74
     0
 49
0.5
 74
     0
 49
-0.25
 74
     0
 49
0.0
 74
     0
 49
-0.25
 74
     0
  0
LTYPE
  5
27
330
4
100
AcDbSymbolTableRecord
100
AcDbLinetypeTableRecord
  2
DIVIDE
 70
     0
  3
DXF Divide
 72
    65
 73
     6
 40
1.25
 49
0.5
 74
     0
 49
-0.25
 74
     0
 49
0.0
 74
     0
 49
-0.25
 74
     0
 49
0.0
 74
     0
 49
-0.25
 74
     0
  0
LTYPE
  5
28
330
4
100
AcDbSymbolTableRecord
100
AcDbLinetypeTableRecord
  2
C_SOLID_L
 70
     0
  3
CADAM Solid Light
 72
    65
 73
     0
 40
0.0
  0
LTYPE
  5
29
330
4
100
AcDbSymbolTableRecord
100
AcDbLinetypeTableRecord
  2
C_SOLID_M
 70
     0
  3
CADAM Solid Medium
 72
    65
 73
     0
 40
0.0
  0
LTYPE
  5
2A
330
4
100
AcDbSymbolTableRecord
100
AcDbLinetypeTableRecord
  2
C_SOLID_H
 70
     0
  3
CADAM Solid Heavy
 72
    65
 73
     0
 40
0.0
  0
LTYPE
  5
2B
330
4
100
AcDbSymbolTableRecord
100
AcDbLinetypeTableRecord
  2
C_DASHED_L
 70
     0
  3
CADAM Dashed Light
 72
    65
 73
     2
 40
0.375
 49
0.25
 74
     0
 49
-0.125
 74
     0
  0
LTYPE
  5
2C
330
4
100
AcDbSymbolTableRecord
100
AcDbLinetypeTableRecord
  2
C_DASHED_M
 70
     0
  3
CADAM Dashed Medium
 72
    65
 73
     2
 40
0.5
 49
0.375
 74
     0
 49
-0.125
 74
     0
  0
LTYPE
  5
2D
330
4
100
AcDbSymbolTableRecord
100
AcDbLinetypeTableRecord
  2
C_CENTER_L
 70
     0
  3
CADAM Center Light
 72
    65
 73
     4
 40
2.0
 49
1.25
 74
     0
 49
-0.25
 74
     0
 49
0.25
 74
     0
 49
-0.25
 74
     0
  0
LTYPE
  5
2E
330
4
100
AcDbSymbolTableRecord
100
AcDbLinetypeTableRecord
  2
C_PHANTOM_L
 70
     0
  3
CADAM Phantom Light
 72
    65
 73
     6
 40
2.5
 49
1.25
 74
     0
 49
-0.25
 74
     0
 49
0.25
 74
     0
 49
-0.25
 74
     0
 49
0.25
 74
     0
 49
-0.25
 74
     0
  0
LTYPE
  5
2F
330
4
100
AcDbSymbolTableRecord
100
AcDbLinetypeTableRecord
  2
C_BREAK_M
 70
     0
  3
CADAM Break Medium
 72
    65
 73
     4
 40
1.0
 49
0.5
 74
     0
 49
-0.25
 74
     0
 49
0.0
 74
     0
 49
-0.25
 74
     0
  0
LTYPE
  5
30
330
4
100
AcDbSymbolTableRecord
100
AcDbLinetypeTableRecord
  2
C_NC
 70
     0
  3
CADAM NC
 72
    65
 73
     0
 40
0.0
  0
LTYPE
  5
31
330
4
100
AcDbSymbolTableRecord
100
AcDbLinetypeTableRecord
  2
DSH1
 70
     0
  3
CADAM Style2 Type 1 Dashed Line
 72
    65
 73
     2
 40
0.075
 49
0.04
 74
     0
 49
-0.035
 74
     0
  0
LTYPE
  5
32
330
4
100
AcDbSymbolTableRecord
100
AcDbLinetypeTableRecord
  2
DSH2
 70
     0
  3
CADAM Style2 Type 2 Dashed Line
 72
    65
 73
     2
 40
0.15
 49
0.11
 74
     0
 49
-0.04
 74
     0
  0
LTYPE
  5
33
330
4
100
AcDbSymbolTableRecord
100
AcDbLinetypeTableRecord
  2
DSH3
 70
     0
  3
CADAM Style2 Type 3 Dashed Line
 72
    65
 73
     2
 40
0.2
 49
0.15
 74
     0
 49
-0.05
 74
     0
  0
LTYPE
  5
34
330
4
100
AcDbSymbolTableRecord
100
AcDbLinetypeTableRecord
  2
DSH4
 70
     0
  3
CADAM Style2 Type 4 Dashed Line
 72
    65
 73
     2
 40
0.36
 49
0.28
 74
     0
 49
-0.08
 74
     0
  0
LTYPE
  5
35
330
4
100
AcDbSymbolTableRecord
100
AcDbLinetypeTableRecord
  2
DSH5
 70
     0
  3
CADAM Style2 Type 5 Dashed Line
 72
    65
 73
     2
 40
0.47
 49
0.39
 74
     0
 49
-0.08
 74
     0
  0
LTYPE
  5
36
330
4
100
AcDbSymbolTableRecord
100
AcDbLinetypeTableRecord
  2
DSH6
 70
     0
  3
CADAM Style2 Type 6 Dashed Line
 72
    65
 73
     2
 40
0.9
 49
0.8100000000000001
 74
     0
 49
-0.09
 74
     0
  0
LTYPE
  5
37
330
4
100
AcDbSymbolTableRecord
100
AcDbLinetypeTableRecord
  2
PL1
 70
     0
  3
Style 2 Type 1 Phantom Line
 72
    65
 73
     6
 40
1.0
 49
0.6
 74
     0
 49
-0.08
 74
     0
 49
0.08
 74
     0
 49
-0.08
 74
     0
 49
0.08
 74
     0
 49
-0.08
 74
     0
  0
LTYPE
  5
38
330
4
100
AcDbSymbolTableRecord
100
AcDbLinetypeTableRecord
  2
PL2
 70
     0
  3
Style 2 Type 2 Phantom Line
 72
    65
 73
     6
 40
1.08
 49
0.6
 74
     0
 49
-0.08
 74
     0
 49
0.12
 74
     0
 49
-0.08
 74
     0
 49
0.12
 74
     0
 49
-0.08
 74
     0
  0
LTYPE
  5
39
330
4
100
AcDbSymbolTableRecord
100
AcDbLinetypeTableRecord
  2
PL3
 70
     0
  3
Style 2 Type 3 Phantom Line
 72
    65
 73
     6
 40
2.0
 49
1.439999999999999
 74
     0
 49
-0.08
 74
     0
 49
0.16
 74
     0
 49
-0.08
 74
     0
 49
0.16
 74
     0
 49
-0.08
 74
     0
  0
LTYPE
  5
3A
330
4
100
AcDbSymbolTableRecord
100
AcDbLinetypeTableRecord
  2
CL1
 70
     0
  3
CADAM Style 2 Type 1 Center Line
 72
    65
 73
     4
 40
0.7
 49
0.45
 74
     0
 49
-0.06
 74
     0
 49
0.13
 74
     0
 49
-0.06
 74
     0
  0
LTYPE
  5
3B
330
4
100
AcDbSymbolTableRecord
100
AcDbLinetypeTableRecord
  2
CL2
 70
     0
  3
CADAM Style 2 Type 2 Center Line
 72
    65
 73
     4
 40
1.199999999999999
 49
1.01
 74
     0
 49
-0.06
 74
     0
 49
0.11
 74
     0
 49
-0.06
 74
     0
  0
LTYPE
  5
3C
330
4
100
AcDbSymbolTableRecord
100
AcDbLinetypeTableRecord
  2
CL3
 70
     0
  3
CADAM Style 2 Type 3 Center Line
 72
    65
 73
     4
 40
1.199999999999999
 49
0.98
 74
     0
 49
-0.06
 74
     0
 49
0.1
 74
     0
 49
-0.06
 74
     0
  0
LTYPE
  5
3D
330
4
100
AcDbSymbolTableRecord
100
AcDbLinetypeTableRecord
  2
CL4
 70
     0
  3
CADAM Style 2 Type 4 Center Line
 72
    65
 73
     4
 40
2.2
 49
1.929999999999999
 74
     0
 49
-0.07
 74
     0
 49
0.13
 74
     0
 49
-0.07
 74
     0
  0
LTYPE
  5
3E
330
4
100
AcDbSymbolTableRecord
100
AcDbLinetypeTableRecord
  2
CL5
 70
     0
  3
CADAM Style 2 Type 5 Center Line
 72
    65
 73
     4
 40
2.2
 49
1.879999999999999
 74
     0
 49
-0.07
 74
     0
 49
0.18
 74
     0
 49
-0.07
 74
     0
  0
LTYPE
  5
3F
330
4
100
AcDbSymbolTableRecord
100
AcDbLinetypeTableRecord
  2
SBK1
 70
     0
  3
CADAM Style 2 Type 1 SetBack Line
 72
    65
 73
     8
 40
2.7
 49
0.1
 74
     0
 49
-0.08
 74
     0
 49
0.1
 74
     0
 49
-0.8
 74
     0
 49
0.0
 74
     0
 49
0.0
 74
     0
 49
0.0
 74
     0
 49
0.0
 74
     0
  0
LTYPE
  5
40
330
4
100
AcDbSymbolTableRecord
100
AcDbLinetypeTableRecord
  2
SBK2
 70
     0
  3
CADAM Style 2 Type 2 SetBack Line
 72
    65
 73
     8
 40
3.709999999999999
 49
0.13
 74
     0
 49
-0.08
 74
     0
 49
0.13
 74
     0
 49
-0.8
 74
     0
 49
0.0
 74
     0
 49
0.0
 74
     0
 49
0.0
 74
     0
 49
0.0
 74
     0
  0
LTYPE
  5
41
330
4
100
AcDbSymbolTableRecord
100
AcDbLinetypeTableRecord
  2
STCH
 70
     0
  3
CADAM Style2 Stitch Line
 72
    65
 73
     2
 40
0.25
 49
0.0
 74
     0
 49
-0.25
 74
     0
  0
LTYPE
  5
42
330
4
100
AcDbSymbolTableRecord
100
AcDbLinetypeTableRecord
  2
MTCH
 70
     0
  3
CADAM Style2 Match Line
 72
    65
 73
     6
 40
2.0
 49
1.439999999999999
 74
     0
 49
-0.8
 74
     0
 49
0.16
 74
     0
 49
-0.08
 74
     0
 49
0.16
 74
     0
 49
-0.08
 74
     0
  0
LTYPE
  5
43
330
4
100
AcDbSymbolTableRecord
100
AcDbLinetypeTableRecord
  2
SLD
 70
     0
  3
CADAM Solid_EXT2
 72
    65
 73
     0
 40
0.0
  0
ENDTAB
  0
TABLE
  2
LAYER
  5
2
330
0
100
AcDbSymbolTable
 70
     7
  0
LAYER
  5
15
330
2
100
AcDbSymbolTableRecord
100
AcDbLayerTableRecord
  2
0
 70
     0
 62
     7
  6
CONTINUOUS
  0
LAYER
  5
44
330
2
100
AcDbSymbolTableRecord
100
AcDbLayerTableRecord
  2
MO_001_NOSHOW
 70
     1
 62
     7
  6
CONTINUOUS
  0
LAYER
  5
45
330
2
100
AcDbSymbolTableRecord
100
AcDbLayerTableRecord
  2
MO_001_VIEW_PV
 70
     0
 62
     7
  6
CONTINUOUS
  0
LAYER
  5
46
330
2
100
AcDbSymbolTableRecord
100
AcDbLayerTableRecord
  2
OVERLAY_MAP
 70
     1
 62
     7
  6
CONTINUOUS
  0
LAYER
  5
47
330
2
100
AcDbSymbolTableRecord
100
AcDbLayerTableRecord
  2
DITTOS
 70
     0
 62
     7
  6
CONTINUOUS
  0
LAYER
  5
48
330
2
100
AcDbSymbolTableRecord
100
AcDbLayerTableRecord
  2
SYMBOLS
 70
     0
 62
     7
  6
CONTINUOUS
  0
LAYER
  5
49
330
2
100
AcDbSymbolTableRecord
100
AcDbLayerTableRecord
  2
SETS
 70
     0
 62
     7
  6
CONTINUOUS
  0
ENDTAB
  0
TABLE
  2
STYLE
  5
3
330
0
100
AcDbSymbolTable
 70
     1
  0
STYLE
  5
18
330
3
100
AcDbSymbolTableRecord
100
AcDbTextStyleTableRecord
  2
STANDARD
 70
     0
 40
4.1672
 41
1.0
 50
0.0
 71
     0
 42
4.1672
  3
monotxt
  4
BIGFONT
  0
ENDTAB
  0
TABLE
  2
VIEW
  5
5
330
0
100
AcDbSymbolTable
 70
     0
  0
ENDTAB
  0
TABLE
  2
UCS
  5
6
330
0
100
AcDbSymbolTable
 70
     4
  0
UCS
  5
4A
330
6
100
AcDbSymbolTableRecord
100
AcDbUCSTableRecord
  2
MO_001_VIEW_PV_P
 70
     0
 10
0.0
 20
0.0
 30
0.0
 11
1.0
 21
0.0
 31
0.0
 12
-0.0000000002051034
 22
1.0
 32
0.0
  0
UCS
  5
4B
330
6
100
AcDbSymbolTableRecord
100
AcDbUCSTableRecord
  2
MO_001_VIEW_PV_NP_000573
 70
     0
 10
-44.25102233886719
 20
-99.18939208984376
 30
0.0
 11
1.0
 21
0.0
 31
0.0
 12
-0.0000000002051034
 22
1.0
 32
0.0
  0
UCS
  5
4C
330
6
100
AcDbSymbolTableRecord
100
AcDbUCSTableRecord
  2
MO_001_VIEW_PV_NP_000210
 70
     0
 10
-123.6763610839843
 20
-121.4790954589843
 30
0.0
 11
1.0
 21
0.0
 31
0.0
 12
-0.0000000002051034
 22
1.0
 32
0.0
  0
UCS
  5
4D
330
6
100
AcDbSymbolTableRecord
100
AcDbUCSTableRecord
  2
MO_001_VIEW_PV_NP_000199
 70
     0
 10
0.0
 20
0.0
 30
0.0
 11
1.0
 21
0.0
 31
0.0
 12
-0.0000000002051034
 22
1.0
 32
0.0
  0
ENDTAB
  0
TABLE
  2
APPID
  5
8
330
0
100
AcDbSymbolTable
 70
     1
  0
APPID
  5
17
330
8
100
AcDbSymbolTableRecord
100
AcDbRegAppTableRecord
  2
ACAD
 70
     0
  0
ENDTAB
  0
TABLE
  2
DIMSTYLE
  5
9
330
0
100
AcDbSymbolTable
 70
     1
  0
DIMSTYLE
105
19
102
{ACAD_REACTORS
330
C6
330
C8
330
CA
330
CC
330
CE
330
D0
102
}
330
9
100
AcDbSymbolTableRecord
100
AcDbDimStyleTableRecord
  2
STANDARD
 70
     0
  3

  4

  5

  6

  7

 40
1.0
 41
0.18
 42
0.0625
 43
0.38
 44
0.18
 45
0.0
 46
0.0
 47
0.0
 48
0.0
140
0.18
141
0.09
142
0.0
143
25.4
144
1.0
145
0.0
146
1.0
147
0.09
 71
     0
 72
     0
 73
     1
 74
     1
 75
     0
 76
     0
 77
     0
 78
     0
170
     0
171
     2
172
     0
173
     0
174
     0
175
     0
176
     0
177
     0
178
     0
270
     2
271
     4
272
     4
273
     2
274
     2
340
18
275
     0
280
     0
281
     0
282
     0
283
     1
284
     0
285
     0
286
     0
287
     3
288
     0
  0
ENDTAB
  0
TABLE
  2
BLOCK_RECORD
  5
C
330
0
100
AcDbSymbolTable
 70
     7
  0
BLOCK_RECORD
  5
1E
102
{ACAD_XDICTIONARY
360
14C
102
}
330
C
100
AcDbSymbolTableRecord
100
AcDbBlockTableRecord
  2
*MODEL_SPACE
  0
BLOCK_RECORD
  5
1F
102
{ACAD_XDICTIONARY
360
14E
102
}
330
C
100
AcDbSymbolTableRecord
100
AcDbBlockTableRecord
  2
*PAPER_SPACE
  0
BLOCK_RECORD
  5
DD
330
C
100
AcDbSymbolTableRecord
100
AcDbBlockTableRecord
  2
D_0001_
  0
BLOCK_RECORD
  5
C5
330
C
100
AcDbSymbolTableRecord
100
AcDbBlockTableRecord
  2
*D1
  0
BLOCK_RECORD
  5
C7
330
C
100
AcDbSymbolTableRecord
100
AcDbBlockTableRecord
  2
*D2
  0
BLOCK_RECORD
  5
C9
330
C
100
AcDbSymbolTableRecord
100
AcDbBlockTableRecord
  2
*D3
  0
BLOCK_RECORD
  5
CB
330
C
100
AcDbSymbolTableRecord
100
AcDbBlockTableRecord
  2
*D4
  0
BLOCK_RECORD
  5
CD
330
C
100
AcDbSymbolTableRecord
100
AcDbBlockTableRecord
  2
*D5
  0
BLOCK_RECORD
  5
CF
330
C
100
AcDbSymbolTableRecord
100
AcDbBlockTableRecord
  2
*D6
  0
ENDTAB
  0
ENDSEC
  0
SECTION
  2
BLOCKS
  0
BLOCK
  5
E
330
1E
100
AcDbEntity
  8
0
100
AcDbBlockBegin
  2
*MODEL_SPACE
 70
     0
 10
0.0
 20
0.0
 30
0.0
  3
*MODEL_SPACE
  1

  0
ENDBLK
  5
F
330
1E
100
AcDbEntity
  8
0
100
AcDbBlockEnd
  0
BLOCK
  5
10
330
1F
100
AcDbEntity
 67
     1
  8
0
100
AcDbBlockBegin
  2
*PAPER_SPACE
 70
     0
 10
0.0
 20
0.0
 30
0.0
  3
*PAPER_SPACE
  1

  0
ENDBLK
  5
11
330
1F
100
AcDbEntity
 67
     1
  8
0
100
AcDbBlockEnd
  0
BLOCK
  5
DE
330
DD
100
AcDbEntity
  8
0
100
AcDbBlockBegin
  2
D_0001_
 70
     0
 10
0.0
 20
0.0
 30
0.0
  3
D_0001_
  1

  0
ARC
  5
DF
330
DD
100
AcDbEntity
  8
0
  6
C_SOLID_M
100
AcDbCircle
 10
-41.52
 20
-9.757122999999999
 30
0.0
 40
1.5
100
AcDbArc
 50
0.0
 51
44.999974
  0
LINE
  5
E0
330
DD
100
AcDbEntity
  8
0
  6
C_SOLID_M
100
AcDbLine
 10
-40.45934099999999
 20
-8.696464999999999
 30
0.0
 11
-40.725474
 21
-8.430330999999998
 31
0.0
  0
ARC
  5
E1
330
DD
100
AcDbEntity
  8
0
  6
C_SOLID_M
100
AcDbCircle
 10
-36.07999799999999
 20
-9.757122999999999
 30
0.0
 40
1.5
100
AcDbArc
 50
135.000028
 51
180.000005
  0
ARC
  5
E2
330
DD
100
AcDbEntity
  8
0
  6
C_SOLID_M
100
AcDbCircle
 10
-36.07999799999999
 20
-9.757122999999999
 30
0.0
 40
2.720000999999999
100
AcDbArc
 50
147.8821469999999
 51
180.000005
  0
ARC
  5
E3
330
DD
100
AcDbEntity
  8
0
  6
C_SOLID_M
100
AcDbCircle
 10
-41.52
 20
-9.757122999999999
 30
0.0
 40
2.720000999999999
100
AcDbArc
 50
0.0
 51
32.11785499999999
  0
LINE
  5
E4
330
DD
100
AcDbEntity
  8
0
  6
C_SOLID_M
100
AcDbLine
 10
-38.79999899999999
 20
-9.550016000000001
 30
0.0
 11
-38.79999899999999
 21
-19.400009
 31
0.0
  0
LINE
  5
E5
330
DD
100
AcDbEntity
  8
0
  6
C_SOLID_M
100
AcDbLine
 10
-37.57999799999999
 20
-9.757122999999999
 30
0.0
 11
-37.57999799999999
 21
-19.400009
 31
0.0
  0
LINE
  5
E6
330
DD
100
AcDbEntity
  8
0
  6
C_SOLID_M
100
AcDbLine
 10
-40.02
 20
-9.757122999999999
 30
0.0
 11
-40.02
 21
-19.400009
 31
0.0
  0
ARC
  5
E7
330
DD
100
AcDbEntity
  8
0
  6
C_SOLID_M
100
AcDbCircle
 10
-39.715
 20
-19.164925
 30
0.0
 40
0.385085
100
AcDbArc
 50
217.623887
 51
322.376135
  0
ARC
  5
E8
330
DD
100
AcDbEntity
  8
0
  6
C_SOLID_M
100
AcDbCircle
 10
-39.715
 20
-19.63509399999999
 30
0.0
 40
0.385085
100
AcDbArc
 50
37.623865
 51
142.3760579999999
  0
ARC
  5
E9
330
DD
100
AcDbEntity
  8
0
  6
C_SOLID_M
100
AcDbCircle
 10
-39.10499999999999
 20
-19.164925
 30
0.0
 40
0.385085
100
AcDbArc
 50
217.623887
 51
322.376077
  0
ARC
  5
EA
330
DD
100
AcDbEntity
  8
0
  6
C_SOLID_M
100
AcDbCircle
 10
-38.49499899999999
 20
-19.164925
 30
0.0
 40
0.385085
100
AcDbArc
 50
217.623887
 51
322.376135
  0
ARC
  5
EB
330
DD
100
AcDbEntity
  8
0
  6
C_SOLID_M
100
AcDbCircle
 10
-38.49499899999999
 20
-19.63509399999999
 30
0.0
 40
0.385085
100
AcDbArc
 50
37.623865
 51
142.3760579999999
  0
ARC
  5
EC
330
DD
100
AcDbEntity
  8
0
  6
C_SOLID_M
100
AcDbCircle
 10
-37.88499799999999
 20
-19.164925
 30
0.0
 40
0.385085
100
AcDbArc
 50
217.623887
 51
322.376077
  0
ARC
  5
ED
330
DD
100
AcDbEntity
  8
0
  6
C_SOLID_M
100
AcDbCircle
 10
-37.299999
 20
-8.772683999999999
 30
0.0
 40
0.5
100
AcDbArc
 50
279.7029919999999
 51
0.00001
  0
ARC
  5
EE
330
DD
100
AcDbEntity
  8
0
  6
C_SOLID_M
100
AcDbCircle
 10
-37.299999
 20
-8.692952999999999
 30
0.0
 40
0.5
100
AcDbArc
 50
0.0
 51
99.79035500000001
  0
LINE
  5
EF
330
DD
100
AcDbEntity
  8
0
  6
C_SOLID_M
100
AcDbLine
 10
-36.799999
 20
-8.692952999999999
 30
0.0
 11
-36.799999
 21
-8.772683999999999
 31
0.0
  0
ARC
  5
F0
330
DD
100
AcDbEntity
  8
0
  6
C_SOLID_M
100
AcDbCircle
 10
-40.29999899999999
 20
-8.772683999999999
 30
0.0
 40
0.5
100
AcDbArc
 50
180.000009
 51
260.2970029999999
  0
ARC
  5
F1
330
DD
100
AcDbEntity
  8
0
  6
C_SOLID_M
100
AcDbCircle
 10
-40.29999899999999
 20
-8.692952999999999
 30
0.0
 40
0.5
100
AcDbArc
 50
80.20963700000001
 51
180.000005
  0
LINE
  5
F2
330
DD
100
AcDbEntity
  8
0
  6
C_SOLID_M
100
AcDbLine
 10
-40.79999899999999
 20
-8.692952999999999
 30
0.0
 11
-40.79999899999999
 21
-8.772683999999999
 31
0.0
  0
ARC
  5
F3
330
DD
100
AcDbEntity
  8
0
  6
C_SOLID_M
100
AcDbCircle
 10
50.720001
 20
-9.757122999999999
 30
0.0
 40
1.5
100
AcDbArc
 50
162.7124819999999
 51
180.000005
  0
ARC
  5
F4
330
DD
100
AcDbEntity
  8
0
  6
C_SOLID_M
100
AcDbCircle
 10
50.720001
 20
-9.757122999999999
 30
0.0
 40
2.720000999999999
100
AcDbArc
 50
172.4549269999999
 51
180.000005
  0
ARC
  5
F5
330
DD
100
AcDbEntity
  8
0
  6
C_SOLID_M
100
AcDbCircle
 10
45.279999
 20
-9.757122999999999
 30
0.0
 40
2.720000999999999
100
AcDbArc
 50
0.0
 51
7.545075999999999
  0
ARC
  5
F6
330
DD
100
AcDbEntity
  8
0
  6
C_SOLID_M
100
AcDbCircle
 10
45.279999
 20
-9.757122999999999
 30
0.0
 40
1.5
100
AcDbArc
 50
0.0
 51
17.28752099999999
  0
ARC
  5
F7
330
DD
100
AcDbEntity
  8
0
  6
C_SOLID_M
100
AcDbCircle
 10
48.305
 20
-19.63509399999999
 30
0.0
 40
0.385085
100
AcDbArc
 50
37.623861
 51
142.3760579999999
  0
ARC
  5
F8
330
DD
100
AcDbEntity
  8
0
  6
C_SOLID_M
100
AcDbCircle
 10
48.915001
 20
-19.164925
 30
0.0
 40
0.385085
100
AcDbArc
 50
217.623887
 51
322.37607
  0
ARC
  5
F9
330
DD
100
AcDbEntity
  8
0
  6
C_SOLID_M
100
AcDbCircle
 10
48.305
 20
-19.164925
 30
0.0
 40
0.385085
100
AcDbArc
 50
217.623887
 51
322.376139
  0
ARC
  5
FA
330
DD
100
AcDbEntity
  8
0
  6
C_SOLID_M
100
AcDbCircle
 10
47.69499999999999
 20
-19.164925
 30
0.0
 40
0.385085
100
AcDbArc
 50
217.623887
 51
322.37607
  0
ARC
  5
FB
330
DD
100
AcDbEntity
  8
0
  6
C_SOLID_M
100
AcDbCircle
 10
47.08499899999999
 20
-19.63509399999999
 30
0.0
 40
0.385085
100
AcDbArc
 50
37.623861
 51
142.3760579999999
  0
ARC
  5
FC
330
DD
100
AcDbEntity
  8
0
  6
C_SOLID_M
100
AcDbCircle
 10
47.08499899999999
 20
-19.164925
 30
0.0
 40
0.385085
100
AcDbArc
 50
217.623887
 51
322.376139
  0
ENDBLK
  5
FD
330
DD
100
AcDbEntity
  8
0
100
AcDbBlockEnd
  0
BLOCK
  5
FE
330
C5
100
AcDbEntity
  8
0
100
AcDbBlockBegin
  2
*D1
 70
     1
 10
0.0
 20
0.0
 30
0.0
  3
*D1
  1

  0
LINE
  5
FF
330
C5
100
AcDbEntity
  8
MO_001_VIEW_PV
  6
BYBLOCK
100
AcDbLine
 10
-21.300001
 20
21.0
 30
0.0
 11
0.0
 21
21.0
 31
0.0
  0
SOLID
  5
100
330
C5
100
AcDbEntity
  8
MO_001_VIEW_PV
  6
BYBLOCK
100
AcDbTrace
 10
-17.98174099999999
 20
21.58351199999999
 30
0.0
 11
-20.792001
 21
21.0
 31
0.0
 12
-17.98174099999999
 22
20.416488
 32
0.0
 13
-17.98174099999999
 23
20.416488
 33
0.0
  0
SOLID
  5
101
330
C5
100
AcDbEntity
  8
MO_001_VIEW_PV
  6
BYBLOCK
100
AcDbTrace
 10
-3.318259999999999
 20
20.416488
 30
0.0
 11
-0.508
 21
21.0
 31
0.0
 12
-3.318259999999999
 22
21.58351199999999
 32
0.0
 13
-3.318259999999999
 23
21.58351199999999
 33
0.0
  0
LINE
  5
102
330
C5
100
AcDbEntity
  8
MO_001_VIEW_PV
  6
BYBLOCK
100
AcDbLine
 10
-21.300001
 20
1.199996999999999
 30
0.0
 11
-21.300001
 21
23.286003
 31
0.0
  0
LINE
  5
103
330
C5
100
AcDbEntity
  8
MO_001_VIEW_PV
  6
BYBLOCK
100
AcDbLine
 10
0.0
 20
8.5
 30
0.0
 11
0.0
 21
23.286003
 31
0.0
  0
TEXT
  5
104
330
C5
100
AcDbEntity
  8
MO_001_VIEW_PV
  6
BYBLOCK
100
AcDbText
 10
-5.785713999999999
 20
23.625
 30
0.0
 40
1.5
  1
%%P1.0
100
AcDbText
  0
TEXT
  5
105
330
C5
100
AcDbEntity
  8
MO_001_VIEW_PV
  6
BYBLOCK
100
AcDbText
 10
-17.571429
 20
21.75
 30
0.0
 40
3.0
  1
21.3
100
AcDbText
  0
LINE
  5
106
330
C5
100
AcDbEntity
  8
MO_001_VIEW_PV
  6
BYBLOCK
100
AcDbLine
 10
0.0
 20
21.0
 30
0.0
 11
0.5357140000000001
 21
21.0
 31
0.0
  0
ENDBLK
  5
107
330
C5
100
AcDbEntity
  8
0
100
AcDbBlockEnd
  0
BLOCK
  5
108
330
C7
100
AcDbEntity
  8
0
100
AcDbBlockBegin
  2
*D2
 70
     1
 10
0.0
 20
0.0
 30
0.0
  3
*D2
  1

  0
TEXT
  5
109
330
C7
100
AcDbEntity
  8
MO_001_VIEW_PV
  6
BYBLOCK
100
AcDbText
 10
22.02738099999999
 20
23.625
 30
0.0
 40
1.5
  1
%%P0.5
100
AcDbText
  0
TEXT
  5
10A
330
C7
100
AcDbEntity
  8
MO_001_VIEW_PV
  6
BYBLOCK
100
AcDbText
 10
10.241666
 20
21.75
 30
0.0
 40
3.0
  1
10.2
100
AcDbText
  0
LINE
  5
10B
330
C7
100
AcDbEntity
  8
MO_001_VIEW_PV
  6
BYBLOCK
100
AcDbLine
 10
10.200001
 20
21.0
 30
0.0
 11
0.0
 21
21.0
 31
0.0
  0
SOLID
  5
10C
330
C7
100
AcDbEntity
  8
MO_001_VIEW_PV
  6
BYBLOCK
100
AcDbTrace
 10
6.881741
 20
20.416488
 30
0.0
 11
9.692000999999999
 21
21.0
 31
0.0
 12
6.881741
 22
21.58351199999999
 32
0.0
 13
6.881741
 23
21.58351199999999
 33
0.0
  0
SOLID
  5
10D
330
C7
100
AcDbEntity
  8
MO_001_VIEW_PV
  6
BYBLOCK
100
AcDbTrace
 10
3.318259999999999
 20
21.58351199999999
 30
0.0
 11
0.508
 21
21.0
 31
0.0
 12
3.318259999999999
 22
20.416488
 32
0.0
 13
3.318259999999999
 23
20.416488
 33
0.0
  0
LINE
  5
10E
330
C7
100
AcDbEntity
  8
MO_001_VIEW_PV
  6
BYBLOCK
100
AcDbLine
 10
10.200001
 20
1.300003
 30
0.0
 11
10.200001
 21
23.28599899999999
 31
0.0
  0
LINE
  5
10F
330
C7
100
AcDbEntity
  8
MO_001_VIEW_PV
  6
BYBLOCK
100
AcDbLine
 10
0.0
 20
8.5
 30
0.0
 11
0.0
 21
23.28599899999999
 31
0.0
  0
LINE
  5
110
330
C7
100
AcDbEntity
  8
MO_001_VIEW_PV
  6
BYBLOCK
100
AcDbLine
 10
28.34880999999999
 20
21.0
 30
0.0
 11
10.200001
 21
21.0
 31
0.0
  0
ENDBLK
  5
111
330
C7
100
AcDbEntity
  8
0
100
AcDbBlockEnd
  0
BLOCK
  5
112
330
C9
100
AcDbEntity
  8
0
100
AcDbBlockBegin
  2
*D3
 70
     1
 10
0.0
 20
0.0
 30
0.0
  3
*D3
  1

  0
TEXT
  5
113
330
C9
100
AcDbEntity
  8
MO_001_VIEW_PV
  6
BYBLOCK
100
AcDbText
 10
15.375
 20
-9.912552999999999
 30
0.0
 40
1.5
  1
%%P0.03
 50
90.0
100
AcDbText
  0
TEXT
  5
114
330
C9
100
AcDbEntity
  8
MO_001_VIEW_PV
  6
BYBLOCK
100
AcDbText
 10
17.25
 20
-15.698267
 30
0.0
 40
3.0
  1
%%C3
 50
90.0
100
AcDbText
  0
LINE
  5
115
330
C9
100
AcDbEntity
  8
MO_001_VIEW_PV
  6
BYBLOCK
100
AcDbLine
 10
18.0
 20
1.5
 30
0.0
 11
18.0
 21
-1.5
 31
0.0
  0
LINE
  5
116
330
C9
100
AcDbEntity
  8
MO_001_VIEW_PV
  6
BYBLOCK
100
AcDbLine
 10
18.0
 20
1.5
 30
0.0
 11
18.0
 21
7.849999999999999
 31
0.0
  0
LINE
  5
117
330
C9
100
AcDbEntity
  8
MO_001_VIEW_PV
  6
BYBLOCK
100
AcDbLine
 10
18.0
 20
-1.5
 30
0.0
 11
18.0
 21
-7.849999999999999
 31
0.0
  0
SOLID
  5
118
330
C9
100
AcDbEntity
  8
MO_001_VIEW_PV
  6
BYBLOCK
100
AcDbTrace
 10
17.416488
 20
4.818259999999999
 30
0.0
 11
18.0
 21
2.008
 31
0.0
 12
18.58351199999999
 22
4.818259999999999
 32
0.0
 13
18.58351199999999
 23
4.818259999999999
 33
0.0
  0
SOLID
  5
119
330
C9
100
AcDbEntity
  8
MO_001_VIEW_PV
  6
BYBLOCK
100
AcDbTrace
 10
18.58351199999999
 20
-4.818259999999999
 30
0.0
 11
18.0
 21
-2.008
 31
0.0
 12
17.416488
 22
-4.818259999999999
 32
0.0
 13
17.416488
 23
-4.818259999999999
 33
0.0
  0
LINE
  5
11A
330
C9
100
AcDbEntity
  8
MO_001_VIEW_PV
  6
BYBLOCK
100
AcDbLine
 10
10.0
 20
1.5
 30
0.0
 11
20.285999
 21
1.5
 31
0.0
  0
LINE
  5
11B
330
C9
100
AcDbEntity
  8
MO_001_VIEW_PV
  6
BYBLOCK
100
AcDbLine
 10
10.0
 20
-1.5
 30
0.0
 11
20.285999
 21
-1.5
 31
0.0
  0
LINE
  5
11C
330
C9
100
AcDbEntity
  8
MO_001_VIEW_PV
  6
BYBLOCK
100
AcDbLine
 10
18.0
 20
-1.5
 30
0.0
 11
18.0
 21
-16.66255199999999
 31
0.0
  0
ENDBLK
  5
11D
330
C9
100
AcDbEntity
  8
0
100
AcDbBlockEnd
  0
BLOCK
  5
11E
330
CB
100
AcDbEntity
  8
0
100
AcDbBlockBegin
  2
*D4
 70
     1
 10
0.0
 20
0.0
 30
0.0
  3
*D4
  1

  0
LINE
  5
11F
330
CB
100
AcDbEntity
  8
MO_001_VIEW_PV
  6
BYBLOCK
100
AcDbLine
 10
-12.6
 20
15.0
 30
0.0
 11
0.0
 21
15.0
 31
0.0
  0
LINE
  5
120
330
CB
100
AcDbEntity
  8
MO_001_VIEW_PV
  6
BYBLOCK
100
AcDbLine
 10
-12.6
 20
15.0
 30
0.0
 11
-18.94999999999999
 21
15.0
 31
0.0
  0
LINE
  5
121
330
CB
100
AcDbEntity
  8
MO_001_VIEW_PV
  6
BYBLOCK
100
AcDbLine
 10
0.0
 20
15.0
 30
0.0
 11
6.349999999999999
 21
15.0
 31
0.0
  0
SOLID
  5
122
330
CB
100
AcDbEntity
  8
MO_001_VIEW_PV
  6
BYBLOCK
100
AcDbTrace
 10
-15.918261
 20
14.416488
 30
0.0
 11
-13.10799999999999
 21
15.0
 31
0.0
 12
-15.918261
 22
15.58351199999999
 32
0.0
 13
-15.918261
 23
15.58351199999999
 33
0.0
  0
SOLID
  5
123
330
CB
100
AcDbEntity
  8
MO_001_VIEW_PV
  6
BYBLOCK
100
AcDbTrace
 10
3.318259999999999
 20
15.58351199999999
 30
0.0
 11
0.508
 21
15.0
 31
0.0
 12
3.318259999999999
 22
14.416488
 32
0.0
 13
3.318259999999999
 23
14.416488
 33
0.0
  0
LINE
  5
124
330
CB
100
AcDbEntity
  8
MO_001_VIEW_PV
  6
BYBLOCK
100
AcDbLine
 10
-12.6
 20
8.0
 30
0.0
 11
-12.6
 21
17.286003
 31
0.0
  0
LINE
  5
125
330
CB
100
AcDbEntity
  8
MO_001_VIEW_PV
  6
BYBLOCK
100
AcDbLine
 10
0.0
 20
8.5
 30
0.0
 11
0.0
 21
17.286003
 31
0.0
  0
TEXT
  5
126
330
CB
100
AcDbEntity
  8
MO_001_VIEW_PV
  6
BYBLOCK
100
AcDbText
 10
-11.57142899999999
 20
15.75
 30
0.0
 40
3.0
  1
13以下
100
AcDbText
  0
LINE
  5
127
330
CB
100
AcDbEntity
  8
MO_001_VIEW_PV
  6
BYBLOCK
100
AcDbLine
 10
0.0
 20
15.0
 30
0.0
 11
0.5357140000000001
 21
15.0
 31
0.0
  0
ENDBLK
  5
128
330
CB
100
AcDbEntity
  8
0
100
AcDbBlockEnd
  0
BLOCK
  5
129
330
CD
100
AcDbEntity
  8
0
100
AcDbBlockBegin
  2
*D5
 70
     1
 10
0.0
 20
0.0
 30
0.0
  3
*D5
  1

  0
TEXT
  5
12A
330
CD
100
AcDbEntity
  8
MO_001_VIEW_PV
  6
BYBLOCK
100
AcDbText
 10
39.200887
 20
24.0
 30
0.0
 40
3.0
  1
%%C19.3以下
100
AcDbText
  0
LINE
  5
12B
330
CD
100
AcDbEntity
  8
MO_001_VIEW_PV
  6
BYBLOCK
100
AcDbLine
 10
38.600006
 20
21.0
 30
0.0
 11
57.400009
 21
21.0
 31
0.0
  0
LINE
  5
12C
330
CD
100
AcDbEntity
  8
MO_001_VIEW_PV
  6
BYBLOCK
100
AcDbLine
 10
38.600006
 20
21.0
 30
0.0
 11
32.25000599999999
 21
21.0
 31
0.0
  0
LINE
  5
12D
330
CD
100
AcDbEntity
  8
MO_001_VIEW_PV
  6
BYBLOCK
100
AcDbLine
 10
57.400009
 20
21.0
 30
0.0
 11
63.75000899999999
 21
21.0
 31
0.0
  0
SOLID
  5
12E
330
CD
100
AcDbEntity
  8
MO_001_VIEW_PV
  6
BYBLOCK
100
AcDbTrace
 10
35.281746
 20
20.416488
 30
0.0
 11
38.092006
 21
21.0
 31
0.0
 12
35.281746
 22
21.58351199999999
 32
0.0
 13
35.281746
 23
21.58351199999999
 33
0.0
  0
SOLID
  5
12F
330
CD
100
AcDbEntity
  8
MO_001_VIEW_PV
  6
BYBLOCK
100
AcDbTrace
 10
60.71826899999999
 20
21.58351199999999
 30
0.0
 11
57.908009
 21
21.0
 31
0.0
 12
60.71826899999999
 22
20.416488
 32
0.0
 13
60.71826899999999
 23
20.416488
 33
0.0
  0
LINE
  5
130
330
CD
100
AcDbEntity
  8
MO_001_VIEW_PV
  6
BYBLOCK
100
AcDbLine
 10
38.600006
 20
0.0
 30
0.0
 11
38.600006
 21
23.286003
 31
0.0
  0
LINE
  5
131
330
CD
100
AcDbEntity
  8
MO_001_VIEW_PV
  6
BYBLOCK
100
AcDbLine
 10
57.400009
 20
0.0
 30
0.0
 11
57.400009
 21
23.286003
 31
0.0
  0
LINE
  5
132
330
CD
100
AcDbEntity
  8
MO_001_VIEW_PV
  6
BYBLOCK
100
AcDbLine
 10
38.236603
 20
21.0
 30
0.0
 11
38.600006
 21
21.0
 31
0.0
  0
LINE
  5
133
330
CD
100
AcDbEntity
  8
MO_001_VIEW_PV
  6
BYBLOCK
100
AcDbLine
 10
57.400009
 20
21.0
 30
0.0
 11
60.30802900000001
 21
21.0
 31
0.0
  0
ENDBLK
  5
134
330
CD
100
AcDbEntity
  8
0
100
AcDbBlockEnd
  0
BLOCK
  5
135
330
CF
100
AcDbEntity
  8
0
100
AcDbBlockBegin
  2
*D6
 70
     1
 10
0.0
 20
0.0
 30
0.0
  3
*D6
  1

  0
TEXT
  5
136
330
CF
100
AcDbEntity
  8
MO_001_VIEW_PV
  6
BYBLOCK
100
AcDbText
 10
70.375
 20
19.004977
 30
0.0
 40
1.5
  1
%%P0.3
 50
90.0
100
AcDbText
  0
TEXT
  5
137
330
CF
100
AcDbEntity
  8
MO_001_VIEW_PV
  6
BYBLOCK
100
AcDbText
 10
72.25
 20
7.219263
 30
0.0
 40
3.0
  1
12.5
 50
90.0
100
AcDbText
  0
LINE
  5
138
330
CF
100
AcDbEntity
  8
MO_001_VIEW_PV
  6
BYBLOCK
100
AcDbLine
 10
73.0
 20
6.25
 30
0.0
 11
73.0
 21
-6.25
 31
0.0
  0
SOLID
  5
139
330
CF
100
AcDbEntity
  8
MO_001_VIEW_PV
  6
BYBLOCK
100
AcDbTrace
 10
73.583512
 20
2.931739999999999
 30
0.0
 11
73.0
 21
5.742
 31
0.0
 12
72.416488
 22
2.931739999999999
 32
0.0
 13
72.416488
 23
2.931739999999999
 33
0.0
  0
SOLID
  5
13A
330
CF
100
AcDbEntity
  8
MO_001_VIEW_PV
  6
BYBLOCK
100
AcDbTrace
 10
72.416488
 20
-2.931739999999999
 30
0.0
 11
73.0
 21
-5.742
 31
0.0
 12
73.583512
 22
-2.931739999999999
 32
0.0
 13
73.583512
 23
-2.931739999999999
 33
0.0
  0
LINE
  5
13B
330
CF
100
AcDbEntity
  8
MO_001_VIEW_PV
  6
BYBLOCK
100
AcDbLine
 10
50.30000300000001
 20
6.25
 30
0.0
 11
75.286003
 21
6.25
 31
0.0
  0
LINE
  5
13C
330
CF
100
AcDbEntity
  8
MO_001_VIEW_PV
  6
BYBLOCK
100
AcDbLine
 10
50.30000300000001
 20
-6.25
 30
0.0
 11
75.286003
 21
-6.25
 31
0.0
  0
LINE
  5
13D
330
CF
100
AcDbEntity
  8
MO_001_VIEW_PV
  6
BYBLOCK
100
AcDbLine
 10
73.0
 20
25.32640499999999
 30
0.0
 11
73.0
 21
6.25
 31
0.0
  0
ENDBLK
  5
13E
330
CF
100
AcDbEntity
  8
0
100
AcDbBlockEnd
  0
ENDSEC
  0
SECTION
  2
ENTITIES
  0
TEXT
  5
4E
330
1E
100
AcDbEntity
  8
OVERLAY_MAP
  6
C_SOLID_L
100
AcDbText
 10
0.0
 20
6.349999999999999
 30
0.0
 40
4.1672
  1
Model Overlay Name
100
AcDbText
  0
TEXT
  5
4F
330
1E
100
AcDbEntity
  8
OVERLAY_MAP
  6
C_SOLID_L
100
AcDbText
 10
126.999998
 20
0.0
 30
0.0
 40
4.1672
  1
Number
100
AcDbText
  0
TEXT
  5
50
330
1E
100
AcDbEntity
  8
OVERLAY_MAP
  6
C_SOLID_L
100
AcDbText
 10
177.7999969999999
 20
0.0
 30
0.0
 40
4.1672
  1
File Text
100
AcDbText
  0
TEXT
  5
51
330
1E
100
AcDbEntity
  8
OVERLAY_MAP
  6
C_SOLID_L
100
AcDbText
 10
0.0
 20
-6.349999999999999
 30
0.0
 40
4.1672
  1
pp 0ef 
100
AcDbText
  0
TEXT
  5
52
330
1E
100
AcDbEntity
  8
OVERLAY_MAP
  6
C_SOLID_L
100
AcDbText
 10
126.999998
 20
-6.349999999999999
 30
0.0
 40
4.1672
  1
001
100
AcDbText
  0
TEXT
  5
53
330
1E
100
AcDbEntity
  8
OVERLAY_MAP
  6
C_SOLID_L
100
AcDbText
 10
177.7999969999999
 20
-6.349999999999999
 30
0.0
 40
4.1672
  1
6S CASE                                              /         140100139
100
AcDbText
  0
ARC
  5
54
330
1E
100
AcDbEntity
  8
MO_001_VIEW_PV
  6
C_SOLID_M
100
AcDbCircle
 10
-38.79999899999999
 20
0.0
 30
0.0
 40
9.4
100
AcDbArc
 50
277.874058
 51
262.12594
  0
LINE
  5
55
330
1E
100
AcDbEntity
  8
MO_001_VIEW_PV
  6
C_CENTER_L
100
AcDbLine
 10
-49.769669
 20
0.0
 30
0.0
 11
-28.20962899999999
 21
0.0
 31
0.0
  0
LINE
  5
56
330
1E
100
AcDbEntity
  8
MO_001_VIEW_PV
  6
C_CENTER_L
100
AcDbLine
 10
-38.79999899999999
 20
10.51327499999999
 30
0.0
 11
-38.79999899999999
 21
-11.067833
 31
0.0
  0
ARC
  5
57
330
1E
100
AcDbEntity
  8
MO_001_VIEW_PV
  6
C_SOLID_M
100
AcDbCircle
 10
-38.79999899999999
 20
0.0
 30
0.0
 40
8.321419
100
AcDbArc
 50
260.209816
 51
279.790186
  0
LINE
  5
58
330
1E
100
AcDbEntity
  8
MO_001_VIEW_PV
  6
C_SOLID_M
100
AcDbLine
 10
-0.200001
 20
9.400002
 30
0.0
 11
-9.989997999999999
 21
9.400002
 31
0.0
  0
LINE
  5
59
330
1E
100
AcDbEntity
  8
MO_001_VIEW_PV
  6
C_SOLID_M
100
AcDbLine
 10
-0.200001
 20
-9.400008999999998
 30
0.0
 11
-9.989997999999999
 21
-9.400008999999998
 31
0.0
  0
LINE
  5
5A
330
1E
100
AcDbEntity
  8
MO_001_VIEW_PV
  6
C_SOLID_M
100
AcDbLine
 10
-0.200001
 20
-9.400002
 30
0.0
 11
-0.200001
 21
9.400002
 31
0.0
  0
LINE
  5
5B
330
1E
100
AcDbEntity
  8
MO_001_VIEW_PV
  6
C_SOLID_M
100
AcDbLine
 10
-11.799999
 20
-7.590011999999999
 30
0.0
 11
-11.799999
 21
7.589989
 31
0.0
  0
ARC
  5
5C
330
1E
100
AcDbEntity
  8
MO_001_VIEW_PV
  6
C_SOLID_M
100
AcDbCircle
 10
-9.989997999999999
 20
7.589996000000001
 30
0.0
 40
1.81
100
AcDbArc
 50
90.000002
 51
180.000005
  0
ARC
  5
5D
330
1E
100
AcDbEntity
  8
MO_001_VIEW_PV
  6
C_SOLID_M
100
AcDbCircle
 10
-9.989997999999999
 20
-7.590011999999999
 30
0.0
 40
1.81
100
AcDbArc
 50
180.000009
 51
216.6706519999999
  0
LINE
  5
5E
330
1E
100
AcDbEntity
  8
MO_001_VIEW_PV
  6
C_CENTER_L
100
AcDbLine
 10
-22.330889
 20
0.0
 30
0.0
 11
13.19649899999999
 21
0.0
 31
0.0
  0
LINE
  5
5F
330
1E
100
AcDbEntity
  8
MO_001_VIEW_PV
  6
C_SOLID_M
100
AcDbLine
 10
0.0
 20
-8.5
 30
0.0
 11
0.0
 21
8.5
 31
0.0
  0
LINE
  5
60
330
1E
100
AcDbEntity
  8
MO_001_VIEW_PV
  6
C_CENTER_L
100
AcDbLine
 10
-0.913128
 20
-6.25
 30
0.0
 11
1.787868
 21
-6.25
 31
0.0
  0
LINE
  5
61
330
1E
100
AcDbEntity
  8
MO_001_VIEW_PV
  6
C_SOLID_M
100
AcDbLine
 10
-0.1
 20
-8.599997999999999
 30
0.0
 11
-0.000002
 21
-8.5
 31
0.0
  0
LINE
  5
62
330
1E
100
AcDbEntity
  8
MO_001_VIEW_PV
  6
C_CENTER_L
100
AcDbLine
 10
-0.919003
 20
6.25
 30
0.0
 11
1.331466999999999
 21
6.25
 31
0.0
  0
LINE
  5
63
330
1E
100
AcDbEntity
  8
MO_001_VIEW_PV
  6
C_SOLID_M
100
AcDbLine
 10
-0.099998
 20
8.599997
 30
0.0
 11
0.0
 21
8.499999
 31
0.0
  0
LINE
  5
64
330
1E
100
AcDbEntity
  8
MO_001_VIEW_PV
  6
C_SOLID_M
100
AcDbLine
 10
-0.1
 20
-8.599994999999999
 30
0.0
 11
-0.199999
 21
-8.599994999999999
 31
0.0
  0
LINE
  5
65
330
1E
100
AcDbEntity
  8
MO_001_VIEW_PV
  6
C_SOLID_M
100
AcDbLine
 10
-0.100002
 20
-8.599997999999999
 30
0.0
 11
-0.100002
 21
8.599997999999999
 31
0.0
  0
LINE
  5
66
330
1E
100
AcDbEntity
  8
MO_001_VIEW_PV
  6
C_SOLID_M
100
AcDbLine
 10
-0.100002
 20
8.599997999999999
 30
0.0
 11
-0.200001
 21
8.599997999999999
 31
0.0
  0
ARC
  5
67
330
1E
100
AcDbEntity
  8
MO_001_VIEW_PV
  6
C_SOLID_M
100
AcDbCircle
 10
-11.54883
 20
-10.128838
 30
0.0
 40
1.81
100
AcDbArc
 50
27.058308
 51
93.065788
  0
LINE
  5
68
330
1E
100
AcDbEntity
  8
MO_001_VIEW_PV
  6
C_SOLID_M
100
AcDbLine
 10
-9.940632
 20
-9.298291
 30
0.0
 11
-9.895783999999999
 21
-9.400010999999999
 31
0.0
  0
LINE
  5
69
330
1E
100
AcDbEntity
  8
MO_001_VIEW_PV
  6
C_SOLID_M
100
AcDbLine
 10
-12.6
 20
-8.0
 30
0.0
 11
-12.6
 21
8.0
 31
0.0
  0
LINE
  5
6A
330
1E
100
AcDbEntity
  8
MO_001_VIEW_PV
  6
C_SOLID_M
100
AcDbLine
 10
-11.9
 20
-8.0
 30
0.0
 11
-11.9
 21
8.0
 31
0.0
  0
LINE
  5
6B
330
1E
100
AcDbEntity
  8
MO_001_VIEW_PV
  6
C_SOLID_M
100
AcDbLine
 10
-12.6
 20
8.0
 30
0.0
 11
-11.9
 21
8.0
 31
0.0
  0
LINE
  5
6C
330
1E
100
AcDbEntity
  8
MO_001_VIEW_PV
  6
C_SOLID_M
100
AcDbLine
 10
-12.6
 20
-8.0
 30
0.0
 11
-11.9
 21
-8.0
 31
0.0
  0
LINE
  5
6D
330
1E
100
AcDbEntity
  8
MO_001_VIEW_PV
  6
C_SOLID_M
100
AcDbLine
 10
10.200001
 20
-1.300003
 30
0.0
 11
10.200001
 21
1.300003
 31
0.0
  0
LINE
  5
6E
330
1E
100
AcDbEntity
  8
MO_001_VIEW_PV
  6
C_SOLID_M
100
AcDbLine
 10
-21.300001
 20
-1.199996999999999
 30
0.0
 11
-21.300001
 21
1.199996999999999
 31
0.0
  0
LINE
  5
6F
330
1E
100
AcDbEntity
  8
MO_001_VIEW_PV
  6
C_SOLID_M
100
AcDbLine
 10
0.0
 20
-1.5
 30
0.0
 11
10.0
 21
-1.5
 31
0.0
  0
LINE
  5
70
330
1E
100
AcDbEntity
  8
MO_001_VIEW_PV
  6
C_SOLID_M
100
AcDbLine
 10
0.0
 20
1.5
 30
0.0
 11
10.0
 21
1.5
 31
0.0
  0
LINE
  5
71
330
1E
100
AcDbEntity
  8
MO_001_VIEW_PV
  6
C_SOLID_M
100
AcDbLine
 10
10.0
 20
-1.5
 30
0.0
 11
10.0
 21
1.5
 31
0.0
  0
LINE
  5
72
330
1E
100
AcDbEntity
  8
MO_001_VIEW_PV
  6
C_SOLID_M
100
AcDbLine
 10
-21.0
 20
-1.5
 30
0.0
 11
-21.0
 21
1.5
 31
0.0
  0
LINE
  5
73
330
1E
100
AcDbEntity
  8
MO_001_VIEW_PV
  6
C_SOLID_M
100
AcDbLine
 10
9.999997
 20
1.499997
 30
0.0
 11
10.199996
 21
1.299998999999999
 31
0.0
  0
LINE
  5
74
330
1E
100
AcDbEntity
  8
MO_001_VIEW_PV
  6
C_SOLID_M
100
AcDbLine
 10
9.999996000000001
 20
-1.5
 30
0.0
 11
10.19999799999999
 21
-1.3
 31
0.0
  0
LINE
  5
75
330
1E
100
AcDbEntity
  8
MO_001_VIEW_PV
  6
C_SOLID_M
100
AcDbLine
 10
-21.0
 20
1.500000999999999
 30
0.0
 11
-21.300002
 21
1.199999
 31
0.0
  0
LINE
  5
76
330
1E
100
AcDbEntity
  8
MO_001_VIEW_PV
  6
C_SOLID_M
100
AcDbLine
 10
-21.000001
 20
-1.499997
 30
0.0
 11
-21.3
 21
-1.199997999999999
 31
0.0
  0
LINE
  5
77
330
1E
100
AcDbEntity
  8
MO_001_VIEW_PV
  6
C_SOLID_M
100
AcDbLine
 10
-21.0
 20
1.5
 30
0.0
 11
-12.6
 21
1.5
 31
0.0
  0
LINE
  5
78
330
1E
100
AcDbEntity
  8
MO_001_VIEW_PV
  6
C_SOLID_M
100
AcDbLine
 10
-21.0
 20
-1.5
 30
0.0
 11
-12.6
 21
-1.5
 31
0.0
  0
CIRCLE
  5
79
330
1E
100
AcDbEntity
  8
MO_001_VIEW_PV
  6
C_SOLID_M
100
AcDbCircle
 10
48.0
 20
0.0
 30
0.0
 40
9.4
  0
LINE
  5
7A
330
1E
100
AcDbEntity
  8
MO_001_VIEW_PV
  6
C_CENTER_L
100
AcDbLine
 10
59.400009
 20
0.0
 30
0.0
 11
36.600006
 21
0.0
 31
0.0
  0
LINE
  5
7B
330
1E
100
AcDbEntity
  8
MO_001_VIEW_PV
  6
C_CENTER_L
100
AcDbLine
 10
48.0
 20
11.400002
 30
0.0
 11
48.0
 21
-11.400002
 31
0.0
  0
LINE
  5
7C
330
1E
100
AcDbEntity
  8
MO_001_VIEW_PV
  6
C_CENTER_L
100
AcDbLine
 10
50.30000300000001
 20
6.25
 30
0.0
 11
45.69999699999999
 21
6.25
 31
0.0
  0
CIRCLE
  5
7D
330
1E
100
AcDbEntity
  8
MO_001_VIEW_PV
  6
C_SOLID_M
100
AcDbCircle
 10
48.0
 20
0.0
 30
0.0
 40
8.599999999999999
  0
CIRCLE
  5
7E
330
1E
100
AcDbEntity
  8
MO_001_VIEW_PV
  6
C_SOLID_M
100
AcDbCircle
 10
48.0
 20
0.0
 30
0.0
 40
8.490809
  0
CIRCLE
  5
7F
330
1E
100
AcDbEntity
  8
MO_001_VIEW_PV
  6
C_SOLID_M
100
AcDbCircle
 10
48.0
 20
0.0
 30
0.0
 40
1.5
  0
CIRCLE
  5
80
330
1E
100
AcDbEntity
  8
MO_001_VIEW_PV
  6
C_SOLID_M
100
AcDbCircle
 10
48.0
 20
6.25
 30
0.0
 40
1.074999999999999
  0
CIRCLE
  5
81
330
1E
100
AcDbEntity
  8
MO_001_VIEW_PV
  6
C_SOLID_L
100
AcDbCircle
 10
48.0
 20
6.25
 30
0.0
 40
1.3
  0
CIRCLE
  5
82
330
1E
100
AcDbEntity
  8
MO_001_VIEW_PV
  6
C_SOLID_M
100
AcDbCircle
 10
48.0
 20
-6.25
 30
0.0
 40
1.074999999999999
  0
CIRCLE
  5
83
330
1E
100
AcDbEntity
  8
MO_001_VIEW_PV
  6
C_SOLID_L
100
AcDbCircle
 10
48.0
 20
-6.25
 30
0.0
 40
1.3
  0
LINE
  5
84
330
1E
100
AcDbEntity
  8
MO_001_VIEW_PV
  6
C_CENTER_L
100
AcDbLine
 10
50.30000300000001
 20
-6.25
 30
0.0
 11
45.69999699999999
 21
-6.25
 31
0.0
  0
LINE
  5
85
330
1E
100
AcDbEntity
  8
MO_001_VIEW_PV
  6
C_SOLID_M
100
AcDbLine
 10
-11.26138599999999
 20
-8.490589999999999
 30
0.0
 11
-11.13708699999999
 21
-8.366291
 31
0.0
  0
LINE
  5
86
330
1E
100
AcDbEntity
  8
MO_001_VIEW_PV
  6
C_SOLID_M
100
AcDbLine
 10
-10.398714
 20
-9.353260999999999
 30
0.0
 11
-10.095473
 21
-9.050019
 31
0.0
  0
ARC
  5
87
330
1E
100
AcDbEntity
  8
MO_001_VIEW_PV
  6
C_SOLID_M
100
AcDbCircle
 10
-9.989997999999999
 20
-7.590011999999999
 30
0.0
 40
1.81
100
AcDbArc
 50
256.949453
 51
269.999998
  0
ARC
  5
88
330
1E
100
AcDbEntity
  8
MO_001_VIEW_PV
  6
C_SOLID_M
100
AcDbCircle
 10
-10.04516
 20
-9.70681
 30
0.0
 40
0.5
100
AcDbArc
 50
135.0
 51
190.0000029999999
  0
LINE
  5
89
330
1E
100
AcDbEntity
  8
MO_001_VIEW_PV
  6
C_SOLID_M
100
AcDbLine
 10
-10.54516
 20
-9.70681
 30
0.0
 11
-10.54516
 21
-19.400009
 31
0.0
  0
ARC
  5
8A
330
1E
100
AcDbEntity
  8
MO_001_VIEW_PV
  6
C_SOLID_M
100
AcDbCircle
 10
-10.04516
 20
-9.70681
 30
0.0
 40
1.720000999999999
100
AcDbArc
 50
135.0
 51
180.000005
  0
LINE
  5
8B
330
1E
100
AcDbEntity
  8
MO_001_VIEW_PV
  6
C_SOLID_M
100
AcDbLine
 10
-11.765162
 20
-9.70681
 30
0.0
 11
-11.765162
 21
-19.400009
 31
0.0
  0
ARC
  5
8C
330
1E
100
AcDbEntity
  8
MO_001_VIEW_PV
  6
C_SOLID_M
100
AcDbCircle
 10
-11.46016099999999
 20
-19.164925
 30
0.0
 40
0.385085
100
AcDbArc
 50
217.623887
 51
322.376135
  0
ARC
  5
8D
330
1E
100
AcDbEntity
  8
MO_001_VIEW_PV
  6
C_SOLID_M
100
AcDbCircle
 10
-10.850161
 20
-19.164925
 30
0.0
 40
0.385085
100
AcDbArc
 50
217.623887
 51
322.376077
  0
ARC
  5
8E
330
1E
100
AcDbEntity
  8
MO_001_VIEW_PV
  6
C_SOLID_M
100
AcDbCircle
 10
-11.46016099999999
 20
-19.63509399999999
 30
0.0
 40
0.385085
100
AcDbArc
 50
37.623865
 51
142.3760579999999
  0
LINE
  5
8F
330
1E
100
AcDbEntity
  8
MO_001_VIEW_PV
  6
C_SOLID_M
100
AcDbLine
 10
-10.53756499999999
 20
-9.793637999999999
 30
0.0
 11
-8.854357999999999
 21
-19.33957499999999
 31
0.0
  0
LINE
  5
90
330
1E
100
AcDbEntity
  8
MO_001_VIEW_PV
  6
C_SOLID_M
100
AcDbLine
 10
-10.54516
 20
-16.776267
 30
0.0
 11
-10.055825
 21
-19.551426
 31
0.0
  0
ARC
  5
91
330
1E
100
AcDbEntity
  8
MO_001_VIEW_PV
  6
C_SOLID_M
100
AcDbCircle
 10
-9.796279999999999
 20
-19.26694499999999
 30
0.0
 40
0.385085
100
AcDbArc
 50
227.6238849999999
 51
332.376135
  0
ARC
  5
92
330
1E
100
AcDbEntity
  8
MO_001_VIEW_PV
  6
C_SOLID_M
100
AcDbCircle
 10
-9.195546999999999
 20
-19.16101799999999
 30
0.0
 40
0.385085
100
AcDbArc
 50
227.6238849999999
 51
332.376077
  0
ARC
  5
93
330
1E
100
AcDbEntity
  8
MO_001_VIEW_PV
  6
C_SOLID_M
100
AcDbCircle
 10
-9.714636
 20
-19.729973
 30
0.0
 40
0.385085
100
AcDbArc
 50
47.623866
 51
152.376056
  0
CIRCLE
  5
94
330
1E
100
AcDbEntity
  8
MO_001_VIEW_PV
  6
C_SOLID_M
100
AcDbCircle
 10
48.0
 20
0.0
 30
0.0
 40
1.3
  0
LINE
  5
95
330
1E
100
AcDbEntity
  8
MO_001_VIEW_PV
  6
C_SOLID_M
100
AcDbLine
 10
-11.9
 20
7.0
 30
0.0
 11
-11.799999
 21
7.0
 31
0.0
  0
LINE
  5
96
330
1E
100
AcDbEntity
  8
MO_001_VIEW_PV
  6
C_SOLID_M
100
AcDbLine
 10
-11.9
 20
-7.0
 30
0.0
 11
-11.799999
 21
-7.0
 31
0.0
  0
CIRCLE
  5
97
330
1E
100
AcDbEntity
  8
MO_001_VIEW_PV
  6
C_SOLID_M
100
AcDbCircle
 10
-38.79999899999999
 20
0.0
 30
0.0
 40
8.0
  0
CIRCLE
  5
98
330
1E
100
AcDbEntity
  8
MO_001_VIEW_PV
  6
C_SOLID_M
100
AcDbCircle
 10
-38.79999899999999
 20
0.0
 30
0.0
 40
1.199999999999999
  0
CIRCLE
  5
99
330
1E
100
AcDbEntity
  8
MO_001_VIEW_PV
  6
C_SOLID_M
100
AcDbCircle
 10
-38.79999899999999
 20
0.0
 30
0.0
 40
1.5
  0
LINE
  5
9A
330
1E
100
AcDbEntity
  8
MO_001_VIEW_PV
  6
C_SOLID_L
100
AcDbLine
 10
2.656857
 20
-24.0
 30
0.0
 11
40.0
 21
-24.0
 31
0.0
  0
LINE
  5
9B
330
1E
100
AcDbEntity
  8
MO_001_VIEW_PV
  6
C_SOLID_L
100
AcDbLine
 10
54.0
 20
-24.0
 30
0.0
 11
94.709427
 21
-24.0
 31
0.0
  0
ARC
  5
9C
330
1E
100
AcDbEntity
  8
MO_001_VIEW_PV
  6
C_SOLID_M
100
AcDbCircle
 10
-41.52
 20
-9.757122999999999
 30
0.0
 40
1.5
100
AcDbArc
 50
0.0
 51
44.999974
  0
LINE
  5
9D
330
1E
100
AcDbEntity
  8
MO_001_VIEW_PV
  6
C_SOLID_M
100
AcDbLine
 10
-40.45934099999999
 20
-8.696464999999999
 30
0.0
 11
-40.725474
 21
-8.430330999999998
 31
0.0
  0
ARC
  5
9E
330
1E
100
AcDbEntity
  8
MO_001_VIEW_PV
  6
C_SOLID_M
100
AcDbCircle
 10
-36.07999799999999
 20
-9.757122999999999
 30
0.0
 40
1.5
100
AcDbArc
 50
135.000028
 51
180.000005
  0
ARC
  5
9F
330
1E
100
AcDbEntity
  8
MO_001_VIEW_PV
  6
C_SOLID_M
100
AcDbCircle
 10
-36.07999799999999
 20
-9.757122999999999
 30
0.0
 40
2.720000999999999
100
AcDbArc
 50
147.8821469999999
 51
180.000005
  0
ARC
  5
A0
330
1E
100
AcDbEntity
  8
MO_001_VIEW_PV
  6
C_SOLID_M
100
AcDbCircle
 10
-41.52
 20
-9.757122999999999
 30
0.0
 40
2.720000999999999
100
AcDbArc
 50
0.0
 51
32.11785499999999
  0
LINE
  5
A1
330
1E
100
AcDbEntity
  8
MO_001_VIEW_PV
  6
C_SOLID_M
100
AcDbLine
 10
-38.79999899999999
 20
-9.550016000000001
 30
0.0
 11
-38.79999899999999
 21
-19.400009
 31
0.0
  0
LINE
  5
A2
330
1E
100
AcDbEntity
  8
MO_001_VIEW_PV
  6
C_SOLID_M
100
AcDbLine
 10
-37.57999799999999
 20
-9.757122999999999
 30
0.0
 11
-37.57999799999999
 21
-19.400009
 31
0.0
  0
LINE
  5
A3
330
1E
100
AcDbEntity
  8
MO_001_VIEW_PV
  6
C_SOLID_M
100
AcDbLine
 10
-40.02
 20
-9.757122999999999
 30
0.0
 11
-40.02
 21
-19.400009
 31
0.0
  0
ARC
  5
A4
330
1E
100
AcDbEntity
  8
MO_001_VIEW_PV
  6
C_SOLID_M
100
AcDbCircle
 10
-39.715
 20
-19.164925
 30
0.0
 40
0.385085
100
AcDbArc
 50
217.623887
 51
322.376135
  0
ARC
  5
A5
330
1E
100
AcDbEntity
  8
MO_001_VIEW_PV
  6
C_SOLID_M
100
AcDbCircle
 10
-39.715
 20
-19.63509399999999
 30
0.0
 40
0.385085
100
AcDbArc
 50
37.623865
 51
142.3760579999999
  0
ARC
  5
A6
330
1E
100
AcDbEntity
  8
MO_001_VIEW_PV
  6
C_SOLID_M
100
AcDbCircle
 10
-39.10499999999999
 20
-19.164925
 30
0.0
 40
0.385085
100
AcDbArc
 50
217.623887
 51
322.376077
  0
ARC
  5
A7
330
1E
100
AcDbEntity
  8
MO_001_VIEW_PV
  6
C_SOLID_M
100
AcDbCircle
 10
-38.49499899999999
 20
-19.164925
 30
0.0
 40
0.385085
100
AcDbArc
 50
217.623887
 51
322.376135
  0
ARC
  5
A8
330
1E
100
AcDbEntity
  8
MO_001_VIEW_PV
  6
C_SOLID_M
100
AcDbCircle
 10
-38.49499899999999
 20
-19.63509399999999
 30
0.0
 40
0.385085
100
AcDbArc
 50
37.623865
 51
142.3760579999999
  0
ARC
  5
A9
330
1E
100
AcDbEntity
  8
MO_001_VIEW_PV
  6
C_SOLID_M
100
AcDbCircle
 10
-37.88499799999999
 20
-19.164925
 30
0.0
 40
0.385085
100
AcDbArc
 50
217.623887
 51
322.376077
  0
ARC
  5
AA
330
1E
100
AcDbEntity
  8
MO_001_VIEW_PV
  6
C_SOLID_M
100
AcDbCircle
 10
-37.299999
 20
-8.772683999999999
 30
0.0
 40
0.5
100
AcDbArc
 50
279.7029919999999
 51
0.00001
  0
ARC
  5
AB
330
1E
100
AcDbEntity
  8
MO_001_VIEW_PV
  6
C_SOLID_M
100
AcDbCircle
 10
-37.299999
 20
-8.692952999999999
 30
0.0
 40
0.5
100
AcDbArc
 50
0.0
 51
99.79035500000001
  0
LINE
  5
AC
330
1E
100
AcDbEntity
  8
MO_001_VIEW_PV
  6
C_SOLID_M
100
AcDbLine
 10
-36.799999
 20
-8.692952999999999
 30
0.0
 11
-36.799999
 21
-8.772683999999999
 31
0.0
  0
ARC
  5
AD
330
1E
100
AcDbEntity
  8
MO_001_VIEW_PV
  6
C_SOLID_M
100
AcDbCircle
 10
-40.29999899999999
 20
-8.772683999999999
 30
0.0
 40
0.5
100
AcDbArc
 50
180.000009
 51
260.2970029999999
  0
ARC
  5
AE
330
1E
100
AcDbEntity
  8
MO_001_VIEW_PV
  6
C_SOLID_M
100
AcDbCircle
 10
-40.29999899999999
 20
-8.692952999999999
 30
0.0
 40
0.5
100
AcDbArc
 50
80.20963700000001
 51
180.000005
  0
LINE
  5
AF
330
1E
100
AcDbEntity
  8
MO_001_VIEW_PV
  6
C_SOLID_M
100
AcDbLine
 10
-40.79999899999999
 20
-8.692952999999999
 30
0.0
 11
-40.79999899999999
 21
-8.772683999999999
 31
0.0
  0
ARC
  5
B0
330
1E
100
AcDbEntity
  8
MO_001_VIEW_PV
  6
C_SOLID_M
100
AcDbCircle
 10
50.720001
 20
-9.757122999999999
 30
0.0
 40
1.5
100
AcDbArc
 50
162.7124819999999
 51
180.000005
  0
ARC
  5
B1
330
1E
100
AcDbEntity
  8
MO_001_VIEW_PV
  6
C_SOLID_M
100
AcDbCircle
 10
50.720001
 20
-9.757122999999999
 30
0.0
 40
2.720000999999999
100
AcDbArc
 50
172.4549269999999
 51
180.000005
  0
ARC
  5
B2
330
1E
100
AcDbEntity
  8
MO_001_VIEW_PV
  6
C_SOLID_M
100
AcDbCircle
 10
45.279999
 20
-9.757122999999999
 30
0.0
 40
2.720000999999999
100
AcDbArc
 50
0.0
 51
7.545075999999999
  0
ARC
  5
B3
330
1E
100
AcDbEntity
  8
MO_001_VIEW_PV
  6
C_SOLID_M
100
AcDbCircle
 10
45.279999
 20
-9.757122999999999
 30
0.0
 40
1.5
100
AcDbArc
 50
0.0
 51
17.28752099999999
  0
ARC
  5
B4
330
1E
100
AcDbEntity
  8
MO_001_VIEW_PV
  6
C_SOLID_M
100
AcDbCircle
 10
48.305
 20
-19.63509399999999
 30
0.0
 40
0.385085
100
AcDbArc
 50
37.623861
 51
142.3760579999999
  0
ARC
  5
B5
330
1E
100
AcDbEntity
  8
MO_001_VIEW_PV
  6
C_SOLID_M
100
AcDbCircle
 10
48.915001
 20
-19.164925
 30
0.0
 40
0.385085
100
AcDbArc
 50
217.623887
 51
322.37607
  0
ARC
  5
B6
330
1E
100
AcDbEntity
  8
MO_001_VIEW_PV
  6
C_SOLID_M
100
AcDbCircle
 10
48.305
 20
-19.164925
 30
0.0
 40
0.385085
100
AcDbArc
 50
217.623887
 51
322.376139
  0
ARC
  5
B7
330
1E
100
AcDbEntity
  8
MO_001_VIEW_PV
  6
C_SOLID_M
100
AcDbCircle
 10
47.69499999999999
 20
-19.164925
 30
0.0
 40
0.385085
100
AcDbArc
 50
217.623887
 51
322.37607
  0
ARC
  5
B8
330
1E
100
AcDbEntity
  8
MO_001_VIEW_PV
  6
C_SOLID_M
100
AcDbCircle
 10
47.08499899999999
 20
-19.63509399999999
 30
0.0
 40
0.385085
100
AcDbArc
 50
37.623861
 51
142.3760579999999
  0
ARC
  5
B9
330
1E
100
AcDbEntity
  8
MO_001_VIEW_PV
  6
C_SOLID_M
100
AcDbCircle
 10
47.08499899999999
 20
-19.164925
 30
0.0
 40
0.385085
100
AcDbArc
 50
217.623887
 51
322.376139
  0
LINE
  5
BA
330
1E
100
AcDbEntity
  8
MO_001_VIEW_PV
  6
C_SOLID_M
100
AcDbLine
 10
-37.140656
 20
-8.696464999999999
 30
0.0
 11
-36.87452299999999
 21
-8.430330999999998
 31
0.0
  0
LINE
  5
BB
330
1E
100
AcDbEntity
  8
MO_001_VIEW_PV
  6
C_SOLID_M
100
AcDbLine
 10
46.77999899999999
 20
-9.757122999999999
 30
0.0
 11
46.77999899999999
 21
-19.400009
 31
0.0
  0
LINE
  5
BC
330
1E
100
AcDbEntity
  8
MO_001_VIEW_PV
  6
C_SOLID_M
100
AcDbLine
 10
48.0
 20
-9.757122999999999
 30
0.0
 11
48.0
 21
-19.400009
 31
0.0
  0
LINE
  5
BD
330
1E
100
AcDbEntity
  8
MO_001_VIEW_PV
  6
C_SOLID_M
100
AcDbLine
 10
49.220001
 20
-9.757122999999999
 30
0.0
 11
49.220001
 21
-19.400009
 31
0.0
  0
TEXT
  5
BE
330
1E
100
AcDbEntity
  8
MO_001_VIEW_PV
  6
C_SOLID_L
100
AcDbText
 10
-40.488281
 20
-44.083594
 30
0.0
 40
4.167187
  1
0EF PushPull
100
AcDbText
  0
TEXT
  5
BF
330
1E
100
AcDbEntity
  8
MO_001_VIEW_PV
  6
C_SOLID_L
100
AcDbText
 10
19.56325299999999
 20
-27.80977599999999
 30
0.0
 40
3.0
  1
深さ2
100
AcDbText
  0
TEXT
  5
C0
330
1E
100
AcDbEntity
  8
MO_001_VIEW_PV
  6
C_SOLID_L
100
AcDbText
 10
3.904412999999999
 20
-23.1632
 30
0.0
 40
3.0
  1
2-M2.6 P0.45
100
AcDbText
  0
TEXT
  5
C1
330
1E
100
AcDbEntity
  8
MO_001_VIEW_PV
  6
C_SOLID_L
100
AcDbText
 10
55.594953
 20
-22.86593599999999
 30
0.0
 40
3.0
  1
長さ250以上
100
AcDbText
  0
TEXT
  5
C2
330
1E
100
AcDbEntity
  8
MO_001_VIEW_PV
  6
C_SOLID_L
100
AcDbText
 10
53.66894300000001
 20
-27.967258
 30
0.0
 40
3.0
  1
(UL1430 AWG28)
100
AcDbText
  0
TEXT
  5
C3
330
1E
100
AcDbEntity
  8
MO_001_VIEW_PV
  6
C_SOLID_L
100
AcDbText
 10
58.51171899999999
 20
-38.083594
 30
0.0
 40
4.167187
  1
単位：mm
100
AcDbText
  0
TEXT
  5
C4
330
1E
100
AcDbEntity
  8
MO_001_VIEW_PV
  6
C_SOLID_L
100
AcDbText
 10
58.51171899999999
 20
-44.083594
 30
0.0
 40
4.167187
  1
図は励磁時を示す
100
AcDbText
  0
DIMENSION
  5
C6
330
1E
100
AcDbEntity
  8
MO_001_VIEW_PV
  6
C_SOLID_M
100
AcDbDimension
  2
*D1
 10
-9.0
 20
21.0
 30
0.0
 11
-9.0
 21
21.0
 31
0.0
  3
STANDARD
100
AcDbAlignedDimension
 13
0.0
 23
8.5
 33
0.0
 14
-21.300001
 24
1.199996999999999
 34
0.0
100
AcDbRotatedDimension
  0
DIMENSION
  5
C8
330
1E
100
AcDbEntity
  8
MO_001_VIEW_PV
  6
C_SOLID_M
100
AcDbDimension
  2
*D2
 10
18.813095
 20
21.0
 30
0.0
 11
18.813095
 21
21.0
 31
0.0
  3
STANDARD
100
AcDbAlignedDimension
 13
0.0
 23
8.5
 33
0.0
 14
10.200001
 24
1.300003
 34
0.0
100
AcDbRotatedDimension
  0
DIMENSION
  5
CA
330
1E
100
AcDbEntity
  8
MO_001_VIEW_PV
  6
C_SOLID_M
100
AcDbDimension
  2
*D3
 10
18.0
 20
-9.376839
 30
0.0
 11
18.0
 21
-9.376839
 31
0.0
  3
STANDARD
100
AcDbAlignedDimension
 13
10.0
 23
-1.5
 33
0.0
 14
10.0
 24
1.5
 34
0.0
 50
89.999523
100
AcDbRotatedDimension
  0
DIMENSION
  5
CC
330
1E
100
AcDbEntity
  8
MO_001_VIEW_PV
  6
C_SOLID_M
100
AcDbDimension
  2
*D4
 10
-6.0
 20
15.0
 30
0.0
 11
-6.0
 21
15.0
 31
0.0
  1
13以下
  3
STANDARD
100
AcDbAlignedDimension
 13
0.0
 23
8.5
 33
0.0
 14
-12.6
 24
8.0
 34
0.0
100
AcDbRotatedDimension
  0
DIMENSION
  5
CE
330
1E
100
AcDbEntity
  8
MO_001_VIEW_PV
  6
C_SOLID_M
100
AcDbDimension
  2
*D5
 10
49.27231599999999
 20
21.0
 30
0.0
 11
49.27231599999999
 21
21.0
 31
0.0
  3
STANDARD
100
AcDbAlignedDimension
 13
57.400009
 23
0.0
 33
0.0
 14
38.600006
 24
0.0
 34
0.0
100
AcDbRotatedDimension
  0
DIMENSION
  5
D0
330
1E
100
AcDbEntity
  8
MO_001_VIEW_PV
  6
C_SOLID_M
100
AcDbDimension
  2
*D6
 10
73.0
 20
15.790691
 30
0.0
 11
73.0
 21
15.790691
 31
0.0
  3
STANDARD
100
AcDbAlignedDimension
 13
50.30000300000001
 23
-6.25
 33
0.0
 14
50.30000300000001
 24
6.25
 34
0.0
 50
89.999523
100
AcDbRotatedDimension
  0
LINE
  5
D1
330
1E
100
AcDbEntity
  8
MO_001_VIEW_PV
  6
C_SOLID_L
100
AcDbLine
 10
47.465837
 20
-7.435186999999999
 30
0.0
 11
40.000009
 21
-24.000002
 31
0.0
  0
POLYLINE
  5
D2
330
1E
100
AcDbEntity
  8
MO_001_VIEW_PV
  6
C_SOLID_L
100
AcDb2dPolyline
 66
     1
 10
0.0
 20
0.0
 30
0.0
 70
     1
  0
VERTEX
  5
150
330
D2
100
AcDbEntity
  8
MO_001_VIEW_PV
  6
C_SOLID_L
100
AcDbVertex
100
AcDb2dVertex
 10
46.634346
 20
-10.700146
 30
0.0
  0
VERTEX
  5
151
330
D2
100
AcDbEntity
  8
MO_001_VIEW_PV
  6
C_SOLID_L
100
AcDbVertex
100
AcDb2dVertex
 10
47.2571
 20
-7.898321000000001
 30
0.0
  0
VERTEX
  5
152
330
D2
100
AcDbEntity
  8
MO_001_VIEW_PV
  6
C_SOLID_L
100
AcDbVertex
100
AcDb2dVertex
 10
45.570392
 20
-10.220618
 30
0.0
  0
SEQEND
  5
153
330
D2
100
AcDbEntity
  8
MO_001_VIEW_PV
  6
C_SOLID_L
  0
LINE
  5
D7
330
1E
100
AcDbEntity
  8
MO_001_VIEW_PV
  6
C_SOLID_L
100
AcDbLine
 10
49.219999
 20
-12.00001
 30
0.0
 11
53.999997
 21
-23.999999
 31
0.0
  0
POLYLINE
  5
D8
330
1E
100
AcDbEntity
  8
MO_001_VIEW_PV
  6
C_SOLID_L
100
AcDb2dPolyline
 66
     1
 10
0.0
 20
0.0
 30
0.0
 70
     1
  0
VERTEX
  5
154
330
D8
100
AcDbEntity
  8
MO_001_VIEW_PV
  6
C_SOLID_L
100
AcDbVertex
100
AcDb2dVertex
 10
50.990028
 20
-14.866773
 30
0.0
  0
VERTEX
  5
155
330
D8
100
AcDbEntity
  8
MO_001_VIEW_PV
  6
C_SOLID_L
100
AcDbVertex
100
AcDb2dVertex
 10
49.407987
 20
-12.471946
 30
0.0
  0
VERTEX
  5
156
330
D8
100
AcDbEntity
  8
MO_001_VIEW_PV
  6
C_SOLID_L
100
AcDbVertex
100
AcDb2dVertex
 10
49.905852
 20
-15.29863699999999
 30
0.0
  0
SEQEND
  5
157
330
D8
100
AcDbEntity
  8
MO_001_VIEW_PV
  6
C_SOLID_L
  0
ENDSEC
  0
SECTION
  2
OBJECTS
  0
DICTIONARY
  5
1A
330
0
100
AcDbDictionary
  3
ACAD_GROUP
350
1B
  3
ACAD_MLINESTYLE
350
1C
  3
ACAD_LAYOUT
350
146
  3
ACAD_PLOTSETTINGS
350
147
1001
ACAD
1000
TREAT_AS_HARD
1070
     0
  0
DICTIONARY
  5
14C
330
1E
100
AcDbDictionary
  3
ACAD_LAYOUTSELFREF
350
14D
  0
DICTIONARY
  5
14E
330
1F
100
AcDbDictionary
  3
ACAD_LAYOUTSELFREF
350
14F
  0
DICTIONARY
  5
1B
102
{ACAD_REACTORS
330
1A
102
}
330
1A
100
AcDbDictionary
1001
ACAD
1000
TREAT_AS_HARD
1070
     0
  0
DICTIONARY
  5
1C
102
{ACAD_REACTORS
330
1A
102
}
330
1A
100
AcDbDictionary
  3
STANDARD
350
1D
1001
ACAD
1000
TREAT_AS_HARD
1070
     0
  0
DICTIONARY
  5
146
102
{ACAD_REACTORS
330
1A
102
}
330
1A
100
AcDbDictionary
1001
ACAD
1000
TREAT_AS_HARD
1070
     0
  0
DICTIONARY
  5
147
102
{ACAD_REACTORS
330
1A
102
}
330
1A
100
AcDbDictionary
1001
ACAD
1000
TREAT_AS_HARD
1070
     0
  0
XRECORD
  5
14D
102
{ACAD_REACTORS
330
14C
102
}
330
14C
100
AcDbXrecord
340
1E
  0
XRECORD
  5
14F
102
{ACAD_REACTORS
330
14E
102
}
330
14E
100
AcDbXrecord
340
1F
  0
MLINESTYLE
  5
1D
102
{ACAD_REACTORS
330
1C
102
}
330
1C
100
AcDbMlineStyle
  2
STANDARD
 70
     0
  3

 62
     0
 51
90.0
 52
90.0
 71
     2
 49
0.5
 62
   256
  6
BYLAYER
 49
-0.5
 62
   256
  6
BYLAYER
  0
ENDSEC
  0
EOF
