  0
SECTION
  2
HEADER
  9
$ACADVER
  1
AC1012
  9
$DWGCODEPAGE
  3
dos932
  9
$INSBASE
 10
0.0
 20
0.0
 30
0.0
  9
$EXTMIN
 10
-119.5066114087428
 20
-68.09535189669316
 30
-0.0015258207003583
  9
$EXTMAX
 10
121.1304248984912
 20
46.13028930714131
 30
0.0000000349246037
  9
$LIMMIN
 10
-123.676361
 20
-121.479095
  9
$LIMMAX
 10
120.75
 20
48.0
  9
$ORTHOMODE
 70
     0
  9
$REGENMODE
 70
     1
  9
$FILLMODE
 70
     1
  9
$QTEXTMODE
 70
     0
  9
$MIRRTEXT
 70
     1
  9
$DRAGMODE
 70
     2
  9
$LTSCALE
 40
1.0
  9
$OSMODE
 70
    37
  9
$ATTMODE
 70
     1
  9
$TEXTSIZE
 40
4.1672
  9
$TRACEWID
 40
0.05
  9
$TEXTSTYLE
  7
STANDARD
  9
$CLAYER
  8
0
  9
$CELTYPE
  6
CONTINUOUS
  9
$CECOLOR
 62
   256
  9
$CELTSCALE
 40
1.0
  9
$DELOBJ
 70
     1
  9
$DISPSILH
 70
     0
  9
$DIMSCALE
 40
1.0
  9
$DIMASZ
 40
0.18
  9
$DIMEXO
 40
0.0625
  9
$DIMDLI
 40
0.38
  9
$DIMRND
 40
0.0
  9
$DIMDLE
 40
0.0
  9
$DIMEXE
 40
0.18
  9
$DIMTP
 40
0.0
  9
$DIMTM
 40
0.0
  9
$DIMTXT
 40
0.18
  9
$DIMCEN
 40
0.09
  9
$DIMTSZ
 40
0.0
  9
$DIMTOL
 70
     0
  9
$DIMLIM
 70
     0
  9
$DIMTIH
 70
     1
  9
$DIMTOH
 70
     1
  9
$DIMSE1
 70
     0
  9
$DIMSE2
 70
     0
  9
$DIMTAD
 70
     0
  9
$DIMZIN
 70
     0
  9
$DIMBLK
  1

  9
$DIMASO
 70
     1
  9
$DIMSHO
 70
     1
  9
$DIMPOST
  1

  9
$DIMAPOST
  1

  9
$DIMALT
 70
     0
  9
$DIMALTD
 70
     2
  9
$DIMALTF
 40
25.4
  9
$DIMLFAC
 40
1.0
  9
$DIMTOFL
 70
     0
  9
$DIMTVP
 40
0.0
  9
$DIMTIX
 70
     0
  9
$DIMSOXD
 70
     0
  9
$DIMSAH
 70
     0
  9
$DIMBLK1
  1

  9
$DIMBLK2
  1

  9
$DIMSTYLE
  2
STANDARD
  9
$DIMCLRD
 70
     0
  9
$DIMCLRE
 70
     0
  9
$DIMCLRT
 70
     0
  9
$DIMTFAC
 40
1.0
  9
$DIMGAP
 40
0.09
  9
$DIMJUST
 70
     0
  9
$DIMSD1
 70
     0
  9
$DIMSD2
 70
     0
  9
$DIMTOLJ
 70
     1
  9
$DIMTZIN
 70
     0
  9
$DIMALTZ
 70
     0
  9
$DIMALTTZ
 70
     0
  9
$DIMFIT
 70
     3
  9
$DIMUPT
 70
     0
  9
$DIMUNIT
 70
     2
  9
$DIMDEC
 70
     4
  9
$DIMTDEC
 70
     4
  9
$DIMALTU
 70
     2
  9
$DIMALTTD
 70
     2
  9
$DIMTXSTY
  7
STANDARD
  9
$DIMAUNIT
 70
     0
  9
$LUNITS
 70
     2
  9
$LUPREC
 70
     6
  9
$SKETCHINC
 40
0.1
  9
$FILLETRAD
 40
0.0
  9
$AUNITS
 70
     0
  9
$AUPREC
 70
     4
  9
$MENU
  1
acad
  9
$ELEVATION
 40
0.0
  9
$PELEVATION
 40
0.0
  9
$THICKNESS
 40
0.0
  9
$LIMCHECK
 70
     0
  9
$BLIPMODE
 70
     0
  9
$CHAMFERA
 40
0.0
  9
$CHAMFERB
 40
0.0
  9
$CHAMFERC
 40
0.0
  9
$CHAMFERD
 40
0.0
  9
$SKPOLY
 70
     0
  9
$TDCREATE
 40
2376122.594796551
  9
$TDUPDATE
 40
2451663.700977662
  9
$TDINDWG
 40
0.0009210648
  9
$TDUSRTIMER
 40
0.0009210648
  9
$USRTIMER
 70
     1
  9
$ANGBASE
 50
0.0
  9
$ANGDIR
 70
     0
  9
$PDMODE
 70
     0
  9
$PDSIZE
 40
0.0
  9
$PLINEWID
 40
0.0
  9
$COORDS
 70
     1
  9
$SPLFRAME
 70
     0
  9
$SPLINETYPE
 70
     6
  9
$SPLINESEGS
 70
     8
  9
$ATTDIA
 70
     0
  9
$ATTREQ
 70
     1
  9
$HANDLING
 70
 10241
  9
$HANDSEED
  5
163
  9
$SURFTAB1
 70
     6
  9
$SURFTAB2
 70
     6
  9
$SURFTYPE
 70
     6
  9
$SURFU
 70
     6
  9
$SURFV
 70
     6
  9
$UCSNAME
  2
MO_001_VIEW_PV_P
  9
$UCSORG
 10
0.0
 20
0.0
 30
0.0
  9
$UCSXDIR
 10
1.0
 20
0.0
 30
0.0
  9
$UCSYDIR
 10
-0.0000000002051034
 20
1.0
 30
0.0
  9
$PUCSNAME
  2

  9
$PUCSORG
 10
0.0
 20
0.0
 30
0.0
  9
$PUCSXDIR
 10
1.0
 20
0.0
 30
0.0
  9
$PUCSYDIR
 10
0.0
 20
1.0
 30
0.0
  9
$USERI1
 70
     0
  9
$USERI2
 70
     0
  9
$USERI3
 70
     0
  9
$USERI4
 70
     0
  9
$USERI5
 70
     0
  9
$USERR1
 40
0.0
  9
$USERR2
 40
0.0
  9
$USERR3
 40
0.0
  9
$USERR4
 40
0.0
  9
$USERR5
 40
0.0
  9
$WORLDVIEW
 70
     1
  9
$SHADEDGE
 70
     3
  9
$SHADEDIF
 70
    70
  9
$TILEMODE
 70
     1
  9
$MAXACTVP
 70
    16
  9
$PINSBASE
 10
0.0
 20
0.0
 30
0.0
  9
$PLIMCHECK
 70
     0
  9
$PEXTMIN
 10
-123.676361
 20
-121.479095
 30
1.000000000000000E+20
  9
$PEXTMAX
 10
120.75
 20
48.0
 30
-1.000000000000000E+20
  9
$PLIMMIN
 10
0.0
 20
0.0
  9
$PLIMMAX
 10
12.0
 20
9.0
  9
$UNITMODE
 70
     0
  9
$VISRETAIN
 70
     0
  9
$PLINEGEN
 70
     0
  9
$PSLTSCALE
 70
     1
  9
$TREEDEPTH
 70
  3020
  9
$PICKSTYLE
 70
     1
  9
$CMLSTYLE
  2
STANDARD
  9
$CMLJUST
 70
     0
  9
$CMLSCALE
 40
1.0
  9
$SAVEIMAGES
 70
     1
  0
ENDSEC
  0
SECTION
  2
CLASSES
  0
CLASS
  1
ACDBDICTIONARYWDFLT
  2
AcDbDictionaryWithDefault
  3
AutoCAD 2000
 90
    32768
280
     0
281
     0
  0
CLASS
  1
ACDBPLACEHOLDER
  2
AcDbPlaceHolder
  3
AutoCAD 2000
 90
    32768
280
     0
281
     0
  0
CLASS
  1
LAYOUT
  2
AcDbLayout
  3
AutoCAD 2000
 90
    32768
280
     0
281
     0
  0
CLASS
  1
LONG_TRANSACTION
  2
AcDbLongTransaction
  3
AutoCAD 2000
 90
    32768
280
     0
281
     0
  0
CLASS
  1
LWPOLYLINE
  2
AcDbPolyline
  3
AutoCAD 2000
 90
    32768
280
     0
281
     1
  0
CLASS
  1
HATCH
  2
AcDbHatch
  3
AutoCAD 2000
 90
    32768
280
     0
281
     1
  0
CLASS
  1
XRECORD
  2
AcDbXrecord
  3
AutoCAD 2000
 90
    32768
280
     0
281
     0
  0
ENDSEC
  0
SECTION
  2
TABLES
  0
TABLE
  2
VPORT
  5
7
330
0
100
AcDbSymbolTable
 70
     2
  0
VPORT
  5
15A
330
7
100
AcDbSymbolTableRecord
100
AcDbViewportTableRecord
  2
*ACTIVE
 70
     0
 10
0.0
 20
0.0
 11
1.0
 21
1.0
 12
6.766875178299414
 22
-9.978571242012577
 13
0.0
 23
0.0
 14
6.349999999999999
 24
6.349999999999999
 15
6.349999999999999
 25
6.349999999999999
 16
0.0
 26
0.0
 36
1.0
 17
0.0
 27
0.0
 37
0.0
 40
173.1818155851133
 41
1.651785714285714
 42
50.0
 43
0.0
 44
0.0
 50
0.0
 51
0.0
 71
     0
 72
   100
 73
     1
 74
     1
 75
     0
 76
     0
 77
     0
 78
     0
  0
ENDTAB
  0
TABLE
  2
LTYPE
  5
4
330
0
100
AcDbSymbolTable
 70
    37
  0
LTYPE
  5
12
330
4
100
AcDbSymbolTableRecord
100
AcDbLinetypeTableRecord
  2
BYBLOCK
 70
     0
  3

 72
    65
 73
     0
 40
0.0
  0
LTYPE
  5
13
330
4
100
AcDbSymbolTableRecord
100
AcDbLinetypeTableRecord
  2
BYLAYER
 70
     0
  3

 72
    65
 73
     0
 40
0.0
  0
LTYPE
  5
14
330
4
100
AcDbSymbolTableRecord
100
AcDbLinetypeTableRecord
  2
CONTINUOUS
 70
     0
  3
DXF Default line type
 72
    65
 73
     0
 40
0.0
  0
LTYPE
  5
20
330
4
100
AcDbSymbolTableRecord
100
AcDbLinetypeTableRecord
  2
DASHED
 70
     0
  3
DXF Dashed
 72
    65
 73
     2
 40
0.75
 49
0.5
 74
     0
 49
-0.25
 74
     0
  0
LTYPE
  5
21
330
4
100
AcDbSymbolTableRecord
100
AcDbLinetypeTableRecord
  2
HIDDEN
 70
     0
  3
DXF Hidden
 72
    65
 73
     2
 40
0.375
 49
0.25
 74
     0
 49
-0.125
 74
     0
  0
LTYPE
  5
22
330
4
100
AcDbSymbolTableRecord
100
AcDbLinetypeTableRecord
  2
CENTER
 70
     0
  3
DXF Center
 72
    65
 73
     4
 40
2.0
 49
1.25
 74
     0
 49
-0.25
 74
     0
 49
0.25
 74
     0
 49
-0.25
 74
     0
  0
LTYPE
  5
23
330
4
100
AcDbSymbolTableRecord
100
AcDbLinetypeTableRecord
  2
PHANTOM
 70
     0
  3
DXF Phantom
 72
    65
 73
     6
 40
2.5
 49
1.25
 74
     0
 49
-0.25
 74
     0
 49
0.25
 74
     0
 49
-0.25
 74
     0
 49
0.25
 74
     0
 49
-0.25
 74
     0
  0
LTYPE
  5
24
330
4
100
AcDbSymbolTableRecord
100
AcDbLinetypeTableRecord
  2
DOT
 70
     0
  3
DXF DOT
 72
    65
 73
     2
 40
0.25
 49
0.0
 74
     0
 49
-0.25
 74
     0
  0
LTYPE
  5
25
330
4
100
AcDbSymbolTableRecord
100
AcDbLinetypeTableRecord
  2
DASHDOT
 70
     0
  3
DXF Dash Dot
 72
    65
 73
     4
 40
1.0
 49
0.5
 74
     0
 49
-0.25
 74
     0
 49
0.0
 74
     0
 49
-0.25
 74
     0
  0
LTYPE
  5
26
330
4
100
AcDbSymbolTableRecord
100
AcDbLinetypeTableRecord
  2
BORDER
 70
     0
  3
DXF Border
 72
    65
 73
     6
 40
1.75
 49
0.5
 74
     0
 49
-0.25
 74
     0
 49
0.5
 74
     0
 49
-0.25
 74
     0
 49
0.0
 74
     0
 49
-0.25
 74
     0
  0
LTYPE
  5
27
330
4
100
AcDbSymbolTableRecord
100
AcDbLinetypeTableRecord
  2
DIVIDE
 70
     0
  3
DXF Divide
 72
    65
 73
     6
 40
1.25
 49
0.5
 74
     0
 49
-0.25
 74
     0
 49
0.0
 74
     0
 49
-0.25
 74
     0
 49
0.0
 74
     0
 49
-0.25
 74
     0
  0
LTYPE
  5
28
330
4
100
AcDbSymbolTableRecord
100
AcDbLinetypeTableRecord
  2
C_SOLID_L
 70
     0
  3
CADAM Solid Light
 72
    65
 73
     0
 40
0.0
  0
LTYPE
  5
29
330
4
100
AcDbSymbolTableRecord
100
AcDbLinetypeTableRecord
  2
C_SOLID_M
 70
     0
  3
CADAM Solid Medium
 72
    65
 73
     0
 40
0.0
  0
LTYPE
  5
2A
330
4
100
AcDbSymbolTableRecord
100
AcDbLinetypeTableRecord
  2
C_SOLID_H
 70
     0
  3
CADAM Solid Heavy
 72
    65
 73
     0
 40
0.0
  0
LTYPE
  5
2B
330
4
100
AcDbSymbolTableRecord
100
AcDbLinetypeTableRecord
  2
C_DASHED_L
 70
     0
  3
CADAM Dashed Light
 72
    65
 73
     2
 40
0.375
 49
0.25
 74
     0
 49
-0.125
 74
     0
  0
LTYPE
  5
2C
330
4
100
AcDbSymbolTableRecord
100
AcDbLinetypeTableRecord
  2
C_DASHED_M
 70
     0
  3
CADAM Dashed Medium
 72
    65
 73
     2
 40
0.5
 49
0.375
 74
     0
 49
-0.125
 74
     0
  0
LTYPE
  5
2D
330
4
100
AcDbSymbolTableRecord
100
AcDbLinetypeTableRecord
  2
C_CENTER_L
 70
     0
  3
CADAM Center Light
 72
    65
 73
     4
 40
2.0
 49
1.25
 74
     0
 49
-0.25
 74
     0
 49
0.25
 74
     0
 49
-0.25
 74
     0
  0
LTYPE
  5
2E
330
4
100
AcDbSymbolTableRecord
100
AcDbLinetypeTableRecord
  2
C_PHANTOM_L
 70
     0
  3
CADAM Phantom Light
 72
    65
 73
     6
 40
2.5
 49
1.25
 74
     0
 49
-0.25
 74
     0
 49
0.25
 74
     0
 49
-0.25
 74
     0
 49
0.25
 74
     0
 49
-0.25
 74
     0
  0
LTYPE
  5
2F
330
4
100
AcDbSymbolTableRecord
100
AcDbLinetypeTableRecord
  2
C_BREAK_M
 70
     0
  3
CADAM Break Medium
 72
    65
 73
     4
 40
1.0
 49
0.5
 74
     0
 49
-0.25
 74
     0
 49
0.0
 74
     0
 49
-0.25
 74
     0
  0
LTYPE
  5
30
330
4
100
AcDbSymbolTableRecord
100
AcDbLinetypeTableRecord
  2
C_NC
 70
     0
  3
CADAM NC
 72
    65
 73
     0
 40
0.0
  0
LTYPE
  5
31
330
4
100
AcDbSymbolTableRecord
100
AcDbLinetypeTableRecord
  2
DSH1
 70
     0
  3
CADAM Style2 Type 1 Dashed Line
 72
    65
 73
     2
 40
0.075
 49
0.04
 74
     0
 49
-0.035
 74
     0
  0
LTYPE
  5
32
330
4
100
AcDbSymbolTableRecord
100
AcDbLinetypeTableRecord
  2
DSH2
 70
     0
  3
CADAM Style2 Type 2 Dashed Line
 72
    65
 73
     2
 40
0.15
 49
0.11
 74
     0
 49
-0.04
 74
     0
  0
LTYPE
  5
33
330
4
100
AcDbSymbolTableRecord
100
AcDbLinetypeTableRecord
  2
DSH3
 70
     0
  3
CADAM Style2 Type 3 Dashed Line
 72
    65
 73
     2
 40
0.2
 49
0.15
 74
     0
 49
-0.05
 74
     0
  0
LTYPE
  5
34
330
4
100
AcDbSymbolTableRecord
100
AcDbLinetypeTableRecord
  2
DSH4
 70
     0
  3
CADAM Style2 Type 4 Dashed Line
 72
    65
 73
     2
 40
0.36
 49
0.28
 74
     0
 49
-0.08
 74
     0
  0
LTYPE
  5
35
330
4
100
AcDbSymbolTableRecord
100
AcDbLinetypeTableRecord
  2
DSH5
 70
     0
  3
CADAM Style2 Type 5 Dashed Line
 72
    65
 73
     2
 40
0.47
 49
0.39
 74
     0
 49
-0.08
 74
     0
  0
LTYPE
  5
36
330
4
100
AcDbSymbolTableRecord
100
AcDbLinetypeTableRecord
  2
DSH6
 70
     0
  3
CADAM Style2 Type 6 Dashed Line
 72
    65
 73
     2
 40
0.9
 49
0.8100000000000001
 74
     0
 49
-0.09
 74
     0
  0
LTYPE
  5
37
330
4
100
AcDbSymbolTableRecord
100
AcDbLinetypeTableRecord
  2
PL1
 70
     0
  3
Style 2 Type 1 Phantom Line
 72
    65
 73
     6
 40
1.0
 49
0.6
 74
     0
 49
-0.08
 74
     0
 49
0.08
 74
     0
 49
-0.08
 74
     0
 49
0.08
 74
     0
 49
-0.08
 74
     0
  0
LTYPE
  5
38
330
4
100
AcDbSymbolTableRecord
100
AcDbLinetypeTableRecord
  2
PL2
 70
     0
  3
Style 2 Type 2 Phantom Line
 72
    65
 73
     6
 40
1.08
 49
0.6
 74
     0
 49
-0.08
 74
     0
 49
0.12
 74
     0
 49
-0.08
 74
     0
 49
0.12
 74
     0
 49
-0.08
 74
     0
  0
LTYPE
  5
39
330
4
100
AcDbSymbolTableRecord
100
AcDbLinetypeTableRecord
  2
PL3
 70
     0
  3
Style 2 Type 3 Phantom Line
 72
    65
 73
     6
 40
2.0
 49
1.439999999999999
 74
     0
 49
-0.08
 74
     0
 49
0.16
 74
     0
 49
-0.08
 74
     0
 49
0.16
 74
     0
 49
-0.08
 74
     0
  0
LTYPE
  5
3A
330
4
100
AcDbSymbolTableRecord
100
AcDbLinetypeTableRecord
  2
CL1
 70
     0
  3
CADAM Style 2 Type 1 Center Line
 72
    65
 73
     4
 40
0.7
 49
0.45
 74
     0
 49
-0.06
 74
     0
 49
0.13
 74
     0
 49
-0.06
 74
     0
  0
LTYPE
  5
3B
330
4
100
AcDbSymbolTableRecord
100
AcDbLinetypeTableRecord
  2
CL2
 70
     0
  3
CADAM Style 2 Type 2 Center Line
 72
    65
 73
     4
 40
1.199999999999999
 49
1.01
 74
     0
 49
-0.06
 74
     0
 49
0.11
 74
     0
 49
-0.06
 74
     0
  0
LTYPE
  5
3C
330
4
100
AcDbSymbolTableRecord
100
AcDbLinetypeTableRecord
  2
CL3
 70
     0
  3
CADAM Style 2 Type 3 Center Line
 72
    65
 73
     4
 40
1.199999999999999
 49
0.98
 74
     0
 49
-0.06
 74
     0
 49
0.1
 74
     0
 49
-0.06
 74
     0
  0
LTYPE
  5
3D
330
4
100
AcDbSymbolTableRecord
100
AcDbLinetypeTableRecord
  2
CL4
 70
     0
  3
CADAM Style 2 Type 4 Center Line
 72
    65
 73
     4
 40
2.2
 49
1.929999999999999
 74
     0
 49
-0.07
 74
     0
 49
0.13
 74
     0
 49
-0.07
 74
     0
  0
LTYPE
  5
3E
330
4
100
AcDbSymbolTableRecord
100
AcDbLinetypeTableRecord
  2
CL5
 70
     0
  3
CADAM Style 2 Type 5 Center Line
 72
    65
 73
     4
 40
2.2
 49
1.879999999999999
 74
     0
 49
-0.07
 74
     0
 49
0.18
 74
     0
 49
-0.07
 74
     0
  0
LTYPE
  5
3F
330
4
100
AcDbSymbolTableRecord
100
AcDbLinetypeTableRecord
  2
SBK1
 70
     0
  3
CADAM Style 2 Type 1 SetBack Line
 72
    65
 73
     8
 40
2.7
 49
0.1
 74
     0
 49
-0.08
 74
     0
 49
0.1
 74
     0
 49
-0.8
 74
     0
 49
0.0
 74
     0
 49
0.0
 74
     0
 49
0.0
 74
     0
 49
0.0
 74
     0
  0
LTYPE
  5
40
330
4
100
AcDbSymbolTableRecord
100
AcDbLinetypeTableRecord
  2
SBK2
 70
     0
  3
CADAM Style 2 Type 2 SetBack Line
 72
    65
 73
     8
 40
3.709999999999999
 49
0.13
 74
     0
 49
-0.08
 74
     0
 49
0.13
 74
     0
 49
-0.8
 74
     0
 49
0.0
 74
     0
 49
0.0
 74
     0
 49
0.0
 74
     0
 49
0.0
 74
     0
  0
LTYPE
  5
41
330
4
100
AcDbSymbolTableRecord
100
AcDbLinetypeTableRecord
  2
STCH
 70
     0
  3
CADAM Style2 Stitch Line
 72
    65
 73
     2
 40
0.25
 49
0.0
 74
     0
 49
-0.25
 74
     0
  0
LTYPE
  5
42
330
4
100
AcDbSymbolTableRecord
100
AcDbLinetypeTableRecord
  2
MTCH
 70
     0
  3
CADAM Style2 Match Line
 72
    65
 73
     6
 40
2.0
 49
1.439999999999999
 74
     0
 49
-0.8
 74
     0
 49
0.16
 74
     0
 49
-0.08
 74
     0
 49
0.16
 74
     0
 49
-0.08
 74
     0
  0
LTYPE
  5
43
330
4
100
AcDbSymbolTableRecord
100
AcDbLinetypeTableRecord
  2
SLD
 70
     0
  3
CADAM Solid_EXT2
 72
    65
 73
     0
 40
0.0
  0
ENDTAB
  0
TABLE
  2
LAYER
  5
2
330
0
100
AcDbSymbolTable
 70
     7
  0
LAYER
  5
15
330
2
100
AcDbSymbolTableRecord
100
AcDbLayerTableRecord
  2
0
 70
     0
 62
     7
  6
CONTINUOUS
  0
LAYER
  5
44
330
2
100
AcDbSymbolTableRecord
100
AcDbLayerTableRecord
  2
MO_001_NOSHOW
 70
     1
 62
     7
  6
CONTINUOUS
  0
LAYER
  5
45
330
2
100
AcDbSymbolTableRecord
100
AcDbLayerTableRecord
  2
MO_001_VIEW_PV
 70
     0
 62
     7
  6
CONTINUOUS
  0
LAYER
  5
46
330
2
100
AcDbSymbolTableRecord
100
AcDbLayerTableRecord
  2
OVERLAY_MAP
 70
     1
 62
     7
  6
CONTINUOUS
  0
LAYER
  5
47
330
2
100
AcDbSymbolTableRecord
100
AcDbLayerTableRecord
  2
DITTOS
 70
     0
 62
     7
  6
CONTINUOUS
  0
LAYER
  5
48
330
2
100
AcDbSymbolTableRecord
100
AcDbLayerTableRecord
  2
SYMBOLS
 70
     0
 62
     7
  6
CONTINUOUS
  0
LAYER
  5
49
330
2
100
AcDbSymbolTableRecord
100
AcDbLayerTableRecord
  2
SETS
 70
     0
 62
     7
  6
CONTINUOUS
  0
ENDTAB
  0
TABLE
  2
STYLE
  5
3
330
0
100
AcDbSymbolTable
 70
     1
  0
STYLE
  5
18
330
3
100
AcDbSymbolTableRecord
100
AcDbTextStyleTableRecord
  2
STANDARD
 70
     0
 40
4.1672
 41
1.0
 50
0.0
 71
     0
 42
4.1672
  3
monotxt
  4
BIGFONT
  0
ENDTAB
  0
TABLE
  2
VIEW
  5
5
330
0
100
AcDbSymbolTable
 70
     0
  0
ENDTAB
  0
TABLE
  2
UCS
  5
6
330
0
100
AcDbSymbolTable
 70
     3
  0
UCS
  5
4A
330
6
100
AcDbSymbolTableRecord
100
AcDbUCSTableRecord
  2
MO_001_VIEW_PV_P
 70
     0
 10
0.0
 20
0.0
 30
0.0
 11
1.0
 21
0.0
 31
0.0
 12
-0.0000000002051034
 22
1.0
 32
0.0
  0
UCS
  5
4B
330
6
100
AcDbSymbolTableRecord
100
AcDbUCSTableRecord
  2
MO_001_VIEW_PV_NP_000628
 70
     0
 10
-44.25102233886719
 20
-99.18939208984376
 30
0.0
 11
1.0
 21
0.0
 31
0.0
 12
-0.0000000002051034
 22
1.0
 32
0.0
  0
UCS
  5
4C
330
6
100
AcDbSymbolTableRecord
100
AcDbUCSTableRecord
  2
MO_001_VIEW_PV_NP_000672
 70
     0
 10
-123.6763610839843
 20
-121.4790954589843
 30
0.0
 11
1.0
 21
0.0
 31
0.0
 12
-0.0000000002051034
 22
1.0
 32
0.0
  0
ENDTAB
  0
TABLE
  2
APPID
  5
8
330
0
100
AcDbSymbolTable
 70
     1
  0
APPID
  5
17
330
8
100
AcDbSymbolTableRecord
100
AcDbRegAppTableRecord
  2
ACAD
 70
     0
  0
ENDTAB
  0
TABLE
  2
DIMSTYLE
  5
9
330
0
100
AcDbSymbolTable
 70
     1
  0
DIMSTYLE
105
19
102
{ACAD_REACTORS
330
F0
330
F2
330
F4
330
F6
330
F8
330
FA
330
FC
330
FE
102
}
330
9
100
AcDbSymbolTableRecord
100
AcDbDimStyleTableRecord
  2
STANDARD
 70
     0
  3

  4

  5

  6

  7

 40
1.0
 41
0.18
 42
0.0625
 43
0.38
 44
0.18
 45
0.0
 46
0.0
 47
0.0
 48
0.0
140
0.18
141
0.09
142
0.0
143
25.4
144
1.0
145
0.0
146
1.0
147
0.09
 71
     0
 72
     0
 73
     1
 74
     1
 75
     0
 76
     0
 77
     0
 78
     0
170
     0
171
     2
172
     0
173
     0
174
     0
175
     0
176
     0
177
     0
178
     0
270
     2
271
     4
272
     4
273
     2
274
     2
340
18
275
     0
280
     0
281
     0
282
     0
283
     1
284
     0
285
     0
286
     0
287
     3
288
     0
  0
ENDTAB
  0
TABLE
  2
BLOCK_RECORD
  5
C
330
0
100
AcDbSymbolTable
 70
     8
  0
BLOCK_RECORD
  5
1E
102
{ACAD_XDICTIONARY
360
15B
102
}
330
C
100
AcDbSymbolTableRecord
100
AcDbBlockTableRecord
  2
*MODEL_SPACE
  0
BLOCK_RECORD
  5
1F
102
{ACAD_XDICTIONARY
360
15D
102
}
330
C
100
AcDbSymbolTableRecord
100
AcDbBlockTableRecord
  2
*PAPER_SPACE
  0
BLOCK_RECORD
  5
EF
330
C
100
AcDbSymbolTableRecord
100
AcDbBlockTableRecord
  2
*D0
  0
BLOCK_RECORD
  5
F1
330
C
100
AcDbSymbolTableRecord
100
AcDbBlockTableRecord
  2
*D1
  0
BLOCK_RECORD
  5
F3
330
C
100
AcDbSymbolTableRecord
100
AcDbBlockTableRecord
  2
*D2
  0
BLOCK_RECORD
  5
F5
330
C
100
AcDbSymbolTableRecord
100
AcDbBlockTableRecord
  2
*D3
  0
BLOCK_RECORD
  5
F7
330
C
100
AcDbSymbolTableRecord
100
AcDbBlockTableRecord
  2
*D4
  0
BLOCK_RECORD
  5
F9
330
C
100
AcDbSymbolTableRecord
100
AcDbBlockTableRecord
  2
*D5
  0
BLOCK_RECORD
  5
FB
330
C
100
AcDbSymbolTableRecord
100
AcDbBlockTableRecord
  2
*D6
  0
BLOCK_RECORD
  5
FD
330
C
100
AcDbSymbolTableRecord
100
AcDbBlockTableRecord
  2
*D7
  0
ENDTAB
  0
ENDSEC
  0
SECTION
  2
BLOCKS
  0
BLOCK
  5
E
330
1E
100
AcDbEntity
  8
0
100
AcDbBlockBegin
  2
*MODEL_SPACE
 70
     0
 10
0.0
 20
0.0
 30
0.0
  3
*MODEL_SPACE
  1

  0
ENDBLK
  5
F
330
1E
100
AcDbEntity
  8
0
100
AcDbBlockEnd
  0
BLOCK
  5
10
330
1F
100
AcDbEntity
 67
     1
  8
0
100
AcDbBlockBegin
  2
*PAPER_SPACE
 70
     0
 10
0.0
 20
0.0
 30
0.0
  3
*PAPER_SPACE
  1

  0
ENDBLK
  5
11
330
1F
100
AcDbEntity
 67
     1
  8
0
100
AcDbBlockEnd
  0
BLOCK
  5
105
330
EF
100
AcDbEntity
  8
0
100
AcDbBlockBegin
  2
*D0
 70
     1
 10
0.0
 20
0.0
 30
0.0
  3
*D0
  1

  0
TEXT
  5
106
330
EF
100
AcDbEntity
  8
MO_001_VIEW_PV
  6
BYBLOCK
100
AcDbText
 10
-20.635718
 20
44.625
 30
0.0
 40
1.5
  1
%%P1.0
100
AcDbText
  0
TEXT
  5
107
330
EF
100
AcDbEntity
  8
MO_001_VIEW_PV
  6
BYBLOCK
100
AcDbText
 10
-32.421433
 20
42.75
 30
0.0
 40
3.0
  1
47.7
100
AcDbText
  0
LINE
  5
108
330
EF
100
AcDbEntity
  8
MO_001_VIEW_PV
  6
BYBLOCK
100
AcDbLine
 10
-47.700008
 20
42.0
 30
0.0
 11
0.0
 21
42.0
 31
0.0
  0
SOLID
  5
109
330
EF
100
AcDbEntity
  8
MO_001_VIEW_PV
  6
BYBLOCK
100
AcDbTrace
 10
-44.38174799999999
 20
42.58351199999999
 30
0.0
 11
-47.192008
 21
42.0
 31
0.0
 12
-44.38174799999999
 22
41.416488
 32
0.0
 13
-44.38174799999999
 23
41.416488
 33
0.0
  0
SOLID
  5
10A
330
EF
100
AcDbEntity
  8
MO_001_VIEW_PV
  6
BYBLOCK
100
AcDbTrace
 10
-3.318259999999999
 20
41.416488
 30
0.0
 11
-0.508
 21
42.0
 31
0.0
 12
-3.318259999999999
 22
42.58351199999999
 32
0.0
 13
-3.318259999999999
 23
42.58351199999999
 33
0.0
  0
LINE
  5
10B
330
EF
100
AcDbEntity
  8
MO_001_VIEW_PV
  6
BYBLOCK
100
AcDbLine
 10
-47.700008
 20
3.824412
 30
0.0
 11
-47.700008
 21
44.285999
 31
0.0
  0
LINE
  5
10C
330
EF
100
AcDbEntity
  8
MO_001_VIEW_PV
  6
BYBLOCK
100
AcDbLine
 10
0.0
 20
24.710005
 30
0.0
 11
0.0
 21
44.285999
 31
0.0
  0
ENDBLK
  5
10D
330
EF
100
AcDbEntity
  8
0
100
AcDbBlockEnd
  0
BLOCK
  5
10E
330
F1
100
AcDbEntity
  8
0
100
AcDbBlockBegin
  2
*D1
 70
     1
 10
0.0
 20
0.0
 30
0.0
  3
*D1
  1

  0
TEXT
  5
10F
330
F1
100
AcDbEntity
  8
MO_001_VIEW_PV
  6
BYBLOCK
100
AcDbText
 10
15.714282
 20
44.625
 30
0.0
 40
1.5
  1
%%P0.5
100
AcDbText
  0
TEXT
  5
110
330
F1
100
AcDbEntity
  8
MO_001_VIEW_PV
  6
BYBLOCK
100
AcDbText
 10
3.928567999999999
 20
42.75
 30
0.0
 40
3.0
  1
25.0
100
AcDbText
  0
LINE
  5
111
330
F1
100
AcDbEntity
  8
MO_001_VIEW_PV
  6
BYBLOCK
100
AcDbLine
 10
0.0
 20
42.0
 30
0.0
 11
24.999992
 21
42.0
 31
0.0
  0
SOLID
  5
112
330
F1
100
AcDbEntity
  8
MO_001_VIEW_PV
  6
BYBLOCK
100
AcDbTrace
 10
3.318259999999999
 20
42.58351199999999
 30
0.0
 11
0.508
 21
42.0
 31
0.0
 12
3.318259999999999
 22
41.416488
 32
0.0
 13
3.318259999999999
 23
41.416488
 33
0.0
  0
SOLID
  5
113
330
F1
100
AcDbEntity
  8
MO_001_VIEW_PV
  6
BYBLOCK
100
AcDbTrace
 10
21.681732
 20
41.416488
 30
0.0
 11
24.491992
 21
42.0
 31
0.0
 12
21.681732
 22
42.58351199999999
 32
0.0
 13
21.681732
 23
42.58351199999999
 33
0.0
  0
LINE
  5
114
330
F1
100
AcDbEntity
  8
MO_001_VIEW_PV
  6
BYBLOCK
100
AcDbLine
 10
0.0
 20
24.710005
 30
0.0
 11
0.0
 21
44.285999
 31
0.0
  0
LINE
  5
115
330
F1
100
AcDbEntity
  8
MO_001_VIEW_PV
  6
BYBLOCK
100
AcDbLine
 10
24.999992
 20
3.77
 30
0.0
 11
24.999992
 21
44.285999
 31
0.0
  0
ENDBLK
  5
116
330
F1
100
AcDbEntity
  8
0
100
AcDbBlockEnd
  0
BLOCK
  5
117
330
F3
100
AcDbEntity
  8
0
100
AcDbBlockBegin
  2
*D2
 70
     1
 10
0.0
 20
0.0
 30
0.0
  3
*D2
  1

  0
TEXT
  5
118
330
F3
100
AcDbEntity
  8
MO_001_VIEW_PV
  6
BYBLOCK
100
AcDbText
 10
-23.421433
 20
36.75
 30
0.0
 40
3.0
  1
36以下
100
AcDbText
  0
LINE
  5
119
330
F3
100
AcDbEntity
  8
MO_001_VIEW_PV
  6
BYBLOCK
100
AcDbLine
 10
-35.700008
 20
36.0
 30
0.0
 11
0.0
 21
36.0
 31
0.0
  0
SOLID
  5
11A
330
F3
100
AcDbEntity
  8
MO_001_VIEW_PV
  6
BYBLOCK
100
AcDbTrace
 10
-32.38174799999999
 20
36.583512
 30
0.0
 11
-35.192008
 21
36.0
 31
0.0
 12
-32.38174799999999
 22
35.416488
 32
0.0
 13
-32.38174799999999
 23
35.416488
 33
0.0
  0
SOLID
  5
11B
330
F3
100
AcDbEntity
  8
MO_001_VIEW_PV
  6
BYBLOCK
100
AcDbTrace
 10
-3.318259999999999
 20
35.416488
 30
0.0
 11
-0.508
 21
36.0
 31
0.0
 12
-3.318259999999999
 22
36.583512
 32
0.0
 13
-3.318259999999999
 23
36.583512
 33
0.0
  0
LINE
  5
11C
330
F3
100
AcDbEntity
  8
MO_001_VIEW_PV
  6
BYBLOCK
100
AcDbLine
 10
-35.700008
 20
25.0
 30
0.0
 11
-35.700008
 21
38.285999
 31
0.0
  0
LINE
  5
11D
330
F3
100
AcDbEntity
  8
MO_001_VIEW_PV
  6
BYBLOCK
100
AcDbLine
 10
0.0
 20
24.710005
 30
0.0
 11
0.0
 21
38.285999
 31
0.0
  0
ENDBLK
  5
11E
330
F3
100
AcDbEntity
  8
0
100
AcDbBlockEnd
  0
BLOCK
  5
11F
330
F5
100
AcDbEntity
  8
0
100
AcDbBlockBegin
  2
*D3
 70
     1
 10
0.0
 20
0.0
 30
0.0
  3
*D3
  1

  0
TEXT
  5
120
330
F5
100
AcDbEntity
  8
MO_001_VIEW_PV
  6
BYBLOCK
100
AcDbText
 10
12.814282
 20
38.625
 30
0.0
 40
1.5
  1
%%P0.5
100
AcDbText
  0
TEXT
  5
121
330
F5
100
AcDbEntity
  8
MO_001_VIEW_PV
  6
BYBLOCK
100
AcDbText
 10
1.028567999999999
 20
36.75
 30
0.0
 40
3.0
  1
19.2
100
AcDbText
  0
LINE
  5
122
330
F5
100
AcDbEntity
  8
MO_001_VIEW_PV
  6
BYBLOCK
100
AcDbLine
 10
0.0
 20
36.0
 30
0.0
 11
19.19999299999999
 21
36.0
 31
0.0
  0
SOLID
  5
123
330
F5
100
AcDbEntity
  8
MO_001_VIEW_PV
  6
BYBLOCK
100
AcDbTrace
 10
3.318259999999999
 20
36.583512
 30
0.0
 11
0.508
 21
36.0
 31
0.0
 12
3.318259999999999
 22
35.416488
 32
0.0
 13
3.318259999999999
 23
35.416488
 33
0.0
  0
SOLID
  5
124
330
F5
100
AcDbEntity
  8
MO_001_VIEW_PV
  6
BYBLOCK
100
AcDbTrace
 10
15.881733
 20
35.416488
 30
0.0
 11
18.691993
 21
36.0
 31
0.0
 12
15.881733
 22
36.583512
 32
0.0
 13
15.881733
 23
36.583512
 33
0.0
  0
LINE
  5
125
330
F5
100
AcDbEntity
  8
MO_001_VIEW_PV
  6
BYBLOCK
100
AcDbLine
 10
0.0
 20
24.710005
 30
0.0
 11
0.0
 21
38.285999
 31
0.0
  0
LINE
  5
126
330
F5
100
AcDbEntity
  8
MO_001_VIEW_PV
  6
BYBLOCK
100
AcDbLine
 10
19.19999299999999
 20
19.84999499999999
 30
0.0
 11
19.19999299999999
 21
38.285999
 31
0.0
  0
ENDBLK
  5
127
330
F5
100
AcDbEntity
  8
0
100
AcDbBlockEnd
  0
BLOCK
  5
128
330
F7
100
AcDbEntity
  8
0
100
AcDbBlockBegin
  2
*D4
 70
     1
 10
0.0
 20
0.0
 30
0.0
  3
*D4
  1

  0
TEXT
  5
129
330
F7
100
AcDbEntity
  8
MO_001_VIEW_PV
  6
BYBLOCK
100
AcDbText
 10
30.375
 20
23.21476099999999
 30
0.0
 40
1.5
  1
%%P0.03
 50
90.0
100
AcDbText
  0
TEXT
  5
12A
330
F7
100
AcDbEntity
  8
MO_001_VIEW_PV
  6
BYBLOCK
100
AcDbText
 10
32.25
 20
8.429046000000001
 30
0.0
 40
3.0
  1
%%C7.94
 50
90.0
100
AcDbText
  0
LINE
  5
12B
330
F7
100
AcDbEntity
  8
MO_001_VIEW_PV
  6
BYBLOCK
100
AcDbLine
 10
33.0
 20
3.97
 30
0.0
 11
33.0
 21
-3.97
 31
0.0
  0
LINE
  5
12C
330
F7
100
AcDbEntity
  8
MO_001_VIEW_PV
  6
BYBLOCK
100
AcDbLine
 10
33.0
 20
3.97
 30
0.0
 11
33.0
 21
10.32
 31
0.0
  0
LINE
  5
12D
330
F7
100
AcDbEntity
  8
MO_001_VIEW_PV
  6
BYBLOCK
100
AcDbLine
 10
33.0
 20
-3.97
 30
0.0
 11
33.0
 21
-10.32
 31
0.0
  0
SOLID
  5
12E
330
F7
100
AcDbEntity
  8
MO_001_VIEW_PV
  6
BYBLOCK
100
AcDbTrace
 10
32.416488
 20
7.28826
 30
0.0
 11
33.0
 21
4.477999999999999
 31
0.0
 12
33.58351199999999
 22
7.28826
 32
0.0
 13
33.58351199999999
 23
7.28826
 33
0.0
  0
SOLID
  5
12F
330
F7
100
AcDbEntity
  8
MO_001_VIEW_PV
  6
BYBLOCK
100
AcDbTrace
 10
33.58351199999999
 20
-7.28826
 30
0.0
 11
33.0
 21
-4.477999999999999
 31
0.0
 12
32.416488
 22
-7.28826
 32
0.0
 13
32.416488
 23
-7.28826
 33
0.0
  0
LINE
  5
130
330
F7
100
AcDbEntity
  8
MO_001_VIEW_PV
  6
BYBLOCK
100
AcDbLine
 10
24.79999199999999
 20
3.97
 30
0.0
 11
35.28599899999999
 21
3.97
 31
0.0
  0
LINE
  5
131
330
F7
100
AcDbEntity
  8
MO_001_VIEW_PV
  6
BYBLOCK
100
AcDbLine
 10
24.79999199999999
 20
-3.97
 30
0.0
 11
35.28599899999999
 21
-3.97
 31
0.0
  0
LINE
  5
132
330
F7
100
AcDbEntity
  8
MO_001_VIEW_PV
  6
BYBLOCK
100
AcDbLine
 10
33.0
 20
31.036188
 30
0.0
 11
33.0
 21
3.97
 31
0.0
  0
ENDBLK
  5
133
330
F7
100
AcDbEntity
  8
0
100
AcDbBlockEnd
  0
BLOCK
  5
134
330
F9
100
AcDbEntity
  8
0
100
AcDbBlockBegin
  2
*D5
 70
     1
 10
0.0
 20
0.0
 30
0.0
  3
*D5
  1

  0
TEXT
  5
135
330
F9
100
AcDbEntity
  8
MO_001_VIEW_PV
  6
BYBLOCK
100
AcDbText
 10
42.37499999999999
 20
3.214285999999999
 30
0.0
 40
1.5
  1
%%P0.3
 50
90.0
100
AcDbText
  0
TEXT
  5
136
330
F9
100
AcDbEntity
  8
MO_001_VIEW_PV
  6
BYBLOCK
100
AcDbText
 10
44.24999999999999
 20
-8.571429
 30
0.0
 40
3.0
  1
36.5
 50
90.0
100
AcDbText
  0
LINE
  5
137
330
F9
100
AcDbEntity
  8
MO_001_VIEW_PV
  6
BYBLOCK
100
AcDbLine
 10
45.0
 20
18.25
 30
0.0
 11
45.0
 21
-18.25
 31
0.0
  0
SOLID
  5
138
330
F9
100
AcDbEntity
  8
MO_001_VIEW_PV
  6
BYBLOCK
100
AcDbTrace
 10
45.58351199999999
 20
14.93173999999999
 30
0.0
 11
45.0
 21
17.742
 31
0.0
 12
44.416488
 22
14.93173999999999
 32
0.0
 13
44.416488
 23
14.93173999999999
 33
0.0
  0
SOLID
  5
139
330
F9
100
AcDbEntity
  8
MO_001_VIEW_PV
  6
BYBLOCK
100
AcDbTrace
 10
44.416488
 20
-14.93173999999999
 30
0.0
 11
45.0
 21
-17.742
 31
0.0
 12
45.58351199999999
 22
-14.93173999999999
 32
0.0
 13
45.58351199999999
 23
-14.93173999999999
 33
0.0
  0
LINE
  5
13A
330
F9
100
AcDbEntity
  8
MO_001_VIEW_PV
  6
BYBLOCK
100
AcDbLine
 10
72.0
 20
18.25
 30
0.0
 11
42.714001
 21
18.25
 31
0.0
  0
LINE
  5
13B
330
F9
100
AcDbEntity
  8
MO_001_VIEW_PV
  6
BYBLOCK
100
AcDbLine
 10
72.0
 20
-18.25
 30
0.0
 11
42.714001
 21
-18.25
 31
0.0
  0
ENDBLK
  5
13C
330
F9
100
AcDbEntity
  8
0
100
AcDbBlockEnd
  0
BLOCK
  5
13D
330
FB
100
AcDbEntity
  8
0
100
AcDbBlockBegin
  2
*D6
 70
     1
 10
0.0
 20
0.0
 30
0.0
  3
*D6
  1

  0
TEXT
  5
13E
330
FB
100
AcDbEntity
  8
MO_001_VIEW_PV
  6
BYBLOCK
100
AcDbText
 10
70.92857099999999
 20
42.75
 30
0.0
 40
3.0
  1
%%C59以下
100
AcDbText
  0
LINE
  5
13F
330
FB
100
AcDbEntity
  8
MO_001_VIEW_PV
  6
BYBLOCK
100
AcDbLine
 10
49.19999699999999
 20
42.0
 30
0.0
 11
106.800003
 21
42.0
 31
0.0
  0
SOLID
  5
140
330
FB
100
AcDbEntity
  8
MO_001_VIEW_PV
  6
BYBLOCK
100
AcDbTrace
 10
52.518257
 20
42.58351199999999
 30
0.0
 11
49.707997
 21
42.0
 31
0.0
 12
52.518257
 22
41.416488
 32
0.0
 13
52.518257
 23
41.416488
 33
0.0
  0
SOLID
  5
141
330
FB
100
AcDbEntity
  8
MO_001_VIEW_PV
  6
BYBLOCK
100
AcDbTrace
 10
103.481743
 20
41.416488
 30
0.0
 11
106.292003
 21
42.0
 31
0.0
 12
103.481743
 22
42.58351199999999
 32
0.0
 13
103.481743
 23
42.58351199999999
 33
0.0
  0
LINE
  5
142
330
FB
100
AcDbEntity
  8
MO_001_VIEW_PV
  6
BYBLOCK
100
AcDbLine
 10
49.19999699999999
 20
0.0
 30
0.0
 11
49.19999699999999
 21
44.285999
 31
0.0
  0
LINE
  5
143
330
FB
100
AcDbEntity
  8
MO_001_VIEW_PV
  6
BYBLOCK
100
AcDbLine
 10
106.800003
 20
0.0
 30
0.0
 11
106.800003
 21
44.285999
 31
0.0
  0
ENDBLK
  5
144
330
FB
100
AcDbEntity
  8
0
100
AcDbBlockEnd
  0
BLOCK
  5
145
330
FD
100
AcDbEntity
  8
0
100
AcDbBlockBegin
  2
*D7
 70
     1
 10
0.0
 20
0.0
 30
0.0
  3
*D7
  1

  0
TEXT
  5
146
330
FD
100
AcDbEntity
  8
MO_001_VIEW_PV
  6
BYBLOCK
100
AcDbText
 10
113.25
 20
-7.071428999999999
 30
0.0
 40
3.0
  1
長さ250以上
 50
90.0
100
AcDbText
  0
LINE
  5
147
330
FD
100
AcDbEntity
  8
MO_001_VIEW_PV
  6
BYBLOCK
100
AcDbLine
 10
114.0
 20
-50.24993900000001
 30
0.0
 11
114.0
 21
-26.79809
 31
0.0
  0
SOLID
  5
148
330
FD
100
AcDbEntity
  8
MO_001_VIEW_PV
  6
BYBLOCK
100
AcDbTrace
 10
113.4164879999999
 20
-46.93167899999999
 30
0.0
 11
114.0
 21
-49.741939
 31
0.0
 12
114.583512
 22
-46.93167899999999
 32
0.0
 13
114.583512
 23
-46.93167899999999
 33
0.0
  0
SOLID
  5
149
330
FD
100
AcDbEntity
  8
MO_001_VIEW_PV
  6
BYBLOCK
100
AcDbTrace
 10
114.583512
 20
-30.11635
 30
0.0
 11
114.0
 21
-27.30609
 31
0.0
 12
113.4164879999999
 22
-30.11635
 32
0.0
 13
113.4164879999999
 23
-30.11635
 33
0.0
  0
LINE
  5
14A
330
FD
100
AcDbEntity
  8
MO_001_VIEW_PV
  6
BYBLOCK
100
AcDbLine
 10
87.823975
 20
-50.24993900000001
 30
0.0
 11
116.286003
 21
-50.24993900000001
 31
0.0
  0
LINE
  5
14B
330
FD
100
AcDbEntity
  8
MO_001_VIEW_PV
  6
BYBLOCK
100
AcDbLine
 10
88.85000600000001
 20
-26.79809
 30
0.0
 11
116.286003
 21
-26.79809
 31
0.0
  0
LINE
  5
14C
330
FD
100
AcDbEntity
  8
MO_001_VIEW_PV
  6
BYBLOCK
100
AcDbLine
 10
114.0
 20
-26.79809
 30
0.0
 11
114.0
 21
14.035713
 31
0.0
  0
ENDBLK
  5
14D
330
FD
100
AcDbEntity
  8
0
100
AcDbBlockEnd
  0
ENDSEC
  0
SECTION
  2
ENTITIES
  0
TEXT
  5
4D
330
1E
100
AcDbEntity
  8
OVERLAY_MAP
  6
C_SOLID_L
100
AcDbText
 10
0.0
 20
6.349999999999999
 30
0.0
 40
4.1672
  1
Model Overlay Name
100
AcDbText
  0
TEXT
  5
4E
330
1E
100
AcDbEntity
  8
OVERLAY_MAP
  6
C_SOLID_L
100
AcDbText
 10
126.999998
 20
0.0
 30
0.0
 40
4.1672
  1
Number
100
AcDbText
  0
TEXT
  5
4F
330
1E
100
AcDbEntity
  8
OVERLAY_MAP
  6
C_SOLID_L
100
AcDbText
 10
177.7999969999999
 20
0.0
 30
0.0
 40
4.1672
  1
File Text
100
AcDbText
  0
TEXT
  5
50
330
1E
100
AcDbEntity
  8
OVERLAY_MAP
  6
C_SOLID_L
100
AcDbText
 10
0.0
 20
-6.349999999999999
 30
0.0
 40
4.1672
  1
pp 6ec 
100
AcDbText
  0
TEXT
  5
51
330
1E
100
AcDbEntity
  8
OVERLAY_MAP
  6
C_SOLID_L
100
AcDbText
 10
126.999998
 20
-6.349999999999999
 30
0.0
 40
4.1672
  1
001
100
AcDbText
  0
TEXT
  5
52
330
1E
100
AcDbEntity
  8
OVERLAY_MAP
  6
C_SOLID_L
100
AcDbText
 10
177.7999969999999
 20
-6.349999999999999
 30
0.0
 40
4.1672
  1
6S CASE                                              /         140100116
100
AcDbText
  0
ARC
  5
53
330
1E
100
AcDbEntity
  8
MO_001_VIEW_PV
  6
C_SOLID_M
100
AcDbCircle
 10
-87.0
 20
0.0
 30
0.0
 40
28.800003
100
AcDbArc
 50
292.131661
 51
247.86833
  0
LINE
  5
54
330
1E
100
AcDbEntity
  8
MO_001_VIEW_PV
  6
C_CENTER_L
100
AcDbLine
 10
-119.5
 20
0.0
 30
0.0
 11
-54.5
 21
0.0
 31
0.0
  0
LINE
  5
55
330
1E
100
AcDbEntity
  8
MO_001_VIEW_PV
  6
C_CENTER_L
100
AcDbLine
 10
-87.0
 20
32.5
 30
0.0
 11
-87.0
 21
-32.5
 31
0.0
  0
ARC
  5
56
330
1E
100
AcDbEntity
  8
MO_001_VIEW_PV
  6
C_SOLID_M
100
AcDbCircle
 10
-96.55000300000001
 20
-27.17052999999999
 30
0.0
 40
2.5
100
AcDbArc
 50
343.121848
 51
158.1466639999999
  0
ARC
  5
57
330
1E
100
AcDbEntity
  8
MO_001_VIEW_PV
  6
C_SOLID_M
100
AcDbCircle
 10
-77.449997
 20
-27.17052999999999
 30
0.0
 40
2.5
100
AcDbArc
 50
21.853342
 51
196.8781539999999
  0
LINE
  5
58
330
1E
100
AcDbEntity
  8
MO_001_VIEW_PV
  6
C_SOLID_M
100
AcDbLine
 10
-0.200008
 20
-28.800003
 30
0.0
 11
-0.200008
 21
28.800003
 31
0.0
  0
LINE
  5
59
330
1E
100
AcDbEntity
  8
MO_001_VIEW_PV
  6
C_SOLID_M
100
AcDbLine
 10
-32.300007
 20
-23.699997
 30
0.0
 11
-32.300007
 21
23.699997
 31
0.0
  0
LINE
  5
5A
330
1E
100
AcDbEntity
  8
MO_001_VIEW_PV
  6
C_SOLID_M
100
AcDbLine
 10
-27.200001
 20
28.800003
 30
0.0
 11
-0.200008
 21
28.800003
 31
0.0
  0
ARC
  5
5B
330
1E
100
AcDbEntity
  8
MO_001_VIEW_PV
  6
C_SOLID_M
100
AcDbCircle
 10
-27.200001
 20
23.699997
 30
0.0
 40
5.099999999999999
100
AcDbArc
 50
89.99998199999998
 51
179.9999639999999
  0
LINE
  5
5C
330
1E
100
AcDbEntity
  8
MO_001_VIEW_PV
  6
C_SOLID_M
100
AcDbLine
 10
-0.200008
 20
-28.800003
 30
0.0
 11
-27.200001
 21
-28.800003
 31
0.0
  0
ARC
  5
5D
330
1E
100
AcDbEntity
  8
MO_001_VIEW_PV
  6
C_SOLID_M
100
AcDbCircle
 10
-27.200001
 20
-23.699997
 30
0.0
 40
5.099999999999999
100
AcDbArc
 50
180.000036
 51
216.9052009999999
  0
LINE
  5
5E
330
1E
100
AcDbEntity
  8
MO_001_VIEW_PV
  6
C_CENTER_L
100
AcDbLine
 10
-51.0
 20
0.0
 30
0.0
 11
30.082756
 21
0.0
 31
0.0
  0
LINE
  5
5F
330
1E
100
AcDbEntity
  8
MO_001_VIEW_PV
  6
C_SOLID_M
100
AcDbLine
 10
-0.200003
 20
24.910019
 30
0.0
 11
0.000013
 21
24.710002
 31
0.0
  0
LINE
  5
60
330
1E
100
AcDbEntity
  8
MO_001_VIEW_PV
  6
C_SOLID_M
100
AcDbLine
 10
-0.200003
 20
-24.91003
 30
0.0
 11
0.000021
 21
-24.710005
 31
0.0
  0
LINE
  5
61
330
1E
100
AcDbEntity
  8
MO_001_VIEW_PV
  6
C_SOLID_M
100
AcDbLine
 10
0.0
 20
-24.710014
 30
0.0
 11
0.0
 21
24.710005
 31
0.0
  0
LINE
  5
62
330
1E
100
AcDbEntity
  8
MO_001_VIEW_PV
  6
C_SOLID_M
100
AcDbLine
 10
19.19999299999999
 20
-19.84999499999999
 30
0.0
 11
19.19999299999999
 21
-16.650005
 31
0.0
  0
LINE
  5
63
330
1E
100
AcDbEntity
  8
MO_001_VIEW_PV
  6
C_CENTER_L
100
AcDbLine
 10
-7.043999
 20
-18.25
 30
0.0
 11
21.261974
 21
-18.25
 31
0.0
  0
LINE
  5
64
330
1E
100
AcDbEntity
  8
MO_001_VIEW_PV
  6
C_SOLID_M
100
AcDbLine
 10
0.0
 20
-20.75
 30
0.0
 11
18.29999899999999
 21
-20.75
 31
0.0
  0
LINE
  5
65
330
1E
100
AcDbEntity
  8
MO_001_VIEW_PV
  6
C_SOLID_M
100
AcDbLine
 10
18.299982
 20
-20.74999899999999
 30
0.0
 11
19.199985
 21
-19.84999
 31
0.0
  0
LINE
  5
66
330
1E
100
AcDbEntity
  8
MO_001_VIEW_PV
  6
C_SOLID_L
100
AcDbLine
 10
19.19999299999999
 20
-19.84999499999999
 30
0.0
 11
0.0
 21
-19.84999499999999
 31
0.0
  0
LINE
  5
67
330
1E
100
AcDbEntity
  8
MO_001_VIEW_PV
  6
C_SOLID_M
100
AcDbLine
 10
18.29999899999999
 20
-15.75
 30
0.0
 11
0.0
 21
-15.75
 31
0.0
  0
LINE
  5
68
330
1E
100
AcDbEntity
  8
MO_001_VIEW_PV
  6
C_SOLID_M
100
AcDbLine
 10
19.199981
 20
-16.650014
 30
0.0
 11
18.299981
 21
-15.75000799999999
 31
0.0
  0
LINE
  5
69
330
1E
100
AcDbEntity
  8
MO_001_VIEW_PV
  6
C_SOLID_L
100
AcDbLine
 10
0.0
 20
-16.650005
 30
0.0
 11
19.19999299999999
 21
-16.650005
 31
0.0
  0
LINE
  5
6A
330
1E
100
AcDbEntity
  8
MO_001_VIEW_PV
  6
C_SOLID_M
100
AcDbLine
 10
18.29999899999999
 20
-20.75
 30
0.0
 11
18.29999899999999
 21
-15.75
 31
0.0
  0
LINE
  5
6B
330
1E
100
AcDbEntity
  8
MO_001_VIEW_PV
  6
C_SOLID_M
100
AcDbLine
 10
19.19999299999999
 20
19.84999499999999
 30
0.0
 11
19.19999299999999
 21
16.650005
 31
0.0
  0
LINE
  5
6C
330
1E
100
AcDbEntity
  8
MO_001_VIEW_PV
  6
C_CENTER_L
100
AcDbLine
 10
-7.043999
 20
18.25
 30
0.0
 11
21.500439
 21
18.25
 31
0.0
  0
LINE
  5
6D
330
1E
100
AcDbEntity
  8
MO_001_VIEW_PV
  6
C_SOLID_M
100
AcDbLine
 10
0.0
 20
20.75
 30
0.0
 11
18.29999899999999
 21
20.75
 31
0.0
  0
LINE
  5
6E
330
1E
100
AcDbEntity
  8
MO_001_VIEW_PV
  6
C_SOLID_M
100
AcDbLine
 10
18.29999
 20
20.74999599999999
 30
0.0
 11
19.19998999999999
 21
19.84999
 31
0.0
  0
LINE
  5
6F
330
1E
100
AcDbEntity
  8
MO_001_VIEW_PV
  6
C_SOLID_L
100
AcDbLine
 10
19.19999299999999
 20
19.84999499999999
 30
0.0
 11
0.0
 21
19.84999499999999
 31
0.0
  0
LINE
  5
70
330
1E
100
AcDbEntity
  8
MO_001_VIEW_PV
  6
C_SOLID_M
100
AcDbLine
 10
18.29999899999999
 20
15.75
 30
0.0
 11
0.0
 21
15.75
 31
0.0
  0
LINE
  5
71
330
1E
100
AcDbEntity
  8
MO_001_VIEW_PV
  6
C_SOLID_M
100
AcDbLine
 10
19.19998999999999
 20
16.650005
 30
0.0
 11
18.29999
 21
15.74999899999999
 31
0.0
  0
LINE
  5
72
330
1E
100
AcDbEntity
  8
MO_001_VIEW_PV
  6
C_SOLID_L
100
AcDbLine
 10
0.0
 20
16.650005
 30
0.0
 11
19.19999299999999
 21
16.650005
 31
0.0
  0
LINE
  5
73
330
1E
100
AcDbEntity
  8
MO_001_VIEW_PV
  6
C_SOLID_M
100
AcDbLine
 10
18.29999899999999
 20
20.75
 30
0.0
 11
18.29999899999999
 21
15.75
 31
0.0
  0
LINE
  5
74
330
1E
100
AcDbEntity
  8
MO_001_VIEW_PV
  6
C_SOLID_M
100
AcDbLine
 10
-35.700008
 20
-25.0
 30
0.0
 11
-35.700008
 21
25.0
 31
0.0
  0
LINE
  5
75
330
1E
100
AcDbEntity
  8
MO_001_VIEW_PV
  6
C_SOLID_M
100
AcDbLine
 10
-32.700008
 20
-25.0
 30
0.0
 11
-32.700008
 21
25.0
 31
0.0
  0
LINE
  5
76
330
1E
100
AcDbEntity
  8
MO_001_VIEW_PV
  6
C_SOLID_M
100
AcDbLine
 10
-32.700008
 20
25.0
 30
0.0
 11
-35.700008
 21
25.0
 31
0.0
  0
LINE
  5
77
330
1E
100
AcDbEntity
  8
MO_001_VIEW_PV
  6
C_SOLID_M
100
AcDbLine
 10
-32.700008
 20
-25.0
 30
0.0
 11
-35.700008
 21
-25.0
 31
0.0
  0
LINE
  5
78
330
1E
100
AcDbEntity
  8
MO_001_VIEW_PV
  6
C_SOLID_M
100
AcDbLine
 10
24.999992
 20
-3.77
 30
0.0
 11
24.999992
 21
3.77
 31
0.0
  0
LINE
  5
79
330
1E
100
AcDbEntity
  8
MO_001_VIEW_PV
  6
C_SOLID_M
100
AcDbLine
 10
24.79999199999999
 20
3.97
 30
0.0
 11
0.0
 21
3.97
 31
0.0
  0
LINE
  5
7A
330
1E
100
AcDbEntity
  8
MO_001_VIEW_PV
  6
C_SOLID_M
100
AcDbLine
 10
24.79999199999999
 20
-3.97
 30
0.0
 11
0.0
 21
-3.97
 31
0.0
  0
LINE
  5
7B
330
1E
100
AcDbEntity
  8
MO_001_VIEW_PV
  6
C_SOLID_M
100
AcDbLine
 10
-35.700008
 20
3.97
 30
0.0
 11
-47.300007
 21
3.97
 31
0.0
  0
LINE
  5
7C
330
1E
100
AcDbEntity
  8
MO_001_VIEW_PV
  6
C_SOLID_M
100
AcDbLine
 10
-35.700008
 20
-3.97
 30
0.0
 11
-47.300007
 21
-3.97
 31
0.0
  0
LINE
  5
7D
330
1E
100
AcDbEntity
  8
MO_001_VIEW_PV
  6
C_SOLID_M
100
AcDbLine
 10
24.79999
 20
3.970001
 30
0.0
 11
24.999989
 21
3.770001999999999
 31
0.0
  0
LINE
  5
7E
330
1E
100
AcDbEntity
  8
MO_001_VIEW_PV
  6
C_SOLID_M
100
AcDbLine
 10
24.999987
 20
-3.769998999999999
 30
0.0
 11
24.799986
 21
-3.97
 31
0.0
  0
LINE
  5
7F
330
1E
100
AcDbEntity
  8
MO_001_VIEW_PV
  6
C_SOLID_M
100
AcDbLine
 10
24.79999199999999
 20
-3.97
 30
0.0
 11
24.79999199999999
 21
3.97
 31
0.0
  0
LINE
  5
80
330
1E
100
AcDbEntity
  8
MO_001_VIEW_PV
  6
C_SOLID_M
100
AcDbLine
 10
-47.700008
 20
-3.824412
 30
0.0
 11
-47.700008
 21
3.824412
 31
0.0
  0
LINE
  5
81
330
1E
100
AcDbEntity
  8
MO_001_VIEW_PV
  6
C_SOLID_M
100
AcDbLine
 10
-47.300004
 20
3.969998999999999
 30
0.0
 11
-47.70000399999999
 21
3.824412
 31
0.0
  0
LINE
  5
82
330
1E
100
AcDbEntity
  8
MO_001_VIEW_PV
  6
C_SOLID_M
100
AcDbLine
 10
-47.300004
 20
-3.969998999999999
 30
0.0
 11
-47.70000399999999
 21
-3.824412
 31
0.0
  0
LINE
  5
83
330
1E
100
AcDbEntity
  8
MO_001_VIEW_PV
  6
C_SOLID_M
100
AcDbLine
 10
-47.300007
 20
-3.97
 30
0.0
 11
-47.300007
 21
3.97
 31
0.0
  0
ARC
  5
84
330
1E
100
AcDbEntity
  8
MO_001_VIEW_PV
  6
C_SOLID_M
100
AcDbCircle
 10
-32.67708199999999
 20
-30.677029
 30
0.0
 40
5.099999999999999
100
AcDbArc
 50
22.280941
 51
81.454131
  0
CIRCLE
  5
85
330
1E
100
AcDbEntity
  8
MO_001_VIEW_PV
  6
C_SOLID_M
100
AcDbCircle
 10
-87.0
 20
0.0
 30
0.0
 40
25.0
  0
CIRCLE
  5
86
330
1E
100
AcDbEntity
  8
MO_001_VIEW_PV
  6
C_SOLID_M
100
AcDbCircle
 10
-87.0
 20
0.0
 30
0.0
 40
3.97
  0
CIRCLE
  5
87
330
1E
100
AcDbEntity
  8
MO_001_VIEW_PV
  6
C_SOLID_M
100
AcDbCircle
 10
-87.0
 20
0.0
 30
0.0
 40
3.824412
  0
LINE
  5
88
330
1E
100
AcDbEntity
  8
MO_001_VIEW_PV
  6
C_SOLID_M
100
AcDbLine
 10
-32.700008
 20
22.5
 30
0.0
 11
-32.300007
 21
22.5
 31
0.0
  0
LINE
  5
89
330
1E
100
AcDbEntity
  8
MO_001_VIEW_PV
  6
C_SOLID_M
100
AcDbLine
 10
-32.700008
 20
-22.5
 30
0.0
 11
-32.300007
 21
-22.5
 31
0.0
  0
LINE
  5
8A
330
1E
100
AcDbEntity
  8
MO_001_VIEW_PV
  6
C_SOLID_M
100
AcDbLine
 10
-35.200108
 20
-35.48144
 30
0.0
 11
-37.19182199999999
 21
-33.810194
 31
0.0
  0
LINE
  5
8B
330
1E
100
AcDbEntity
  8
MO_001_VIEW_PV
  6
C_SOLID_M
100
AcDbLine
 10
-95.25
 20
-35.749939
 30
0.0
 11
-97.85000600000001
 21
-35.749939
 31
0.0
  0
LINE
  5
8C
330
1E
100
AcDbEntity
  8
MO_001_VIEW_PV
  6
C_SOLID_M
100
AcDbLine
 10
-97.35000600000001
 20
-40.749939
 30
0.0
 11
-97.35000600000001
 21
-35.749939
 31
0.0
  0
LINE
  5
8D
330
1E
100
AcDbEntity
  8
MO_001_VIEW_PV
  6
C_SOLID_M
100
AcDbLine
 10
-95.750015
 20
-40.749939
 30
0.0
 11
-95.750015
 21
-35.749939
 31
0.0
  0
LINE
  5
8E
330
1E
100
AcDbEntity
  8
MO_001_VIEW_PV
  6
C_SOLID_M
100
AcDbLine
 10
-95.750015
 20
-45.24993900000001
 30
0.0
 11
-95.750015
 21
-41.749939
 31
0.0
  0
LINE
  5
8F
330
1E
100
AcDbEntity
  8
MO_001_VIEW_PV
  6
C_SOLID_M
100
AcDbLine
 10
-97.35000600000001
 20
-45.24993900000001
 30
0.0
 11
-97.35000600000001
 21
-41.749939
 31
0.0
  0
LINE
  5
90
330
1E
100
AcDbEntity
  8
MO_001_VIEW_PV
  6
C_SOLID_M
100
AcDbLine
 10
-97.35000600000001
 20
-45.24993900000001
 30
0.0
 11
-95.750015
 21
-45.24993900000001
 31
0.0
  0
LINE
  5
91
330
1E
100
AcDbEntity
  8
MO_001_VIEW_PV
  6
C_SOLID_M
100
AcDbLine
 10
-96.27603100000001
 20
-45.24993900000001
 30
0.0
 11
-96.27603100000001
 21
-50.24993900000001
 31
0.0
  0
LINE
  5
92
330
1E
100
AcDbEntity
  8
MO_001_VIEW_PV
  6
C_SOLID_M
100
AcDbLine
 10
-96.82399000000001
 20
-45.24993900000001
 30
0.0
 11
-96.82399000000001
 21
-50.24993900000001
 31
0.0
  0
LINE
  5
93
330
1E
100
AcDbEntity
  8
MO_001_VIEW_PV
  6
C_SOLID_M
100
AcDbLine
 10
-96.82399000000001
 20
-50.24993900000001
 30
0.0
 11
-96.27603100000001
 21
-50.24993900000001
 31
0.0
  0
ARC
  5
94
330
1E
100
AcDbEntity
  8
MO_001_VIEW_PV
  6
C_SOLID_M
100
AcDbCircle
 10
-96.950012
 20
-41.049934
 30
0.0
 40
0.499994
100
AcDbArc
 50
36.869634
 51
143.1303709999999
  0
ARC
  5
95
330
1E
100
AcDbEntity
  8
MO_001_VIEW_PV
  6
C_SOLID_M
100
AcDbCircle
 10
-96.950012
 20
-40.449944
 30
0.0
 40
0.499994
100
AcDbArc
 50
216.869629
 51
323.1303759999999
  0
ARC
  5
96
330
1E
100
AcDbEntity
  8
MO_001_VIEW_PV
  6
C_SOLID_M
100
AcDbCircle
 10
-96.150009
 20
-40.449944
 30
0.0
 40
0.499994
100
AcDbArc
 50
216.869629
 51
323.1303689999999
  0
ARC
  5
97
330
1E
100
AcDbEntity
  8
MO_001_VIEW_PV
  6
C_SOLID_M
100
AcDbCircle
 10
-96.150009
 20
-41.449944
 30
0.0
 40
0.499994
100
AcDbArc
 50
216.869643
 51
323.1303759999999
  0
ARC
  5
98
330
1E
100
AcDbEntity
  8
MO_001_VIEW_PV
  6
C_SOLID_M
100
AcDbCircle
 10
-96.150009
 20
-42.049934
 30
0.0
 40
0.499994
100
AcDbArc
 50
36.86963099999999
 51
143.1303709999999
  0
ARC
  5
99
330
1E
100
AcDbEntity
  8
MO_001_VIEW_PV
  6
C_SOLID_M
100
AcDbCircle
 10
-96.950012
 20
-42.049934
 30
0.0
 40
0.499994
100
AcDbArc
 50
36.86963099999999
 51
143.1303709999999
  0
LINE
  5
9A
330
1E
100
AcDbEntity
  8
MO_001_VIEW_PV
  6
C_SOLID_M
100
AcDbLine
 10
-40.022741
 20
-37.961807
 30
0.0
 11
-36.808803
 21
-34.131585
 31
0.0
  0
LINE
  5
9B
330
1E
100
AcDbEntity
  8
MO_001_VIEW_PV
  6
C_SOLID_M
100
AcDbLine
 10
-38.797071
 20
-38.990266
 30
0.0
 11
-35.583133
 21
-35.16004399999999
 31
0.0
  0
ARC
  5
9C
330
1E
100
AcDbEntity
  8
MO_001_VIEW_PV
  6
C_SOLID_M
100
AcDbCircle
 10
-39.909153
 20
-38.448738
 30
0.0
 40
0.499994
100
AcDbArc
 50
356.869635
 51
103.1303719999999
  0
ARC
  5
9D
330
1E
100
AcDbEntity
  8
MO_001_VIEW_PV
  6
C_SOLID_M
100
AcDbCircle
 10
-39.523487
 20
-37.98912
 30
0.0
 40
0.499994
100
AcDbArc
 50
176.8696199999999
 51
283.1303839999999
  0
ARC
  5
9E
330
1E
100
AcDbEntity
  8
MO_001_VIEW_PV
  6
C_SOLID_M
100
AcDbCircle
 10
-38.910656
 20
-38.50333799999999
 30
0.0
 40
0.499994
100
AcDbArc
 50
176.8696199999999
 51
283.130356
  0
ARC
  5
9F
330
1E
100
AcDbEntity
  8
MO_001_VIEW_PV
  6
C_SOLID_M
100
AcDbCircle
 10
-27.200001
 20
-23.699997
 30
0.0
 40
5.099999999999999
100
AcDbArc
 50
246.453719
 51
270.0000249999999
  0
LINE
  5
A0
330
1E
100
AcDbEntity
  8
MO_001_VIEW_PV
  6
C_SOLID_M
100
AcDbLine
 10
-76.150002
 20
-35.749939
 30
0.0
 11
-78.75
 21
-35.749939
 31
0.0
  0
LINE
  5
A1
330
1E
100
AcDbEntity
  8
MO_001_VIEW_PV
  6
C_SOLID_M
100
AcDbLine
 10
-78.25
 20
-40.749939
 30
0.0
 11
-78.25
 21
-35.749939
 31
0.0
  0
LINE
  5
A2
330
1E
100
AcDbEntity
  8
MO_001_VIEW_PV
  6
C_SOLID_M
100
AcDbLine
 10
-76.65000899999999
 20
-40.749939
 30
0.0
 11
-76.65000899999999
 21
-35.749939
 31
0.0
  0
LINE
  5
A3
330
1E
100
AcDbEntity
  8
MO_001_VIEW_PV
  6
C_SOLID_M
100
AcDbLine
 10
-76.65000899999999
 20
-45.24993900000001
 30
0.0
 11
-76.65000899999999
 21
-41.749939
 31
0.0
  0
LINE
  5
A4
330
1E
100
AcDbEntity
  8
MO_001_VIEW_PV
  6
C_SOLID_M
100
AcDbLine
 10
-78.25
 20
-45.24993900000001
 30
0.0
 11
-78.25
 21
-41.749939
 31
0.0
  0
LINE
  5
A5
330
1E
100
AcDbEntity
  8
MO_001_VIEW_PV
  6
C_SOLID_M
100
AcDbLine
 10
-78.25
 20
-45.24993900000001
 30
0.0
 11
-76.65000899999999
 21
-45.24993900000001
 31
0.0
  0
LINE
  5
A6
330
1E
100
AcDbEntity
  8
MO_001_VIEW_PV
  6
C_SOLID_M
100
AcDbLine
 10
-77.17602499999999
 20
-45.24993900000001
 30
0.0
 11
-77.17602499999999
 21
-50.24993900000001
 31
0.0
  0
LINE
  5
A7
330
1E
100
AcDbEntity
  8
MO_001_VIEW_PV
  6
C_SOLID_M
100
AcDbLine
 10
-77.723984
 20
-45.24993900000001
 30
0.0
 11
-77.723984
 21
-50.24993900000001
 31
0.0
  0
LINE
  5
A8
330
1E
100
AcDbEntity
  8
MO_001_VIEW_PV
  6
C_SOLID_M
100
AcDbLine
 10
-77.723984
 20
-50.24993900000001
 30
0.0
 11
-77.17602499999999
 21
-50.24993900000001
 31
0.0
  0
ARC
  5
A9
330
1E
100
AcDbEntity
  8
MO_001_VIEW_PV
  6
C_SOLID_M
100
AcDbCircle
 10
-77.850006
 20
-41.049934
 30
0.0
 40
0.499994
100
AcDbArc
 50
36.869634
 51
143.1303709999999
  0
ARC
  5
AA
330
1E
100
AcDbEntity
  8
MO_001_VIEW_PV
  6
C_SOLID_M
100
AcDbCircle
 10
-77.850006
 20
-40.449944
 30
0.0
 40
0.499994
100
AcDbArc
 50
216.869629
 51
323.1303759999999
  0
ARC
  5
AB
330
1E
100
AcDbEntity
  8
MO_001_VIEW_PV
  6
C_SOLID_M
100
AcDbCircle
 10
-77.050003
 20
-40.449944
 30
0.0
 40
0.499994
100
AcDbArc
 50
216.869629
 51
323.1303689999999
  0
ARC
  5
AC
330
1E
100
AcDbEntity
  8
MO_001_VIEW_PV
  6
C_SOLID_M
100
AcDbCircle
 10
-77.050003
 20
-41.449944
 30
0.0
 40
0.499994
100
AcDbArc
 50
216.869643
 51
323.1303759999999
  0
ARC
  5
AD
330
1E
100
AcDbEntity
  8
MO_001_VIEW_PV
  6
C_SOLID_M
100
AcDbCircle
 10
-77.050003
 20
-42.049934
 30
0.0
 40
0.499994
100
AcDbArc
 50
36.86963099999999
 51
143.1303709999999
  0
ARC
  5
AE
330
1E
100
AcDbEntity
  8
MO_001_VIEW_PV
  6
C_SOLID_M
100
AcDbCircle
 10
-77.850006
 20
-42.049934
 30
0.0
 40
0.499994
100
AcDbArc
 50
36.86963099999999
 51
143.1303709999999
  0
ARC
  5
AF
330
1E
100
AcDbEntity
  8
MO_001_VIEW_PV
  6
C_SOLID_M
100
AcDbCircle
 10
-87.0
 20
0.0
 30
0.0
 40
28.800003
100
AcDbArc
 50
253.3539589999999
 51
286.646043
  0
CIRCLE
  5
B0
330
1E
100
AcDbEntity
  8
MO_001_VIEW_PV
  6
C_SOLID_M
100
AcDbCircle
 10
78.0
 20
0.0
 30
0.0
 40
28.800003
  0
LINE
  5
B1
330
1E
100
AcDbEntity
  8
MO_001_VIEW_PV
  6
C_CENTER_L
100
AcDbLine
 10
48.0
 20
0.0
 30
0.0
 11
108.0
 21
0.0
 31
0.0
  0
LINE
  5
B2
330
1E
100
AcDbEntity
  8
MO_001_VIEW_PV
  6
C_CENTER_L
100
AcDbLine
 10
78.0
 20
30.0
 30
0.0
 11
78.0
 21
-32.5
 31
0.0
  0
CIRCLE
  5
B3
330
1E
100
AcDbEntity
  8
MO_001_VIEW_PV
  6
C_SOLID_M
100
AcDbCircle
 10
78.0
 20
0.0
 30
0.0
 40
3.97
  0
CIRCLE
  5
B4
330
1E
100
AcDbEntity
  8
MO_001_VIEW_PV
  6
C_SOLID_M
100
AcDbCircle
 10
78.0
 20
0.0
 30
0.0
 40
3.824412
  0
LINE
  5
B5
330
1E
100
AcDbEntity
  8
MO_001_VIEW_PV
  6
C_SOLID_M
100
AcDbLine
 10
69.75
 20
-35.749939
 30
0.0
 11
67.14999399999999
 21
-35.749939
 31
0.0
  0
LINE
  5
B6
330
1E
100
AcDbEntity
  8
MO_001_VIEW_PV
  6
C_SOLID_M
100
AcDbLine
 10
67.64999399999999
 20
-40.749939
 30
0.0
 11
67.64999399999999
 21
-35.749939
 31
0.0
  0
LINE
  5
B7
330
1E
100
AcDbEntity
  8
MO_001_VIEW_PV
  6
C_SOLID_M
100
AcDbLine
 10
69.249985
 20
-40.749939
 30
0.0
 11
69.249985
 21
-35.749939
 31
0.0
  0
LINE
  5
B8
330
1E
100
AcDbEntity
  8
MO_001_VIEW_PV
  6
C_SOLID_M
100
AcDbLine
 10
69.249985
 20
-45.24993900000001
 30
0.0
 11
69.249985
 21
-41.749939
 31
0.0
  0
LINE
  5
B9
330
1E
100
AcDbEntity
  8
MO_001_VIEW_PV
  6
C_SOLID_M
100
AcDbLine
 10
67.64999399999999
 20
-45.24993900000001
 30
0.0
 11
67.64999399999999
 21
-41.749939
 31
0.0
  0
LINE
  5
BA
330
1E
100
AcDbEntity
  8
MO_001_VIEW_PV
  6
C_SOLID_M
100
AcDbLine
 10
67.64999399999999
 20
-45.24993900000001
 30
0.0
 11
69.249985
 21
-45.24993900000001
 31
0.0
  0
LINE
  5
BB
330
1E
100
AcDbEntity
  8
MO_001_VIEW_PV
  6
C_SOLID_M
100
AcDbLine
 10
68.723969
 20
-45.24993900000001
 30
0.0
 11
68.723969
 21
-50.24993900000001
 31
0.0
  0
LINE
  5
BC
330
1E
100
AcDbEntity
  8
MO_001_VIEW_PV
  6
C_SOLID_M
100
AcDbLine
 10
68.17600999999999
 20
-45.24993900000001
 30
0.0
 11
68.17600999999999
 21
-50.24993900000001
 31
0.0
  0
LINE
  5
BD
330
1E
100
AcDbEntity
  8
MO_001_VIEW_PV
  6
C_SOLID_M
100
AcDbLine
 10
68.17600999999999
 20
-50.24993900000001
 30
0.0
 11
68.723969
 21
-50.24993900000001
 31
0.0
  0
ARC
  5
BE
330
1E
100
AcDbEntity
  8
MO_001_VIEW_PV
  6
C_SOLID_M
100
AcDbCircle
 10
68.04998799999999
 20
-41.049934
 30
0.0
 40
0.499994
100
AcDbArc
 50
36.869634
 51
143.1303709999999
  0
ARC
  5
BF
330
1E
100
AcDbEntity
  8
MO_001_VIEW_PV
  6
C_SOLID_M
100
AcDbCircle
 10
68.04998799999999
 20
-40.449944
 30
0.0
 40
0.499994
100
AcDbArc
 50
216.869629
 51
323.1303759999999
  0
ARC
  5
C0
330
1E
100
AcDbEntity
  8
MO_001_VIEW_PV
  6
C_SOLID_M
100
AcDbCircle
 10
68.849991
 20
-40.449944
 30
0.0
 40
0.499994
100
AcDbArc
 50
216.869629
 51
323.1303689999999
  0
ARC
  5
C1
330
1E
100
AcDbEntity
  8
MO_001_VIEW_PV
  6
C_SOLID_M
100
AcDbCircle
 10
68.849991
 20
-41.449944
 30
0.0
 40
0.499994
100
AcDbArc
 50
216.869643
 51
323.1303759999999
  0
ARC
  5
C2
330
1E
100
AcDbEntity
  8
MO_001_VIEW_PV
  6
C_SOLID_M
100
AcDbCircle
 10
68.849991
 20
-42.049934
 30
0.0
 40
0.499994
100
AcDbArc
 50
36.86963099999999
 51
143.1303709999999
  0
ARC
  5
C3
330
1E
100
AcDbEntity
  8
MO_001_VIEW_PV
  6
C_SOLID_M
100
AcDbCircle
 10
68.04998799999999
 20
-42.049934
 30
0.0
 40
0.499994
100
AcDbArc
 50
36.86963099999999
 51
143.1303709999999
  0
LINE
  5
C4
330
1E
100
AcDbEntity
  8
MO_001_VIEW_PV
  6
C_SOLID_M
100
AcDbLine
 10
88.85000600000001
 20
-35.749939
 30
0.0
 11
86.25
 21
-35.749939
 31
0.0
  0
LINE
  5
C5
330
1E
100
AcDbEntity
  8
MO_001_VIEW_PV
  6
C_SOLID_M
100
AcDbLine
 10
86.75
 20
-40.749939
 30
0.0
 11
86.75
 21
-35.749939
 31
0.0
  0
LINE
  5
C6
330
1E
100
AcDbEntity
  8
MO_001_VIEW_PV
  6
C_SOLID_M
100
AcDbLine
 10
88.349991
 20
-40.749939
 30
0.0
 11
88.349991
 21
-35.749939
 31
0.0
  0
LINE
  5
C7
330
1E
100
AcDbEntity
  8
MO_001_VIEW_PV
  6
C_SOLID_M
100
AcDbLine
 10
88.349991
 20
-45.24993900000001
 30
0.0
 11
88.349991
 21
-41.749939
 31
0.0
  0
LINE
  5
C8
330
1E
100
AcDbEntity
  8
MO_001_VIEW_PV
  6
C_SOLID_M
100
AcDbLine
 10
86.75
 20
-45.24993900000001
 30
0.0
 11
86.75
 21
-41.749939
 31
0.0
  0
LINE
  5
C9
330
1E
100
AcDbEntity
  8
MO_001_VIEW_PV
  6
C_SOLID_M
100
AcDbLine
 10
86.75
 20
-45.24993900000001
 30
0.0
 11
88.349991
 21
-45.24993900000001
 31
0.0
  0
LINE
  5
CA
330
1E
100
AcDbEntity
  8
MO_001_VIEW_PV
  6
C_SOLID_M
100
AcDbLine
 10
87.823975
 20
-45.24993900000001
 30
0.0
 11
87.823975
 21
-50.24993900000001
 31
0.0
  0
LINE
  5
CB
330
1E
100
AcDbEntity
  8
MO_001_VIEW_PV
  6
C_SOLID_M
100
AcDbLine
 10
87.27601599999999
 20
-45.24993900000001
 30
0.0
 11
87.27601599999999
 21
-50.24993900000001
 31
0.0
  0
LINE
  5
CC
330
1E
100
AcDbEntity
  8
MO_001_VIEW_PV
  6
C_SOLID_M
100
AcDbLine
 10
87.27601599999999
 20
-50.24993900000001
 30
0.0
 11
87.823975
 21
-50.24993900000001
 31
0.0
  0
ARC
  5
CD
330
1E
100
AcDbEntity
  8
MO_001_VIEW_PV
  6
C_SOLID_M
100
AcDbCircle
 10
87.14999399999999
 20
-41.049934
 30
0.0
 40
0.499994
100
AcDbArc
 50
36.869634
 51
143.1303709999999
  0
ARC
  5
CE
330
1E
100
AcDbEntity
  8
MO_001_VIEW_PV
  6
C_SOLID_M
100
AcDbCircle
 10
87.14999399999999
 20
-40.449944
 30
0.0
 40
0.499994
100
AcDbArc
 50
216.869629
 51
323.1303759999999
  0
ARC
  5
CF
330
1E
100
AcDbEntity
  8
MO_001_VIEW_PV
  6
C_SOLID_M
100
AcDbCircle
 10
87.94999699999999
 20
-40.449944
 30
0.0
 40
0.499994
100
AcDbArc
 50
216.869629
 51
323.1303689999999
  0
ARC
  5
D0
330
1E
100
AcDbEntity
  8
MO_001_VIEW_PV
  6
C_SOLID_M
100
AcDbCircle
 10
87.94999699999999
 20
-41.449944
 30
0.0
 40
0.499994
100
AcDbArc
 50
216.869643
 51
323.1303759999999
  0
ARC
  5
D1
330
1E
100
AcDbEntity
  8
MO_001_VIEW_PV
  6
C_SOLID_M
100
AcDbCircle
 10
87.94999699999999
 20
-42.049934
 30
0.0
 40
0.499994
100
AcDbArc
 50
36.86963099999999
 51
143.1303709999999
  0
ARC
  5
D2
330
1E
100
AcDbEntity
  8
MO_001_VIEW_PV
  6
C_SOLID_M
100
AcDbCircle
 10
87.14999399999999
 20
-42.049934
 30
0.0
 40
0.499994
100
AcDbArc
 50
36.86963099999999
 51
143.1303709999999
  0
LINE
  5
D3
330
1E
100
AcDbEntity
  8
MO_001_VIEW_PV
  6
C_CENTER_L
100
AcDbLine
 10
72.0
 20
18.25
 30
0.0
 11
84.0
 21
18.25
 31
0.0
  0
CIRCLE
  5
D4
330
1E
100
AcDbEntity
  8
MO_001_VIEW_PV
  6
C_SOLID_M
100
AcDbCircle
 10
78.0
 20
0.0
 30
0.0
 40
5.321797
  0
CIRCLE
  5
D5
330
1E
100
AcDbEntity
  8
MO_001_VIEW_PV
  6
C_SOLID_M
100
AcDbCircle
 10
78.0
 20
0.0
 30
0.0
 40
5.15
  0
CIRCLE
  5
D6
330
1E
100
AcDbEntity
  8
MO_001_VIEW_PV
  6
C_SOLID_M
100
AcDbCircle
 10
78.0
 20
0.0
 30
0.0
 40
25.209999
  0
CIRCLE
  5
D7
330
1E
100
AcDbEntity
  8
MO_001_VIEW_PV
  6
C_SOLID_M
100
AcDbCircle
 10
78.0
 20
0.0
 30
0.0
 40
25.049231
  0
CIRCLE
  5
D8
330
1E
100
AcDbEntity
  8
MO_001_VIEW_PV
  6
C_SOLID_L
100
AcDbCircle
 10
78.0
 20
18.25
 30
0.0
 40
1.599995
  0
CIRCLE
  5
D9
330
1E
100
AcDbEntity
  8
MO_001_VIEW_PV
  6
C_SOLID_M
100
AcDbCircle
 10
78.0
 20
18.25
 30
0.0
 40
2.5
  0
CIRCLE
  5
DA
330
1E
100
AcDbEntity
  8
MO_001_VIEW_PV
  6
C_SOLID_M
100
AcDbCircle
 10
78.0
 20
18.25
 30
0.0
 40
4.0
  0
CIRCLE
  5
DB
330
1E
100
AcDbEntity
  8
MO_001_VIEW_PV
  6
C_SOLID_L
100
AcDbCircle
 10
78.0
 20
-18.25
 30
0.0
 40
1.599995
  0
CIRCLE
  5
DC
330
1E
100
AcDbEntity
  8
MO_001_VIEW_PV
  6
C_SOLID_M
100
AcDbCircle
 10
78.0
 20
-18.25
 30
0.0
 40
2.5
  0
CIRCLE
  5
DD
330
1E
100
AcDbEntity
  8
MO_001_VIEW_PV
  6
C_SOLID_M
100
AcDbCircle
 10
78.0
 20
-18.25
 30
0.0
 40
4.0
  0
LINE
  5
DE
330
1E
100
AcDbEntity
  8
MO_001_VIEW_PV
  6
C_CENTER_L
100
AcDbLine
 10
72.0
 20
-18.25
 30
0.0
 11
84.0
 21
-18.25
 31
0.0
  0
LINE
  5
DF
330
1E
100
AcDbEntity
  8
MO_001_VIEW_PV
  6
C_SOLID_M
100
AcDbLine
 10
-97.85000600000001
 20
-35.749939
 30
0.0
 11
-97.85000600000001
 21
-25.03511599999999
 31
0.0
  0
LINE
  5
E0
330
1E
100
AcDbEntity
  8
MO_001_VIEW_PV
  6
C_SOLID_M
100
AcDbLine
 10
-95.25
 20
-35.749939
 30
0.0
 11
-95.25
 21
-25.03511599999999
 31
0.0
  0
LINE
  5
E1
330
1E
100
AcDbEntity
  8
MO_001_VIEW_PV
  6
C_SOLID_M
100
AcDbLine
 10
-78.75
 20
-35.749939
 30
0.0
 11
-78.75
 21
-25.035114
 31
0.0
  0
LINE
  5
E2
330
1E
100
AcDbEntity
  8
MO_001_VIEW_PV
  6
C_SOLID_M
100
AcDbLine
 10
-76.150002
 20
-35.749939
 30
0.0
 11
-76.150002
 21
-25.035114
 31
0.0
  0
LINE
  5
E3
330
1E
100
AcDbEntity
  8
MO_001_VIEW_PV
  6
C_SOLID_M
100
AcDbLine
 10
-37.19182199999999
 20
-33.810194
 30
0.0
 11
-30.639689
 21
-26.001665
 31
0.0
  0
LINE
  5
E4
330
1E
100
AcDbEntity
  8
MO_001_VIEW_PV
  6
C_SOLID_M
100
AcDbLine
 10
-35.200108
 20
-35.48144
 30
0.0
 11
-28.59897
 21
-27.614511
 31
0.0
  0
LINE
  5
E5
330
1E
100
AcDbEntity
  8
MO_001_VIEW_PV
  6
C_SOLID_M
100
AcDbLine
 10
67.14999399999999
 20
-35.749939
 30
0.0
 11
67.14999399999999
 21
-26.79809
 31
0.0
  0
LINE
  5
E6
330
1E
100
AcDbEntity
  8
MO_001_VIEW_PV
  6
C_SOLID_M
100
AcDbLine
 10
69.75
 20
-35.749939
 30
0.0
 11
69.75
 21
-27.50159299999999
 31
0.0
  0
LINE
  5
E7
330
1E
100
AcDbEntity
  8
MO_001_VIEW_PV
  6
C_SOLID_M
100
AcDbLine
 10
86.25
 20
-35.749939
 30
0.0
 11
86.25
 21
-27.50159299999999
 31
0.0
  0
LINE
  5
E8
330
1E
100
AcDbEntity
  8
MO_001_VIEW_PV
  6
C_SOLID_M
100
AcDbLine
 10
88.85000600000001
 20
-35.749939
 30
0.0
 11
88.85000600000001
 21
-26.79809
 31
0.0
  0
LINE
  5
E9
330
1E
100
AcDbEntity
  8
MO_001_VIEW_PV
  6
C_SOLID_L
100
AcDbLine
 10
16.451614
 20
-48.0
 30
0.0
 11
45.38817199999999
 21
-48.0
 31
0.0
  0
TEXT
  5
EA
330
1E
100
AcDbEntity
  8
MO_001_VIEW_PV
  6
C_SOLID_L
100
AcDbText
 10
-52.488281
 20
-62.08359399999999
 30
0.0
 40
4.167187
  1
6EC PushPull
100
AcDbText
  0
TEXT
  5
EB
330
1E
100
AcDbEntity
  8
MO_001_VIEW_PV
  6
C_SOLID_L
100
AcDbText
 10
18.208494
 20
-46.72553299999999
 30
0.0
 40
3.0
  1
2-M5 P0.8
100
AcDbText
  0
TEXT
  5
EC
330
1E
100
AcDbEntity
  8
MO_001_VIEW_PV
  6
C_SOLID_L
100
AcDbText
 10
118.5
 20
-26.071429
 30
0.0
 40
3.0
  1
(UL1430 AWG20)
 50
90.0
100
AcDbText
  0
TEXT
  5
ED
330
1E
100
AcDbEntity
  8
MO_001_VIEW_PV
  6
C_SOLID_L
100
AcDbText
 10
82.51171900000001
 20
-62.08359399999999
 30
0.0
 40
4.167187
  1
単位：mm
100
AcDbText
  0
TEXT
  5
EE
330
1E
100
AcDbEntity
  8
MO_001_VIEW_PV
  6
C_SOLID_L
100
AcDbText
 10
82.51171900000001
 20
-68.08359399999999
 30
0.0
 40
4.167187
  1
図は励磁時を示す
100
AcDbText
  0
DIMENSION
  5
F0
330
1E
100
AcDbEntity
  8
MO_001_VIEW_PV
  6
C_SOLID_M
100
AcDbDimension
  2
*D0
 10
-23.850004
 20
42.0
 30
0.0
 11
-23.850004
 21
42.0
 31
0.0
  3
STANDARD
100
AcDbAlignedDimension
 13
0.0
 23
24.710005
 33
0.0
 14
-47.700008
 24
3.824412
 34
0.0
100
AcDbRotatedDimension
  0
DIMENSION
  5
F2
330
1E
100
AcDbEntity
  8
MO_001_VIEW_PV
  6
C_SOLID_M
100
AcDbDimension
  2
*D1
 10
12.499996
 20
42.0
 30
0.0
 11
12.499996
 21
42.0
 31
0.0
  3
STANDARD
100
AcDbAlignedDimension
 13
24.999992
 23
3.77
 33
0.0
 14
0.0
 24
24.710005
 34
0.0
100
AcDbRotatedDimension
  0
DIMENSION
  5
F4
330
1E
100
AcDbEntity
  8
MO_001_VIEW_PV
  6
C_SOLID_M
100
AcDbDimension
  2
*D2
 10
-17.850004
 20
36.0
 30
0.0
 11
-17.850004
 21
36.0
 31
0.0
  1
36以下
  3
STANDARD
100
AcDbAlignedDimension
 13
0.0
 23
24.710005
 33
0.0
 14
-35.700008
 24
25.0
 34
0.0
100
AcDbRotatedDimension
  0
DIMENSION
  5
F6
330
1E
100
AcDbEntity
  8
MO_001_VIEW_PV
  6
C_SOLID_M
100
AcDbDimension
  2
*D3
 10
9.599997
 20
36.0
 30
0.0
 11
9.599997
 21
36.0
 31
0.0
  3
STANDARD
100
AcDbAlignedDimension
 13
19.19999299999999
 23
19.84999499999999
 33
0.0
 14
0.0
 24
24.710005
 34
0.0
100
AcDbRotatedDimension
  0
DIMENSION
  5
F8
330
1E
100
AcDbEntity
  8
MO_001_VIEW_PV
  6
C_SOLID_M
100
AcDbDimension
  2
*D4
 10
33.0
 20
19.250475
 30
0.0
 11
33.0
 21
19.250475
 31
0.0
  3
STANDARD
100
AcDbAlignedDimension
 13
24.79999199999999
 23
-3.97
 33
0.0
 14
24.79999199999999
 24
3.97
 34
0.0
 50
89.999523
100
AcDbRotatedDimension
  0
DIMENSION
  5
FA
330
1E
100
AcDbEntity
  8
MO_001_VIEW_PV
  6
C_SOLID_M
100
AcDbDimension
  2
*D5
 10
45.0
 20
0.0
 30
0.0
 11
45.0
 21
0.0
 31
0.0
  3
STANDARD
100
AcDbAlignedDimension
 13
72.0
 23
-18.25
 33
0.0
 14
72.0
 24
18.25
 34
0.0
 50
89.999523
100
AcDbRotatedDimension
  0
DIMENSION
  5
FC
330
1E
100
AcDbEntity
  8
MO_001_VIEW_PV
  6
C_SOLID_M
100
AcDbDimension
  2
*D6
 10
78.0
 20
42.0
 30
0.0
 11
78.0
 21
42.0
 31
0.0
  1
%%C59以下
  3
STANDARD
100
AcDbAlignedDimension
 13
106.800003
 23
0.0
 33
0.0
 14
49.19999699999999
 24
0.0
 34
0.0
100
AcDbRotatedDimension
  0
DIMENSION
  5
FE
330
1E
100
AcDbEntity
  8
MO_001_VIEW_PV
  6
C_SOLID_M
100
AcDbDimension
  2
*D7
 10
114.0
 20
3.0
 30
0.0
 11
114.0
 21
3.0
 31
0.0
  1
長さ250以上
  3
STANDARD
100
AcDbAlignedDimension
 13
88.85000600000001
 23
-26.79809
 33
0.0
 14
87.823975
 24
-50.24993900000001
 34
0.0
 50
89.999523
100
AcDbRotatedDimension
  0
LINE
  5
FF
330
1E
100
AcDbEntity
  8
MO_001_VIEW_PV
  6
C_SOLID_L
100
AcDbLine
 10
9.149999000000001
 20
-20.75
 30
0.0
 11
16.451613
 21
-47.99999699999999
 31
0.0
  0
POLYLINE
  5
100
330
1E
100
AcDbEntity
  8
MO_001_VIEW_PV
  6
C_SOLID_L
100
AcDb2dPolyline
 66
     1
 10
0.0
 20
0.0
 30
0.0
 70
     1
  0
VERTEX
  5
15F
330
100
100
AcDbEntity
  8
MO_001_VIEW_PV
  6
C_SOLID_L
100
AcDbVertex
100
AcDb2dVertex
 10
10.57245699999999
 20
-23.80417
 30
0.0
  0
VERTEX
  5
160
330
100
100
AcDbEntity
  8
MO_001_VIEW_PV
  6
C_SOLID_L
100
AcDbVertex
100
AcDb2dVertex
 10
9.28148
 20
-21.240691
 30
0.0
  0
VERTEX
  5
161
330
100
100
AcDbEntity
  8
MO_001_VIEW_PV
  6
C_SOLID_L
100
AcDbVertex
100
AcDb2dVertex
 10
9.445199
 20
-24.106217
 30
0.0
  0
SEQEND
  5
162
330
100
100
AcDbEntity
  8
MO_001_VIEW_PV
  6
C_SOLID_L
  0
ENDSEC
  0
SECTION
  2
OBJECTS
  0
DICTIONARY
  5
1A
330
0
100
AcDbDictionary
  3
ACAD_GROUP
350
1B
  3
ACAD_MLINESTYLE
350
1C
  3
ACAD_LAYOUT
350
155
  3
ACAD_PLOTSETTINGS
350
156
1001
ACAD
1000
TREAT_AS_HARD
1070
     0
  0
DICTIONARY
  5
15B
330
1E
100
AcDbDictionary
  3
ACAD_LAYOUTSELFREF
350
15C
  0
DICTIONARY
  5
15D
330
1F
100
AcDbDictionary
  3
ACAD_LAYOUTSELFREF
350
15E
  0
DICTIONARY
  5
1B
102
{ACAD_REACTORS
330
1A
102
}
330
1A
100
AcDbDictionary
1001
ACAD
1000
TREAT_AS_HARD
1070
     0
  0
DICTIONARY
  5
1C
102
{ACAD_REACTORS
330
1A
102
}
330
1A
100
AcDbDictionary
  3
STANDARD
350
1D
1001
ACAD
1000
TREAT_AS_HARD
1070
     0
  0
DICTIONARY
  5
155
102
{ACAD_REACTORS
330
1A
102
}
330
1A
100
AcDbDictionary
1001
ACAD
1000
TREAT_AS_HARD
1070
     0
  0
DICTIONARY
  5
156
102
{ACAD_REACTORS
330
1A
102
}
330
1A
100
AcDbDictionary
1001
ACAD
1000
TREAT_AS_HARD
1070
     0
  0
XRECORD
  5
15C
102
{ACAD_REACTORS
330
15B
102
}
330
15B
100
AcDbXrecord
340
1E
  0
XRECORD
  5
15E
102
{ACAD_REACTORS
330
15D
102
}
330
15D
100
AcDbXrecord
340
1F
  0
MLINESTYLE
  5
1D
102
{ACAD_REACTORS
330
1C
102
}
330
1C
100
AcDbMlineStyle
  2
STANDARD
 70
     0
  3

 62
     0
 51
90.0
 52
90.0
 71
     2
 49
0.5
 62
   256
  6
BYLAYER
 49
-0.5
 62
   256
  6
BYLAYER
  0
ENDSEC
  0
EOF
