  0
SECTION
  2
HEADER
  9
$ACADVER
  1
AC1012
  9
$DWGCODEPAGE
  3
dos932
  9
$INSBASE
 10
0.0
 20
0.0
 30
0.0
  9
$EXTMIN
 10
-112.0079949954617
 20
-86.08971031371799
 30
-0.0015258207003583
  9
$EXTMAX
 10
151.1473699961176
 20
49.1322872653152
 30
0.0000000349246037
  9
$LIMMIN
 10
-112.0
 20
-89.208984
  9
$LIMMAX
 10
150.0
 20
51.0
  9
$ORTHOMODE
 70
     0
  9
$REGENMODE
 70
     1
  9
$FILLMODE
 70
     1
  9
$QTEXTMODE
 70
     0
  9
$MIRRTEXT
 70
     1
  9
$DRAGMODE
 70
     2
  9
$LTSCALE
 40
1.0
  9
$OSMODE
 70
    37
  9
$ATTMODE
 70
     1
  9
$TEXTSIZE
 40
4.1672
  9
$TRACEWID
 40
0.05
  9
$TEXTSTYLE
  7
STANDARD
  9
$CLAYER
  8
0
  9
$CELTYPE
  6
CONTINUOUS
  9
$CECOLOR
 62
   256
  9
$CELTSCALE
 40
1.0
  9
$DELOBJ
 70
     1
  9
$DISPSILH
 70
     0
  9
$DIMSCALE
 40
1.0
  9
$DIMASZ
 40
0.18
  9
$DIMEXO
 40
0.0625
  9
$DIMDLI
 40
0.38
  9
$DIMRND
 40
0.0
  9
$DIMDLE
 40
0.0
  9
$DIMEXE
 40
0.18
  9
$DIMTP
 40
0.0
  9
$DIMTM
 40
0.0
  9
$DIMTXT
 40
0.18
  9
$DIMCEN
 40
0.09
  9
$DIMTSZ
 40
0.0
  9
$DIMTOL
 70
     0
  9
$DIMLIM
 70
     0
  9
$DIMTIH
 70
     1
  9
$DIMTOH
 70
     1
  9
$DIMSE1
 70
     0
  9
$DIMSE2
 70
     0
  9
$DIMTAD
 70
     0
  9
$DIMZIN
 70
     0
  9
$DIMBLK
  1

  9
$DIMASO
 70
     1
  9
$DIMSHO
 70
     1
  9
$DIMPOST
  1

  9
$DIMAPOST
  1

  9
$DIMALT
 70
     0
  9
$DIMALTD
 70
     2
  9
$DIMALTF
 40
25.4
  9
$DIMLFAC
 40
1.0
  9
$DIMTOFL
 70
     0
  9
$DIMTVP
 40
0.0
  9
$DIMTIX
 70
     0
  9
$DIMSOXD
 70
     0
  9
$DIMSAH
 70
     0
  9
$DIMBLK1
  1

  9
$DIMBLK2
  1

  9
$DIMSTYLE
  2
STANDARD
  9
$DIMCLRD
 70
     0
  9
$DIMCLRE
 70
     0
  9
$DIMCLRT
 70
     0
  9
$DIMTFAC
 40
1.0
  9
$DIMGAP
 40
0.09
  9
$DIMJUST
 70
     0
  9
$DIMSD1
 70
     0
  9
$DIMSD2
 70
     0
  9
$DIMTOLJ
 70
     1
  9
$DIMTZIN
 70
     0
  9
$DIMALTZ
 70
     0
  9
$DIMALTTZ
 70
     0
  9
$DIMFIT
 70
     3
  9
$DIMUPT
 70
     0
  9
$DIMUNIT
 70
     2
  9
$DIMDEC
 70
     4
  9
$DIMTDEC
 70
     4
  9
$DIMALTU
 70
     2
  9
$DIMALTTD
 70
     2
  9
$DIMTXSTY
  7
STANDARD
  9
$DIMAUNIT
 70
     0
  9
$LUNITS
 70
     2
  9
$LUPREC
 70
     6
  9
$SKETCHINC
 40
0.1
  9
$FILLETRAD
 40
0.0
  9
$AUNITS
 70
     0
  9
$AUPREC
 70
     4
  9
$MENU
  1
acad
  9
$ELEVATION
 40
0.0
  9
$PELEVATION
 40
0.0
  9
$THICKNESS
 40
0.0
  9
$LIMCHECK
 70
     0
  9
$BLIPMODE
 70
     0
  9
$CHAMFERA
 40
0.0
  9
$CHAMFERB
 40
0.0
  9
$CHAMFERC
 40
0.0
  9
$CHAMFERD
 40
0.0
  9
$SKPOLY
 70
     0
  9
$TDCREATE
 40
2376122.594796539
  9
$TDUPDATE
 40
2451663.709698958
  9
$TDINDWG
 40
0.0015053241
  9
$TDUSRTIMER
 40
0.0015053241
  9
$USRTIMER
 70
     1
  9
$ANGBASE
 50
0.0
  9
$ANGDIR
 70
     0
  9
$PDMODE
 70
     0
  9
$PDSIZE
 40
0.0
  9
$PLINEWID
 40
0.0
  9
$COORDS
 70
     1
  9
$SPLFRAME
 70
     0
  9
$SPLINETYPE
 70
     6
  9
$SPLINESEGS
 70
     8
  9
$ATTDIA
 70
     0
  9
$ATTREQ
 70
     1
  9
$HANDLING
 70
 10241
  9
$HANDSEED
  5
1F5
  9
$SURFTAB1
 70
     6
  9
$SURFTAB2
 70
     6
  9
$SURFTYPE
 70
     6
  9
$SURFU
 70
     6
  9
$SURFV
 70
     6
  9
$UCSNAME
  2
MO_001_VIEW_PV_P
  9
$UCSORG
 10
30.0
 20
0.0
 30
0.0
  9
$UCSXDIR
 10
1.0
 20
0.0
 30
0.0
  9
$UCSYDIR
 10
-0.0000000002051034
 20
1.0
 30
0.0
  9
$PUCSNAME
  2

  9
$PUCSORG
 10
0.0
 20
0.0
 30
0.0
  9
$PUCSXDIR
 10
1.0
 20
0.0
 30
0.0
  9
$PUCSYDIR
 10
0.0
 20
1.0
 30
0.0
  9
$USERI1
 70
     0
  9
$USERI2
 70
     0
  9
$USERI3
 70
     0
  9
$USERI4
 70
     0
  9
$USERI5
 70
     0
  9
$USERR1
 40
0.0
  9
$USERR2
 40
0.0
  9
$USERR3
 40
0.0
  9
$USERR4
 40
0.0
  9
$USERR5
 40
0.0
  9
$WORLDVIEW
 70
     1
  9
$SHADEDGE
 70
     3
  9
$SHADEDIF
 70
    70
  9
$TILEMODE
 70
     1
  9
$MAXACTVP
 70
    16
  9
$PINSBASE
 10
0.0
 20
0.0
 30
0.0
  9
$PLIMCHECK
 70
     0
  9
$PEXTMIN
 10
-112.0
 20
-89.208984
 30
1.000000000000000E+20
  9
$PEXTMAX
 10
150.0
 20
51.0
 30
-1.000000000000000E+20
  9
$PLIMMIN
 10
0.0
 20
0.0
  9
$PLIMMAX
 10
12.0
 20
9.0
  9
$UNITMODE
 70
     0
  9
$VISRETAIN
 70
     0
  9
$PLINEGEN
 70
     0
  9
$PSLTSCALE
 70
     1
  9
$TREEDEPTH
 70
  3020
  9
$PICKSTYLE
 70
     1
  9
$CMLSTYLE
  2
STANDARD
  9
$CMLJUST
 70
     0
  9
$CMLSCALE
 40
1.0
  9
$SAVEIMAGES
 70
     1
  0
ENDSEC
  0
SECTION
  2
CLASSES
  0
CLASS
  1
ACDBDICTIONARYWDFLT
  2
AcDbDictionaryWithDefault
  3
AutoCAD 2000
 90
    32768
280
     0
281
     0
  0
CLASS
  1
ACDBPLACEHOLDER
  2
AcDbPlaceHolder
  3
AutoCAD 2000
 90
    32768
280
     0
281
     0
  0
CLASS
  1
LAYOUT
  2
AcDbLayout
  3
AutoCAD 2000
 90
    32768
280
     0
281
     0
  0
CLASS
  1
LONG_TRANSACTION
  2
AcDbLongTransaction
  3
AutoCAD 2000
 90
    32768
280
     0
281
     0
  0
CLASS
  1
LWPOLYLINE
  2
AcDbPolyline
  3
AutoCAD 2000
 90
    32768
280
     0
281
     1
  0
CLASS
  1
HATCH
  2
AcDbHatch
  3
AutoCAD 2000
 90
    32768
280
     0
281
     1
  0
CLASS
  1
XRECORD
  2
AcDbXrecord
  3
AutoCAD 2000
 90
    32768
280
     0
281
     0
  0
ENDSEC
  0
SECTION
  2
TABLES
  0
TABLE
  2
VPORT
  5
7
330
0
100
AcDbSymbolTable
 70
     2
  0
VPORT
  5
1BF
330
7
100
AcDbSymbolTableRecord
100
AcDbViewportTableRecord
  2
*ACTIVE
 70
     0
 10
0.0
 20
0.0
 11
1.0
 21
1.0
 12
19.95916250524229
 22
-17.06406028090964
 13
0.0
 23
0.0
 14
6.349999999999999
 24
6.349999999999999
 15
6.349999999999999
 25
6.349999999999999
 16
0.0
 26
0.0
 36
1.0
 17
0.0
 27
0.0
 37
0.0
 40
172.9247984962658
 41
1.651785714285714
 42
50.0
 43
0.0
 44
0.0
 50
0.0
 51
0.0
 71
     0
 72
   100
 73
     1
 74
     1
 75
     0
 76
     0
 77
     0
 78
     0
  0
ENDTAB
  0
TABLE
  2
LTYPE
  5
4
330
0
100
AcDbSymbolTable
 70
    37
  0
LTYPE
  5
12
330
4
100
AcDbSymbolTableRecord
100
AcDbLinetypeTableRecord
  2
BYBLOCK
 70
     0
  3

 72
    65
 73
     0
 40
0.0
  0
LTYPE
  5
13
330
4
100
AcDbSymbolTableRecord
100
AcDbLinetypeTableRecord
  2
BYLAYER
 70
     0
  3

 72
    65
 73
     0
 40
0.0
  0
LTYPE
  5
14
330
4
100
AcDbSymbolTableRecord
100
AcDbLinetypeTableRecord
  2
CONTINUOUS
 70
     0
  3
DXF Default line type
 72
    65
 73
     0
 40
0.0
  0
LTYPE
  5
20
330
4
100
AcDbSymbolTableRecord
100
AcDbLinetypeTableRecord
  2
DASHED
 70
     0
  3
DXF Dashed
 72
    65
 73
     2
 40
0.75
 49
0.5
 74
     0
 49
-0.25
 74
     0
  0
LTYPE
  5
21
330
4
100
AcDbSymbolTableRecord
100
AcDbLinetypeTableRecord
  2
HIDDEN
 70
     0
  3
DXF Hidden
 72
    65
 73
     2
 40
0.375
 49
0.25
 74
     0
 49
-0.125
 74
     0
  0
LTYPE
  5
22
330
4
100
AcDbSymbolTableRecord
100
AcDbLinetypeTableRecord
  2
CENTER
 70
     0
  3
DXF Center
 72
    65
 73
     4
 40
2.0
 49
1.25
 74
     0
 49
-0.25
 74
     0
 49
0.25
 74
     0
 49
-0.25
 74
     0
  0
LTYPE
  5
23
330
4
100
AcDbSymbolTableRecord
100
AcDbLinetypeTableRecord
  2
PHANTOM
 70
     0
  3
DXF Phantom
 72
    65
 73
     6
 40
2.5
 49
1.25
 74
     0
 49
-0.25
 74
     0
 49
0.25
 74
     0
 49
-0.25
 74
     0
 49
0.25
 74
     0
 49
-0.25
 74
     0
  0
LTYPE
  5
24
330
4
100
AcDbSymbolTableRecord
100
AcDbLinetypeTableRecord
  2
DOT
 70
     0
  3
DXF DOT
 72
    65
 73
     2
 40
0.25
 49
0.0
 74
     0
 49
-0.25
 74
     0
  0
LTYPE
  5
25
330
4
100
AcDbSymbolTableRecord
100
AcDbLinetypeTableRecord
  2
DASHDOT
 70
     0
  3
DXF Dash Dot
 72
    65
 73
     4
 40
1.0
 49
0.5
 74
     0
 49
-0.25
 74
     0
 49
0.0
 74
     0
 49
-0.25
 74
     0
  0
LTYPE
  5
26
330
4
100
AcDbSymbolTableRecord
100
AcDbLinetypeTableRecord
  2
BORDER
 70
     0
  3
DXF Border
 72
    65
 73
     6
 40
1.75
 49
0.5
 74
     0
 49
-0.25
 74
     0
 49
0.5
 74
     0
 49
-0.25
 74
     0
 49
0.0
 74
     0
 49
-0.25
 74
     0
  0
LTYPE
  5
27
330
4
100
AcDbSymbolTableRecord
100
AcDbLinetypeTableRecord
  2
DIVIDE
 70
     0
  3
DXF Divide
 72
    65
 73
     6
 40
1.25
 49
0.5
 74
     0
 49
-0.25
 74
     0
 49
0.0
 74
     0
 49
-0.25
 74
     0
 49
0.0
 74
     0
 49
-0.25
 74
     0
  0
LTYPE
  5
28
330
4
100
AcDbSymbolTableRecord
100
AcDbLinetypeTableRecord
  2
C_SOLID_L
 70
     0
  3
CADAM Solid Light
 72
    65
 73
     0
 40
0.0
  0
LTYPE
  5
29
330
4
100
AcDbSymbolTableRecord
100
AcDbLinetypeTableRecord
  2
C_SOLID_M
 70
     0
  3
CADAM Solid Medium
 72
    65
 73
     0
 40
0.0
  0
LTYPE
  5
2A
330
4
100
AcDbSymbolTableRecord
100
AcDbLinetypeTableRecord
  2
C_SOLID_H
 70
     0
  3
CADAM Solid Heavy
 72
    65
 73
     0
 40
0.0
  0
LTYPE
  5
2B
330
4
100
AcDbSymbolTableRecord
100
AcDbLinetypeTableRecord
  2
C_DASHED_L
 70
     0
  3
CADAM Dashed Light
 72
    65
 73
     2
 40
0.375
 49
0.25
 74
     0
 49
-0.125
 74
     0
  0
LTYPE
  5
2C
330
4
100
AcDbSymbolTableRecord
100
AcDbLinetypeTableRecord
  2
C_DASHED_M
 70
     0
  3
CADAM Dashed Medium
 72
    65
 73
     2
 40
0.5
 49
0.375
 74
     0
 49
-0.125
 74
     0
  0
LTYPE
  5
2D
330
4
100
AcDbSymbolTableRecord
100
AcDbLinetypeTableRecord
  2
C_CENTER_L
 70
     0
  3
CADAM Center Light
 72
    65
 73
     4
 40
2.0
 49
1.25
 74
     0
 49
-0.25
 74
     0
 49
0.25
 74
     0
 49
-0.25
 74
     0
  0
LTYPE
  5
2E
330
4
100
AcDbSymbolTableRecord
100
AcDbLinetypeTableRecord
  2
C_PHANTOM_L
 70
     0
  3
CADAM Phantom Light
 72
    65
 73
     6
 40
2.5
 49
1.25
 74
     0
 49
-0.25
 74
     0
 49
0.25
 74
     0
 49
-0.25
 74
     0
 49
0.25
 74
     0
 49
-0.25
 74
     0
  0
LTYPE
  5
2F
330
4
100
AcDbSymbolTableRecord
100
AcDbLinetypeTableRecord
  2
C_BREAK_M
 70
     0
  3
CADAM Break Medium
 72
    65
 73
     4
 40
1.0
 49
0.5
 74
     0
 49
-0.25
 74
     0
 49
0.0
 74
     0
 49
-0.25
 74
     0
  0
LTYPE
  5
30
330
4
100
AcDbSymbolTableRecord
100
AcDbLinetypeTableRecord
  2
C_NC
 70
     0
  3
CADAM NC
 72
    65
 73
     0
 40
0.0
  0
LTYPE
  5
31
330
4
100
AcDbSymbolTableRecord
100
AcDbLinetypeTableRecord
  2
DSH1
 70
     0
  3
CADAM Style2 Type 1 Dashed Line
 72
    65
 73
     2
 40
0.075
 49
0.04
 74
     0
 49
-0.035
 74
     0
  0
LTYPE
  5
32
330
4
100
AcDbSymbolTableRecord
100
AcDbLinetypeTableRecord
  2
DSH2
 70
     0
  3
CADAM Style2 Type 2 Dashed Line
 72
    65
 73
     2
 40
0.15
 49
0.11
 74
     0
 49
-0.04
 74
     0
  0
LTYPE
  5
33
330
4
100
AcDbSymbolTableRecord
100
AcDbLinetypeTableRecord
  2
DSH3
 70
     0
  3
CADAM Style2 Type 3 Dashed Line
 72
    65
 73
     2
 40
0.2
 49
0.15
 74
     0
 49
-0.05
 74
     0
  0
LTYPE
  5
34
330
4
100
AcDbSymbolTableRecord
100
AcDbLinetypeTableRecord
  2
DSH4
 70
     0
  3
CADAM Style2 Type 4 Dashed Line
 72
    65
 73
     2
 40
0.36
 49
0.28
 74
     0
 49
-0.08
 74
     0
  0
LTYPE
  5
35
330
4
100
AcDbSymbolTableRecord
100
AcDbLinetypeTableRecord
  2
DSH5
 70
     0
  3
CADAM Style2 Type 5 Dashed Line
 72
    65
 73
     2
 40
0.47
 49
0.39
 74
     0
 49
-0.08
 74
     0
  0
LTYPE
  5
36
330
4
100
AcDbSymbolTableRecord
100
AcDbLinetypeTableRecord
  2
DSH6
 70
     0
  3
CADAM Style2 Type 6 Dashed Line
 72
    65
 73
     2
 40
0.9
 49
0.8100000000000001
 74
     0
 49
-0.09
 74
     0
  0
LTYPE
  5
37
330
4
100
AcDbSymbolTableRecord
100
AcDbLinetypeTableRecord
  2
PL1
 70
     0
  3
Style 2 Type 1 Phantom Line
 72
    65
 73
     6
 40
1.0
 49
0.6
 74
     0
 49
-0.08
 74
     0
 49
0.08
 74
     0
 49
-0.08
 74
     0
 49
0.08
 74
     0
 49
-0.08
 74
     0
  0
LTYPE
  5
38
330
4
100
AcDbSymbolTableRecord
100
AcDbLinetypeTableRecord
  2
PL2
 70
     0
  3
Style 2 Type 2 Phantom Line
 72
    65
 73
     6
 40
1.08
 49
0.6
 74
     0
 49
-0.08
 74
     0
 49
0.12
 74
     0
 49
-0.08
 74
     0
 49
0.12
 74
     0
 49
-0.08
 74
     0
  0
LTYPE
  5
39
330
4
100
AcDbSymbolTableRecord
100
AcDbLinetypeTableRecord
  2
PL3
 70
     0
  3
Style 2 Type 3 Phantom Line
 72
    65
 73
     6
 40
2.0
 49
1.439999999999999
 74
     0
 49
-0.08
 74
     0
 49
0.16
 74
     0
 49
-0.08
 74
     0
 49
0.16
 74
     0
 49
-0.08
 74
     0
  0
LTYPE
  5
3A
330
4
100
AcDbSymbolTableRecord
100
AcDbLinetypeTableRecord
  2
CL1
 70
     0
  3
CADAM Style 2 Type 1 Center Line
 72
    65
 73
     4
 40
0.7
 49
0.45
 74
     0
 49
-0.06
 74
     0
 49
0.13
 74
     0
 49
-0.06
 74
     0
  0
LTYPE
  5
3B
330
4
100
AcDbSymbolTableRecord
100
AcDbLinetypeTableRecord
  2
CL2
 70
     0
  3
CADAM Style 2 Type 2 Center Line
 72
    65
 73
     4
 40
1.199999999999999
 49
1.01
 74
     0
 49
-0.06
 74
     0
 49
0.11
 74
     0
 49
-0.06
 74
     0
  0
LTYPE
  5
3C
330
4
100
AcDbSymbolTableRecord
100
AcDbLinetypeTableRecord
  2
CL3
 70
     0
  3
CADAM Style 2 Type 3 Center Line
 72
    65
 73
     4
 40
1.199999999999999
 49
0.98
 74
     0
 49
-0.06
 74
     0
 49
0.1
 74
     0
 49
-0.06
 74
     0
  0
LTYPE
  5
3D
330
4
100
AcDbSymbolTableRecord
100
AcDbLinetypeTableRecord
  2
CL4
 70
     0
  3
CADAM Style 2 Type 4 Center Line
 72
    65
 73
     4
 40
2.2
 49
1.929999999999999
 74
     0
 49
-0.07
 74
     0
 49
0.13
 74
     0
 49
-0.07
 74
     0
  0
LTYPE
  5
3E
330
4
100
AcDbSymbolTableRecord
100
AcDbLinetypeTableRecord
  2
CL5
 70
     0
  3
CADAM Style 2 Type 5 Center Line
 72
    65
 73
     4
 40
2.2
 49
1.879999999999999
 74
     0
 49
-0.07
 74
     0
 49
0.18
 74
     0
 49
-0.07
 74
     0
  0
LTYPE
  5
3F
330
4
100
AcDbSymbolTableRecord
100
AcDbLinetypeTableRecord
  2
SBK1
 70
     0
  3
CADAM Style 2 Type 1 SetBack Line
 72
    65
 73
     8
 40
2.7
 49
0.1
 74
     0
 49
-0.08
 74
     0
 49
0.1
 74
     0
 49
-0.8
 74
     0
 49
0.0
 74
     0
 49
0.0
 74
     0
 49
0.0
 74
     0
 49
0.0
 74
     0
  0
LTYPE
  5
40
330
4
100
AcDbSymbolTableRecord
100
AcDbLinetypeTableRecord
  2
SBK2
 70
     0
  3
CADAM Style 2 Type 2 SetBack Line
 72
    65
 73
     8
 40
3.709999999999999
 49
0.13
 74
     0
 49
-0.08
 74
     0
 49
0.13
 74
     0
 49
-0.8
 74
     0
 49
0.0
 74
     0
 49
0.0
 74
     0
 49
0.0
 74
     0
 49
0.0
 74
     0
  0
LTYPE
  5
41
330
4
100
AcDbSymbolTableRecord
100
AcDbLinetypeTableRecord
  2
STCH
 70
     0
  3
CADAM Style2 Stitch Line
 72
    65
 73
     2
 40
0.25
 49
0.0
 74
     0
 49
-0.25
 74
     0
  0
LTYPE
  5
42
330
4
100
AcDbSymbolTableRecord
100
AcDbLinetypeTableRecord
  2
MTCH
 70
     0
  3
CADAM Style2 Match Line
 72
    65
 73
     6
 40
2.0
 49
1.439999999999999
 74
     0
 49
-0.8
 74
     0
 49
0.16
 74
     0
 49
-0.08
 74
     0
 49
0.16
 74
     0
 49
-0.08
 74
     0
  0
LTYPE
  5
43
330
4
100
AcDbSymbolTableRecord
100
AcDbLinetypeTableRecord
  2
SLD
 70
     0
  3
CADAM Solid_EXT2
 72
    65
 73
     0
 40
0.0
  0
ENDTAB
  0
TABLE
  2
LAYER
  5
2
330
0
100
AcDbSymbolTable
 70
     7
  0
LAYER
  5
15
330
2
100
AcDbSymbolTableRecord
100
AcDbLayerTableRecord
  2
0
 70
     0
 62
     7
  6
CONTINUOUS
  0
LAYER
  5
44
330
2
100
AcDbSymbolTableRecord
100
AcDbLayerTableRecord
  2
MO_001_NOSHOW
 70
     1
 62
     7
  6
CONTINUOUS
  0
LAYER
  5
45
330
2
100
AcDbSymbolTableRecord
100
AcDbLayerTableRecord
  2
MO_001_VIEW_PV
 70
     0
 62
     7
  6
CONTINUOUS
  0
LAYER
  5
46
330
2
100
AcDbSymbolTableRecord
100
AcDbLayerTableRecord
  2
OVERLAY_MAP
 70
     1
 62
     7
  6
CONTINUOUS
  0
LAYER
  5
47
330
2
100
AcDbSymbolTableRecord
100
AcDbLayerTableRecord
  2
DITTOS
 70
     0
 62
     7
  6
CONTINUOUS
  0
LAYER
  5
48
330
2
100
AcDbSymbolTableRecord
100
AcDbLayerTableRecord
  2
SYMBOLS
 70
     0
 62
     7
  6
CONTINUOUS
  0
LAYER
  5
49
330
2
100
AcDbSymbolTableRecord
100
AcDbLayerTableRecord
  2
SETS
 70
     0
 62
     7
  6
CONTINUOUS
  0
ENDTAB
  0
TABLE
  2
STYLE
  5
3
330
0
100
AcDbSymbolTable
 70
     1
  0
STYLE
  5
18
330
3
100
AcDbSymbolTableRecord
100
AcDbTextStyleTableRecord
  2
STANDARD
 70
     0
 40
4.1672
 41
1.0
 50
0.0
 71
     0
 42
4.1672
  3
monotxt
  4
BIGFONT
  0
ENDTAB
  0
TABLE
  2
VIEW
  5
5
330
0
100
AcDbSymbolTable
 70
     0
  0
ENDTAB
  0
TABLE
  2
UCS
  5
6
330
0
100
AcDbSymbolTable
 70
     1
  0
UCS
  5
4A
330
6
100
AcDbSymbolTableRecord
100
AcDbUCSTableRecord
  2
MO_001_VIEW_PV_P
 70
     0
 10
30.0
 20
0.0
 30
0.0
 11
1.0
 21
0.0
 31
0.0
 12
-0.0000000002051034
 22
1.0
 32
0.0
  0
ENDTAB
  0
TABLE
  2
APPID
  5
8
330
0
100
AcDbSymbolTable
 70
     1
  0
APPID
  5
17
330
8
100
AcDbSymbolTableRecord
100
AcDbRegAppTableRecord
  2
ACAD
 70
     0
  0
ENDTAB
  0
TABLE
  2
DIMSTYLE
  5
9
330
0
100
AcDbSymbolTable
 70
     1
  0
DIMSTYLE
105
19
102
{ACAD_REACTORS
330
149
330
14B
330
14D
330
14F
330
151
330
153
330
155
330
157
330
15F
102
}
330
9
100
AcDbSymbolTableRecord
100
AcDbDimStyleTableRecord
  2
STANDARD
 70
     0
  3

  4

  5

  6

  7

 40
1.0
 41
0.18
 42
0.0625
 43
0.38
 44
0.18
 45
0.0
 46
0.0
 47
0.0
 48
0.0
140
0.18
141
0.09
142
0.0
143
25.4
144
1.0
145
0.0
146
1.0
147
0.09
 71
     0
 72
     0
 73
     1
 74
     1
 75
     0
 76
     0
 77
     0
 78
     0
170
     0
171
     2
172
     0
173
     0
174
     0
175
     0
176
     0
177
     0
178
     0
270
     2
271
     4
272
     4
273
     2
274
     2
340
18
275
     0
280
     0
281
     0
282
     0
283
     1
284
     0
285
     0
286
     0
287
     3
288
     0
  0
ENDTAB
  0
TABLE
  2
BLOCK_RECORD
  5
C
330
0
100
AcDbSymbolTable
 70
     9
  0
BLOCK_RECORD
  5
1E
102
{ACAD_XDICTIONARY
360
1C0
102
}
330
C
100
AcDbSymbolTableRecord
100
AcDbBlockTableRecord
  2
*MODEL_SPACE
  0
BLOCK_RECORD
  5
1F
102
{ACAD_XDICTIONARY
360
1C2
102
}
330
C
100
AcDbSymbolTableRecord
100
AcDbBlockTableRecord
  2
*PAPER_SPACE
  0
BLOCK_RECORD
  5
148
330
C
100
AcDbSymbolTableRecord
100
AcDbBlockTableRecord
  2
*D0
  0
BLOCK_RECORD
  5
14A
330
C
100
AcDbSymbolTableRecord
100
AcDbBlockTableRecord
  2
*D1
  0
BLOCK_RECORD
  5
14C
330
C
100
AcDbSymbolTableRecord
100
AcDbBlockTableRecord
  2
*D2
  0
BLOCK_RECORD
  5
14E
330
C
100
AcDbSymbolTableRecord
100
AcDbBlockTableRecord
  2
*D3
  0
BLOCK_RECORD
  5
150
330
C
100
AcDbSymbolTableRecord
100
AcDbBlockTableRecord
  2
*D4
  0
BLOCK_RECORD
  5
152
330
C
100
AcDbSymbolTableRecord
100
AcDbBlockTableRecord
  2
*D5
  0
BLOCK_RECORD
  5
154
330
C
100
AcDbSymbolTableRecord
100
AcDbBlockTableRecord
  2
*D6
  0
BLOCK_RECORD
  5
156
330
C
100
AcDbSymbolTableRecord
100
AcDbBlockTableRecord
  2
*D7
  0
BLOCK_RECORD
  5
15E
330
C
100
AcDbSymbolTableRecord
100
AcDbBlockTableRecord
  2
*D8
  0
ENDTAB
  0
ENDSEC
  0
SECTION
  2
BLOCKS
  0
BLOCK
  5
E
330
1E
100
AcDbEntity
  8
0
100
AcDbBlockBegin
  2
*MODEL_SPACE
 70
     0
 10
0.0
 20
0.0
 30
0.0
  3
*MODEL_SPACE
  1

  0
ENDBLK
  5
F
330
1E
100
AcDbEntity
  8
0
100
AcDbBlockEnd
  0
BLOCK
  5
10
330
1F
100
AcDbEntity
 67
     1
  8
0
100
AcDbBlockBegin
  2
*PAPER_SPACE
 70
     0
 10
0.0
 20
0.0
 30
0.0
  3
*PAPER_SPACE
  1

  0
ENDBLK
  5
11
330
1F
100
AcDbEntity
 67
     1
  8
0
100
AcDbBlockEnd
  0
BLOCK
  5
160
330
148
100
AcDbEntity
  8
0
100
AcDbBlockBegin
  2
*D0
 70
     1
 10
0.0
 20
0.0
 30
0.0
  3
*D0
  1

  0
TEXT
  5
161
330
148
100
AcDbEntity
  8
MO_001_VIEW_PV
  6
BYBLOCK
100
AcDbText
 10
5.553568
 20
39.75
 30
0.0
 40
3.0
  1
38.5以下
100
AcDbText
  0
LINE
  5
162
330
148
100
AcDbEntity
  8
MO_001_VIEW_PV
  6
BYBLOCK
100
AcDbLine
 10
30.0
 20
39.0
 30
0.0
 11
-7.750008
 21
39.0
 31
0.0
  0
SOLID
  5
163
330
148
100
AcDbEntity
  8
MO_001_VIEW_PV
  6
BYBLOCK
100
AcDbTrace
 10
26.68174
 20
38.416488
 30
0.0
 11
29.49199999999999
 21
39.0
 31
0.0
 12
26.68174
 22
39.583512
 32
0.0
 13
26.68174
 23
39.583512
 33
0.0
  0
SOLID
  5
164
330
148
100
AcDbEntity
  8
MO_001_VIEW_PV
  6
BYBLOCK
100
AcDbTrace
 10
-4.431748
 20
39.583512
 30
0.0
 11
-7.242008
 21
39.0
 31
0.0
 12
-4.431748
 22
38.416488
 32
0.0
 13
-4.431748
 23
38.416488
 33
0.0
  0
LINE
  5
165
330
148
100
AcDbEntity
  8
MO_001_VIEW_PV
  6
BYBLOCK
100
AcDbLine
 10
30.0
 20
33.0
 30
0.0
 11
30.0
 21
41.285999
 31
0.0
  0
LINE
  5
166
330
148
100
AcDbEntity
  8
MO_001_VIEW_PV
  6
BYBLOCK
100
AcDbLine
 10
-7.750008
 20
30.0
 30
0.0
 11
-7.750008
 21
41.285999
 31
0.0
  0
ENDBLK
  5
167
330
148
100
AcDbEntity
  8
0
100
AcDbBlockEnd
  0
BLOCK
  5
168
330
14A
100
AcDbEntity
  8
0
100
AcDbBlockBegin
  2
*D1
 70
     1
 10
0.0
 20
0.0
 30
0.0
  3
*D1
  1

  0
TEXT
  5
169
330
14A
100
AcDbEntity
  8
MO_001_VIEW_PV
  6
BYBLOCK
100
AcDbText
 10
4.689286
 20
47.625
 30
0.0
 40
1.5
  1
%%P1.0
100
AcDbText
  0
TEXT
  5
16A
330
14A
100
AcDbEntity
  8
MO_001_VIEW_PV
  6
BYBLOCK
100
AcDbText
 10
-7.096427999999999
 20
45.75
 30
0.0
 40
3.0
  1
57.0
100
AcDbText
  0
LINE
  5
16B
330
14A
100
AcDbEntity
  8
MO_001_VIEW_PV
  6
BYBLOCK
100
AcDbLine
 10
30.0
 20
45.0
 30
0.0
 11
-27.049999
 21
45.0
 31
0.0
  0
SOLID
  5
16C
330
14A
100
AcDbEntity
  8
MO_001_VIEW_PV
  6
BYBLOCK
100
AcDbTrace
 10
26.68174
 20
44.416488
 30
0.0
 11
29.49199999999999
 21
45.0
 31
0.0
 12
26.68174
 22
45.58351199999999
 32
0.0
 13
26.68174
 23
45.58351199999999
 33
0.0
  0
SOLID
  5
16D
330
14A
100
AcDbEntity
  8
MO_001_VIEW_PV
  6
BYBLOCK
100
AcDbTrace
 10
-23.731739
 20
45.58351199999999
 30
0.0
 11
-26.541999
 21
45.0
 31
0.0
 12
-23.731739
 22
44.416488
 32
0.0
 13
-23.731739
 23
44.416488
 33
0.0
  0
LINE
  5
16E
330
14A
100
AcDbEntity
  8
MO_001_VIEW_PV
  6
BYBLOCK
100
AcDbLine
 10
30.0
 20
33.0
 30
0.0
 11
30.0
 21
47.28599899999999
 31
0.0
  0
LINE
  5
16F
330
14A
100
AcDbEntity
  8
MO_001_VIEW_PV
  6
BYBLOCK
100
AcDbLine
 10
-27.049999
 20
4.619412
 30
0.0
 11
-27.049999
 21
47.28599899999999
 31
0.0
  0
ENDBLK
  5
170
330
14A
100
AcDbEntity
  8
0
100
AcDbBlockEnd
  0
BLOCK
  5
171
330
14C
100
AcDbEntity
  8
0
100
AcDbBlockBegin
  2
*D2
 70
     1
 10
0.0
 20
0.0
 30
0.0
  3
*D2
  1

  0
TEXT
  5
172
330
14C
100
AcDbEntity
  8
MO_001_VIEW_PV
  6
BYBLOCK
100
AcDbText
 10
44.339286
 20
47.625
 30
0.0
 40
1.5
  1
%%P0.5
100
AcDbText
  0
TEXT
  5
173
330
14C
100
AcDbEntity
  8
MO_001_VIEW_PV
  6
BYBLOCK
100
AcDbText
 10
32.553571
 20
45.75
 30
0.0
 40
3.0
  1
22.2
100
AcDbText
  0
LINE
  5
174
330
14C
100
AcDbEntity
  8
MO_001_VIEW_PV
  6
BYBLOCK
100
AcDbLine
 10
52.25
 20
45.0
 30
0.0
 11
30.0
 21
45.0
 31
0.0
  0
SOLID
  5
175
330
14C
100
AcDbEntity
  8
MO_001_VIEW_PV
  6
BYBLOCK
100
AcDbTrace
 10
48.93174000000001
 20
44.416488
 30
0.0
 11
51.74199999999999
 21
45.0
 31
0.0
 12
48.93174000000001
 22
45.58351199999999
 32
0.0
 13
48.93174000000001
 23
45.58351199999999
 33
0.0
  0
SOLID
  5
176
330
14C
100
AcDbEntity
  8
MO_001_VIEW_PV
  6
BYBLOCK
100
AcDbTrace
 10
33.31825999999999
 20
45.58351199999999
 30
0.0
 11
30.508
 21
45.0
 31
0.0
 12
33.31825999999999
 22
44.416488
 32
0.0
 13
33.31825999999999
 23
44.416488
 33
0.0
  0
LINE
  5
177
330
14C
100
AcDbEntity
  8
MO_001_VIEW_PV
  6
BYBLOCK
100
AcDbLine
 10
52.25
 20
4.564995999999999
 30
0.0
 11
52.25
 21
47.28599899999999
 31
0.0
  0
LINE
  5
178
330
14C
100
AcDbEntity
  8
MO_001_VIEW_PV
  6
BYBLOCK
100
AcDbLine
 10
30.0
 20
33.0
 30
0.0
 11
30.0
 21
47.28599899999999
 31
0.0
  0
ENDBLK
  5
179
330
14C
100
AcDbEntity
  8
0
100
AcDbBlockEnd
  0
BLOCK
  5
17A
330
14E
100
AcDbEntity
  8
0
100
AcDbBlockBegin
  2
*D3
 70
     1
 10
0.0
 20
0.0
 30
0.0
  3
*D3
  1

  0
TEXT
  5
17B
330
14E
100
AcDbEntity
  8
MO_001_VIEW_PV
  6
BYBLOCK
100
AcDbText
 10
45.214286
 20
41.625
 30
0.0
 40
1.5
  1
%%P0.5
100
AcDbText
  0
TEXT
  5
17C
330
14E
100
AcDbEntity
  8
MO_001_VIEW_PV
  6
BYBLOCK
100
AcDbText
 10
33.428571
 20
39.75
 30
0.0
 40
3.0
  1
23.0
100
AcDbText
  0
LINE
  5
17D
330
14E
100
AcDbEntity
  8
MO_001_VIEW_PV
  6
BYBLOCK
100
AcDbLine
 10
30.0
 20
39.0
 30
0.0
 11
53.0
 21
39.0
 31
0.0
  0
SOLID
  5
17E
330
14E
100
AcDbEntity
  8
MO_001_VIEW_PV
  6
BYBLOCK
100
AcDbTrace
 10
33.31825999999999
 20
39.583512
 30
0.0
 11
30.508
 21
39.0
 31
0.0
 12
33.31825999999999
 22
38.416488
 32
0.0
 13
33.31825999999999
 23
38.416488
 33
0.0
  0
SOLID
  5
17F
330
14E
100
AcDbEntity
  8
MO_001_VIEW_PV
  6
BYBLOCK
100
AcDbTrace
 10
49.68174000000001
 20
38.416488
 30
0.0
 11
52.492
 21
39.0
 31
0.0
 12
49.68174000000001
 22
39.583512
 32
0.0
 13
49.68174000000001
 23
39.583512
 33
0.0
  0
LINE
  5
180
330
14E
100
AcDbEntity
  8
MO_001_VIEW_PV
  6
BYBLOCK
100
AcDbLine
 10
30.0
 20
33.0
 30
0.0
 11
30.0
 21
41.285999
 31
0.0
  0
LINE
  5
181
330
14E
100
AcDbEntity
  8
MO_001_VIEW_PV
  6
BYBLOCK
100
AcDbLine
 10
53.0
 20
24.25
 30
0.0
 11
53.0
 21
41.285999
 31
0.0
  0
ENDBLK
  5
182
330
14E
100
AcDbEntity
  8
0
100
AcDbBlockEnd
  0
BLOCK
  5
183
330
150
100
AcDbEntity
  8
0
100
AcDbBlockBegin
  2
*D4
 70
     1
 10
0.0
 20
0.0
 30
0.0
  3
*D4
  1

  0
TEXT
  5
184
330
150
100
AcDbEntity
  8
MO_001_VIEW_PV
  6
BYBLOCK
100
AcDbText
 10
58.199237
 20
20.717294
 30
0.0
 40
1.5
  1
%%P0.03
 50
90.0
100
AcDbText
  0
TEXT
  5
185
330
150
100
AcDbEntity
  8
MO_001_VIEW_PV
  6
BYBLOCK
100
AcDbText
 10
60.074238
 20
5.931579
 30
0.0
 40
3.0
  1
%%C9.53
 50
90.0
100
AcDbText
  0
LINE
  5
186
330
150
100
AcDbEntity
  8
MO_001_VIEW_PV
  6
BYBLOCK
100
AcDbLine
 10
60.824238
 20
4.764999999999999
 30
0.0
 11
60.824238
 21
-4.764999999999999
 31
0.0
  0
LINE
  5
187
330
150
100
AcDbEntity
  8
MO_001_VIEW_PV
  6
BYBLOCK
100
AcDbLine
 10
60.824238
 20
4.764999999999999
 30
0.0
 11
60.824238
 21
11.115
 31
0.0
  0
LINE
  5
188
330
150
100
AcDbEntity
  8
MO_001_VIEW_PV
  6
BYBLOCK
100
AcDbLine
 10
60.824238
 20
-4.764999999999999
 30
0.0
 11
60.824238
 21
-11.115
 31
0.0
  0
SOLID
  5
189
330
150
100
AcDbEntity
  8
MO_001_VIEW_PV
  6
BYBLOCK
100
AcDbTrace
 10
60.240726
 20
8.08326
 30
0.0
 11
60.824238
 21
5.272999999999999
 31
0.0
 12
61.407749
 22
8.08326
 32
0.0
 13
61.407749
 23
8.08326
 33
0.0
  0
SOLID
  5
18A
330
150
100
AcDbEntity
  8
MO_001_VIEW_PV
  6
BYBLOCK
100
AcDbTrace
 10
61.407749
 20
-8.08326
 30
0.0
 11
60.824238
 21
-5.272999999999999
 31
0.0
 12
60.240726
 22
-8.08326
 32
0.0
 13
60.240726
 23
-8.08326
 33
0.0
  0
LINE
  5
18B
330
150
100
AcDbEntity
  8
MO_001_VIEW_PV
  6
BYBLOCK
100
AcDbLine
 10
52.050003
 20
4.764999999999999
 30
0.0
 11
63.11023699999999
 21
4.764999999999999
 31
0.0
  0
LINE
  5
18C
330
150
100
AcDbEntity
  8
MO_001_VIEW_PV
  6
BYBLOCK
100
AcDbLine
 10
52.050003
 20
-4.764999999999999
 30
0.0
 11
63.11023699999999
 21
-4.764999999999999
 31
0.0
  0
LINE
  5
18D
330
150
100
AcDbEntity
  8
MO_001_VIEW_PV
  6
BYBLOCK
100
AcDbLine
 10
60.824238
 20
28.538717
 30
0.0
 11
60.824238
 21
4.764999999999999
 31
0.0
  0
ENDBLK
  5
18E
330
150
100
AcDbEntity
  8
0
100
AcDbBlockEnd
  0
BLOCK
  5
18F
330
152
100
AcDbEntity
  8
0
100
AcDbBlockBegin
  2
*D5
 70
     1
 10
0.0
 20
0.0
 30
0.0
  3
*D5
  1

  0
TEXT
  5
190
330
152
100
AcDbEntity
  8
MO_001_VIEW_PV
  6
BYBLOCK
100
AcDbText
 10
67.48116299999999
 20
1.397329999999999
 30
0.0
 40
1.5
  1
%%P0.3
 50
90.0
100
AcDbText
  0
TEXT
  5
191
330
152
100
AcDbEntity
  8
MO_001_VIEW_PV
  6
BYBLOCK
100
AcDbText
 10
69.35616299999999
 20
-10.388384
 30
0.0
 40
3.0
  1
44.5
 50
90.0
100
AcDbText
  0
LINE
  5
192
330
152
100
AcDbEntity
  8
MO_001_VIEW_PV
  6
BYBLOCK
100
AcDbLine
 10
70.10616299999999
 20
22.25
 30
0.0
 11
70.10616299999999
 21
-22.25
 31
0.0
  0
SOLID
  5
193
330
152
100
AcDbEntity
  8
MO_001_VIEW_PV
  6
BYBLOCK
100
AcDbTrace
 10
70.68967499999999
 20
18.93173999999999
 30
0.0
 11
70.10616299999999
 21
21.74199999999999
 31
0.0
 12
69.52265099999999
 22
18.93173999999999
 32
0.0
 13
69.52265099999999
 23
18.93173999999999
 33
0.0
  0
SOLID
  5
194
330
152
100
AcDbEntity
  8
MO_001_VIEW_PV
  6
BYBLOCK
100
AcDbTrace
 10
69.52265099999999
 20
-18.93173999999999
 30
0.0
 11
70.10616299999999
 21
-21.74199999999999
 31
0.0
 12
70.68967499999999
 22
-18.93173999999999
 32
0.0
 13
70.68967499999999
 23
-18.93173999999999
 33
0.0
  0
LINE
  5
195
330
152
100
AcDbEntity
  8
MO_001_VIEW_PV
  6
BYBLOCK
100
AcDbLine
 10
103.4499969999999
 20
22.25
 30
0.0
 11
67.82016
 21
22.25
 31
0.0
  0
LINE
  5
196
330
152
100
AcDbEntity
  8
MO_001_VIEW_PV
  6
BYBLOCK
100
AcDbLine
 10
103.4499969999999
 20
-22.25
 30
0.0
 11
67.82016
 21
-22.25
 31
0.0
  0
ENDBLK
  5
197
330
152
100
AcDbEntity
  8
0
100
AcDbBlockEnd
  0
BLOCK
  5
198
330
154
100
AcDbEntity
  8
0
100
AcDbBlockBegin
  2
*D6
 70
     1
 10
0.0
 20
0.0
 30
0.0
  3
*D6
  1

  0
TEXT
  5
199
330
154
100
AcDbEntity
  8
MO_001_VIEW_PV
  6
BYBLOCK
100
AcDbText
 10
103.9285709999999
 20
45.75
 30
0.0
 40
3.0
  1
%%C71以下
100
AcDbText
  0
LINE
  5
19A
330
154
100
AcDbEntity
  8
MO_001_VIEW_PV
  6
BYBLOCK
100
AcDbLine
 10
76.0
 20
45.0
 30
0.0
 11
146.0
 21
45.0
 31
0.0
  0
SOLID
  5
19B
330
154
100
AcDbEntity
  8
MO_001_VIEW_PV
  6
BYBLOCK
100
AcDbTrace
 10
79.31826
 20
45.58351199999999
 30
0.0
 11
76.508
 21
45.0
 31
0.0
 12
79.31826
 22
44.416488
 32
0.0
 13
79.31826
 23
44.416488
 33
0.0
  0
SOLID
  5
19C
330
154
100
AcDbEntity
  8
MO_001_VIEW_PV
  6
BYBLOCK
100
AcDbTrace
 10
142.68174
 20
44.416488
 30
0.0
 11
145.492
 21
45.0
 31
0.0
 12
142.68174
 22
45.58351199999999
 32
0.0
 13
142.68174
 23
45.58351199999999
 33
0.0
  0
LINE
  5
19D
330
154
100
AcDbEntity
  8
MO_001_VIEW_PV
  6
BYBLOCK
100
AcDbLine
 10
76.0
 20
0.0
 30
0.0
 11
76.0
 21
47.28599899999999
 31
0.0
  0
LINE
  5
19E
330
154
100
AcDbEntity
  8
MO_001_VIEW_PV
  6
BYBLOCK
100
AcDbLine
 10
146.0
 20
0.0
 30
0.0
 11
146.0
 21
47.28599899999999
 31
0.0
  0
ENDBLK
  5
19F
330
154
100
AcDbEntity
  8
0
100
AcDbBlockEnd
  0
BLOCK
  5
1A0
330
156
100
AcDbEntity
  8
0
100
AcDbBlockBegin
  2
*D7
 70
     1
 10
0.0
 20
0.0
 30
0.0
  3
*D7
  1

  0
TEXT
  5
1A1
330
156
100
AcDbEntity
  8
MO_001_VIEW_PV
  6
BYBLOCK
100
AcDbText
 10
140.25
 20
-64.07142900000001
 30
0.0
 40
3.0
  1
長さ250以上
 50
90.0
100
AcDbText
  0
LINE
  5
1A2
330
156
100
AcDbEntity
  8
MO_001_VIEW_PV
  6
BYBLOCK
100
AcDbLine
 10
141.0
 20
-70.5
 30
0.0
 11
141.0
 21
-32.353939
 31
0.0
  0
SOLID
  5
1A3
330
156
100
AcDbEntity
  8
MO_001_VIEW_PV
  6
BYBLOCK
100
AcDbTrace
 10
140.4164879999999
 20
-67.18174000000001
 30
0.0
 11
141.0
 21
-69.992
 31
0.0
 12
141.583512
 22
-67.18174000000001
 32
0.0
 13
141.583512
 23
-67.18174000000001
 33
0.0
  0
SOLID
  5
1A4
330
156
100
AcDbEntity
  8
MO_001_VIEW_PV
  6
BYBLOCK
100
AcDbTrace
 10
141.583512
 20
-35.67219899999999
 30
0.0
 11
141.0
 21
-32.861939
 31
0.0
 12
140.4164879999999
 22
-35.67219899999999
 32
0.0
 13
140.4164879999999
 23
-35.67219899999999
 33
0.0
  0
LINE
  5
1A5
330
156
100
AcDbEntity
  8
MO_001_VIEW_PV
  6
BYBLOCK
100
AcDbLine
 10
123.150009
 20
-70.5
 30
0.0
 11
143.2859949999999
 21
-70.5
 31
0.0
  0
LINE
  5
1A6
330
156
100
AcDbEntity
  8
MO_001_VIEW_PV
  6
BYBLOCK
100
AcDbLine
 10
124.350006
 20
-32.353939
 30
0.0
 11
143.2859949999999
 21
-32.353939
 31
0.0
  0
ENDBLK
  5
1A7
330
156
100
AcDbEntity
  8
0
100
AcDbBlockEnd
  0
BLOCK
  5
1A8
330
15E
100
AcDbEntity
  8
0
100
AcDbBlockBegin
  2
*D8
 70
     1
 10
0.0
 20
0.0
 30
0.0
  3
*D8
  1

  0
TEXT
  5
1A9
330
15E
100
AcDbEntity
  8
MO_001_VIEW_PV
  6
BYBLOCK
100
AcDbText
 10
-2.833425999999999
 20
-48.731647
 30
0.0
 40
3.0
  1
1.2
100
AcDbText
  0
LINE
  5
1AA
330
15E
100
AcDbEntity
  8
MO_001_VIEW_PV
  6
BYBLOCK
100
AcDbLine
 10
-8.900002
 20
-49.48164699999999
 30
0.0
 11
-7.699996999999999
 21
-49.48164699999999
 31
0.0
  0
LINE
  5
1AB
330
15E
100
AcDbEntity
  8
MO_001_VIEW_PV
  6
BYBLOCK
100
AcDbLine
 10
-8.900002
 20
-49.48164699999999
 30
0.0
 11
-15.250001
 21
-49.48164699999999
 31
0.0
  0
LINE
  5
1AC
330
15E
100
AcDbEntity
  8
MO_001_VIEW_PV
  6
BYBLOCK
100
AcDbLine
 10
-7.699996999999999
 20
-49.48164699999999
 30
0.0
 11
-1.349996999999999
 21
-49.48164699999999
 31
0.0
  0
SOLID
  5
1AD
330
15E
100
AcDbEntity
  8
MO_001_VIEW_PV
  6
BYBLOCK
100
AcDbTrace
 10
-12.21826199999999
 20
-50.065159
 30
0.0
 11
-9.408001999999999
 21
-49.48164699999999
 31
0.0
 12
-12.21826199999999
 22
-48.898136
 32
0.0
 13
-12.21826199999999
 23
-48.898136
 33
0.0
  0
SOLID
  5
1AE
330
15E
100
AcDbEntity
  8
MO_001_VIEW_PV
  6
BYBLOCK
100
AcDbTrace
 10
-4.381737
 20
-48.898136
 30
0.0
 11
-7.191996999999999
 21
-49.48164699999999
 31
0.0
 12
-4.381737
 22
-50.065159
 32
0.0
 13
-4.381737
 23
-50.065159
 33
0.0
  0
LINE
  5
1AF
330
15E
100
AcDbEntity
  8
MO_001_VIEW_PV
  6
BYBLOCK
100
AcDbLine
 10
-8.900002
 20
-13.675
 30
0.0
 11
-8.900002
 21
-51.76764699999999
 31
0.0
  0
LINE
  5
1B0
330
15E
100
AcDbEntity
  8
MO_001_VIEW_PV
  6
BYBLOCK
100
AcDbLine
 10
-7.699996999999999
 20
-32.800003
 30
0.0
 11
-7.699996999999999
 21
-51.76764699999999
 31
0.0
  0
LINE
  5
1B1
330
15E
100
AcDbEntity
  8
MO_001_VIEW_PV
  6
BYBLOCK
100
AcDbLine
 10
-7.699996999999999
 20
-49.48164699999999
 30
0.0
 11
6.273716999999999
 21
-49.48164699999999
 31
0.0
  0
ENDBLK
  5
1B2
330
15E
100
AcDbEntity
  8
0
100
AcDbBlockEnd
  0
ENDSEC
  0
SECTION
  2
ENTITIES
  0
TEXT
  5
4B
330
1E
100
AcDbEntity
  8
OVERLAY_MAP
  6
C_SOLID_L
100
AcDbText
 10
0.0
 20
6.349999999999999
 30
0.0
 40
4.1672
  1
Model Overlay Name
100
AcDbText
  0
TEXT
  5
4C
330
1E
100
AcDbEntity
  8
OVERLAY_MAP
  6
C_SOLID_L
100
AcDbText
 10
126.999998
 20
0.0
 30
0.0
 40
4.1672
  1
Number
100
AcDbText
  0
TEXT
  5
4D
330
1E
100
AcDbEntity
  8
OVERLAY_MAP
  6
C_SOLID_L
100
AcDbText
 10
177.7999969999999
 20
0.0
 30
0.0
 40
4.1672
  1
File Text
100
AcDbText
  0
TEXT
  5
4E
330
1E
100
AcDbEntity
  8
OVERLAY_MAP
  6
C_SOLID_L
100
AcDbText
 10
0.0
 20
-6.349999999999999
 30
0.0
 40
4.1672
  1
pp 7sf 
100
AcDbText
  0
TEXT
  5
4F
330
1E
100
AcDbEntity
  8
OVERLAY_MAP
  6
C_SOLID_L
100
AcDbText
 10
126.999998
 20
-6.349999999999999
 30
0.0
 40
4.1672
  1
001
100
AcDbText
  0
TEXT
  5
50
330
1E
100
AcDbEntity
  8
OVERLAY_MAP
  6
C_SOLID_L
100
AcDbText
 10
177.7999969999999
 20
-6.349999999999999
 30
0.0
 40
4.1672
  1
8S CASE SHELL                                                  140000116
100
AcDbText
  0
CIRCLE
  5
51
330
1E
100
AcDbEntity
  8
MO_001_VIEW_PV
  6
C_SOLID_M
100
AcDbCircle
 10
-72.0
 20
0.0
 30
0.0
 40
35.0
  0
CIRCLE
  5
52
330
1E
100
AcDbEntity
  8
MO_001_VIEW_PV
  6
C_SOLID_M
100
AcDbCircle
 10
-72.0
 20
0.0
 30
0.0
 40
34.0
  0
LINE
  5
53
330
1E
100
AcDbEntity
  8
MO_001_VIEW_PV
  6
C_CENTER_L
100
AcDbLine
 10
-112.0
 20
0.0
 30
0.0
 11
-32.0
 21
0.0
 31
0.0
  0
LINE
  5
54
330
1E
100
AcDbEntity
  8
MO_001_VIEW_PV
  6
C_CENTER_L
100
AcDbLine
 10
-72.0
 20
40.0
 30
0.0
 11
-72.0
 21
-40.0
 31
0.0
  0
CIRCLE
  5
55
330
1E
100
AcDbEntity
  8
MO_001_VIEW_PV
  6
C_SOLID_M
100
AcDbCircle
 10
-72.0
 20
0.0
 30
0.0
 40
31.049999
  0
CIRCLE
  5
56
330
1E
100
AcDbEntity
  8
MO_001_VIEW_PV
  6
C_SOLID_M
100
AcDbCircle
 10
-72.0
 20
0.0
 30
0.0
 40
31.84999799999999
  0
LINE
  5
57
330
1E
100
AcDbEntity
  8
MO_001_VIEW_PV
  6
C_CENTER_L
100
AcDbLine
 10
-30.275406
 20
0.0
 30
0.0
 11
56.99360699999999
 21
0.0
 31
0.0
  0
LINE
  5
58
330
1E
100
AcDbEntity
  8
MO_001_VIEW_PV
  6
C_SOLID_M
100
AcDbLine
 10
-1.599990999999999
 20
34.0
 30
0.0
 11
-6.5
 21
34.0
 31
0.0
  0
LINE
  5
59
330
1E
100
AcDbEntity
  8
MO_001_VIEW_PV
  6
C_SOLID_M
100
AcDbLine
 10
30.0
 20
-33.000031
 30
0.0
 11
30.0
 21
33.0
 31
0.0
  0
LINE
  5
5A
330
1E
100
AcDbEntity
  8
MO_001_VIEW_PV
  6
C_SOLID_M
100
AcDbLine
 10
-7.699996999999999
 20
-32.800003
 30
0.0
 11
-7.699996999999999
 21
32.800003
 31
0.0
  0
LINE
  5
5B
330
1E
100
AcDbEntity
  8
MO_001_VIEW_PV
  6
C_SOLID_M
100
AcDbLine
 10
-1.399993999999999
 20
35.0
 30
0.0
 11
28.0
 21
35.0
 31
0.0
  0
LINE
  5
5C
330
1E
100
AcDbEntity
  8
MO_001_VIEW_PV
  6
C_SOLID_M
100
AcDbLine
 10
28.000026
 20
35.000014
 30
0.0
 11
30.00002
 21
33.000025
 31
0.0
  0
LINE
  5
5D
330
1E
100
AcDbEntity
  8
MO_001_VIEW_PV
  6
C_SOLID_M
100
AcDbLine
 10
-1.699997
 20
-34.0
 30
0.0
 11
-6.5
 21
-34.0
 31
0.0
  0
LINE
  5
5E
330
1E
100
AcDbEntity
  8
MO_001_VIEW_PV
  6
C_SOLID_M
100
AcDbLine
 10
22.250004
 20
-35.0
 30
0.0
 11
28.0
 21
-35.0
 31
0.0
  0
LINE
  5
5F
330
1E
100
AcDbEntity
  8
MO_001_VIEW_PV
  6
C_SOLID_M
100
AcDbLine
 10
28.000032
 20
-35.00002999999999
 30
0.0
 11
30.000025
 21
-33.00004099999999
 31
0.0
  0
POLYLINE
  5
60
330
1E
100
AcDbEntity
  8
MO_001_VIEW_PV
  6
C_SOLID_M
100
AcDb2dPolyline
 66
     1
 10
0.0
 20
0.0
 30
0.0
  0
VERTEX
  5
1C4
330
60
100
AcDbEntity
  8
MO_001_VIEW_PV
  6
C_SOLID_M
100
AcDbVertex
100
AcDb2dVertex
 10
22.25000499999999
 20
-33.451336
 30
0.0
  0
VERTEX
  5
1C5
330
60
100
AcDbEntity
  8
MO_001_VIEW_PV
  6
C_SOLID_M
100
AcDbVertex
100
AcDb2dVertex
 10
22.494651
 20
-33.364213
 30
0.0
  0
VERTEX
  5
1C6
330
60
100
AcDbEntity
  8
MO_001_VIEW_PV
  6
C_SOLID_M
100
AcDbVertex
100
AcDb2dVertex
 10
22.688341
 20
-33.27117299999999
 30
0.0
  0
VERTEX
  5
1C7
330
60
100
AcDbEntity
  8
MO_001_VIEW_PV
  6
C_SOLID_M
100
AcDbVertex
100
AcDb2dVertex
 10
22.834957
 20
-33.175682
 30
0.0
  0
VERTEX
  5
1C8
330
60
100
AcDbEntity
  8
MO_001_VIEW_PV
  6
C_SOLID_M
100
AcDbVertex
100
AcDb2dVertex
 10
22.939263
 20
-33.080452
 30
0.0
  0
VERTEX
  5
1C9
330
60
100
AcDbEntity
  8
MO_001_VIEW_PV
  6
C_SOLID_M
100
AcDbVertex
100
AcDb2dVertex
 10
23.006404
 20
-32.987521
 30
0.0
  0
VERTEX
  5
1CA
330
60
100
AcDbEntity
  8
MO_001_VIEW_PV
  6
C_SOLID_M
100
AcDbVertex
100
AcDb2dVertex
 10
23.04155499999999
 20
-32.89835999999999
 30
0.0
  0
VERTEX
  5
1CB
330
60
100
AcDbEntity
  8
MO_001_VIEW_PV
  6
C_SOLID_M
100
AcDbVertex
100
AcDb2dVertex
 10
23.04968099999999
 20
-32.813969
 30
0.0
  0
VERTEX
  5
1CC
330
60
100
AcDbEntity
  8
MO_001_VIEW_PV
  6
C_SOLID_M
100
AcDbVertex
100
AcDb2dVertex
 10
23.035391
 20
-32.73497
 30
0.0
  0
VERTEX
  5
1CD
330
60
100
AcDbEntity
  8
MO_001_VIEW_PV
  6
C_SOLID_M
100
AcDbVertex
100
AcDb2dVertex
 10
23.002856
 20
-32.66168799999999
 30
0.0
  0
VERTEX
  5
1CE
330
60
100
AcDbEntity
  8
MO_001_VIEW_PV
  6
C_SOLID_M
100
AcDbVertex
100
AcDb2dVertex
 10
22.955773
 20
-32.594224
 30
0.0
  0
VERTEX
  5
1CF
330
60
100
AcDbEntity
  8
MO_001_VIEW_PV
  6
C_SOLID_M
100
AcDbVertex
100
AcDb2dVertex
 10
22.897368
 20
-32.532513
 30
0.0
  0
VERTEX
  5
1D0
330
60
100
AcDbEntity
  8
MO_001_VIEW_PV
  6
C_SOLID_M
100
AcDbVertex
100
AcDb2dVertex
 10
22.83041499999999
 20
-32.47636599999999
 30
0.0
  0
VERTEX
  5
1D1
330
60
100
AcDbEntity
  8
MO_001_VIEW_PV
  6
C_SOLID_M
100
AcDbVertex
100
AcDb2dVertex
 10
22.674435
 20
-32.376661
 30
0.0
  0
VERTEX
  5
1D2
330
60
100
AcDbEntity
  8
MO_001_VIEW_PV
  6
C_SOLID_M
100
AcDbVertex
100
AcDb2dVertex
 10
22.507455
 20
-32.296665
 30
0.0
  0
VERTEX
  5
1D3
330
60
100
AcDbEntity
  8
MO_001_VIEW_PV
  6
C_SOLID_M
100
AcDbVertex
100
AcDb2dVertex
 10
22.34006
 20
-32.233221
 30
0.0
  0
VERTEX
  5
1D4
330
60
100
AcDbEntity
  8
MO_001_VIEW_PV
  6
C_SOLID_M
100
AcDbVertex
100
AcDb2dVertex
 10
22.178878
 20
-32.18333599999999
 30
0.0
  0
VERTEX
  5
1D5
330
60
100
AcDbEntity
  8
MO_001_VIEW_PV
  6
C_SOLID_M
100
AcDbVertex
100
AcDb2dVertex
 10
21.868292
 20
-32.11003499999999
 30
0.0
  0
VERTEX
  5
1D6
330
60
100
AcDbEntity
  8
MO_001_VIEW_PV
  6
C_SOLID_M
100
AcDbVertex
100
AcDb2dVertex
 10
21.61583699999999
 20
-32.06774999999999
 30
0.0
  0
VERTEX
  5
1D7
330
60
100
AcDbEntity
  8
MO_001_VIEW_PV
  6
C_SOLID_M
100
AcDbVertex
100
AcDb2dVertex
 10
21.21504199999999
 20
-32.02624699999999
 30
0.0
  0
VERTEX
  5
1D8
330
60
100
AcDbEntity
  8
MO_001_VIEW_PV
  6
C_SOLID_M
100
AcDbVertex
100
AcDb2dVertex
 10
20.800003
 20
-32.012253
 30
0.0
  0
VERTEX
  5
1D9
330
60
100
AcDbEntity
  8
MO_001_VIEW_PV
  6
C_SOLID_M
100
AcDbVertex
100
AcDb2dVertex
 10
20.45802699999999
 20
-32.021727
 30
0.0
  0
VERTEX
  5
1DA
330
60
100
AcDbEntity
  8
MO_001_VIEW_PV
  6
C_SOLID_M
100
AcDbVertex
100
AcDb2dVertex
 10
20.144492
 20
-32.047629
 30
0.0
  0
VERTEX
  5
1DB
330
60
100
AcDbEntity
  8
MO_001_VIEW_PV
  6
C_SOLID_M
100
AcDbVertex
100
AcDb2dVertex
 10
19.862597
 20
-32.08639999999999
 30
0.0
  0
VERTEX
  5
1DC
330
60
100
AcDbEntity
  8
MO_001_VIEW_PV
  6
C_SOLID_M
100
AcDbVertex
100
AcDb2dVertex
 10
19.613515
 20
-32.13485399999999
 30
0.0
  0
VERTEX
  5
1DD
330
60
100
AcDbEntity
  8
MO_001_VIEW_PV
  6
C_SOLID_M
100
AcDbVertex
100
AcDb2dVertex
 10
19.396941
 20
-32.19023099999999
 30
0.0
  0
VERTEX
  5
1DE
330
60
100
AcDbEntity
  8
MO_001_VIEW_PV
  6
C_SOLID_M
100
AcDbVertex
100
AcDb2dVertex
 10
19.211532
 20
-32.250198
 30
0.0
  0
VERTEX
  5
1DF
330
60
100
AcDbEntity
  8
MO_001_VIEW_PV
  6
C_SOLID_M
100
AcDbVertex
100
AcDb2dVertex
 10
19.055267
 20
-32.312829
 30
0.0
  0
VERTEX
  5
1E0
330
60
100
AcDbEntity
  8
MO_001_VIEW_PV
  6
C_SOLID_M
100
AcDbVertex
100
AcDb2dVertex
 10
18.92572999999999
 20
-32.37657399999999
 30
0.0
  0
VERTEX
  5
1E1
330
60
100
AcDbEntity
  8
MO_001_VIEW_PV
  6
C_SOLID_M
100
AcDbVertex
100
AcDb2dVertex
 10
18.820311
 20
-32.440209
 30
0.0
  0
VERTEX
  5
1E2
330
60
100
AcDbEntity
  8
MO_001_VIEW_PV
  6
C_SOLID_M
100
AcDbVertex
100
AcDb2dVertex
 10
18.736359
 20
-32.502792
 30
0.0
  0
VERTEX
  5
1E3
330
60
100
AcDbEntity
  8
MO_001_VIEW_PV
  6
C_SOLID_M
100
AcDbVertex
100
AcDb2dVertex
 10
18.671292
 20
-32.56362199999999
 30
0.0
  0
VERTEX
  5
1E4
330
60
100
AcDbEntity
  8
MO_001_VIEW_PV
  6
C_SOLID_M
100
AcDbVertex
100
AcDb2dVertex
 10
18.62265899999999
 20
-32.62219299999999
 30
0.0
  0
VERTEX
  5
1E5
330
60
100
AcDbEntity
  8
MO_001_VIEW_PV
  6
C_SOLID_M
100
AcDbVertex
100
AcDb2dVertex
 10
18.58818499999999
 20
-32.67815999999999
 30
0.0
  0
VERTEX
  5
1E6
330
60
100
AcDbEntity
  8
MO_001_VIEW_PV
  6
C_SOLID_M
100
AcDbVertex
100
AcDb2dVertex
 10
18.553117
 20
-32.784871
 30
0.0
  0
VERTEX
  5
1E7
330
60
100
AcDbEntity
  8
MO_001_VIEW_PV
  6
C_SOLID_M
100
AcDbVertex
100
AcDb2dVertex
 10
18.554435
 20
-32.878918
 30
0.0
  0
VERTEX
  5
1E8
330
60
100
AcDbEntity
  8
MO_001_VIEW_PV
  6
C_SOLID_M
100
AcDbVertex
100
AcDb2dVertex
 10
18.58009799999999
 20
-32.960694
 30
0.0
  0
VERTEX
  5
1E9
330
60
100
AcDbEntity
  8
MO_001_VIEW_PV
  6
C_SOLID_M
100
AcDbVertex
100
AcDb2dVertex
 10
18.621115
 20
-33.031165
 30
0.0
  0
VERTEX
  5
1EA
330
60
100
AcDbEntity
  8
MO_001_VIEW_PV
  6
C_SOLID_M
100
AcDbVertex
100
AcDb2dVertex
 10
18.67096099999999
 20
-33.091545
 30
0.0
  0
VERTEX
  5
1EB
330
60
100
AcDbEntity
  8
MO_001_VIEW_PV
  6
C_SOLID_M
100
AcDbVertex
100
AcDb2dVertex
 10
18.78856599999999
 20
-33.19320599999999
 30
0.0
  0
VERTEX
  5
1EC
330
60
100
AcDbEntity
  8
MO_001_VIEW_PV
  6
C_SOLID_M
100
AcDbVertex
100
AcDb2dVertex
 10
18.90103299999999
 20
-33.26516699999999
 30
0.0
  0
VERTEX
  5
1ED
330
60
100
AcDbEntity
  8
MO_001_VIEW_PV
  6
C_SOLID_M
100
AcDbVertex
100
AcDb2dVertex
 10
18.99827099999999
 20
-33.316224
 30
0.0
  0
VERTEX
  5
1EE
330
60
100
AcDbEntity
  8
MO_001_VIEW_PV
  6
C_SOLID_M
100
AcDbVertex
100
AcDb2dVertex
 10
19.163487
 20
-33.38742199999999
 30
0.0
  0
VERTEX
  5
1EF
330
60
100
AcDbEntity
  8
MO_001_VIEW_PV
  6
C_SOLID_M
100
AcDbVertex
100
AcDb2dVertex
 10
19.350001
 20
-33.451336
 30
0.0
  0
SEQEND
  5
1F0
330
60
100
AcDbEntity
  8
MO_001_VIEW_PV
  6
C_SOLID_M
  0
ARC
  5
8E
330
1E
100
AcDbEntity
  8
MO_001_VIEW_PV
  6
C_SOLID_M
100
AcDbCircle
 10
-6.5
 20
32.800003
 30
0.0
 40
1.199999999999999
100
AcDbArc
 50
90.000002
 51
180.000005
  0
ARC
  5
8F
330
1E
100
AcDbEntity
  8
MO_001_VIEW_PV
  6
C_SOLID_M
100
AcDbCircle
 10
-6.5
 20
-32.800003
 30
0.0
 40
1.199999999999999
100
AcDbArc
 50
180.000009
 51
269.999991
  0
ARC
  5
90
330
1E
100
AcDbEntity
  8
MO_001_VIEW_PV
  6
C_SOLID_M
100
AcDbCircle
 10
-1.699997
 20
-34.19999699999999
 30
0.0
 40
0.2
100
AcDbArc
 50
0.0
 51
89.99998900000001
  0
ARC
  5
91
330
1E
100
AcDbEntity
  8
MO_001_VIEW_PV
  6
C_SOLID_M
100
AcDbCircle
 10
-1.599990999999999
 20
34.19999699999999
 30
0.0
 40
0.2
100
AcDbArc
 50
269.999991
 51
0.000003
  0
CIRCLE
  5
92
330
1E
100
AcDbEntity
  8
MO_001_VIEW_PV
  6
C_SOLID_M
100
AcDbCircle
 10
111.0
 20
0.0
 30
0.0
 40
35.0
  0
LINE
  5
93
330
1E
100
AcDbEntity
  8
MO_001_VIEW_PV
  6
C_CENTER_L
100
AcDbLine
 10
150.0
 20
0.0
 30
0.0
 11
72.0
 21
0.0
 31
0.0
  0
LINE
  5
94
330
1E
100
AcDbEntity
  8
MO_001_VIEW_PV
  6
C_CENTER_L
100
AcDbLine
 10
111.0
 20
39.0
 30
0.0
 11
111.0
 21
-39.0
 31
0.0
  0
CIRCLE
  5
95
330
1E
100
AcDbEntity
  8
MO_001_VIEW_PV
  6
C_SOLID_M
100
AcDbCircle
 10
111.0
 20
0.0
 30
0.0
 40
31.049999
  0
LINE
  5
96
330
1E
100
AcDbEntity
  8
MO_001_VIEW_PV
  6
C_CENTER_L
100
AcDbLine
 10
56.448753
 20
-22.25
 30
0.0
 11
20.489716
 21
-22.25
 31
0.0
  0
LINE
  5
97
330
1E
100
AcDbEntity
  8
MO_001_VIEW_PV
  6
C_SOLID_M
100
AcDbLine
 10
53.0
 20
-20.24999999999999
 30
0.0
 11
53.0
 21
-24.25
 31
0.0
  0
LINE
  5
98
330
1E
100
AcDbEntity
  8
MO_001_VIEW_PV
  6
C_SOLID_M
100
AcDbLine
 10
52.0
 20
-19.25
 30
0.0
 11
30.0
 21
-19.25
 31
0.0
  0
LINE
  5
99
330
1E
100
AcDbEntity
  8
MO_001_VIEW_PV
  6
C_SOLID_M
100
AcDbLine
 10
52.0
 20
-25.25
 30
0.0
 11
30.0
 21
-25.25
 31
0.0
  0
LINE
  5
9A
330
1E
100
AcDbEntity
  8
MO_001_VIEW_PV
  6
C_SOLID_M
100
AcDbLine
 10
52.000011
 20
-25.250001
 30
0.0
 11
53.00000999999999
 21
-24.250003
 31
0.0
  0
LINE
  5
9B
330
1E
100
AcDbEntity
  8
MO_001_VIEW_PV
  6
C_SOLID_M
100
AcDbLine
 10
52.00001
 20
-19.25000199999999
 30
0.0
 11
53.000012
 21
-20.25000299999999
 31
0.0
  0
LINE
  5
9C
330
1E
100
AcDbEntity
  8
MO_001_VIEW_PV
  6
C_SOLID_M
100
AcDbLine
 10
52.0
 20
-19.25
 30
0.0
 11
52.0
 21
-25.25
 31
0.0
  0
LINE
  5
9D
330
1E
100
AcDbEntity
  8
MO_001_VIEW_PV
  6
C_SOLID_L
100
AcDbLine
 10
52.99999200000001
 20
-24.25
 30
0.0
 11
30.0
 21
-24.25
 31
0.0
  0
LINE
  5
9E
330
1E
100
AcDbEntity
  8
MO_001_VIEW_PV
  6
C_SOLID_L
100
AcDbLine
 10
53.0
 20
-20.24999999999999
 30
0.0
 11
30.0
 21
-20.24999999999999
 31
0.0
  0
LINE
  5
9F
330
1E
100
AcDbEntity
  8
MO_001_VIEW_PV
  6
C_CENTER_L
100
AcDbLine
 10
56.448753
 20
22.25
 30
0.0
 11
20.489716
 21
22.25
 31
0.0
  0
LINE
  5
A0
330
1E
100
AcDbEntity
  8
MO_001_VIEW_PV
  6
C_SOLID_M
100
AcDbLine
 10
53.0
 20
20.24999999999999
 30
0.0
 11
53.0
 21
24.25
 31
0.0
  0
LINE
  5
A1
330
1E
100
AcDbEntity
  8
MO_001_VIEW_PV
  6
C_SOLID_M
100
AcDbLine
 10
52.0
 20
19.25
 30
0.0
 11
30.0
 21
19.25
 31
0.0
  0
LINE
  5
A2
330
1E
100
AcDbEntity
  8
MO_001_VIEW_PV
  6
C_SOLID_M
100
AcDbLine
 10
52.0
 20
25.25
 30
0.0
 11
30.0
 21
25.25
 31
0.0
  0
LINE
  5
A3
330
1E
100
AcDbEntity
  8
MO_001_VIEW_PV
  6
C_SOLID_M
100
AcDbLine
 10
52.000019
 20
25.250004
 30
0.0
 11
53.000018
 21
24.250006
 31
0.0
  0
LINE
  5
A4
330
1E
100
AcDbEntity
  8
MO_001_VIEW_PV
  6
C_SOLID_M
100
AcDbLine
 10
52.00001799999999
 20
19.25000499999999
 30
0.0
 11
53.00001999999999
 21
20.25000599999999
 31
0.0
  0
LINE
  5
A5
330
1E
100
AcDbEntity
  8
MO_001_VIEW_PV
  6
C_SOLID_M
100
AcDbLine
 10
52.0
 20
19.25
 30
0.0
 11
52.0
 21
25.25
 31
0.0
  0
LINE
  5
A6
330
1E
100
AcDbEntity
  8
MO_001_VIEW_PV
  6
C_SOLID_L
100
AcDbLine
 10
52.99999200000001
 20
24.25
 30
0.0
 11
30.0
 21
24.25
 31
0.0
  0
LINE
  5
A7
330
1E
100
AcDbEntity
  8
MO_001_VIEW_PV
  6
C_SOLID_L
100
AcDbLine
 10
53.0
 20
20.24999999999999
 30
0.0
 11
30.0
 21
20.24999999999999
 31
0.0
  0
LINE
  5
A8
330
1E
100
AcDbEntity
  8
MO_001_VIEW_PV
  6
C_SOLID_M
100
AcDbLine
 10
28.000023
 20
-35.0
 30
0.0
 11
28.000023
 21
35.0
 31
0.0
  0
LINE
  5
A9
330
1E
100
AcDbEntity
  8
MO_001_VIEW_PV
  6
C_SOLID_M
100
AcDbLine
 10
30.0
 20
4.764999999999999
 30
0.0
 11
52.0
 21
4.764999999999999
 31
0.0
  0
LINE
  5
AA
330
1E
100
AcDbEntity
  8
MO_001_VIEW_PV
  6
C_SOLID_M
100
AcDbLine
 10
30.0
 20
-4.764999999999999
 30
0.0
 11
52.0
 21
-4.764999999999999
 31
0.0
  0
LINE
  5
AB
330
1E
100
AcDbEntity
  8
MO_001_VIEW_PV
  6
C_SOLID_M
100
AcDbLine
 10
52.19999699999999
 20
4.564995999999999
 30
0.0
 11
52.19999699999999
 21
-4.564995999999999
 31
0.0
  0
LINE
  5
AC
330
1E
100
AcDbEntity
  8
MO_001_VIEW_PV
  6
C_SOLID_M
100
AcDbLine
 10
-27.1
 20
4.619412
 30
0.0
 11
-27.1
 21
-4.619412
 31
0.0
  0
LINE
  5
AD
330
1E
100
AcDbEntity
  8
MO_001_VIEW_PV
  6
C_SOLID_M
100
AcDbLine
 10
52.000006
 20
4.764998
 30
0.0
 11
52.200006
 21
4.564994999999999
 31
0.0
  0
LINE
  5
AE
330
1E
100
AcDbEntity
  8
MO_001_VIEW_PV
  6
C_SOLID_M
100
AcDbLine
 10
52.000006
 20
-4.764998
 30
0.0
 11
52.200006
 21
-4.564994999999999
 31
0.0
  0
LINE
  5
AF
330
1E
100
AcDbEntity
  8
MO_001_VIEW_PV
  6
C_SOLID_M
100
AcDbLine
 10
-26.699999
 20
4.765000999999999
 30
0.0
 11
-27.100001
 21
4.619412
 31
0.0
  0
LINE
  5
B0
330
1E
100
AcDbEntity
  8
MO_001_VIEW_PV
  6
C_SOLID_M
100
AcDbLine
 10
-26.699999
 20
-4.765000999999999
 30
0.0
 11
-27.100001
 21
-4.619412
 31
0.0
  0
LINE
  5
B1
330
1E
100
AcDbEntity
  8
MO_001_VIEW_PV
  6
C_SOLID_M
100
AcDbLine
 10
-26.700001
 20
4.764999999999999
 30
0.0
 11
-26.700001
 21
-4.764999999999999
 31
0.0
  0
LINE
  5
B2
330
1E
100
AcDbEntity
  8
MO_001_VIEW_PV
  6
C_SOLID_M
100
AcDbLine
 10
52.0
 20
4.764999999999999
 30
0.0
 11
52.0
 21
-4.764999999999999
 31
0.0
  0
LINE
  5
B3
330
1E
100
AcDbEntity
  8
MO_001_VIEW_PV
  6
C_SOLID_M
100
AcDbLine
 10
-26.700001
 20
4.764999999999999
 30
0.0
 11
-8.900002
 21
4.764999999999999
 31
0.0
  0
LINE
  5
B4
330
1E
100
AcDbEntity
  8
MO_001_VIEW_PV
  6
C_SOLID_M
100
AcDbLine
 10
-26.700001
 20
-4.764999999999999
 30
0.0
 11
-8.900002
 21
-4.764999999999999
 31
0.0
  0
CIRCLE
  5
B5
330
1E
100
AcDbEntity
  8
MO_001_VIEW_PV
  6
C_SOLID_M
100
AcDbCircle
 10
-72.0
 20
0.0
 30
0.0
 40
30.0
  0
CIRCLE
  5
B6
330
1E
100
AcDbEntity
  8
MO_001_VIEW_PV
  6
C_SOLID_M
100
AcDbCircle
 10
-72.0
 20
0.0
 30
0.0
 40
4.764999999999999
  0
CIRCLE
  5
B7
330
1E
100
AcDbEntity
  8
MO_001_VIEW_PV
  6
C_SOLID_M
100
AcDbCircle
 10
-72.0
 20
0.0
 30
0.0
 40
4.619412
  0
CIRCLE
  5
B8
330
1E
100
AcDbEntity
  8
MO_001_VIEW_PV
  6
C_SOLID_M
100
AcDbCircle
 10
111.0
 20
0.0
 30
0.0
 40
33.000023
  0
CIRCLE
  5
B9
330
1E
100
AcDbEntity
  8
MO_001_VIEW_PV
  6
C_SOLID_M
100
AcDbCircle
 10
111.0
 20
0.0
 30
0.0
 40
6.349999999999999
  0
CIRCLE
  5
BA
330
1E
100
AcDbEntity
  8
MO_001_VIEW_PV
  6
C_SOLID_M
100
AcDbCircle
 10
111.0
 20
0.0
 30
0.0
 40
4.764999999999999
  0
CIRCLE
  5
BB
330
1E
100
AcDbEntity
  8
MO_001_VIEW_PV
  6
C_SOLID_M
100
AcDbCircle
 10
111.0
 20
0.0
 30
0.0
 40
4.565
  0
CIRCLE
  5
BC
330
1E
100
AcDbEntity
  8
MO_001_VIEW_PV
  6
C_SOLID_L
100
AcDbCircle
 10
111.0
 20
22.25
 30
0.0
 40
2.0
  0
CIRCLE
  5
BD
330
1E
100
AcDbEntity
  8
MO_001_VIEW_PV
  6
C_SOLID_M
100
AcDbCircle
 10
111.0
 20
22.25
 30
0.0
 40
3.0
  0
LINE
  5
BE
330
1E
100
AcDbEntity
  8
MO_001_VIEW_PV
  6
C_CENTER_L
100
AcDbLine
 10
103.4499969999999
 20
22.25
 30
0.0
 11
118.550003
 21
22.25
 31
0.0
  0
CIRCLE
  5
BF
330
1E
100
AcDbEntity
  8
MO_001_VIEW_PV
  6
C_SOLID_M
100
AcDbCircle
 10
111.0
 20
22.25
 30
0.0
 40
5.549999999999999
  0
CIRCLE
  5
C0
330
1E
100
AcDbEntity
  8
MO_001_VIEW_PV
  6
C_SOLID_L
100
AcDbCircle
 10
111.0
 20
-22.25
 30
0.0
 40
2.0
  0
CIRCLE
  5
C1
330
1E
100
AcDbEntity
  8
MO_001_VIEW_PV
  6
C_SOLID_M
100
AcDbCircle
 10
111.0
 20
-22.25
 30
0.0
 40
3.0
  0
LINE
  5
C2
330
1E
100
AcDbEntity
  8
MO_001_VIEW_PV
  6
C_CENTER_L
100
AcDbLine
 10
103.4499969999999
 20
-22.25
 30
0.0
 11
118.550003
 21
-22.25
 31
0.0
  0
CIRCLE
  5
C3
330
1E
100
AcDbEntity
  8
MO_001_VIEW_PV
  6
C_SOLID_M
100
AcDbCircle
 10
111.0
 20
-22.25
 30
0.0
 40
5.549999999999999
  0
LINE
  5
C4
330
1E
100
AcDbEntity
  8
MO_001_VIEW_PV
  6
C_SOLID_M
100
AcDbLine
 10
22.250004
 20
-32.20419299999999
 30
0.0
 11
22.250004
 21
-50.0
 31
0.0
  0
LINE
  5
C5
330
1E
100
AcDbEntity
  8
MO_001_VIEW_PV
  6
C_SOLID_M
100
AcDbLine
 10
19.350002
 20
-32.20419299999999
 30
0.0
 11
19.350002
 21
-50.0
 31
0.0
  0
LINE
  5
C6
330
1E
100
AcDbEntity
  8
MO_001_VIEW_PV
  6
C_SOLID_M
100
AcDbLine
 10
-1.5
 20
-35.0
 30
0.0
 11
19.350002
 21
-35.0
 31
0.0
  0
LINE
  5
C7
330
1E
100
AcDbEntity
  8
MO_001_VIEW_PV
  6
C_SOLID_M
100
AcDbLine
 10
19.350002
 20
-50.0
 30
0.0
 11
22.250004
 21
-50.0
 31
0.0
  0
LINE
  5
C8
330
1E
100
AcDbEntity
  8
MO_001_VIEW_PV
  6
C_SOLID_M
100
AcDbLine
 10
21.705002
 20
-61.0
 30
0.0
 11
21.705002
 21
-65.5
 31
0.0
  0
LINE
  5
C9
330
1E
100
AcDbEntity
  8
MO_001_VIEW_PV
  6
C_SOLID_M
100
AcDbLine
 10
19.895004
 20
-61.0
 30
0.0
 11
19.895004
 21
-65.5
 31
0.0
  0
ARC
  5
CA
330
1E
100
AcDbEntity
  8
MO_001_VIEW_PV
  6
C_SOLID_M
100
AcDbCircle
 10
20.347504
 20
-60.35535
 30
0.0
 40
0.5753520000000001
100
AcDbArc
 50
38.142761
 51
141.8572369999999
  0
ARC
  5
CB
330
1E
100
AcDbEntity
  8
MO_001_VIEW_PV
  6
C_SOLID_M
100
AcDbCircle
 10
20.347504
 20
-59.64465
 30
0.0
 40
0.5753520000000001
100
AcDbArc
 50
218.1427629999999
 51
321.8572389999999
  0
ARC
  5
CC
330
1E
100
AcDbEntity
  8
MO_001_VIEW_PV
  6
C_SOLID_M
100
AcDbCircle
 10
21.25250199999999
 20
-59.64465
 30
0.0
 40
0.5753520000000001
100
AcDbArc
 50
218.1427629999999
 51
321.8572389999999
  0
ARC
  5
CD
330
1E
100
AcDbEntity
  8
MO_001_VIEW_PV
  6
C_SOLID_M
100
AcDbCircle
 10
20.347504
 20
-61.35535
 30
0.0
 40
0.5753520000000001
100
AcDbArc
 50
38.142761
 51
141.8572369999999
  0
ARC
  5
CE
330
1E
100
AcDbEntity
  8
MO_001_VIEW_PV
  6
C_SOLID_M
100
AcDbCircle
 10
21.25250199999999
 20
-61.35535
 30
0.0
 40
0.5753520000000001
100
AcDbArc
 50
38.142761
 51
141.8572369999999
  0
ARC
  5
CF
330
1E
100
AcDbEntity
  8
MO_001_VIEW_PV
  6
C_SOLID_M
100
AcDbCircle
 10
21.25250199999999
 20
-60.64465
 30
0.0
 40
0.5753520000000001
100
AcDbArc
 50
218.1427629999999
 51
321.8572389999999
  0
LINE
  5
D0
330
1E
100
AcDbEntity
  8
MO_001_VIEW_PV
  6
C_SOLID_M
100
AcDbLine
 10
19.895004
 20
-50.0
 30
0.0
 11
19.895004
 21
-60.0
 31
0.0
  0
LINE
  5
D1
330
1E
100
AcDbEntity
  8
MO_001_VIEW_PV
  6
C_SOLID_M
100
AcDbLine
 10
21.705002
 20
-50.0
 30
0.0
 11
21.705002
 21
-60.0
 31
0.0
  0
LINE
  5
D2
330
1E
100
AcDbEntity
  8
MO_001_VIEW_PV
  6
C_SOLID_M
100
AcDbLine
 10
19.895004
 20
-65.5
 30
0.0
 11
21.705002
 21
-65.5
 31
0.0
  0
LINE
  5
D3
330
1E
100
AcDbEntity
  8
MO_001_VIEW_PV
  6
C_SOLID_M
100
AcDbLine
 10
21.05000299999999
 20
-65.5
 30
0.0
 11
21.05000299999999
 21
-70.5
 31
0.0
  0
LINE
  5
D4
330
1E
100
AcDbEntity
  8
MO_001_VIEW_PV
  6
C_SOLID_M
100
AcDbLine
 10
20.550003
 20
-65.5
 30
0.0
 11
20.550003
 21
-70.5
 31
0.0
  0
LINE
  5
D5
330
1E
100
AcDbEntity
  8
MO_001_VIEW_PV
  6
C_SOLID_M
100
AcDbLine
 10
20.550003
 20
-70.5
 30
0.0
 11
21.05000299999999
 21
-70.5
 31
0.0
  0
LINE
  5
D6
330
1E
100
AcDbEntity
  8
MO_001_VIEW_PV
  6
C_SOLID_M
100
AcDbLine
 10
-58.64999399999999
 20
-32.353939
 30
0.0
 11
-58.64999399999999
 21
-50.0
 31
0.0
  0
LINE
  5
D7
330
1E
100
AcDbEntity
  8
MO_001_VIEW_PV
  6
C_SOLID_M
100
AcDbLine
 10
-61.55000300000001
 20
-33.40355699999999
 30
0.0
 11
-61.55000300000001
 21
-50.0
 31
0.0
  0
LINE
  5
D8
330
1E
100
AcDbEntity
  8
MO_001_VIEW_PV
  6
C_SOLID_M
100
AcDbLine
 10
-61.55000300000001
 20
-50.0
 30
0.0
 11
-58.650002
 21
-50.0
 31
0.0
  0
LINE
  5
D9
330
1E
100
AcDbEntity
  8
MO_001_VIEW_PV
  6
C_SOLID_M
100
AcDbLine
 10
-59.195
 20
-61.0
 30
0.0
 11
-59.195
 21
-65.5
 31
0.0
  0
LINE
  5
DA
330
1E
100
AcDbEntity
  8
MO_001_VIEW_PV
  6
C_SOLID_M
100
AcDbLine
 10
-61.004997
 20
-61.0
 30
0.0
 11
-61.004997
 21
-65.5
 31
0.0
  0
ARC
  5
DB
330
1E
100
AcDbEntity
  8
MO_001_VIEW_PV
  6
C_SOLID_M
100
AcDbCircle
 10
-60.552498
 20
-60.35535
 30
0.0
 40
0.5753520000000001
100
AcDbArc
 50
38.142761
 51
141.8572369999999
  0
ARC
  5
DC
330
1E
100
AcDbEntity
  8
MO_001_VIEW_PV
  6
C_SOLID_M
100
AcDbCircle
 10
-60.552498
 20
-59.64465
 30
0.0
 40
0.5753520000000001
100
AcDbArc
 50
218.1427629999999
 51
321.8572389999999
  0
ARC
  5
DD
330
1E
100
AcDbEntity
  8
MO_001_VIEW_PV
  6
C_SOLID_M
100
AcDbCircle
 10
-59.647499
 20
-59.64465
 30
0.0
 40
0.5753520000000001
100
AcDbArc
 50
218.1427629999999
 51
321.8572389999999
  0
ARC
  5
DE
330
1E
100
AcDbEntity
  8
MO_001_VIEW_PV
  6
C_SOLID_M
100
AcDbCircle
 10
-60.552498
 20
-61.35535
 30
0.0
 40
0.5753520000000001
100
AcDbArc
 50
38.142761
 51
141.8572369999999
  0
ARC
  5
DF
330
1E
100
AcDbEntity
  8
MO_001_VIEW_PV
  6
C_SOLID_M
100
AcDbCircle
 10
-59.647499
 20
-61.35535
 30
0.0
 40
0.5753520000000001
100
AcDbArc
 50
38.142761
 51
141.8572369999999
  0
ARC
  5
E0
330
1E
100
AcDbEntity
  8
MO_001_VIEW_PV
  6
C_SOLID_M
100
AcDbCircle
 10
-59.647499
 20
-60.64465
 30
0.0
 40
0.5753520000000001
100
AcDbArc
 50
218.1427629999999
 51
321.8572389999999
  0
LINE
  5
E1
330
1E
100
AcDbEntity
  8
MO_001_VIEW_PV
  6
C_SOLID_M
100
AcDbLine
 10
-61.004997
 20
-50.0
 30
0.0
 11
-61.004997
 21
-60.0
 31
0.0
  0
LINE
  5
E2
330
1E
100
AcDbEntity
  8
MO_001_VIEW_PV
  6
C_SOLID_M
100
AcDbLine
 10
-59.195
 20
-50.0
 30
0.0
 11
-59.195
 21
-60.0
 31
0.0
  0
LINE
  5
E3
330
1E
100
AcDbEntity
  8
MO_001_VIEW_PV
  6
C_SOLID_M
100
AcDbLine
 10
-61.004997
 20
-65.5
 30
0.0
 11
-59.195
 21
-65.5
 31
0.0
  0
LINE
  5
E4
330
1E
100
AcDbEntity
  8
MO_001_VIEW_PV
  6
C_SOLID_M
100
AcDbLine
 10
-59.849998
 20
-65.5
 30
0.0
 11
-59.849998
 21
-70.5
 31
0.0
  0
LINE
  5
E5
330
1E
100
AcDbEntity
  8
MO_001_VIEW_PV
  6
C_SOLID_M
100
AcDbLine
 10
-60.349998
 20
-65.5
 30
0.0
 11
-60.349998
 21
-70.5
 31
0.0
  0
LINE
  5
E6
330
1E
100
AcDbEntity
  8
MO_001_VIEW_PV
  6
C_SOLID_M
100
AcDbLine
 10
-60.349998
 20
-70.5
 30
0.0
 11
-59.849998
 21
-70.5
 31
0.0
  0
LINE
  5
E7
330
1E
100
AcDbEntity
  8
MO_001_VIEW_PV
  6
C_SOLID_M
100
AcDbLine
 10
-82.44999699999999
 20
-33.40355699999999
 30
0.0
 11
-82.44999699999999
 21
-50.0
 31
0.0
  0
LINE
  5
E8
330
1E
100
AcDbEntity
  8
MO_001_VIEW_PV
  6
C_SOLID_M
100
AcDbLine
 10
-85.35000600000001
 20
-32.353939
 30
0.0
 11
-85.35000600000001
 21
-50.0
 31
0.0
  0
LINE
  5
E9
330
1E
100
AcDbEntity
  8
MO_001_VIEW_PV
  6
C_SOLID_M
100
AcDbLine
 10
-85.35000600000001
 20
-50.0
 30
0.0
 11
-82.45000500000001
 21
-50.0
 31
0.0
  0
LINE
  5
EA
330
1E
100
AcDbEntity
  8
MO_001_VIEW_PV
  6
C_SOLID_M
100
AcDbLine
 10
-82.995003
 20
-61.0
 30
0.0
 11
-82.995003
 21
-65.5
 31
0.0
  0
LINE
  5
EB
330
1E
100
AcDbEntity
  8
MO_001_VIEW_PV
  6
C_SOLID_M
100
AcDbLine
 10
-84.80500000000001
 20
-61.0
 30
0.0
 11
-84.80500000000001
 21
-65.5
 31
0.0
  0
ARC
  5
EC
330
1E
100
AcDbEntity
  8
MO_001_VIEW_PV
  6
C_SOLID_M
100
AcDbCircle
 10
-84.35250100000001
 20
-60.35535
 30
0.0
 40
0.5753520000000001
100
AcDbArc
 50
38.142761
 51
141.8572369999999
  0
ARC
  5
ED
330
1E
100
AcDbEntity
  8
MO_001_VIEW_PV
  6
C_SOLID_M
100
AcDbCircle
 10
-84.35250100000001
 20
-59.64465
 30
0.0
 40
0.5753520000000001
100
AcDbArc
 50
218.1427629999999
 51
321.8572389999999
  0
ARC
  5
EE
330
1E
100
AcDbEntity
  8
MO_001_VIEW_PV
  6
C_SOLID_M
100
AcDbCircle
 10
-83.447502
 20
-59.64465
 30
0.0
 40
0.5753520000000001
100
AcDbArc
 50
218.1427629999999
 51
321.8572389999999
  0
ARC
  5
EF
330
1E
100
AcDbEntity
  8
MO_001_VIEW_PV
  6
C_SOLID_M
100
AcDbCircle
 10
-84.35250100000001
 20
-61.35535
 30
0.0
 40
0.5753520000000001
100
AcDbArc
 50
38.142761
 51
141.8572369999999
  0
ARC
  5
F0
330
1E
100
AcDbEntity
  8
MO_001_VIEW_PV
  6
C_SOLID_M
100
AcDbCircle
 10
-83.447502
 20
-61.35535
 30
0.0
 40
0.5753520000000001
100
AcDbArc
 50
38.142761
 51
141.8572369999999
  0
ARC
  5
F1
330
1E
100
AcDbEntity
  8
MO_001_VIEW_PV
  6
C_SOLID_M
100
AcDbCircle
 10
-83.447502
 20
-60.64465
 30
0.0
 40
0.5753520000000001
100
AcDbArc
 50
218.1427629999999
 51
321.8572389999999
  0
LINE
  5
F2
330
1E
100
AcDbEntity
  8
MO_001_VIEW_PV
  6
C_SOLID_M
100
AcDbLine
 10
-84.80500000000001
 20
-50.0
 30
0.0
 11
-84.80500000000001
 21
-60.0
 31
0.0
  0
LINE
  5
F3
330
1E
100
AcDbEntity
  8
MO_001_VIEW_PV
  6
C_SOLID_M
100
AcDbLine
 10
-82.995003
 20
-50.0
 30
0.0
 11
-82.995003
 21
-60.0
 31
0.0
  0
LINE
  5
F4
330
1E
100
AcDbEntity
  8
MO_001_VIEW_PV
  6
C_SOLID_M
100
AcDbLine
 10
-84.80500000000001
 20
-65.5
 30
0.0
 11
-82.995003
 21
-65.5
 31
0.0
  0
LINE
  5
F5
330
1E
100
AcDbEntity
  8
MO_001_VIEW_PV
  6
C_SOLID_M
100
AcDbLine
 10
-83.650002
 20
-65.5
 30
0.0
 11
-83.650002
 21
-70.5
 31
0.0
  0
LINE
  5
F6
330
1E
100
AcDbEntity
  8
MO_001_VIEW_PV
  6
C_SOLID_M
100
AcDbLine
 10
-84.15000199999999
 20
-65.5
 30
0.0
 11
-84.15000199999999
 21
-70.5
 31
0.0
  0
LINE
  5
F7
330
1E
100
AcDbEntity
  8
MO_001_VIEW_PV
  6
C_SOLID_M
100
AcDbLine
 10
-84.15000199999999
 20
-70.5
 30
0.0
 11
-83.650002
 21
-70.5
 31
0.0
  0
LINE
  5
F8
330
1E
100
AcDbEntity
  8
MO_001_VIEW_PV
  6
C_SOLID_M
100
AcDbLine
 10
124.350006
 20
-32.353939
 30
0.0
 11
124.350006
 21
-50.0
 31
0.0
  0
LINE
  5
F9
330
1E
100
AcDbEntity
  8
MO_001_VIEW_PV
  6
C_SOLID_M
100
AcDbLine
 10
121.449997
 20
-33.40355699999999
 30
0.0
 11
121.449997
 21
-50.0
 31
0.0
  0
LINE
  5
FA
330
1E
100
AcDbEntity
  8
MO_001_VIEW_PV
  6
C_SOLID_M
100
AcDbLine
 10
121.449997
 20
-50.0
 30
0.0
 11
124.350006
 21
-50.0
 31
0.0
  0
LINE
  5
FB
330
1E
100
AcDbEntity
  8
MO_001_VIEW_PV
  6
C_SOLID_M
100
AcDbLine
 10
123.805008
 20
-61.0
 30
0.0
 11
123.805008
 21
-65.5
 31
0.0
  0
LINE
  5
FC
330
1E
100
AcDbEntity
  8
MO_001_VIEW_PV
  6
C_SOLID_M
100
AcDbLine
 10
121.99501
 20
-61.0
 30
0.0
 11
121.99501
 21
-65.5
 31
0.0
  0
ARC
  5
FD
330
1E
100
AcDbEntity
  8
MO_001_VIEW_PV
  6
C_SOLID_M
100
AcDbCircle
 10
122.4474949999999
 20
-60.35535
 30
0.0
 40
0.5753520000000001
100
AcDbArc
 50
38.142761
 51
141.8572369999999
  0
ARC
  5
FE
330
1E
100
AcDbEntity
  8
MO_001_VIEW_PV
  6
C_SOLID_M
100
AcDbCircle
 10
122.4474949999999
 20
-59.64465
 30
0.0
 40
0.5753520000000001
100
AcDbArc
 50
218.1427629999999
 51
321.8572389999999
  0
ARC
  5
FF
330
1E
100
AcDbEntity
  8
MO_001_VIEW_PV
  6
C_SOLID_M
100
AcDbCircle
 10
123.3524929999999
 20
-59.64465
 30
0.0
 40
0.5753520000000001
100
AcDbArc
 50
218.1427629999999
 51
321.8572389999999
  0
ARC
  5
100
330
1E
100
AcDbEntity
  8
MO_001_VIEW_PV
  6
C_SOLID_M
100
AcDbCircle
 10
122.4474949999999
 20
-61.35535
 30
0.0
 40
0.5753520000000001
100
AcDbArc
 50
38.142761
 51
141.8572369999999
  0
ARC
  5
101
330
1E
100
AcDbEntity
  8
MO_001_VIEW_PV
  6
C_SOLID_M
100
AcDbCircle
 10
123.3524929999999
 20
-61.35535
 30
0.0
 40
0.5753520000000001
100
AcDbArc
 50
38.142761
 51
141.8572369999999
  0
ARC
  5
102
330
1E
100
AcDbEntity
  8
MO_001_VIEW_PV
  6
C_SOLID_M
100
AcDbCircle
 10
123.3524929999999
 20
-60.64465
 30
0.0
 40
0.5753520000000001
100
AcDbArc
 50
218.1427629999999
 51
321.8572389999999
  0
LINE
  5
103
330
1E
100
AcDbEntity
  8
MO_001_VIEW_PV
  6
C_SOLID_M
100
AcDbLine
 10
121.99501
 20
-50.0
 30
0.0
 11
121.99501
 21
-60.0
 31
0.0
  0
LINE
  5
104
330
1E
100
AcDbEntity
  8
MO_001_VIEW_PV
  6
C_SOLID_M
100
AcDbLine
 10
123.805008
 20
-50.0
 30
0.0
 11
123.805008
 21
-60.0
 31
0.0
  0
LINE
  5
105
330
1E
100
AcDbEntity
  8
MO_001_VIEW_PV
  6
C_SOLID_M
100
AcDbLine
 10
121.99501
 20
-65.5
 30
0.0
 11
123.805008
 21
-65.5
 31
0.0
  0
LINE
  5
106
330
1E
100
AcDbEntity
  8
MO_001_VIEW_PV
  6
C_SOLID_M
100
AcDbLine
 10
123.150009
 20
-65.5
 30
0.0
 11
123.150009
 21
-70.5
 31
0.0
  0
LINE
  5
107
330
1E
100
AcDbEntity
  8
MO_001_VIEW_PV
  6
C_SOLID_M
100
AcDbLine
 10
122.650009
 20
-65.5
 30
0.0
 11
122.650009
 21
-70.5
 31
0.0
  0
LINE
  5
108
330
1E
100
AcDbEntity
  8
MO_001_VIEW_PV
  6
C_SOLID_M
100
AcDbLine
 10
122.650009
 20
-70.5
 30
0.0
 11
123.150009
 21
-70.5
 31
0.0
  0
LINE
  5
109
330
1E
100
AcDbEntity
  8
MO_001_VIEW_PV
  6
C_SOLID_M
100
AcDbLine
 10
100.550003
 20
-33.40355699999999
 30
0.0
 11
100.550003
 21
-50.0
 31
0.0
  0
LINE
  5
10A
330
1E
100
AcDbEntity
  8
MO_001_VIEW_PV
  6
C_SOLID_M
100
AcDbLine
 10
97.649994
 20
-32.353939
 30
0.0
 11
97.649994
 21
-50.0
 31
0.0
  0
LINE
  5
10B
330
1E
100
AcDbEntity
  8
MO_001_VIEW_PV
  6
C_SOLID_M
100
AcDbLine
 10
97.649994
 20
-50.0
 30
0.0
 11
100.550003
 21
-50.0
 31
0.0
  0
LINE
  5
10C
330
1E
100
AcDbEntity
  8
MO_001_VIEW_PV
  6
C_SOLID_M
100
AcDbLine
 10
100.00499
 20
-61.0
 30
0.0
 11
100.00499
 21
-65.5
 31
0.0
  0
LINE
  5
10D
330
1E
100
AcDbEntity
  8
MO_001_VIEW_PV
  6
C_SOLID_M
100
AcDbLine
 10
98.194992
 20
-61.0
 30
0.0
 11
98.194992
 21
-65.5
 31
0.0
  0
ARC
  5
10E
330
1E
100
AcDbEntity
  8
MO_001_VIEW_PV
  6
C_SOLID_M
100
AcDbCircle
 10
98.647507
 20
-60.35535
 30
0.0
 40
0.5753520000000001
100
AcDbArc
 50
38.142761
 51
141.8572369999999
  0
ARC
  5
10F
330
1E
100
AcDbEntity
  8
MO_001_VIEW_PV
  6
C_SOLID_M
100
AcDbCircle
 10
98.647507
 20
-59.64465
 30
0.0
 40
0.5753520000000001
100
AcDbArc
 50
218.1427629999999
 51
321.8572389999999
  0
ARC
  5
110
330
1E
100
AcDbEntity
  8
MO_001_VIEW_PV
  6
C_SOLID_M
100
AcDbCircle
 10
99.55250500000001
 20
-59.64465
 30
0.0
 40
0.5753520000000001
100
AcDbArc
 50
218.1427629999999
 51
321.8572389999999
  0
ARC
  5
111
330
1E
100
AcDbEntity
  8
MO_001_VIEW_PV
  6
C_SOLID_M
100
AcDbCircle
 10
98.647507
 20
-61.35535
 30
0.0
 40
0.5753520000000001
100
AcDbArc
 50
38.142761
 51
141.8572369999999
  0
ARC
  5
112
330
1E
100
AcDbEntity
  8
MO_001_VIEW_PV
  6
C_SOLID_M
100
AcDbCircle
 10
99.55250500000001
 20
-61.35535
 30
0.0
 40
0.5753520000000001
100
AcDbArc
 50
38.142761
 51
141.8572369999999
  0
ARC
  5
113
330
1E
100
AcDbEntity
  8
MO_001_VIEW_PV
  6
C_SOLID_M
100
AcDbCircle
 10
99.55250500000001
 20
-60.64465
 30
0.0
 40
0.5753520000000001
100
AcDbArc
 50
218.1427629999999
 51
321.8572389999999
  0
LINE
  5
114
330
1E
100
AcDbEntity
  8
MO_001_VIEW_PV
  6
C_SOLID_M
100
AcDbLine
 10
98.194992
 20
-50.0
 30
0.0
 11
98.194992
 21
-60.0
 31
0.0
  0
LINE
  5
115
330
1E
100
AcDbEntity
  8
MO_001_VIEW_PV
  6
C_SOLID_M
100
AcDbLine
 10
100.00499
 20
-50.0
 30
0.0
 11
100.00499
 21
-60.0
 31
0.0
  0
LINE
  5
116
330
1E
100
AcDbEntity
  8
MO_001_VIEW_PV
  6
C_SOLID_M
100
AcDbLine
 10
98.194992
 20
-65.5
 30
0.0
 11
100.00499
 21
-65.5
 31
0.0
  0
LINE
  5
117
330
1E
100
AcDbEntity
  8
MO_001_VIEW_PV
  6
C_SOLID_M
100
AcDbLine
 10
99.349991
 20
-65.5
 30
0.0
 11
99.349991
 21
-70.5
 31
0.0
  0
LINE
  5
118
330
1E
100
AcDbEntity
  8
MO_001_VIEW_PV
  6
C_SOLID_M
100
AcDbLine
 10
98.84999100000001
 20
-65.5
 30
0.0
 11
98.84999100000001
 21
-70.5
 31
0.0
  0
LINE
  5
119
330
1E
100
AcDbEntity
  8
MO_001_VIEW_PV
  6
C_SOLID_M
100
AcDbLine
 10
98.84999100000001
 20
-70.5
 30
0.0
 11
99.349991
 21
-70.5
 31
0.0
  0
LINE
  5
11A
330
1E
100
AcDbEntity
  8
MO_001_VIEW_PV
  6
C_SOLID_M
100
AcDbLine
 10
-1.499995999999999
 20
-35.0
 30
0.0
 11
-1.499995999999999
 21
35.0
 31
0.0
  0
LINE
  5
11B
330
1E
100
AcDbEntity
  8
MO_001_VIEW_PV
  6
C_SOLID_M
100
AcDbLine
 10
-8.900002
 20
-13.675
 30
0.0
 11
-8.900002
 21
13.675
 31
0.0
  0
LINE
  5
11C
330
1E
100
AcDbEntity
  8
MO_001_VIEW_PV
  6
C_SOLID_M
100
AcDbLine
 10
-8.900002
 20
13.675
 30
0.0
 11
-7.699996999999999
 21
13.675
 31
0.0
  0
LINE
  5
11D
330
1E
100
AcDbEntity
  8
MO_001_VIEW_PV
  6
C_SOLID_M
100
AcDbLine
 10
-8.900002
 20
-13.675
 30
0.0
 11
-7.699996999999999
 21
-13.675
 31
0.0
  0
ARC
  5
11E
330
1E
100
AcDbEntity
  8
MO_001_VIEW_PV
  6
C_SOLID_M
100
AcDbCircle
 10
-72.0
 20
0.0
 30
0.0
 40
13.675
100
AcDbArc
 50
10.34092299999999
 51
49.659109
  0
CIRCLE
  5
11F
330
1E
100
AcDbEntity
  8
MO_001_VIEW_PV
  6
C_SOLID_M
100
AcDbCircle
 10
-72.0
 20
23.799999
 30
0.0
 40
2.049999999999999
  0
CIRCLE
  5
120
330
1E
100
AcDbEntity
  8
MO_001_VIEW_PV
  6
C_SOLID_M
100
AcDbCircle
 10
-92.611404
 20
-11.9
 30
0.0
 40
2.049999999999999
  0
CIRCLE
  5
121
330
1E
100
AcDbEntity
  8
MO_001_VIEW_PV
  6
C_SOLID_M
100
AcDbCircle
 10
-51.38859599999999
 20
-11.9
 30
0.0
 40
2.049999999999999
  0
ARC
  5
122
330
1E
100
AcDbEntity
  8
MO_001_VIEW_PV
  6
C_SOLID_M
100
AcDbCircle
 10
-66.300003
 20
-9.872688999999999
 30
0.0
 40
3.2
100
AcDbArc
 50
249.905581
 51
350.094334
  0
ARC
  5
123
330
1E
100
AcDbEntity
  8
MO_001_VIEW_PV
  6
C_SOLID_M
100
AcDbCircle
 10
-60.59999799999999
 20
0.0
 30
0.0
 40
3.2
100
AcDbArc
 50
309.9055379999999
 51
50.094462
  0
ARC
  5
124
330
1E
100
AcDbEntity
  8
MO_001_VIEW_PV
  6
C_SOLID_M
100
AcDbCircle
 10
-66.300003
 20
9.872688999999999
 30
0.0
 40
3.2
100
AcDbArc
 50
9.905666
 51
110.0944189999999
  0
ARC
  5
125
330
1E
100
AcDbEntity
  8
MO_001_VIEW_PV
  6
C_SOLID_M
100
AcDbCircle
 10
-77.69999699999999
 20
9.872688999999999
 30
0.0
 40
3.2
100
AcDbArc
 50
69.90558599999999
 51
170.0943459999999
  0
ARC
  5
126
330
1E
100
AcDbEntity
  8
MO_001_VIEW_PV
  6
C_SOLID_M
100
AcDbCircle
 10
-83.400002
 20
0.0
 30
0.0
 40
3.2
100
AcDbArc
 50
129.905594
 51
230.094402
  0
ARC
  5
127
330
1E
100
AcDbEntity
  8
MO_001_VIEW_PV
  6
C_SOLID_M
100
AcDbCircle
 10
-77.69999699999999
 20
-9.872688999999999
 30
0.0
 40
3.2
100
AcDbArc
 50
189.905654
 51
290.094414
  0
ARC
  5
128
330
1E
100
AcDbEntity
  8
MO_001_VIEW_PV
  6
C_SOLID_M
100
AcDbCircle
 10
-64.150002
 20
-13.596599
 30
0.0
 40
4.0
100
AcDbArc
 50
66.940826
 51
173.059167
  0
ARC
  5
129
330
1E
100
AcDbEntity
  8
MO_001_VIEW_PV
  6
C_SOLID_M
100
AcDbCircle
 10
-56.300003
 20
0.0
 30
0.0
 40
4.0
100
AcDbArc
 50
126.940855
 51
233.0591409999999
  0
ARC
  5
12A
330
1E
100
AcDbEntity
  8
MO_001_VIEW_PV
  6
C_SOLID_M
100
AcDbCircle
 10
-64.150002
 20
13.596599
 30
0.0
 40
4.0
100
AcDbArc
 50
186.9408329999999
 51
293.059174
  0
ARC
  5
12B
330
1E
100
AcDbEntity
  8
MO_001_VIEW_PV
  6
C_SOLID_M
100
AcDbCircle
 10
-79.849998
 20
13.596599
 30
0.0
 40
4.0
100
AcDbArc
 50
246.940821
 51
353.059168
  0
ARC
  5
12C
330
1E
100
AcDbEntity
  8
MO_001_VIEW_PV
  6
C_SOLID_M
100
AcDbCircle
 10
-87.69999699999999
 20
0.0
 30
0.0
 40
4.0
100
AcDbArc
 50
306.940837
 51
53.05916299999999
  0
ARC
  5
12D
330
1E
100
AcDbEntity
  8
MO_001_VIEW_PV
  6
C_SOLID_M
100
AcDbCircle
 10
-79.849998
 20
-13.596599
 30
0.0
 40
4.0
100
AcDbArc
 50
6.940832
 51
113.0591789999999
  0
ARC
  5
12E
330
1E
100
AcDbEntity
  8
MO_001_VIEW_PV
  6
C_SOLID_M
100
AcDbCircle
 10
-72.0
 20
0.0
 30
0.0
 40
13.675
100
AcDbArc
 50
190.3409149999999
 51
229.6590899999999
  0
ARC
  5
12F
330
1E
100
AcDbEntity
  8
MO_001_VIEW_PV
  6
C_SOLID_M
100
AcDbCircle
 10
-72.0
 20
0.0
 30
0.0
 40
13.675
100
AcDbArc
 50
130.34091
 51
169.6590849999999
  0
ARC
  5
130
330
1E
100
AcDbEntity
  8
MO_001_VIEW_PV
  6
C_SOLID_M
100
AcDbCircle
 10
-72.0
 20
0.0
 30
0.0
 40
13.675
100
AcDbArc
 50
70.340935
 51
109.6590699999999
  0
ARC
  5
131
330
1E
100
AcDbEntity
  8
MO_001_VIEW_PV
  6
C_SOLID_M
100
AcDbCircle
 10
-72.0
 20
0.0
 30
0.0
 40
13.675
100
AcDbArc
 50
250.34093
 51
289.6590649999999
  0
ARC
  5
132
330
1E
100
AcDbEntity
  8
MO_001_VIEW_PV
  6
C_SOLID_M
100
AcDbCircle
 10
-72.0
 20
0.0
 30
0.0
 40
13.675
100
AcDbArc
 50
310.340891
 51
349.659077
  0
LINE
  5
133
330
1E
100
AcDbEntity
  8
MO_001_VIEW_PV
  6
C_SOLID_M
100
AcDbLine
 10
-8.400002
 20
9.916195
 30
0.0
 11
-8.400002
 21
13.11322099999999
 31
0.0
  0
LINE
  5
134
330
1E
100
AcDbEntity
  8
MO_001_VIEW_PV
  6
C_SOLID_M
100
AcDbLine
 10
-8.400002
 20
-2.454728999999999
 30
0.0
 11
-7.699996999999999
 21
-2.454728999999999
 31
0.0
  0
LINE
  5
135
330
1E
100
AcDbEntity
  8
MO_001_VIEW_PV
  6
C_SOLID_M
100
AcDbLine
 10
-8.900002
 20
-3.197025
 30
0.0
 11
-8.400002
 21
-3.197025
 31
0.0
  0
LINE
  5
136
330
1E
100
AcDbEntity
  8
MO_001_VIEW_PV
  6
C_SOLID_M
100
AcDbLine
 10
-8.400002
 20
2.454728999999999
 30
0.0
 11
-7.699996999999999
 21
2.454728999999999
 31
0.0
  0
LINE
  5
137
330
1E
100
AcDbEntity
  8
MO_001_VIEW_PV
  6
C_SOLID_M
100
AcDbLine
 10
-8.900002
 20
3.197025
 30
0.0
 11
-8.400002
 21
3.197025
 31
0.0
  0
LINE
  5
138
330
1E
100
AcDbEntity
  8
MO_001_VIEW_PV
  6
C_SOLID_M
100
AcDbLine
 10
-8.900002
 20
9.916195
 30
0.0
 11
-8.400002
 21
9.916195
 31
0.0
  0
LINE
  5
139
330
1E
100
AcDbEntity
  8
MO_001_VIEW_PV
  6
C_SOLID_M
100
AcDbLine
 10
-8.400002
 20
10.423174
 30
0.0
 11
-7.699996999999999
 21
10.423174
 31
0.0
  0
LINE
  5
13A
330
1E
100
AcDbEntity
  8
MO_001_VIEW_PV
  6
C_SOLID_M
100
AcDbLine
 10
-8.400002
 20
13.072689
 30
0.0
 11
-7.699996999999999
 21
13.072689
 31
0.0
  0
LINE
  5
13B
330
1E
100
AcDbEntity
  8
MO_001_VIEW_PV
  6
C_SOLID_M
100
AcDbLine
 10
-8.900002
 20
13.11322099999999
 30
0.0
 11
-8.400002
 21
13.11322099999999
 31
0.0
  0
LINE
  5
13C
330
1E
100
AcDbEntity
  8
MO_001_VIEW_PV
  6
C_SOLID_M
100
AcDbLine
 10
-8.400002
 20
-3.197025
 30
0.0
 11
-8.400002
 21
3.197025
 31
0.0
  0
LINE
  5
13D
330
1E
100
AcDbEntity
  8
MO_001_VIEW_PV
  6
C_SOLID_M
100
AcDbLine
 10
-8.400002
 20
-9.916195
 30
0.0
 11
-8.400002
 21
-13.11322099999999
 31
0.0
  0
LINE
  5
13E
330
1E
100
AcDbEntity
  8
MO_001_VIEW_PV
  6
C_SOLID_M
100
AcDbLine
 10
-8.900002
 20
-9.916195
 30
0.0
 11
-8.400002
 21
-9.916195
 31
0.0
  0
LINE
  5
13F
330
1E
100
AcDbEntity
  8
MO_001_VIEW_PV
  6
C_SOLID_M
100
AcDbLine
 10
-8.400002
 20
-10.423174
 30
0.0
 11
-7.699996999999999
 21
-10.423174
 31
0.0
  0
LINE
  5
140
330
1E
100
AcDbEntity
  8
MO_001_VIEW_PV
  6
C_SOLID_M
100
AcDbLine
 10
-8.400002
 20
-13.072689
 30
0.0
 11
-7.699996999999999
 21
-13.072689
 31
0.0
  0
LINE
  5
141
330
1E
100
AcDbEntity
  8
MO_001_VIEW_PV
  6
C_SOLID_M
100
AcDbLine
 10
-8.900002
 20
-13.11322099999999
 30
0.0
 11
-8.400002
 21
-13.11322099999999
 31
0.0
  0
LINE
  5
142
330
1E
100
AcDbEntity
  8
MO_001_VIEW_PV
  6
C_SOLID_L
100
AcDbLine
 10
46.011803
 20
-43.9543
 30
0.0
 11
77.129761
 21
-43.9543
 31
0.0
  0
TEXT
  5
143
330
1E
100
AcDbEntity
  8
MO_001_VIEW_PV
  6
C_SOLID_L
100
AcDbText
 10
147.5
 20
-72.071429
 30
0.0
 40
3.0
  1
(UL1430 AWG20)
 50
90.0
100
AcDbText
  0
TEXT
  5
144
330
1E
100
AcDbEntity
  8
MO_001_VIEW_PV
  6
C_SOLID_L
100
AcDbText
 10
47.416734
 20
-42.80674699999999
 30
0.0
 40
3.0
  1
2-M6 P1.0
100
AcDbText
  0
TEXT
  5
145
330
1E
100
AcDbEntity
  8
MO_001_VIEW_PV
  6
C_SOLID_L
100
AcDbText
 10
112.511719
 20
-86.08359399999999
 30
0.0
 40
4.167187
  1
図は励磁時を示す
100
AcDbText
  0
TEXT
  5
146
330
1E
100
AcDbEntity
  8
MO_001_VIEW_PV
  6
C_SOLID_L
100
AcDbText
 10
112.511719
 20
-80.08359399999999
 30
0.0
 40
4.167187
  1
単位：mm
100
AcDbText
  0
TEXT
  5
147
330
1E
100
AcDbEntity
  8
MO_001_VIEW_PV
  6
C_SOLID_L
100
AcDbText
 10
-25.488281
 20
-80.08359399999999
 30
0.0
 40
4.167187
  1
7SF PushPull
100
AcDbText
  0
DIMENSION
  5
149
330
1E
100
AcDbEntity
  8
MO_001_VIEW_PV
  6
C_SOLID_M
100
AcDbDimension
  2
*D0
 10
11.124996
 20
39.0
 30
0.0
 11
11.124996
 21
39.0
 31
0.0
  1
38以下
  3
STANDARD
100
AcDbAlignedDimension
 13
-7.750008
 23
30.0
 33
0.0
 14
30.0
 24
33.0
 34
0.0
100
AcDbRotatedDimension
  0
DIMENSION
  5
14B
330
1E
100
AcDbEntity
  8
MO_001_VIEW_PV
  6
C_SOLID_M
100
AcDbDimension
  2
*D1
 10
1.475
 20
45.0
 30
0.0
 11
1.475
 21
45.0
 31
0.0
  3
STANDARD
100
AcDbAlignedDimension
 13
-27.049999
 23
4.619412
 33
0.0
 14
30.0
 24
33.0
 34
0.0
100
AcDbRotatedDimension
  0
DIMENSION
  5
14D
330
1E
100
AcDbEntity
  8
MO_001_VIEW_PV
  6
C_SOLID_M
100
AcDbDimension
  2
*D2
 10
41.12499999999999
 20
45.0
 30
0.0
 11
41.12499999999999
 21
45.0
 31
0.0
  3
STANDARD
100
AcDbAlignedDimension
 13
30.0
 23
33.0
 33
0.0
 14
52.25
 24
4.564995999999999
 34
0.0
100
AcDbRotatedDimension
  0
DIMENSION
  5
14F
330
1E
100
AcDbEntity
  8
MO_001_VIEW_PV
  6
C_SOLID_M
100
AcDbDimension
  2
*D3
 10
42.0
 20
39.0
 30
0.0
 11
42.0
 21
39.0
 31
0.0
  3
STANDARD
100
AcDbAlignedDimension
 13
53.0
 23
24.25
 33
0.0
 14
30.0
 24
33.0
 34
0.0
100
AcDbRotatedDimension
  0
DIMENSION
  5
151
330
1E
100
AcDbEntity
  8
MO_001_VIEW_PV
  6
C_SOLID_M
100
AcDbDimension
  2
*D4
 10
60.824238
 20
16.75300799999999
 30
0.0
 11
60.824238
 21
16.75300799999999
 31
0.0
  3
STANDARD
100
AcDbAlignedDimension
 13
52.050003
 23
-4.764999999999999
 33
0.0
 14
52.050003
 24
4.764999999999999
 34
0.0
 50
89.999523
100
AcDbRotatedDimension
  0
DIMENSION
  5
153
330
1E
100
AcDbEntity
  8
MO_001_VIEW_PV
  6
C_SOLID_M
100
AcDbDimension
  2
*D5
 10
70.10616299999999
 20
-1.816956
 30
0.0
 11
70.10616299999999
 21
-1.816956
 31
0.0
  3
STANDARD
100
AcDbAlignedDimension
 13
103.4499969999999
 23
-22.25
 33
0.0
 14
103.4499969999999
 24
22.25
 34
0.0
 50
89.999523
100
AcDbRotatedDimension
  0
DIMENSION
  5
155
330
1E
100
AcDbEntity
  8
MO_001_VIEW_PV
  6
C_SOLID_M
100
AcDbDimension
  2
*D6
 10
111.0
 20
45.0
 30
0.0
 11
111.0
 21
45.0
 31
0.0
  1
%%C71以下
  3
STANDARD
100
AcDbAlignedDimension
 13
146.0
 23
0.0
 33
0.0
 14
76.0
 24
0.0
 34
0.0
100
AcDbRotatedDimension
  0
DIMENSION
  5
157
330
1E
100
AcDbEntity
  8
MO_001_VIEW_PV
  6
C_SOLID_M
100
AcDbDimension
  2
*D7
 10
141.0
 20
-54.0
 30
0.0
 11
141.0
 21
-54.0
 31
0.0
  1
長さ250以上
  3
STANDARD
100
AcDbAlignedDimension
 13
124.350006
 23
-32.353939
 33
0.0
 14
123.150009
 24
-70.5
 34
0.0
 50
89.999523
100
AcDbRotatedDimension
  0
LINE
  5
158
330
1E
100
AcDbEntity
  8
MO_001_VIEW_PV
  6
C_SOLID_L
100
AcDbLine
 10
40.999999
 20
-25.25
 30
0.0
 11
46.01180099999999
 21
-43.954301
 31
0.0
  0
POLYLINE
  5
159
330
1E
100
AcDbEntity
  8
MO_001_VIEW_PV
  6
C_SOLID_L
100
AcDb2dPolyline
 66
     1
 10
0.0
 20
0.0
 30
0.0
 70
     1
  0
VERTEX
  5
1F1
330
159
100
AcDbEntity
  8
MO_001_VIEW_PV
  6
C_SOLID_L
100
AcDbVertex
100
AcDb2dVertex
 10
42.422457
 20
-28.30417
 30
0.0
  0
VERTEX
  5
1F2
330
159
100
AcDbEntity
  8
MO_001_VIEW_PV
  6
C_SOLID_L
100
AcDbVertex
100
AcDb2dVertex
 10
41.131479
 20
-25.740691
 30
0.0
  0
VERTEX
  5
1F3
330
159
100
AcDbEntity
  8
MO_001_VIEW_PV
  6
C_SOLID_L
100
AcDbVertex
100
AcDb2dVertex
 10
41.295199
 20
-28.60621699999999
 30
0.0
  0
SEQEND
  5
1F4
330
159
100
AcDbEntity
  8
MO_001_VIEW_PV
  6
C_SOLID_L
  0
DIMENSION
  5
15F
330
1E
100
AcDbEntity
  8
MO_001_VIEW_PV
  6
C_SOLID_M
100
AcDbDimension
  2
*D8
 10
1.238002999999999
 20
-49.48164699999999
 30
0.0
 11
1.238002999999999
 21
-49.48164699999999
 31
0.0
  1
1.2
  3
STANDARD
100
AcDbAlignedDimension
 13
-8.900002
 23
-13.675
 33
0.0
 14
-7.699996999999999
 24
-32.800003
 34
0.0
100
AcDbRotatedDimension
  0
ENDSEC
  0
SECTION
  2
OBJECTS
  0
DICTIONARY
  5
1A
330
0
100
AcDbDictionary
  3
ACAD_GROUP
350
1B
  3
ACAD_MLINESTYLE
350
1C
  3
ACAD_LAYOUT
350
1BA
  3
ACAD_PLOTSETTINGS
350
1BB
1001
ACAD
1000
TREAT_AS_HARD
1070
     0
  0
DICTIONARY
  5
1C0
330
1E
100
AcDbDictionary
  3
ACAD_LAYOUTSELFREF
350
1C1
  0
DICTIONARY
  5
1C2
330
1F
100
AcDbDictionary
  3
ACAD_LAYOUTSELFREF
350
1C3
  0
DICTIONARY
  5
1B
102
{ACAD_REACTORS
330
1A
102
}
330
1A
100
AcDbDictionary
1001
ACAD
1000
TREAT_AS_HARD
1070
     0
  0
DICTIONARY
  5
1C
102
{ACAD_REACTORS
330
1A
102
}
330
1A
100
AcDbDictionary
  3
STANDARD
350
1D
1001
ACAD
1000
TREAT_AS_HARD
1070
     0
  0
DICTIONARY
  5
1BA
102
{ACAD_REACTORS
330
1A
102
}
330
1A
100
AcDbDictionary
1001
ACAD
1000
TREAT_AS_HARD
1070
     0
  0
DICTIONARY
  5
1BB
102
{ACAD_REACTORS
330
1A
102
}
330
1A
100
AcDbDictionary
1001
ACAD
1000
TREAT_AS_HARD
1070
     0
  0
XRECORD
  5
1C1
102
{ACAD_REACTORS
330
1C0
102
}
330
1C0
100
AcDbXrecord
340
1E
  0
XRECORD
  5
1C3
102
{ACAD_REACTORS
330
1C2
102
}
330
1C2
100
AcDbXrecord
340
1F
  0
MLINESTYLE
  5
1D
102
{ACAD_REACTORS
330
1C
102
}
330
1C
100
AcDbMlineStyle
  2
STANDARD
 70
     0
  3

 62
     0
 51
90.0
 52
90.0
 71
     2
 49
0.5
 62
   256
  6
BYLAYER
 49
-0.5
 62
   256
  6
BYLAYER
  0
ENDSEC
  0
EOF
