  0
SECTION
  2
HEADER
  9
$ACADVER
  1
AC1012
  9
$DWGCODEPAGE
  3
dos932
  9
$INSBASE
 10
0.0
 20
0.0
 30
0.0
  9
$EXTMIN
 10
-201.0205068737029
 20
-95.08758140156675
 30
-0.0000000349181948
  9
$EXTMAX
 10
135.0205100030423
 20
58.13391844736338
 30
0.0000000814935747
  9
$LIMMIN
 10
-201.0
 20
-98.208984
  9
$LIMMAX
 10
135.0
 20
60.0
  9
$ORTHOMODE
 70
     0
  9
$REGENMODE
 70
     1
  9
$FILLMODE
 70
     1
  9
$QTEXTMODE
 70
     0
  9
$MIRRTEXT
 70
     1
  9
$DRAGMODE
 70
     2
  9
$LTSCALE
 40
1.0
  9
$OSMODE
 70
    37
  9
$ATTMODE
 70
     1
  9
$TEXTSIZE
 40
4.1672
  9
$TRACEWID
 40
0.05
  9
$TEXTSTYLE
  7
STANDARD
  9
$CLAYER
  8
0
  9
$CELTYPE
  6
CONTINUOUS
  9
$CECOLOR
 62
   256
  9
$CELTSCALE
 40
1.0
  9
$DELOBJ
 70
     1
  9
$DISPSILH
 70
     0
  9
$DIMSCALE
 40
1.0
  9
$DIMASZ
 40
0.18
  9
$DIMEXO
 40
0.0625
  9
$DIMDLI
 40
0.38
  9
$DIMRND
 40
0.0
  9
$DIMDLE
 40
0.0
  9
$DIMEXE
 40
0.18
  9
$DIMTP
 40
0.0
  9
$DIMTM
 40
0.0
  9
$DIMTXT
 40
0.18
  9
$DIMCEN
 40
0.09
  9
$DIMTSZ
 40
0.0
  9
$DIMTOL
 70
     0
  9
$DIMLIM
 70
     0
  9
$DIMTIH
 70
     1
  9
$DIMTOH
 70
     1
  9
$DIMSE1
 70
     0
  9
$DIMSE2
 70
     0
  9
$DIMTAD
 70
     0
  9
$DIMZIN
 70
     0
  9
$DIMBLK
  1

  9
$DIMASO
 70
     1
  9
$DIMSHO
 70
     1
  9
$DIMPOST
  1

  9
$DIMAPOST
  1

  9
$DIMALT
 70
     0
  9
$DIMALTD
 70
     2
  9
$DIMALTF
 40
25.4
  9
$DIMLFAC
 40
1.0
  9
$DIMTOFL
 70
     0
  9
$DIMTVP
 40
0.0
  9
$DIMTIX
 70
     0
  9
$DIMSOXD
 70
     0
  9
$DIMSAH
 70
     0
  9
$DIMBLK1
  1

  9
$DIMBLK2
  1

  9
$DIMSTYLE
  2
STANDARD
  9
$DIMCLRD
 70
     0
  9
$DIMCLRE
 70
     0
  9
$DIMCLRT
 70
     0
  9
$DIMTFAC
 40
1.0
  9
$DIMGAP
 40
0.09
  9
$DIMJUST
 70
     0
  9
$DIMSD1
 70
     0
  9
$DIMSD2
 70
     0
  9
$DIMTOLJ
 70
     1
  9
$DIMTZIN
 70
     0
  9
$DIMALTZ
 70
     0
  9
$DIMALTTZ
 70
     0
  9
$DIMFIT
 70
     3
  9
$DIMUPT
 70
     0
  9
$DIMUNIT
 70
     2
  9
$DIMDEC
 70
     4
  9
$DIMTDEC
 70
     4
  9
$DIMALTU
 70
     2
  9
$DIMALTTD
 70
     2
  9
$DIMTXSTY
  7
STANDARD
  9
$DIMAUNIT
 70
     0
  9
$LUNITS
 70
     2
  9
$LUPREC
 70
     6
  9
$SKETCHINC
 40
0.1
  9
$FILLETRAD
 40
0.0
  9
$AUNITS
 70
     0
  9
$AUPREC
 70
     4
  9
$MENU
  1
acad
  9
$ELEVATION
 40
0.0
  9
$PELEVATION
 40
0.0
  9
$THICKNESS
 40
0.0
  9
$LIMCHECK
 70
     0
  9
$BLIPMODE
 70
     0
  9
$CHAMFERA
 40
0.0
  9
$CHAMFERB
 40
0.0
  9
$CHAMFERC
 40
0.0
  9
$CHAMFERD
 40
0.0
  9
$SKPOLY
 70
     0
  9
$TDCREATE
 40
2376122.594768958
  9
$TDUPDATE
 40
2451687.731778472
  9
$TDINDWG
 40
0.0034423611
  9
$TDUSRTIMER
 40
0.0034417824
  9
$USRTIMER
 70
     1
  9
$ANGBASE
 50
0.0
  9
$ANGDIR
 70
     0
  9
$PDMODE
 70
     0
  9
$PDSIZE
 40
0.0
  9
$PLINEWID
 40
0.0
  9
$COORDS
 70
     1
  9
$SPLFRAME
 70
     0
  9
$SPLINETYPE
 70
     6
  9
$SPLINESEGS
 70
     8
  9
$ATTDIA
 70
     0
  9
$ATTREQ
 70
     1
  9
$HANDLING
 70
 10241
  9
$HANDSEED
  5
20C
  9
$SURFTAB1
 70
     6
  9
$SURFTAB2
 70
     6
  9
$SURFTYPE
 70
     6
  9
$SURFU
 70
     6
  9
$SURFV
 70
     6
  9
$UCSNAME
  2

  9
$UCSORG
 10
0.0
 20
0.0
 30
0.0
  9
$UCSXDIR
 10
1.0
 20
0.0
 30
0.0
  9
$UCSYDIR
 10
0.0
 20
1.0
 30
0.0
  9
$PUCSNAME
  2

  9
$PUCSORG
 10
0.0
 20
0.0
 30
0.0
  9
$PUCSXDIR
 10
1.0
 20
0.0
 30
0.0
  9
$PUCSYDIR
 10
0.0
 20
1.0
 30
0.0
  9
$USERI1
 70
     0
  9
$USERI2
 70
     0
  9
$USERI3
 70
     0
  9
$USERI4
 70
     0
  9
$USERI5
 70
     0
  9
$USERR1
 40
0.0
  9
$USERR2
 40
0.0
  9
$USERR3
 40
0.0
  9
$USERR4
 40
0.0
  9
$USERR5
 40
0.0
  9
$WORLDVIEW
 70
     1
  9
$SHADEDGE
 70
     3
  9
$SHADEDIF
 70
    70
  9
$TILEMODE
 70
     1
  9
$MAXACTVP
 70
    16
  9
$PINSBASE
 10
0.0
 20
0.0
 30
0.0
  9
$PLIMCHECK
 70
     0
  9
$PEXTMIN
 10
-201.0
 20
-98.208984
 30
1.000000000000000E+20
  9
$PEXTMAX
 10
135.0
 20
60.0
 30
-1.000000000000000E+20
  9
$PLIMMIN
 10
0.0
 20
0.0
  9
$PLIMMAX
 10
12.0
 20
9.0
  9
$UNITMODE
 70
     0
  9
$VISRETAIN
 70
     0
  9
$PLINEGEN
 70
     0
  9
$PSLTSCALE
 70
     1
  9
$TREEDEPTH
 70
  3020
  9
$PICKSTYLE
 70
     1
  9
$CMLSTYLE
  2
STANDARD
  9
$CMLJUST
 70
     0
  9
$CMLSCALE
 40
1.0
  9
$SAVEIMAGES
 70
     1
  0
ENDSEC
  0
SECTION
  2
CLASSES
  0
CLASS
  1
ACDBDICTIONARYWDFLT
  2
AcDbDictionaryWithDefault
  3
AutoCAD 2000
 90
    32768
280
     0
281
     0
  0
CLASS
  1
ACDBPLACEHOLDER
  2
AcDbPlaceHolder
  3
AutoCAD 2000
 90
    32768
280
     0
281
     0
  0
CLASS
  1
LAYOUT
  2
AcDbLayout
  3
AutoCAD 2000
 90
    32768
280
     0
281
     0
  0
CLASS
  1
LONG_TRANSACTION
  2
AcDbLongTransaction
  3
AutoCAD 2000
 90
    32768
280
     0
281
     0
  0
CLASS
  1
LWPOLYLINE
  2
AcDbPolyline
  3
AutoCAD 2000
 90
    32768
280
     0
281
     1
  0
CLASS
  1
HATCH
  2
AcDbHatch
  3
AutoCAD 2000
 90
    32768
280
     0
281
     1
  0
CLASS
  1
XRECORD
  2
AcDbXrecord
  3
AutoCAD 2000
 90
    32768
280
     0
281
     0
  0
CLASS
  1
LONG_TRANSACTION
  2
AcDbLongTransaction
  3
AutoCAD 2000
 90
    32768
280
     0
281
     0
  0
CLASS
  1
LWPOLYLINE
  2
AcDbPolyline
  3
AutoCAD 2000
 90
    32768
280
     0
281
     1
  0
CLASS
  1
HATCH
  2
AcDbHatch
  3
AutoCAD 2000
 90
    32768
280
     0
281
     1
  0
CLASS
  1
XRECORD
  2
AcDbXrecord
  3
AutoCAD 2000
 90
    32768
280
     0
281
     0
  0
ENDSEC
  0
SECTION
  2
TABLES
  0
TABLE
  2
VPORT
  5
7
330
0
100
AcDbSymbolTable
 70
     2
  0
VPORT
  5
1C0
330
7
100
AcDbSymbolTableRecord
100
AcDbViewportTableRecord
  2
*ACTIVE
 70
     0
 10
0.0
 20
0.0
 11
1.0
 21
1.0
 12
-32.99999843533032
 22
-19.104492
 13
0.0
 23
0.0
 14
6.349999999999998
 24
6.349999999999998
 15
6.349999999999998
 25
6.349999999999998
 16
0.0
 26
0.0
 36
1.0
 17
0.0
 27
0.0
 37
0.0
 40
205.6637624388858
 41
1.644214162348877
 42
50.0
 43
0.0
 44
0.0
 50
0.0
 51
0.0
 71
     0
 72
   100
 73
     1
 74
     1
 75
     0
 76
     0
 77
     0
 78
     0
  0
ENDTAB
  0
TABLE
  2
LTYPE
  5
4
330
0
100
AcDbSymbolTable
 70
    37
  0
LTYPE
  5
12
330
4
100
AcDbSymbolTableRecord
100
AcDbLinetypeTableRecord
  2
BYBLOCK
 70
     0
  3

 72
    65
 73
     0
 40
0.0
  0
LTYPE
  5
13
330
4
100
AcDbSymbolTableRecord
100
AcDbLinetypeTableRecord
  2
BYLAYER
 70
     0
  3

 72
    65
 73
     0
 40
0.0
  0
LTYPE
  5
14
330
4
100
AcDbSymbolTableRecord
100
AcDbLinetypeTableRecord
  2
CONTINUOUS
 70
     0
  3
DXF Default line type
 72
    65
 73
     0
 40
0.0
  0
LTYPE
  5
20
330
4
100
AcDbSymbolTableRecord
100
AcDbLinetypeTableRecord
  2
DASHED
 70
     0
  3
DXF Dashed
 72
    65
 73
     2
 40
0.75
 49
0.5
 74
     0
 49
-0.25
 74
     0
  0
LTYPE
  5
21
330
4
100
AcDbSymbolTableRecord
100
AcDbLinetypeTableRecord
  2
HIDDEN
 70
     0
  3
DXF Hidden
 72
    65
 73
     2
 40
0.375
 49
0.25
 74
     0
 49
-0.125
 74
     0
  0
LTYPE
  5
22
330
4
100
AcDbSymbolTableRecord
100
AcDbLinetypeTableRecord
  2
CENTER
 70
     0
  3
DXF Center
 72
    65
 73
     4
 40
2.0
 49
1.25
 74
     0
 49
-0.25
 74
     0
 49
0.25
 74
     0
 49
-0.25
 74
     0
  0
LTYPE
  5
23
330
4
100
AcDbSymbolTableRecord
100
AcDbLinetypeTableRecord
  2
PHANTOM
 70
     0
  3
DXF Phantom
 72
    65
 73
     6
 40
2.5
 49
1.25
 74
     0
 49
-0.25
 74
     0
 49
0.25
 74
     0
 49
-0.25
 74
     0
 49
0.25
 74
     0
 49
-0.25
 74
     0
  0
LTYPE
  5
24
330
4
100
AcDbSymbolTableRecord
100
AcDbLinetypeTableRecord
  2
DOT
 70
     0
  3
DXF DOT
 72
    65
 73
     2
 40
0.25
 49
0.0
 74
     0
 49
-0.25
 74
     0
  0
LTYPE
  5
25
330
4
100
AcDbSymbolTableRecord
100
AcDbLinetypeTableRecord
  2
DASHDOT
 70
     0
  3
DXF Dash Dot
 72
    65
 73
     4
 40
1.0
 49
0.5
 74
     0
 49
-0.25
 74
     0
 49
0.0
 74
     0
 49
-0.25
 74
     0
  0
LTYPE
  5
26
330
4
100
AcDbSymbolTableRecord
100
AcDbLinetypeTableRecord
  2
BORDER
 70
     0
  3
DXF Border
 72
    65
 73
     6
 40
1.75
 49
0.5
 74
     0
 49
-0.25
 74
     0
 49
0.5
 74
     0
 49
-0.25
 74
     0
 49
0.0
 74
     0
 49
-0.25
 74
     0
  0
LTYPE
  5
27
330
4
100
AcDbSymbolTableRecord
100
AcDbLinetypeTableRecord
  2
DIVIDE
 70
     0
  3
DXF Divide
 72
    65
 73
     6
 40
1.25
 49
0.5
 74
     0
 49
-0.25
 74
     0
 49
0.0
 74
     0
 49
-0.25
 74
     0
 49
0.0
 74
     0
 49
-0.25
 74
     0
  0
LTYPE
  5
28
330
4
100
AcDbSymbolTableRecord
100
AcDbLinetypeTableRecord
  2
C_SOLID_L
 70
     0
  3
CADAM Solid Light
 72
    65
 73
     0
 40
0.0
  0
LTYPE
  5
29
330
4
100
AcDbSymbolTableRecord
100
AcDbLinetypeTableRecord
  2
C_SOLID_M
 70
     0
  3
CADAM Solid Medium
 72
    65
 73
     0
 40
0.0
  0
LTYPE
  5
2A
330
4
100
AcDbSymbolTableRecord
100
AcDbLinetypeTableRecord
  2
C_SOLID_H
 70
     0
  3
CADAM Solid Heavy
 72
    65
 73
     0
 40
0.0
  0
LTYPE
  5
2B
330
4
100
AcDbSymbolTableRecord
100
AcDbLinetypeTableRecord
  2
C_DASHED_L
 70
     0
  3
CADAM Dashed Light
 72
    65
 73
     2
 40
0.375
 49
0.25
 74
     0
 49
-0.125
 74
     0
  0
LTYPE
  5
2C
330
4
100
AcDbSymbolTableRecord
100
AcDbLinetypeTableRecord
  2
C_DASHED_M
 70
     0
  3
CADAM Dashed Medium
 72
    65
 73
     2
 40
0.5
 49
0.375
 74
     0
 49
-0.125
 74
     0
  0
LTYPE
  5
2D
330
4
100
AcDbSymbolTableRecord
100
AcDbLinetypeTableRecord
  2
C_CENTER_L
 70
     0
  3
CADAM Center Light
 72
    65
 73
     4
 40
2.0
 49
1.25
 74
     0
 49
-0.25
 74
     0
 49
0.25
 74
     0
 49
-0.25
 74
     0
  0
LTYPE
  5
2E
330
4
100
AcDbSymbolTableRecord
100
AcDbLinetypeTableRecord
  2
C_PHANTOM_L
 70
     0
  3
CADAM Phantom Light
 72
    65
 73
     6
 40
2.5
 49
1.25
 74
     0
 49
-0.25
 74
     0
 49
0.25
 74
     0
 49
-0.25
 74
     0
 49
0.25
 74
     0
 49
-0.25
 74
     0
  0
LTYPE
  5
2F
330
4
100
AcDbSymbolTableRecord
100
AcDbLinetypeTableRecord
  2
C_BREAK_M
 70
     0
  3
CADAM Break Medium
 72
    65
 73
     4
 40
1.0
 49
0.5
 74
     0
 49
-0.25
 74
     0
 49
0.0
 74
     0
 49
-0.25
 74
     0
  0
LTYPE
  5
30
330
4
100
AcDbSymbolTableRecord
100
AcDbLinetypeTableRecord
  2
C_NC
 70
     0
  3
CADAM NC
 72
    65
 73
     0
 40
0.0
  0
LTYPE
  5
31
330
4
100
AcDbSymbolTableRecord
100
AcDbLinetypeTableRecord
  2
DSH1
 70
     0
  3
CADAM Style2 Type 1 Dashed Line
 72
    65
 73
     2
 40
0.075
 49
0.04
 74
     0
 49
-0.035
 74
     0
  0
LTYPE
  5
32
330
4
100
AcDbSymbolTableRecord
100
AcDbLinetypeTableRecord
  2
DSH2
 70
     0
  3
CADAM Style2 Type 2 Dashed Line
 72
    65
 73
     2
 40
0.15
 49
0.11
 74
     0
 49
-0.04
 74
     0
  0
LTYPE
  5
33
330
4
100
AcDbSymbolTableRecord
100
AcDbLinetypeTableRecord
  2
DSH3
 70
     0
  3
CADAM Style2 Type 3 Dashed Line
 72
    65
 73
     2
 40
0.2
 49
0.15
 74
     0
 49
-0.05
 74
     0
  0
LTYPE
  5
34
330
4
100
AcDbSymbolTableRecord
100
AcDbLinetypeTableRecord
  2
DSH4
 70
     0
  3
CADAM Style2 Type 4 Dashed Line
 72
    65
 73
     2
 40
0.36
 49
0.28
 74
     0
 49
-0.08
 74
     0
  0
LTYPE
  5
35
330
4
100
AcDbSymbolTableRecord
100
AcDbLinetypeTableRecord
  2
DSH5
 70
     0
  3
CADAM Style2 Type 5 Dashed Line
 72
    65
 73
     2
 40
0.47
 49
0.39
 74
     0
 49
-0.08
 74
     0
  0
LTYPE
  5
36
330
4
100
AcDbSymbolTableRecord
100
AcDbLinetypeTableRecord
  2
DSH6
 70
     0
  3
CADAM Style2 Type 6 Dashed Line
 72
    65
 73
     2
 40
0.9
 49
0.8100000000000001
 74
     0
 49
-0.09
 74
     0
  0
LTYPE
  5
37
330
4
100
AcDbSymbolTableRecord
100
AcDbLinetypeTableRecord
  2
PL1
 70
     0
  3
Style 2 Type 1 Phantom Line
 72
    65
 73
     6
 40
1.0
 49
0.6
 74
     0
 49
-0.08
 74
     0
 49
0.08
 74
     0
 49
-0.08
 74
     0
 49
0.08
 74
     0
 49
-0.08
 74
     0
  0
LTYPE
  5
38
330
4
100
AcDbSymbolTableRecord
100
AcDbLinetypeTableRecord
  2
PL2
 70
     0
  3
Style 2 Type 2 Phantom Line
 72
    65
 73
     6
 40
1.08
 49
0.6
 74
     0
 49
-0.08
 74
     0
 49
0.12
 74
     0
 49
-0.08
 74
     0
 49
0.12
 74
     0
 49
-0.08
 74
     0
  0
LTYPE
  5
39
330
4
100
AcDbSymbolTableRecord
100
AcDbLinetypeTableRecord
  2
PL3
 70
     0
  3
Style 2 Type 3 Phantom Line
 72
    65
 73
     6
 40
2.0
 49
1.439999999999999
 74
     0
 49
-0.08
 74
     0
 49
0.16
 74
     0
 49
-0.08
 74
     0
 49
0.16
 74
     0
 49
-0.08
 74
     0
  0
LTYPE
  5
3A
330
4
100
AcDbSymbolTableRecord
100
AcDbLinetypeTableRecord
  2
CL1
 70
     0
  3
CADAM Style 2 Type 1 Center Line
 72
    65
 73
     4
 40
0.7
 49
0.45
 74
     0
 49
-0.06
 74
     0
 49
0.13
 74
     0
 49
-0.06
 74
     0
  0
LTYPE
  5
3B
330
4
100
AcDbSymbolTableRecord
100
AcDbLinetypeTableRecord
  2
CL2
 70
     0
  3
CADAM Style 2 Type 2 Center Line
 72
    65
 73
     4
 40
1.199999999999999
 49
1.01
 74
     0
 49
-0.06
 74
     0
 49
0.11
 74
     0
 49
-0.06
 74
     0
  0
LTYPE
  5
3C
330
4
100
AcDbSymbolTableRecord
100
AcDbLinetypeTableRecord
  2
CL3
 70
     0
  3
CADAM Style 2 Type 3 Center Line
 72
    65
 73
     4
 40
1.199999999999999
 49
0.98
 74
     0
 49
-0.06
 74
     0
 49
0.1
 74
     0
 49
-0.06
 74
     0
  0
LTYPE
  5
3D
330
4
100
AcDbSymbolTableRecord
100
AcDbLinetypeTableRecord
  2
CL4
 70
     0
  3
CADAM Style 2 Type 4 Center Line
 72
    65
 73
     4
 40
2.2
 49
1.929999999999999
 74
     0
 49
-0.07
 74
     0
 49
0.13
 74
     0
 49
-0.07
 74
     0
  0
LTYPE
  5
3E
330
4
100
AcDbSymbolTableRecord
100
AcDbLinetypeTableRecord
  2
CL5
 70
     0
  3
CADAM Style 2 Type 5 Center Line
 72
    65
 73
     4
 40
2.2
 49
1.879999999999999
 74
     0
 49
-0.07
 74
     0
 49
0.18
 74
     0
 49
-0.07
 74
     0
  0
LTYPE
  5
3F
330
4
100
AcDbSymbolTableRecord
100
AcDbLinetypeTableRecord
  2
SBK1
 70
     0
  3
CADAM Style 2 Type 1 SetBack Line
 72
    65
 73
     8
 40
2.7
 49
0.1
 74
     0
 49
-0.08
 74
     0
 49
0.1
 74
     0
 49
-0.8
 74
     0
 49
0.0
 74
     0
 49
0.0
 74
     0
 49
0.0
 74
     0
 49
0.0
 74
     0
  0
LTYPE
  5
40
330
4
100
AcDbSymbolTableRecord
100
AcDbLinetypeTableRecord
  2
SBK2
 70
     0
  3
CADAM Style 2 Type 2 SetBack Line
 72
    65
 73
     8
 40
3.709999999999998
 49
0.13
 74
     0
 49
-0.08
 74
     0
 49
0.13
 74
     0
 49
-0.8
 74
     0
 49
0.0
 74
     0
 49
0.0
 74
     0
 49
0.0
 74
     0
 49
0.0
 74
     0
  0
LTYPE
  5
41
330
4
100
AcDbSymbolTableRecord
100
AcDbLinetypeTableRecord
  2
STCH
 70
     0
  3
CADAM Style2 Stitch Line
 72
    65
 73
     2
 40
0.25
 49
0.0
 74
     0
 49
-0.25
 74
     0
  0
LTYPE
  5
42
330
4
100
AcDbSymbolTableRecord
100
AcDbLinetypeTableRecord
  2
MTCH
 70
     0
  3
CADAM Style2 Match Line
 72
    65
 73
     6
 40
2.0
 49
1.439999999999999
 74
     0
 49
-0.8
 74
     0
 49
0.16
 74
     0
 49
-0.08
 74
     0
 49
0.16
 74
     0
 49
-0.08
 74
     0
  0
LTYPE
  5
43
330
4
100
AcDbSymbolTableRecord
100
AcDbLinetypeTableRecord
  2
SLD
 70
     0
  3
CADAM Solid_EXT2
 72
    65
 73
     0
 40
0.0
  0
ENDTAB
  0
TABLE
  2
LAYER
  5
2
330
0
100
AcDbSymbolTable
 70
     7
  0
LAYER
  5
15
330
2
100
AcDbSymbolTableRecord
100
AcDbLayerTableRecord
  2
0
 70
     0
 62
     7
  6
CONTINUOUS
  0
LAYER
  5
44
330
2
100
AcDbSymbolTableRecord
100
AcDbLayerTableRecord
  2
MO_001_NOSHOW
 70
     1
 62
     7
  6
CONTINUOUS
  0
LAYER
  5
45
330
2
100
AcDbSymbolTableRecord
100
AcDbLayerTableRecord
  2
MO_001_VIEW_PV
 70
     0
 62
     7
  6
CONTINUOUS
  0
LAYER
  5
46
330
2
100
AcDbSymbolTableRecord
100
AcDbLayerTableRecord
  2
OVERLAY_MAP
 70
     1
 62
     7
  6
CONTINUOUS
  0
LAYER
  5
47
330
2
100
AcDbSymbolTableRecord
100
AcDbLayerTableRecord
  2
DITTOS
 70
     0
 62
     7
  6
CONTINUOUS
  0
LAYER
  5
48
330
2
100
AcDbSymbolTableRecord
100
AcDbLayerTableRecord
  2
SYMBOLS
 70
     0
 62
     7
  6
CONTINUOUS
  0
LAYER
  5
49
330
2
100
AcDbSymbolTableRecord
100
AcDbLayerTableRecord
  2
SETS
 70
     0
 62
     7
  6
CONTINUOUS
  0
ENDTAB
  0
TABLE
  2
STYLE
  5
3
330
0
100
AcDbSymbolTable
 70
     1
  0
STYLE
  5
18
330
3
100
AcDbSymbolTableRecord
100
AcDbTextStyleTableRecord
  2
STANDARD
 70
     0
 40
4.1672
 41
1.0
 50
0.0
 71
     0
 42
4.1672
  3
monotxt
  4
BIGFONT
  0
ENDTAB
  0
TABLE
  2
VIEW
  5
5
330
0
100
AcDbSymbolTable
 70
     0
  0
ENDTAB
  0
TABLE
  2
UCS
  5
6
330
0
100
AcDbSymbolTable
 70
     1
  0
UCS
  5
4A
330
6
100
AcDbSymbolTableRecord
100
AcDbUCSTableRecord
  2
MO_001_VIEW_PV_P
 70
     0
 10
0.0
 20
0.0
 30
0.0
 11
1.0
 21
0.0
 31
0.0
 12
-0.0000000002051034
 22
1.0
 32
0.0
  0
ENDTAB
  0
TABLE
  2
APPID
  5
8
330
0
100
AcDbSymbolTable
 70
     1
  0
APPID
  5
17
330
8
100
AcDbSymbolTableRecord
100
AcDbRegAppTableRecord
  2
ACAD
 70
     0
  0
ENDTAB
  0
TABLE
  2
DIMSTYLE
  5
9
330
0
100
AcDbSymbolTable
 70
     1
  0
DIMSTYLE
105
19
102
{ACAD_REACTORS
330
104
330
106
330
108
330
10A
330
10C
330
10E
330
110
102
}
330
9
100
AcDbSymbolTableRecord
100
AcDbDimStyleTableRecord
  2
STANDARD
 70
     0
  3

  4

  5

  6

  7

 40
1.0
 41
0.18
 42
0.0625
 43
0.38
 44
0.18
 45
0.0
 46
0.0
 47
0.0
 48
0.0
140
0.18
141
0.09
142
0.0
143
25.4
144
1.0
145
0.0
146
1.0
147
0.09
 71
     0
 72
     0
 73
     1
 74
     1
 75
     0
 76
     0
 77
     0
 78
     0
170
     0
171
     2
172
     0
173
     0
174
     0
175
     0
176
     0
177
     0
178
     0
270
     2
271
     4
272
     4
273
     2
274
     2
340
18
275
     0
280
     0
281
     0
282
     0
283
     1
284
     0
285
     0
286
     0
287
     3
288
     0
  0
ENDTAB
  0
TABLE
  2
BLOCK_RECORD
  5
C
330
0
100
AcDbSymbolTable
 70
     7
  0
BLOCK_RECORD
  5
1E
102
{ACAD_XDICTIONARY
360
16A
102
}
330
C
100
AcDbSymbolTableRecord
100
AcDbBlockTableRecord
  2
*MODEL_SPACE
  0
BLOCK_RECORD
  5
1F
102
{ACAD_XDICTIONARY
360
16C
102
}
330
C
100
AcDbSymbolTableRecord
100
AcDbBlockTableRecord
  2
*PAPER_SPACE
  0
BLOCK_RECORD
  5
103
330
C
100
AcDbSymbolTableRecord
100
AcDbBlockTableRecord
  2
*D0
  0
BLOCK_RECORD
  5
105
330
C
100
AcDbSymbolTableRecord
100
AcDbBlockTableRecord
  2
*D1
  0
BLOCK_RECORD
  5
107
330
C
100
AcDbSymbolTableRecord
100
AcDbBlockTableRecord
  2
*D2
  0
BLOCK_RECORD
  5
109
330
C
100
AcDbSymbolTableRecord
100
AcDbBlockTableRecord
  2
*D3
  0
BLOCK_RECORD
  5
10B
330
C
100
AcDbSymbolTableRecord
100
AcDbBlockTableRecord
  2
*D4
  0
BLOCK_RECORD
  5
10D
330
C
100
AcDbSymbolTableRecord
100
AcDbBlockTableRecord
  2
*D5
  0
BLOCK_RECORD
  5
10F
330
C
100
AcDbSymbolTableRecord
100
AcDbBlockTableRecord
  2
*D6
  0
ENDTAB
  0
ENDSEC
  0
SECTION
  2
BLOCKS
  0
BLOCK
  5
E
330
1E
100
AcDbEntity
  8
0
100
AcDbBlockBegin
  2
*MODEL_SPACE
 70
     0
 10
0.0
 20
0.0
 30
0.0
  3
*MODEL_SPACE
  1

  0
ENDBLK
  5
F
330
1E
100
AcDbEntity
  8
0
100
AcDbBlockEnd
  0
BLOCK
  5
10
330
1F
100
AcDbEntity
 67
     1
  8
0
100
AcDbBlockBegin
  2
*PAPER_SPACE
 70
     0
 10
0.0
 20
0.0
 30
0.0
  3
*PAPER_SPACE
  1

  0
ENDBLK
  5
11
330
1F
100
AcDbEntity
 67
     1
  8
0
100
AcDbBlockEnd
  0
BLOCK
  5
11D
330
103
100
AcDbEntity
  8
0
100
AcDbBlockBegin
  2
*D0
 70
     1
 10
0.0
 20
0.0
 30
0.0
  3
*D0
  1

  0
TEXT
  5
11E
330
103
100
AcDbEntity
  8
MO_001_VIEW_PV
  6
BYBLOCK
100
AcDbText
 10
27.375
 20
27.825538
 30
0.0
 40
1.5
  1
%%P0.03
 50
90.0
100
AcDbText
  0
TEXT
  5
11F
330
103
100
AcDbEntity
  8
MO_001_VIEW_PV
  6
BYBLOCK
100
AcDbText
 10
29.25
 20
10.039823
 30
0.0
 40
3.0
  1
%%C11.11
 50
90.0
100
AcDbText
  0
LINE
  5
120
330
103
100
AcDbEntity
  8
MO_001_VIEW_PV
  6
BYBLOCK
100
AcDbLine
 10
30.0
 20
-5.554999999999998
 30
0.0
 11
30.0
 21
5.554999999999998
 31
0.0
  0
LINE
  5
121
330
103
100
AcDbEntity
  8
MO_001_VIEW_PV
  6
BYBLOCK
100
AcDbLine
 10
30.0
 20
-5.554999999999998
 30
0.0
 11
30.0
 21
-11.90499999999999
 31
0.0
  0
LINE
  5
122
330
103
100
AcDbEntity
  8
MO_001_VIEW_PV
  6
BYBLOCK
100
AcDbLine
 10
30.0
 20
5.554999999999998
 30
0.0
 11
30.0
 21
11.90499999999999
 31
0.0
  0
SOLID
  5
123
330
103
100
AcDbEntity
  8
MO_001_VIEW_PV
  6
BYBLOCK
100
AcDbTrace
 10
30.583512
 20
-8.87326
 30
0.0
 11
30.0
 21
-6.062999999999998
 31
0.0
 12
29.416488
 22
-8.87326
 32
0.0
 13
29.416488
 23
-8.87326
 33
0.0
  0
SOLID
  5
124
330
103
100
AcDbEntity
  8
MO_001_VIEW_PV
  6
BYBLOCK
100
AcDbTrace
 10
29.416488
 20
8.87326
 30
0.0
 11
30.0
 21
6.062999999999998
 31
0.0
 12
30.583512
 22
8.87326
 32
0.0
 13
30.583512
 23
8.87326
 33
0.0
  0
LINE
  5
125
330
103
100
AcDbEntity
  8
MO_001_VIEW_PV
  6
BYBLOCK
100
AcDbLine
 10
22.0
 20
-5.554999999999998
 30
0.0
 11
32.28599899999998
 21
-5.554999999999998
 31
0.0
  0
LINE
  5
126
330
103
100
AcDbEntity
  8
MO_001_VIEW_PV
  6
BYBLOCK
100
AcDbLine
 10
22.0
 20
5.554999999999998
 30
0.0
 11
32.28599899999998
 21
5.554999999999998
 31
0.0
  0
LINE
  5
127
330
103
100
AcDbEntity
  8
MO_001_VIEW_PV
  6
BYBLOCK
100
AcDbLine
 10
30.0
 20
5.554999999999998
 30
0.0
 11
30.0
 21
35.646965
 31
0.0
  0
ENDBLK
  5
128
330
103
100
AcDbEntity
  8
0
100
AcDbBlockEnd
  0
BLOCK
  5
129
330
105
100
AcDbEntity
  8
0
100
AcDbBlockBegin
  2
*D1
 70
     1
 10
0.0
 20
0.0
 30
0.0
  3
*D1
  1

  0
TEXT
  5
12A
330
105
100
AcDbEntity
  8
MO_001_VIEW_PV
  6
BYBLOCK
100
AcDbText
 10
14.31428399999999
 20
50.625
 30
0.0
 40
1.5
  1
%%P0.5
100
AcDbText
  0
TEXT
  5
12B
330
105
100
AcDbEntity
  8
MO_001_VIEW_PV
  6
BYBLOCK
100
AcDbText
 10
2.52857
 20
48.75
 30
0.0
 40
3.0
  1
22.2
100
AcDbText
  0
LINE
  5
12C
330
105
100
AcDbEntity
  8
MO_001_VIEW_PV
  6
BYBLOCK
100
AcDbLine
 10
0.0
 20
48.0
 30
0.0
 11
22.199997
 21
48.0
 31
0.0
  0
SOLID
  5
12D
330
105
100
AcDbEntity
  8
MO_001_VIEW_PV
  6
BYBLOCK
100
AcDbTrace
 10
3.318259999999998
 20
48.583512
 30
0.0
 11
0.508
 21
48.0
 31
0.0
 12
3.318259999999998
 22
47.416488
 32
0.0
 13
3.318259999999998
 23
47.416488
 33
0.0
  0
SOLID
  5
12E
330
105
100
AcDbEntity
  8
MO_001_VIEW_PV
  6
BYBLOCK
100
AcDbTrace
 10
18.881737
 20
47.416488
 30
0.0
 11
21.691997
 21
48.0
 31
0.0
 12
18.881737
 22
48.583512
 32
0.0
 13
18.881737
 23
48.583512
 33
0.0
  0
LINE
  5
12F
330
105
100
AcDbEntity
  8
MO_001_VIEW_PV
  6
BYBLOCK
100
AcDbLine
 10
0.0
 20
37.850006
 30
0.0
 11
0.0
 21
50.28599899999999
 31
0.0
  0
LINE
  5
130
330
105
100
AcDbEntity
  8
MO_001_VIEW_PV
  6
BYBLOCK
100
AcDbLine
 10
22.199997
 20
5.354998999999998
 30
0.0
 11
22.199997
 21
50.28599899999999
 31
0.0
  0
ENDBLK
  5
131
330
105
100
AcDbEntity
  8
0
100
AcDbBlockEnd
  0
BLOCK
  5
132
330
107
100
AcDbEntity
  8
0
100
AcDbBlockBegin
  2
*D2
 70
     1
 10
0.0
 20
0.0
 30
0.0
  3
*D2
  1

  0
TEXT
  5
133
330
107
100
AcDbEntity
  8
MO_001_VIEW_PV
  6
BYBLOCK
100
AcDbText
 10
-46.27142899999999
 20
48.75
 30
0.0
 40
3.0
  1
82.5以下
100
AcDbText
  0
LINE
  5
134
330
107
100
AcDbEntity
  8
MO_001_VIEW_PV
  6
BYBLOCK
100
AcDbLine
 10
0.0
 20
48.0
 30
0.0
 11
-81.40000200000001
 21
48.0
 31
0.0
  0
SOLID
  5
135
330
107
100
AcDbEntity
  8
MO_001_VIEW_PV
  6
BYBLOCK
100
AcDbTrace
 10
-3.318259999999998
 20
47.416488
 30
0.0
 11
-0.508
 21
48.0
 31
0.0
 12
-3.318259999999998
 22
48.583512
 32
0.0
 13
-3.318259999999998
 23
48.583512
 33
0.0
  0
SOLID
  5
136
330
107
100
AcDbEntity
  8
MO_001_VIEW_PV
  6
BYBLOCK
100
AcDbTrace
 10
-78.08174100000002
 20
48.583512
 30
0.0
 11
-80.892002
 21
48.0
 31
0.0
 12
-78.08174100000002
 22
47.416488
 32
0.0
 13
-78.08174100000002
 23
47.416488
 33
0.0
  0
LINE
  5
137
330
107
100
AcDbEntity
  8
MO_001_VIEW_PV
  6
BYBLOCK
100
AcDbLine
 10
0.0
 20
37.850006
 30
0.0
 11
0.0
 21
50.28599899999999
 31
0.0
  0
LINE
  5
138
330
107
100
AcDbEntity
  8
MO_001_VIEW_PV
  6
BYBLOCK
100
AcDbLine
 10
-81.40000200000001
 20
40.59999799999999
 30
0.0
 11
-81.40000200000001
 21
50.28599899999999
 31
0.0
  0
ENDBLK
  5
139
330
107
100
AcDbEntity
  8
0
100
AcDbBlockEnd
  0
BLOCK
  5
13A
330
109
100
AcDbEntity
  8
0
100
AcDbBlockBegin
  2
*D3
 70
     1
 10
0.0
 20
0.0
 30
0.0
  3
*D3
  1

  0
TEXT
  5
13B
330
109
100
AcDbEntity
  8
MO_001_VIEW_PV
  6
BYBLOCK
100
AcDbText
 10
-50.785714
 20
56.625
 30
0.0
 40
1.5
  1
%%P1.0
100
AcDbText
  0
TEXT
  5
13C
330
109
100
AcDbEntity
  8
MO_001_VIEW_PV
  6
BYBLOCK
100
AcDbText
 10
-59.571429
 20
54.75
 30
0.0
 40
3.0
  1
105
100
AcDbText
  0
LINE
  5
13D
330
109
100
AcDbEntity
  8
MO_001_VIEW_PV
  6
BYBLOCK
100
AcDbLine
 10
-105.0
 20
54.0
 30
0.0
 11
0.0
 21
54.0
 31
0.0
  0
SOLID
  5
13E
330
109
100
AcDbEntity
  8
MO_001_VIEW_PV
  6
BYBLOCK
100
AcDbTrace
 10
-101.68174
 20
54.583512
 30
0.0
 11
-104.492
 21
54.0
 31
0.0
 12
-101.68174
 22
53.416488
 32
0.0
 13
-101.68174
 23
53.416488
 33
0.0
  0
SOLID
  5
13F
330
109
100
AcDbEntity
  8
MO_001_VIEW_PV
  6
BYBLOCK
100
AcDbTrace
 10
-3.318259999999998
 20
53.416488
 30
0.0
 11
-0.508
 21
54.0
 31
0.0
 12
-3.318259999999998
 22
54.583512
 32
0.0
 13
-3.318259999999998
 23
54.583512
 33
0.0
  0
LINE
  5
140
330
109
100
AcDbEntity
  8
MO_001_VIEW_PV
  6
BYBLOCK
100
AcDbLine
 10
-105.0
 20
5.409411
 30
0.0
 11
-105.0
 21
56.285999
 31
0.0
  0
LINE
  5
141
330
109
100
AcDbEntity
  8
MO_001_VIEW_PV
  6
BYBLOCK
100
AcDbLine
 10
0.0
 20
37.850006
 30
0.0
 11
0.0
 21
56.285999
 31
0.0
  0
ENDBLK
  5
142
330
109
100
AcDbEntity
  8
0
100
AcDbBlockEnd
  0
BLOCK
  5
143
330
10B
100
AcDbEntity
  8
0
100
AcDbBlockBegin
  2
*D4
 70
     1
 10
0.0
 20
0.0
 30
0.0
  3
*D4
  1

  0
TEXT
  5
144
330
10B
100
AcDbEntity
  8
MO_001_VIEW_PV
  6
BYBLOCK
100
AcDbText
 10
82.92857099999997
 20
54.75
 30
0.0
 40
3.0
  1
%%C87以下
100
AcDbText
  0
LINE
  5
145
330
10B
100
AcDbEntity
  8
MO_001_VIEW_PV
  6
BYBLOCK
100
AcDbLine
 10
47.14999399999999
 20
54.0
 30
0.0
 11
132.850006
 21
54.0
 31
0.0
  0
SOLID
  5
146
330
10B
100
AcDbEntity
  8
MO_001_VIEW_PV
  6
BYBLOCK
100
AcDbTrace
 10
50.46825399999999
 20
54.583512
 30
0.0
 11
47.657994
 21
54.0
 31
0.0
 12
50.46825399999999
 22
53.416488
 32
0.0
 13
50.46825399999999
 23
53.416488
 33
0.0
  0
SOLID
  5
147
330
10B
100
AcDbEntity
  8
MO_001_VIEW_PV
  6
BYBLOCK
100
AcDbTrace
 10
129.5317459999999
 20
53.416488
 30
0.0
 11
132.3420059999999
 21
54.0
 31
0.0
 12
129.5317459999999
 22
54.583512
 32
0.0
 13
129.5317459999999
 23
54.583512
 33
0.0
  0
LINE
  5
148
330
10B
100
AcDbEntity
  8
MO_001_VIEW_PV
  6
BYBLOCK
100
AcDbLine
 10
47.14999399999999
 20
0.0
 30
0.0
 11
47.14999399999999
 21
56.285999
 31
0.0
  0
LINE
  5
149
330
10B
100
AcDbEntity
  8
MO_001_VIEW_PV
  6
BYBLOCK
100
AcDbLine
 10
132.850006
 20
0.0
 30
0.0
 11
132.850006
 21
56.285999
 31
0.0
  0
ENDBLK
  5
14A
330
10B
100
AcDbEntity
  8
0
100
AcDbBlockEnd
  0
BLOCK
  5
14B
330
10D
100
AcDbEntity
  8
0
100
AcDbBlockBegin
  2
*D5
 70
     1
 10
0.0
 20
0.0
 30
0.0
  3
*D5
  1

  0
TEXT
  5
14C
330
10D
100
AcDbEntity
  8
MO_001_VIEW_PV
  6
BYBLOCK
100
AcDbText
 10
90.214286
 20
50.625
 30
0.0
 40
1.5
  1
%%P0.3
100
AcDbText
  0
TEXT
  5
14D
330
10D
100
AcDbEntity
  8
MO_001_VIEW_PV
  6
BYBLOCK
100
AcDbText
 10
84.42857099999997
 20
48.75
 30
0.0
 40
3.0
  1
54
100
AcDbText
  0
LINE
  5
14E
330
10D
100
AcDbEntity
  8
MO_001_VIEW_PV
  6
BYBLOCK
100
AcDbLine
 10
63.0
 20
48.0
 30
0.0
 11
117.0
 21
48.0
 31
0.0
  0
SOLID
  5
14F
330
10D
100
AcDbEntity
  8
MO_001_VIEW_PV
  6
BYBLOCK
100
AcDbTrace
 10
66.31826
 20
48.583512
 30
0.0
 11
63.508
 21
48.0
 31
0.0
 12
66.31826
 22
47.416488
 32
0.0
 13
66.31826
 23
47.416488
 33
0.0
  0
SOLID
  5
150
330
10D
100
AcDbEntity
  8
MO_001_VIEW_PV
  6
BYBLOCK
100
AcDbTrace
 10
113.6817399999999
 20
47.416488
 30
0.0
 11
116.492
 21
48.0
 31
0.0
 12
113.6817399999999
 22
48.583512
 32
0.0
 13
113.6817399999999
 23
48.583512
 33
0.0
  0
LINE
  5
151
330
10D
100
AcDbEntity
  8
MO_001_VIEW_PV
  6
BYBLOCK
100
AcDbLine
 10
63.0
 20
5.0
 30
0.0
 11
63.0
 21
50.28599899999999
 31
0.0
  0
LINE
  5
152
330
10D
100
AcDbEntity
  8
MO_001_VIEW_PV
  6
BYBLOCK
100
AcDbLine
 10
117.0
 20
5.0
 30
0.0
 11
117.0
 21
50.28599899999999
 31
0.0
  0
ENDBLK
  5
153
330
10D
100
AcDbEntity
  8
0
100
AcDbBlockEnd
  0
BLOCK
  5
154
330
10F
100
AcDbEntity
  8
0
100
AcDbBlockBegin
  2
*D6
 70
     1
 10
0.0
 20
0.0
 30
0.0
  3
*D6
  1

  0
LINE
  5
155
330
10F
100
AcDbEntity
  8
MO_001_VIEW_PV
  6
BYBLOCK
100
AcDbLine
 10
42.0
 20
27.0
 30
0.0
 11
42.0
 21
-27.0
 31
0.0
  0
SOLID
  5
156
330
10F
100
AcDbEntity
  8
MO_001_VIEW_PV
  6
BYBLOCK
100
AcDbTrace
 10
42.58351199999999
 20
23.68173999999999
 30
0.0
 11
42.0
 21
26.49199999999999
 31
0.0
 12
41.416488
 22
23.68173999999999
 32
0.0
 13
41.416488
 23
23.68173999999999
 33
0.0
  0
SOLID
  5
157
330
10F
100
AcDbEntity
  8
MO_001_VIEW_PV
  6
BYBLOCK
100
AcDbTrace
 10
41.416488
 20
-23.68173999999999
 30
0.0
 11
42.0
 21
-26.49199999999999
 31
0.0
 12
42.58351199999999
 22
-23.68173999999999
 32
0.0
 13
42.58351199999999
 23
-23.68173999999999
 33
0.0
  0
LINE
  5
158
330
10F
100
AcDbEntity
  8
MO_001_VIEW_PV
  6
BYBLOCK
100
AcDbLine
 10
85.0
 20
27.0
 30
0.0
 11
39.714001
 21
27.0
 31
0.0
  0
LINE
  5
159
330
10F
100
AcDbEntity
  8
MO_001_VIEW_PV
  6
BYBLOCK
100
AcDbLine
 10
85.0
 20
-27.0
 30
0.0
 11
39.714001
 21
-27.0
 31
0.0
  0
TEXT
  5
15A
330
10F
100
AcDbEntity
  8
MO_001_VIEW_PV
  6
BYBLOCK
100
AcDbText
 10
39.375
 20
0.214286
 30
0.0
 40
1.5
  1
%%P0.3
 50
90.0
100
AcDbText
  0
TEXT
  5
15B
330
10F
100
AcDbEntity
  8
MO_001_VIEW_PV
  6
BYBLOCK
100
AcDbText
 10
41.25
 20
-5.571429
 30
0.0
 40
3.0
  1
54
 50
90.0
100
AcDbText
  0
ENDBLK
  5
15C
330
10F
100
AcDbEntity
  8
0
100
AcDbBlockEnd
  0
ENDSEC
  0
SECTION
  2
ENTITIES
  0
TEXT
  5
4B
330
1E
100
AcDbEntity
  8
OVERLAY_MAP
  6
C_SOLID_L
100
AcDbText
 10
0.0
 20
6.349999999999998
 30
0.0
 40
4.1672
  1
Model Overlay Name
100
AcDbText
  0
TEXT
  5
4C
330
1E
100
AcDbEntity
  8
OVERLAY_MAP
  6
C_SOLID_L
100
AcDbText
 10
126.999998
 20
0.0
 30
0.0
 40
4.1672
  1
Number
100
AcDbText
  0
TEXT
  5
4D
330
1E
100
AcDbEntity
  8
OVERLAY_MAP
  6
C_SOLID_L
100
AcDbText
 10
177.7999969999999
 20
0.0
 30
0.0
 40
4.1672
  1
File Text
100
AcDbText
  0
TEXT
  5
4E
330
1E
100
AcDbEntity
  8
OVERLAY_MAP
  6
C_SOLID_L
100
AcDbText
 10
0.0
 20
-6.349999999999998
 30
0.0
 40
4.1672
  1
pp 8lc 
100
AcDbText
  0
TEXT
  5
4F
330
1E
100
AcDbEntity
  8
OVERLAY_MAP
  6
C_SOLID_L
100
AcDbText
 10
126.999998
 20
-6.349999999999998
 30
0.0
 40
4.1672
  1
001
100
AcDbText
  0
TEXT
  5
50
330
1E
100
AcDbEntity
  8
OVERLAY_MAP
  6
C_SOLID_L
100
AcDbText
 10
177.7999969999999
 20
-6.349999999999998
 30
0.0
 40
4.1672
  1
                                                                   00116
100
AcDbText
  0
LINE
  5
51
330
1E
100
AcDbEntity
  8
MO_001_VIEW_PV
  6
C_CENTER_L
100
AcDbLine
 10
-108.0
 20
0.0
 30
0.0
 11
25.891899
 21
0.0
 31
0.0
  0
LINE
  5
52
330
1E
100
AcDbEntity
  8
MO_001_VIEW_PV
  6
C_SOLID_M
100
AcDbLine
 10
-81.40000200000001
 20
40.59999799999999
 30
0.0
 11
-81.40000200000001
 21
-40.59999799999999
 31
0.0
  0
LINE
  5
53
330
1E
100
AcDbEntity
  8
MO_001_VIEW_PV
  6
C_SOLID_M
100
AcDbLine
 10
-0.5999979999999999
 20
42.050007
 30
0.0
 11
-0.5999979999999999
 21
-42.04999899999999
 31
0.0
  0
LINE
  5
54
330
1E
100
AcDbEntity
  8
MO_001_VIEW_PV
  6
C_SOLID_M
100
AcDbLine
 10
-72.300003
 20
42.849998
 30
0.0
 11
-1.400001999999999
 21
42.849998
 31
0.0
  0
LINE
  5
55
330
1E
100
AcDbEntity
  8
MO_001_VIEW_PV
  6
C_SOLID_M
100
AcDbLine
 10
-64.39999399999999
 20
-42.849998
 30
0.0
 11
-1.399993999999999
 21
-42.849998
 31
0.0
  0
CIRCLE
  5
56
330
1E
100
AcDbEntity
  8
MO_001_VIEW_PV
  6
C_SOLID_M
100
AcDbCircle
 10
-156.0
 20
0.0
 30
0.0
 40
42.849998
  0
CIRCLE
  5
57
330
1E
100
AcDbEntity
  8
MO_001_VIEW_PV
  6
C_SOLID_M
100
AcDbCircle
 10
-156.0
 20
0.0
 30
0.0
 40
41.799999
  0
CIRCLE
  5
58
330
1E
100
AcDbEntity
  8
MO_001_VIEW_PV
  6
C_SOLID_M
100
AcDbCircle
 10
-156.0
 20
0.0
 30
0.0
 40
38.150002
  0
LINE
  5
59
330
1E
100
AcDbEntity
  8
MO_001_VIEW_PV
  6
C_SOLID_M
100
AcDbLine
 10
-72.300003
 20
42.849998
 30
0.0
 11
-72.300003
 21
-42.849998
 31
0.0
  0
LINE
  5
5A
330
1E
100
AcDbEntity
  8
MO_001_VIEW_PV
  6
C_SOLID_M
100
AcDbLine
 10
-80.200005
 20
41.799999
 30
0.0
 11
-72.300003
 21
41.799999
 31
0.0
  0
LINE
  5
5B
330
1E
100
AcDbEntity
  8
MO_001_VIEW_PV
  6
C_SOLID_M
100
AcDbLine
 10
-80.200005
 20
-41.799999
 30
0.0
 11
-72.300003
 21
-41.799999
 31
0.0
  0
ARC
  5
5C
330
1E
100
AcDbEntity
  8
MO_001_VIEW_PV
  6
C_SOLID_M
100
AcDbCircle
 10
-80.200005
 20
40.59999799999999
 30
0.0
 40
1.199999999999999
100
AcDbArc
 50
90.000002
 51
180.000005
  0
ARC
  5
5D
330
1E
100
AcDbEntity
  8
MO_001_VIEW_PV
  6
C_SOLID_M
100
AcDbCircle
 10
-80.200005
 20
-40.59999799999999
 30
0.0
 40
1.199999999999999
100
AcDbArc
 50
180.000009
 51
269.999998
  0
LINE
  5
5E
330
1E
100
AcDbEntity
  8
MO_001_VIEW_PV
  6
C_CENTER_L
100
AcDbLine
 10
-156.0
 20
45.0
 30
0.0
 11
-156.0
 21
-54.58070799999998
 31
0.0
  0
POLYLINE
  5
5F
330
1E
100
AcDbEntity
  8
MO_001_VIEW_PV
  6
C_SOLID_M
100
AcDb2dPolyline
 66
     1
 10
0.0
 20
0.0
 30
0.0
  0
VERTEX
  5
1C3
330
5F
100
AcDbEntity
  8
MO_001_VIEW_PV
  6
C_SOLID_M
100
AcDbVertex
100
AcDb2dVertex
 10
-70.900002
 20
-40.393467
 30
0.0
  0
VERTEX
  5
1C4
330
5F
100
AcDbEntity
  8
MO_001_VIEW_PV
  6
C_SOLID_M
100
AcDbVertex
100
AcDb2dVertex
 10
-70.893736
 20
-40.460607
 30
0.0
  0
VERTEX
  5
1C5
330
5F
100
AcDbEntity
  8
MO_001_VIEW_PV
  6
C_SOLID_M
100
AcDbVertex
100
AcDb2dVertex
 10
-70.852698
 20
-40.577469
 30
0.0
  0
VERTEX
  5
1C6
330
5F
100
AcDbEntity
  8
MO_001_VIEW_PV
  6
C_SOLID_M
100
AcDbVertex
100
AcDb2dVertex
 10
-70.797011
 20
-40.664019
 30
0.0
  0
VERTEX
  5
1C7
330
5F
100
AcDbEntity
  8
MO_001_VIEW_PV
  6
C_SOLID_M
100
AcDbVertex
100
AcDb2dVertex
 10
-70.741426
 20
-40.72799899999998
 30
0.0
  0
VERTEX
  5
1C8
330
5F
100
AcDbEntity
  8
MO_001_VIEW_PV
  6
C_SOLID_M
100
AcDbVertex
100
AcDb2dVertex
 10
-70.636245
 20
-40.822004
 30
0.0
  0
VERTEX
  5
1C9
330
5F
100
AcDbEntity
  8
MO_001_VIEW_PV
  6
C_SOLID_M
100
AcDbVertex
100
AcDb2dVertex
 10
-70.50555200000002
 20
-40.913083
 30
0.0
  0
VERTEX
  5
1CA
330
5F
100
AcDbEntity
  8
MO_001_VIEW_PV
  6
C_SOLID_M
100
AcDbVertex
100
AcDb2dVertex
 10
-70.402996
 20
-40.972788
 30
0.0
  0
VERTEX
  5
1CB
330
5F
100
AcDbEntity
  8
MO_001_VIEW_PV
  6
C_SOLID_M
100
AcDbVertex
100
AcDb2dVertex
 10
-70.19732900000001
 20
-41.072796
 30
0.0
  0
VERTEX
  5
1CC
330
5F
100
AcDbEntity
  8
MO_001_VIEW_PV
  6
C_SOLID_M
100
AcDbVertex
100
AcDb2dVertex
 10
-70.02221
 20
-41.143576
 30
0.0
  0
VERTEX
  5
1CD
330
5F
100
AcDbEntity
  8
MO_001_VIEW_PV
  6
C_SOLID_M
100
AcDbVertex
100
AcDb2dVertex
 10
-69.728263
 20
-41.242045
 30
0.0
  0
VERTEX
  5
1CE
330
5F
100
AcDbEntity
  8
MO_001_VIEW_PV
  6
C_SOLID_M
100
AcDbVertex
100
AcDb2dVertex
 10
-69.399999
 20
-41.330218
 30
0.0
  0
SEQEND
  5
1CF
330
5F
100
AcDbEntity
  8
MO_001_VIEW_PV
  6
C_SOLID_M
  0
POLYLINE
  5
6D
330
1E
100
AcDbEntity
  8
MO_001_VIEW_PV
  6
C_SOLID_M
100
AcDb2dPolyline
 66
     1
 10
0.0
 20
0.0
 30
0.0
  0
VERTEX
  5
1D0
330
6D
100
AcDbEntity
  8
MO_001_VIEW_PV
  6
C_SOLID_M
100
AcDbVertex
100
AcDb2dVertex
 10
-62.900002
 20
-40.393467
 30
0.0
  0
VERTEX
  5
1D1
330
6D
100
AcDbEntity
  8
MO_001_VIEW_PV
  6
C_SOLID_M
100
AcDbVertex
100
AcDb2dVertex
 10
-62.919263
 20
-40.23196099999998
 30
0.0
  0
VERTEX
  5
1D2
330
6D
100
AcDbEntity
  8
MO_001_VIEW_PV
  6
C_SOLID_M
100
AcDbVertex
100
AcDb2dVertex
 10
-62.972146
 20
-40.081933
 30
0.0
  0
VERTEX
  5
1D3
330
6D
100
AcDbEntity
  8
MO_001_VIEW_PV
  6
C_SOLID_M
100
AcDbVertex
100
AcDb2dVertex
 10
-63.051934
 20
-39.943652
 30
0.0
  0
VERTEX
  5
1D4
330
6D
100
AcDbEntity
  8
MO_001_VIEW_PV
  6
C_SOLID_M
100
AcDbVertex
100
AcDb2dVertex
 10
-63.152754
 20
-39.817035
 30
0.0
  0
VERTEX
  5
1D5
330
6D
100
AcDbEntity
  8
MO_001_VIEW_PV
  6
C_SOLID_M
100
AcDbVertex
100
AcDb2dVertex
 10
-63.269546
 20
-39.70174
 30
0.0
  0
VERTEX
  5
1D6
330
6D
100
AcDbEntity
  8
MO_001_VIEW_PV
  6
C_SOLID_M
100
AcDbVertex
100
AcDb2dVertex
 10
-63.398006
 20
-39.59725
 30
0.0
  0
VERTEX
  5
1D7
330
6D
100
AcDbEntity
  8
MO_001_VIEW_PV
  6
C_SOLID_M
100
AcDbVertex
100
AcDb2dVertex
 10
-63.53452199999999
 20
-39.502935
 30
0.0
  0
VERTEX
  5
1D8
330
6D
100
AcDbEntity
  8
MO_001_VIEW_PV
  6
C_SOLID_M
100
AcDbVertex
100
AcDb2dVertex
 10
-63.676092
 20
-39.418098
 30
0.0
  0
VERTEX
  5
1D9
330
6D
100
AcDbEntity
  8
MO_001_VIEW_PV
  6
C_SOLID_M
100
AcDbVertex
100
AcDb2dVertex
 10
-63.82025500000001
 20
-39.342016
 30
0.0
  0
VERTEX
  5
1DA
330
6D
100
AcDbEntity
  8
MO_001_VIEW_PV
  6
C_SOLID_M
100
AcDbVertex
100
AcDb2dVertex
 10
-64.118623
 20
-39.20928099999999
 30
0.0
  0
VERTEX
  5
1DB
330
6D
100
AcDbEntity
  8
MO_001_VIEW_PV
  6
C_SOLID_M
100
AcDbVertex
100
AcDb2dVertex
 10
-64.40733
 20
-39.104796
 30
0.0
  0
VERTEX
  5
1DC
330
6D
100
AcDbEntity
  8
MO_001_VIEW_PV
  6
C_SOLID_M
100
AcDbVertex
100
AcDb2dVertex
 10
-64.67891899999999
 20
-39.02309799999999
 30
0.0
  0
VERTEX
  5
1DD
330
6D
100
AcDbEntity
  8
MO_001_VIEW_PV
  6
C_SOLID_M
100
AcDbVertex
100
AcDb2dVertex
 10
-64.929506
 20
-38.95954099999999
 30
0.0
  0
VERTEX
  5
1DE
330
6D
100
AcDbEntity
  8
MO_001_VIEW_PV
  6
C_SOLID_M
100
AcDbVertex
100
AcDb2dVertex
 10
-65.392848
 20
-38.867174
 30
0.0
  0
VERTEX
  5
1DF
330
6D
100
AcDbEntity
  8
MO_001_VIEW_PV
  6
C_SOLID_M
100
AcDbVertex
100
AcDb2dVertex
 10
-65.75717
 20
-38.81441799999999
 30
0.0
  0
VERTEX
  5
1E0
330
6D
100
AcDbEntity
  8
MO_001_VIEW_PV
  6
C_SOLID_M
100
AcDbVertex
100
AcDb2dVertex
 10
-66.322536
 20
-38.762996
 30
0.0
  0
VERTEX
  5
1E1
330
6D
100
AcDbEntity
  8
MO_001_VIEW_PV
  6
C_SOLID_M
100
AcDbVertex
100
AcDb2dVertex
 10
-66.900002
 20
-38.74573499999998
 30
0.0
  0
VERTEX
  5
1E2
330
6D
100
AcDbEntity
  8
MO_001_VIEW_PV
  6
C_SOLID_M
100
AcDbVertex
100
AcDb2dVertex
 10
-67.29206999999999
 20
-38.753669
 30
0.0
  0
VERTEX
  5
1E3
330
6D
100
AcDbEntity
  8
MO_001_VIEW_PV
  6
C_SOLID_M
100
AcDbVertex
100
AcDb2dVertex
 10
-67.65627600000001
 20
-38.77545399999998
 30
0.0
  0
VERTEX
  5
1E4
330
6D
100
AcDbEntity
  8
MO_001_VIEW_PV
  6
C_SOLID_M
100
AcDbVertex
100
AcDb2dVertex
 10
-67.991963
 20
-38.808321
 30
0.0
  0
VERTEX
  5
1E5
330
6D
100
AcDbEntity
  8
MO_001_VIEW_PV
  6
C_SOLID_M
100
AcDbVertex
100
AcDb2dVertex
 10
-68.299336
 20
-38.849852
 30
0.0
  0
VERTEX
  5
1E6
330
6D
100
AcDbEntity
  8
MO_001_VIEW_PV
  6
C_SOLID_M
100
AcDbVertex
100
AcDb2dVertex
 10
-68.57922399999999
 20
-38.897963
 30
0.0
  0
VERTEX
  5
1E7
330
6D
100
AcDbEntity
  8
MO_001_VIEW_PV
  6
C_SOLID_M
100
AcDbVertex
100
AcDb2dVertex
 10
-68.83288199999999
 20
-38.95087999999999
 30
0.0
  0
VERTEX
  5
1E8
330
6D
100
AcDbEntity
  8
MO_001_VIEW_PV
  6
C_SOLID_M
100
AcDbVertex
100
AcDb2dVertex
 10
-69.06184
 20
-39.00711499999999
 30
0.0
  0
VERTEX
  5
1E9
330
6D
100
AcDbEntity
  8
MO_001_VIEW_PV
  6
C_SOLID_M
100
AcDbVertex
100
AcDb2dVertex
 10
-69.26778699999998
 20
-39.065432
 30
0.0
  0
VERTEX
  5
1EA
330
6D
100
AcDbEntity
  8
MO_001_VIEW_PV
  6
C_SOLID_M
100
AcDbVertex
100
AcDb2dVertex
 10
-69.628421
 20
-39.188556
 30
0.0
  0
VERTEX
  5
1EB
330
6D
100
AcDbEntity
  8
MO_001_VIEW_PV
  6
C_SOLID_M
100
AcDbVertex
100
AcDb2dVertex
 10
-69.913443
 20
-39.309905
 30
0.0
  0
VERTEX
  5
1EC
330
6D
100
AcDbEntity
  8
MO_001_VIEW_PV
  6
C_SOLID_M
100
AcDbVertex
100
AcDb2dVertex
 10
-70.136973
 20
-39.42546699999999
 30
0.0
  0
VERTEX
  5
1ED
330
6D
100
AcDbEntity
  8
MO_001_VIEW_PV
  6
C_SOLID_M
100
AcDbVertex
100
AcDb2dVertex
 10
-70.311265
 20
-39.533002
 30
0.0
  0
VERTEX
  5
1EE
330
6D
100
AcDbEntity
  8
MO_001_VIEW_PV
  6
C_SOLID_M
100
AcDbVertex
100
AcDb2dVertex
 10
-70.446572
 20
-39.631465
 30
0.0
  0
VERTEX
  5
1EF
330
6D
100
AcDbEntity
  8
MO_001_VIEW_PV
  6
C_SOLID_M
100
AcDbVertex
100
AcDb2dVertex
 10
-70.55126899999997
 20
-39.720584
 30
0.0
  0
VERTEX
  5
1F0
330
6D
100
AcDbEntity
  8
MO_001_VIEW_PV
  6
C_SOLID_M
100
AcDbVertex
100
AcDb2dVertex
 10
-70.632076
 20
-39.800567
 30
0.0
  0
VERTEX
  5
1F1
330
6D
100
AcDbEntity
  8
MO_001_VIEW_PV
  6
C_SOLID_M
100
AcDbVertex
100
AcDb2dVertex
 10
-70.74854599999998
 20
-39.944345
 30
0.0
  0
VERTEX
  5
1F2
330
6D
100
AcDbEntity
  8
MO_001_VIEW_PV
  6
C_SOLID_M
100
AcDbVertex
100
AcDb2dVertex
 10
-70.81456999999997
 20
-40.05474099999999
 30
0.0
  0
VERTEX
  5
1F3
330
6D
100
AcDbEntity
  8
MO_001_VIEW_PV
  6
C_SOLID_M
100
AcDbVertex
100
AcDb2dVertex
 10
-70.851871
 20
-40.138626
 30
0.0
  0
VERTEX
  5
1F4
330
6D
100
AcDbEntity
  8
MO_001_VIEW_PV
  6
C_SOLID_M
100
AcDbVertex
100
AcDb2dVertex
 10
-70.887951
 20
-40.265661
 30
0.0
  0
VERTEX
  5
1F5
330
6D
100
AcDbEntity
  8
MO_001_VIEW_PV
  6
C_SOLID_M
100
AcDbVertex
100
AcDb2dVertex
 10
-70.900002
 20
-40.393467
 30
0.0
  0
SEQEND
  5
1F6
330
6D
100
AcDbEntity
  8
MO_001_VIEW_PV
  6
C_SOLID_M
  0
LINE
  5
95
330
1E
100
AcDbEntity
  8
MO_001_VIEW_PV
  6
C_SOLID_M
100
AcDbLine
 10
-1.399997999999999
 20
42.849998
 30
0.0
 11
-0.599999
 21
42.05000599999999
 31
0.0
  0
LINE
  5
96
330
1E
100
AcDbEntity
  8
MO_001_VIEW_PV
  6
C_SOLID_M
100
AcDbLine
 10
-0.6
 20
-42.04999599999999
 30
0.0
 11
-1.399993
 21
-42.84999699999999
 31
0.0
  0
LINE
  5
97
330
1E
100
AcDbEntity
  8
MO_001_VIEW_PV
  6
C_SOLID_M
100
AcDbLine
 10
-1.400001999999999
 20
42.849998
 30
0.0
 11
-1.400001999999999
 21
-42.849998
 31
0.0
  0
LINE
  5
98
330
1E
100
AcDbEntity
  8
MO_001_VIEW_PV
  6
C_SOLID_M
100
AcDbLine
 10
0.0
 20
37.850006
 30
0.0
 11
0.0
 21
-37.850006
 31
0.0
  0
LINE
  5
99
330
1E
100
AcDbEntity
  8
MO_001_VIEW_PV
  6
C_SOLID_M
100
AcDbLine
 10
-0.5999979999999999
 20
38.25
 30
0.0
 11
-0.4000020000000001
 21
38.25
 31
0.0
  0
LINE
  5
9A
330
1E
100
AcDbEntity
  8
MO_001_VIEW_PV
  6
C_SOLID_M
100
AcDbLine
 10
-0.5999979999999999
 20
-38.25
 30
0.0
 11
-0.4000020000000001
 21
-38.25
 31
0.0
  0
LINE
  5
9B
330
1E
100
AcDbEntity
  8
MO_001_VIEW_PV
  6
C_SOLID_M
100
AcDbLine
 10
-0.399998
 20
38.249999
 30
0.0
 11
0.000002
 21
37.85000399999999
 31
0.0
  0
LINE
  5
9C
330
1E
100
AcDbEntity
  8
MO_001_VIEW_PV
  6
C_SOLID_M
100
AcDbLine
 10
-0.399998
 20
-38.249999
 30
0.0
 11
0.000002
 21
-37.85000399999999
 31
0.0
  0
LINE
  5
9D
330
1E
100
AcDbEntity
  8
MO_001_VIEW_PV
  6
C_SOLID_M
100
AcDbLine
 10
-0.4000020000000001
 20
38.250008
 30
0.0
 11
-0.4000020000000001
 21
-38.250008
 31
0.0
  0
LINE
  5
9E
330
1E
100
AcDbEntity
  8
MO_001_VIEW_PV
  6
C_SOLID_M
100
AcDbLine
 10
22.199997
 20
5.354998999999998
 30
0.0
 11
22.199997
 21
-5.354998999999998
 31
0.0
  0
LINE
  5
9F
330
1E
100
AcDbEntity
  8
MO_001_VIEW_PV
  6
C_SOLID_M
100
AcDbLine
 10
-105.0
 20
5.409411
 30
0.0
 11
-105.0
 21
-5.409411
 31
0.0
  0
LINE
  5
A0
330
1E
100
AcDbEntity
  8
MO_001_VIEW_PV
  6
C_SOLID_M
100
AcDbLine
 10
0.0
 20
5.554999999999998
 30
0.0
 11
22.0
 21
5.554999999999998
 31
0.0
  0
LINE
  5
A1
330
1E
100
AcDbEntity
  8
MO_001_VIEW_PV
  6
C_SOLID_M
100
AcDbLine
 10
0.0
 20
-5.554999999999998
 30
0.0
 11
22.0
 21
-5.554999999999998
 31
0.0
  0
LINE
  5
A2
330
1E
100
AcDbEntity
  8
MO_001_VIEW_PV
  6
C_SOLID_M
100
AcDbLine
 10
21.999994
 20
5.554994
 30
0.0
 11
22.199995
 21
5.354992
 31
0.0
  0
LINE
  5
A3
330
1E
100
AcDbEntity
  8
MO_001_VIEW_PV
  6
C_SOLID_M
100
AcDbLine
 10
21.999994
 20
-5.554994
 30
0.0
 11
22.199995
 21
-5.354992
 31
0.0
  0
LINE
  5
A4
330
1E
100
AcDbEntity
  8
MO_001_VIEW_PV
  6
C_SOLID_M
100
AcDbLine
 10
-104.6000079999999
 20
5.555000999999998
 30
0.0
 11
-105.000004
 21
5.409413999999999
 31
0.0
  0
LINE
  5
A5
330
1E
100
AcDbEntity
  8
MO_001_VIEW_PV
  6
C_SOLID_M
100
AcDbLine
 10
-104.6000079999999
 20
-5.555000999999998
 30
0.0
 11
-105.000004
 21
-5.409413999999999
 31
0.0
  0
LINE
  5
A6
330
1E
100
AcDbEntity
  8
MO_001_VIEW_PV
  6
C_SOLID_M
100
AcDbLine
 10
-104.600006
 20
5.554999999999998
 30
0.0
 11
-104.600006
 21
-5.554999999999998
 31
0.0
  0
LINE
  5
A7
330
1E
100
AcDbEntity
  8
MO_001_VIEW_PV
  6
C_SOLID_M
100
AcDbLine
 10
22.0
 20
5.554999999999998
 30
0.0
 11
22.0
 21
-5.554999999999998
 31
0.0
  0
LINE
  5
A8
330
1E
100
AcDbEntity
  8
MO_001_VIEW_PV
  6
C_SOLID_M
100
AcDbLine
 10
-104.600006
 20
5.554999999999998
 30
0.0
 11
-81.300003
 21
5.554999999999998
 31
0.0
  0
LINE
  5
A9
330
1E
100
AcDbEntity
  8
MO_001_VIEW_PV
  6
C_SOLID_M
100
AcDbLine
 10
-104.600006
 20
-5.554999999999998
 30
0.0
 11
-81.300003
 21
-5.554999999999998
 31
0.0
  0
CIRCLE
  5
AA
330
1E
100
AcDbEntity
  8
MO_001_VIEW_PV
  6
C_SOLID_M
100
AcDbCircle
 10
-156.0
 20
0.0
 30
0.0
 40
5.409411
  0
CIRCLE
  5
AB
330
1E
100
AcDbEntity
  8
MO_001_VIEW_PV
  6
C_SOLID_M
100
AcDbCircle
 10
-156.0
 20
0.0
 30
0.0
 40
5.554999999999998
  0
LINE
  5
AC
330
1E
100
AcDbEntity
  8
MO_001_VIEW_PV
  6
C_SOLID_M
100
AcDbLine
 10
-144.200012
 20
-68.75
 30
0.0
 11
-139.200012
 21
-68.75
 31
0.0
  0
LINE
  5
AD
330
1E
100
AcDbEntity
  8
MO_001_VIEW_PV
  6
C_SOLID_M
100
AcDbLine
 10
-139.200012
 20
-39.41931199999999
 30
0.0
 11
-139.200012
 21
-68.75
 31
0.0
  0
LINE
  5
AE
330
1E
100
AcDbEntity
  8
MO_001_VIEW_PV
  6
C_SOLID_M
100
AcDbLine
 10
-144.200012
 20
-41.19323
 30
0.0
 11
-144.200012
 21
-68.75
 31
0.0
  0
LINE
  5
AF
330
1E
100
AcDbEntity
  8
MO_001_VIEW_PV
  6
C_SOLID_M
100
AcDbLine
 10
-167.8000179999999
 20
-41.19323
 30
0.0
 11
-167.8000179999999
 21
-68.75
 31
0.0
  0
LINE
  5
B0
330
1E
100
AcDbEntity
  8
MO_001_VIEW_PV
  6
C_SOLID_M
100
AcDbLine
 10
-172.8000179999999
 20
-39.41931199999999
 30
0.0
 11
-172.8000179999999
 21
-68.75
 31
0.0
  0
LINE
  5
B1
330
1E
100
AcDbEntity
  8
MO_001_VIEW_PV
  6
C_SOLID_M
100
AcDbLine
 10
-167.8000179999999
 20
-68.75
 30
0.0
 11
-172.8000179999999
 21
-68.75
 31
0.0
  0
LINE
  5
B2
330
1E
100
AcDbEntity
  8
MO_001_VIEW_PV
  6
C_SOLID_M
100
AcDbLine
 10
-140.200012
 20
-68.75
 30
0.0
 11
-140.200012
 21
-76.84368899999999
 31
0.0
  0
LINE
  5
B3
330
1E
100
AcDbEntity
  8
MO_001_VIEW_PV
  6
C_SOLID_M
100
AcDbLine
 10
-143.200012
 20
-68.75
 30
0.0
 11
-143.200012
 21
-76.84368899999999
 31
0.0
  0
LINE
  5
B4
330
1E
100
AcDbEntity
  8
MO_001_VIEW_PV
  6
C_SOLID_M
100
AcDbLine
 10
-168.8000179999999
 20
-68.75
 30
0.0
 11
-168.8000179999999
 21
-77.43940699999997
 31
0.0
  0
LINE
  5
B5
330
1E
100
AcDbEntity
  8
MO_001_VIEW_PV
  6
C_SOLID_M
100
AcDbLine
 10
-171.8000179999999
 20
-68.75
 30
0.0
 11
-171.8000179999999
 21
-77.43940699999997
 31
0.0
  0
ARC
  5
B6
330
1E
100
AcDbEntity
  8
MO_001_VIEW_PV
  6
C_SOLID_M
100
AcDbCircle
 10
-171.0500179999999
 20
-76.777969
 30
0.0
 40
1.0
100
AcDbArc
 50
221.409629
 51
318.5903759999998
  0
ARC
  5
B7
330
1E
100
AcDbEntity
  8
MO_001_VIEW_PV
  6
C_SOLID_M
100
AcDbCircle
 10
-169.5500179999999
 20
-78.10084499999998
 30
0.0
 40
1.0
100
AcDbArc
 50
41.409634
 51
138.590371
  0
ARC
  5
B8
330
1E
100
AcDbEntity
  8
MO_001_VIEW_PV
  6
C_SOLID_M
100
AcDbCircle
 10
-169.5500179999999
 20
-76.777969
 30
0.0
 40
1.0
100
AcDbArc
 50
221.409629
 51
318.590366
  0
LINE
  5
B9
330
1E
100
AcDbEntity
  8
MO_001_VIEW_PV
  6
C_SOLID_M
100
AcDbLine
 10
-64.39999399999999
 20
-68.75
 30
0.0
 11
-64.39999399999999
 21
-39.10720799999999
 31
0.0
  0
LINE
  5
BA
330
1E
100
AcDbEntity
  8
MO_001_VIEW_PV
  6
C_SOLID_M
100
AcDbLine
 10
-69.400002
 20
-68.75
 30
0.0
 11
-64.39999399999999
 21
-68.75
 31
0.0
  0
LINE
  5
BB
330
1E
100
AcDbEntity
  8
MO_001_VIEW_PV
  6
C_SOLID_M
100
AcDbLine
 10
-65.39999399999999
 20
-68.75
 30
0.0
 11
-65.39999399999999
 21
-76.807198
 31
0.0
  0
LINE
  5
BC
330
1E
100
AcDbEntity
  8
MO_001_VIEW_PV
  6
C_SOLID_M
100
AcDbLine
 10
-68.400002
 20
-68.75
 30
0.0
 11
-68.400002
 21
-76.807198
 31
0.0
  0
LINE
  5
BD
330
1E
100
AcDbEntity
  8
MO_001_VIEW_PV
  6
C_SOLID_M
100
AcDbLine
 10
-69.400002
 20
-68.75
 30
0.0
 11
-69.400002
 21
-39.10720399999998
 31
0.0
  0
POLYLINE
  5
BE
330
1E
100
AcDbEntity
  8
MO_001_VIEW_PV
  6
C_SOLID_M
100
AcDb2dPolyline
 66
     1
 10
0.0
 20
0.0
 30
0.0
  0
VERTEX
  5
1F7
330
BE
100
AcDbEntity
  8
MO_001_VIEW_PV
  6
C_SOLID_M
100
AcDbVertex
100
AcDb2dVertex
 10
-64.39999799999999
 20
-41.330216
 30
0.0
  0
VERTEX
  5
1F8
330
BE
100
AcDbEntity
  8
MO_001_VIEW_PV
  6
C_SOLID_M
100
AcDbVertex
100
AcDb2dVertex
 10
-64.06679200000001
 20
-41.24055799999999
 30
0.0
  0
VERTEX
  5
1F9
330
BE
100
AcDbEntity
  8
MO_001_VIEW_PV
  6
C_SOLID_M
100
AcDbVertex
100
AcDb2dVertex
 10
-63.83995600000001
 20
-41.16628699999998
 30
0.0
  0
VERTEX
  5
1FA
330
BE
100
AcDbEntity
  8
MO_001_VIEW_PV
  6
C_SOLID_M
100
AcDbVertex
100
AcDb2dVertex
 10
-63.683898
 20
-41.10698
 30
0.0
  0
VERTEX
  5
1FB
330
BE
100
AcDbEntity
  8
MO_001_VIEW_PV
  6
C_SOLID_M
100
AcDbVertex
100
AcDb2dVertex
 10
-63.473898
 20
-41.01279199999999
 30
0.0
  0
VERTEX
  5
1FC
330
BE
100
AcDbEntity
  8
MO_001_VIEW_PV
  6
C_SOLID_M
100
AcDbVertex
100
AcDb2dVertex
 10
-63.294449
 20
-40.913082
 30
0.0
  0
VERTEX
  5
1FD
330
BE
100
AcDbEntity
  8
MO_001_VIEW_PV
  6
C_SOLID_M
100
AcDbVertex
100
AcDb2dVertex
 10
-63.203189
 20
-40.851749
 30
0.0
  0
VERTEX
  5
1FE
330
BE
100
AcDbEntity
  8
MO_001_VIEW_PV
  6
C_SOLID_M
100
AcDbVertex
100
AcDb2dVertex
 10
-63.07150400000001
 20
-40.74107999999998
 30
0.0
  0
VERTEX
  5
1FF
330
BE
100
AcDbEntity
  8
MO_001_VIEW_PV
  6
C_SOLID_M
100
AcDbVertex
100
AcDb2dVertex
 10
-62.996776
 20
-40.655831
 30
0.0
  0
VERTEX
  5
200
330
BE
100
AcDbEntity
  8
MO_001_VIEW_PV
  6
C_SOLID_M
100
AcDbVertex
100
AcDb2dVertex
 10
-62.95453399999999
 20
-40.59094
 30
0.0
  0
VERTEX
  5
201
330
BE
100
AcDbEntity
  8
MO_001_VIEW_PV
  6
C_SOLID_M
100
AcDbVertex
100
AcDb2dVertex
 10
-62.913658
 20
-40.492542
 30
0.0
  0
VERTEX
  5
202
330
BE
100
AcDbEntity
  8
MO_001_VIEW_PV
  6
C_SOLID_M
100
AcDbVertex
100
AcDb2dVertex
 10
-62.900002
 20
-40.393467
 30
0.0
  0
SEQEND
  5
203
330
BE
100
AcDbEntity
  8
MO_001_VIEW_PV
  6
C_SOLID_M
  0
LINE
  5
CC
330
1E
100
AcDbEntity
  8
MO_001_VIEW_PV
  6
C_SOLID_M
100
AcDbLine
 10
-72.300003
 20
-42.849998
 30
0.0
 11
-69.400002
 21
-42.849998
 31
0.0
  0
LINE
  5
CD
330
1E
100
AcDbEntity
  8
MO_001_VIEW_PV
  6
C_CENTER_L
100
AcDbLine
 10
-201.0
 20
0.0
 30
0.0
 11
-111.0
 21
0.0
 31
0.0
  0
CIRCLE
  5
CE
330
1E
100
AcDbEntity
  8
MO_001_VIEW_PV
  6
C_SOLID_M
100
AcDbCircle
 10
90.0
 20
0.0
 30
0.0
 40
42.849998
  0
LINE
  5
CF
330
1E
100
AcDbEntity
  8
MO_001_VIEW_PV
  6
C_CENTER_L
100
AcDbLine
 10
90.0
 20
45.0
 30
0.0
 11
90.0
 21
-47.849998
 31
0.0
  0
CIRCLE
  5
D0
330
1E
100
AcDbEntity
  8
MO_001_VIEW_PV
  6
C_SOLID_M
100
AcDbCircle
 10
90.0
 20
0.0
 30
0.0
 40
5.554999999999998
  0
LINE
  5
D1
330
1E
100
AcDbEntity
  8
MO_001_VIEW_PV
  6
C_SOLID_M
100
AcDbLine
 10
101.7999949999999
 20
-68.75
 30
0.0
 11
106.7999879999999
 21
-68.75
 31
0.0
  0
LINE
  5
D2
330
1E
100
AcDbEntity
  8
MO_001_VIEW_PV
  6
C_SOLID_M
100
AcDbLine
 10
106.7999879999999
 20
-39.41931199999999
 30
0.0
 11
106.7999879999999
 21
-68.75
 31
0.0
  0
LINE
  5
D3
330
1E
100
AcDbEntity
  8
MO_001_VIEW_PV
  6
C_SOLID_M
100
AcDbLine
 10
101.7999949999999
 20
-41.19323
 30
0.0
 11
101.7999949999999
 21
-68.75
 31
0.0
  0
LINE
  5
D4
330
1E
100
AcDbEntity
  8
MO_001_VIEW_PV
  6
C_SOLID_M
100
AcDbLine
 10
78.199997
 20
-41.19323
 30
0.0
 11
78.199997
 21
-68.75
 31
0.0
  0
LINE
  5
D5
330
1E
100
AcDbEntity
  8
MO_001_VIEW_PV
  6
C_SOLID_M
100
AcDbLine
 10
73.199997
 20
-39.41931199999999
 30
0.0
 11
73.199997
 21
-68.75
 31
0.0
  0
LINE
  5
D6
330
1E
100
AcDbEntity
  8
MO_001_VIEW_PV
  6
C_SOLID_M
100
AcDbLine
 10
78.199997
 20
-68.75
 30
0.0
 11
73.199997
 21
-68.75
 31
0.0
  0
LINE
  5
D7
330
1E
100
AcDbEntity
  8
MO_001_VIEW_PV
  6
C_SOLID_M
100
AcDbLine
 10
105.7999879999999
 20
-68.75
 30
0.0
 11
105.7999879999999
 21
-76.84368899999999
 31
0.0
  0
LINE
  5
D8
330
1E
100
AcDbEntity
  8
MO_001_VIEW_PV
  6
C_SOLID_M
100
AcDbLine
 10
102.7999949999999
 20
-68.75
 30
0.0
 11
102.7999949999999
 21
-76.84368899999999
 31
0.0
  0
LINE
  5
D9
330
1E
100
AcDbEntity
  8
MO_001_VIEW_PV
  6
C_SOLID_M
100
AcDbLine
 10
77.19999699999998
 20
-68.75
 30
0.0
 11
77.19999699999998
 21
-77.43940699999997
 31
0.0
  0
LINE
  5
DA
330
1E
100
AcDbEntity
  8
MO_001_VIEW_PV
  6
C_SOLID_M
100
AcDbLine
 10
74.19999699999998
 20
-68.75
 30
0.0
 11
74.19999699999998
 21
-77.43940699999997
 31
0.0
  0
ARC
  5
DB
330
1E
100
AcDbEntity
  8
MO_001_VIEW_PV
  6
C_SOLID_M
100
AcDbCircle
 10
74.949997
 20
-76.777969
 30
0.0
 40
1.0
100
AcDbArc
 50
221.409629
 51
318.5903759999998
  0
ARC
  5
DC
330
1E
100
AcDbEntity
  8
MO_001_VIEW_PV
  6
C_SOLID_M
100
AcDbCircle
 10
76.44999699999998
 20
-78.10084499999998
 30
0.0
 40
1.0
100
AcDbArc
 50
41.409634
 51
138.590371
  0
ARC
  5
DD
330
1E
100
AcDbEntity
  8
MO_001_VIEW_PV
  6
C_SOLID_M
100
AcDbCircle
 10
76.44999699999998
 20
-76.777969
 30
0.0
 40
1.0
100
AcDbArc
 50
221.409629
 51
318.590366
  0
LINE
  5
DE
330
1E
100
AcDbEntity
  8
MO_001_VIEW_PV
  6
C_CENTER_L
100
AcDbLine
 10
45.0
 20
0.0
 30
0.0
 11
135.0
 21
0.0
 31
0.0
  0
CIRCLE
  5
DF
330
1E
100
AcDbEntity
  8
MO_001_VIEW_PV
  6
C_SOLID_M
100
AcDbCircle
 10
90.0
 20
0.0
 30
0.0
 40
5.355
  0
CIRCLE
  5
E0
330
1E
100
AcDbEntity
  8
MO_001_VIEW_PV
  6
C_SOLID_M
100
AcDbCircle
 10
90.0
 20
0.0
 30
0.0
 40
42.050007
  0
CIRCLE
  5
E1
330
1E
100
AcDbEntity
  8
MO_001_VIEW_PV
  6
C_SOLID_M
100
AcDbCircle
 10
90.0
 20
0.0
 30
0.0
 40
37.850006
  0
CIRCLE
  5
E2
330
1E
100
AcDbEntity
  8
MO_001_VIEW_PV
  6
C_SOLID_M
100
AcDbCircle
 10
90.0
 20
0.0
 30
0.0
 40
38.25
  0
CIRCLE
  5
E3
330
1E
100
AcDbEntity
  8
MO_001_VIEW_PV
  6
C_SOLID_M
100
AcDbCircle
 10
90.0
 20
0.0
 30
0.0
 40
7.15
  0
CIRCLE
  5
E4
330
1E
100
AcDbEntity
  8
MO_001_VIEW_PV
  6
C_SOLID_L
100
AcDbCircle
 10
90.0
 20
27.0
 30
0.0
 40
3.0
  0
CIRCLE
  5
E5
330
1E
100
AcDbEntity
  8
MO_001_VIEW_PV
  6
C_SOLID_M
100
AcDbCircle
 10
90.0
 20
27.0
 30
0.0
 40
2.0
  0
CIRCLE
  5
E6
330
1E
100
AcDbEntity
  8
MO_001_VIEW_PV
  6
C_SOLID_M
100
AcDbCircle
 10
63.0
 20
0.0
 30
0.0
 40
2.0
  0
CIRCLE
  5
E7
330
1E
100
AcDbEntity
  8
MO_001_VIEW_PV
  6
C_SOLID_L
100
AcDbCircle
 10
63.0
 20
0.0
 30
0.0
 40
3.0
  0
CIRCLE
  5
E8
330
1E
100
AcDbEntity
  8
MO_001_VIEW_PV
  6
C_SOLID_M
100
AcDbCircle
 10
90.0
 20
-27.0
 30
0.0
 40
2.0
  0
CIRCLE
  5
E9
330
1E
100
AcDbEntity
  8
MO_001_VIEW_PV
  6
C_SOLID_L
100
AcDbCircle
 10
90.0
 20
-27.0
 30
0.0
 40
3.0
  0
CIRCLE
  5
EA
330
1E
100
AcDbEntity
  8
MO_001_VIEW_PV
  6
C_SOLID_M
100
AcDbCircle
 10
117.0
 20
0.0
 30
0.0
 40
2.0
  0
CIRCLE
  5
EB
330
1E
100
AcDbEntity
  8
MO_001_VIEW_PV
  6
C_SOLID_L
100
AcDbCircle
 10
117.0
 20
0.0
 30
0.0
 40
3.0
  0
LINE
  5
EC
330
1E
100
AcDbEntity
  8
MO_001_VIEW_PV
  6
C_CENTER_L
100
AcDbLine
 10
85.0
 20
27.0
 30
0.0
 11
95.0
 21
27.0
 31
0.0
  0
LINE
  5
ED
330
1E
100
AcDbEntity
  8
MO_001_VIEW_PV
  6
C_CENTER_L
100
AcDbLine
 10
63.0
 20
-5.0
 30
0.0
 11
63.0
 21
5.0
 31
0.0
  0
LINE
  5
EE
330
1E
100
AcDbEntity
  8
MO_001_VIEW_PV
  6
C_CENTER_L
100
AcDbLine
 10
95.0
 20
-27.0
 30
0.0
 11
85.0
 21
-27.0
 31
0.0
  0
LINE
  5
EF
330
1E
100
AcDbEntity
  8
MO_001_VIEW_PV
  6
C_CENTER_L
100
AcDbLine
 10
117.0
 20
5.0
 30
0.0
 11
117.0
 21
-5.0
 31
0.0
  0
CIRCLE
  5
F0
330
1E
100
AcDbEntity
  8
MO_001_VIEW_PV
  6
C_SOLID_M
100
AcDbCircle
 10
-156.0
 20
0.0
 30
0.0
 40
37.0
  0
LINE
  5
F1
330
1E
100
AcDbEntity
  8
MO_001_VIEW_PV
  6
C_SOLID_L
100
AcDbLine
 10
21.41313599999998
 20
-50.135506
 30
0.0
 11
49.566231
 21
-50.135506
 31
0.0
  0
LINE
  5
F2
330
1E
100
AcDbEntity
  8
MO_001_VIEW_PV
  6
C_SOLID_L
100
AcDbLine
 10
18.130085
 20
-69.0
 30
0.0
 11
60.0
 21
-69.0
 31
0.0
  0
ARC
  5
F3
330
1E
100
AcDbEntity
  8
MO_001_VIEW_PV
  6
C_SOLID_M
100
AcDbCircle
 10
-67.650002
 20
-76.14575999999998
 30
0.0
 40
1.0
100
AcDbArc
 50
221.409629
 51
318.5903759999998
  0
ARC
  5
F4
330
1E
100
AcDbEntity
  8
MO_001_VIEW_PV
  6
C_SOLID_M
100
AcDbCircle
 10
-66.150002
 20
-77.46863600000001
 30
0.0
 40
1.0
100
AcDbArc
 50
41.409634
 51
138.590371
  0
ARC
  5
F5
330
1E
100
AcDbEntity
  8
MO_001_VIEW_PV
  6
C_SOLID_M
100
AcDbCircle
 10
-66.150002
 20
-76.14575999999998
 30
0.0
 40
1.0
100
AcDbArc
 50
221.409629
 51
318.590366
  0
ARC
  5
F6
330
1E
100
AcDbEntity
  8
MO_001_VIEW_PV
  6
C_SOLID_M
100
AcDbCircle
 10
-142.450012
 20
-76.182251
 30
0.0
 40
1.0
100
AcDbArc
 50
221.409629
 51
318.5903759999998
  0
ARC
  5
F7
330
1E
100
AcDbEntity
  8
MO_001_VIEW_PV
  6
C_SOLID_M
100
AcDbCircle
 10
-140.950012
 20
-77.505127
 30
0.0
 40
1.0
100
AcDbArc
 50
41.409634
 51
138.590371
  0
ARC
  5
F8
330
1E
100
AcDbEntity
  8
MO_001_VIEW_PV
  6
C_SOLID_M
100
AcDbCircle
 10
-140.950012
 20
-76.182251
 30
0.0
 40
1.0
100
AcDbArc
 50
221.409629
 51
318.590366
  0
ARC
  5
F9
330
1E
100
AcDbEntity
  8
MO_001_VIEW_PV
  6
C_SOLID_M
100
AcDbCircle
 10
103.5499949999999
 20
-76.182251
 30
0.0
 40
1.0
100
AcDbArc
 50
221.409629
 51
318.5903759999998
  0
ARC
  5
FA
330
1E
100
AcDbEntity
  8
MO_001_VIEW_PV
  6
C_SOLID_M
100
AcDbCircle
 10
105.0499879999998
 20
-77.505127
 30
0.0
 40
1.0
100
AcDbArc
 50
41.409634
 51
138.590371
  0
ARC
  5
FB
330
1E
100
AcDbEntity
  8
MO_001_VIEW_PV
  6
C_SOLID_M
100
AcDbCircle
 10
105.0499879999998
 20
-76.182251
 30
0.0
 40
1.0
100
AcDbArc
 50
221.409629
 51
318.590366
  0
TEXT
  5
FC
330
1E
100
AcDbEntity
  8
MO_001_VIEW_PV
  6
C_SOLID_L
100
AcDbText
 10
-91.48828100000001
 20
-89.083594
 30
0.0
 40
4.167187
  1
8LC PushPull
100
AcDbText
  0
TEXT
  5
FD
330
1E
100
AcDbEntity
  8
MO_001_VIEW_PV
  6
C_SOLID_L
100
AcDbText
 10
21.87857199999999
 20
-67.775711
 30
0.0
 40
3.0
  1
長さ250以上
100
AcDbText
  0
TEXT
  5
FE
330
1E
100
AcDbEntity
  8
MO_001_VIEW_PV
  6
C_SOLID_L
100
AcDbText
 10
16.92857099999999
 20
-73.5
 30
0.0
 40
3.0
  1
(UL1430 AWG18)
100
AcDbText
  0
TEXT
  5
FF
330
1E
100
AcDbEntity
  8
MO_001_VIEW_PV
  6
C_SOLID_L
100
AcDbText
 10
22.018198
 20
-48.911201
 30
0.0
 40
3.0
  1
4-M6 P1.0
100
AcDbText
  0
TEXT
  5
100
330
1E
100
AcDbEntity
  8
MO_001_VIEW_PV
  6
C_SOLID_L
100
AcDbText
 10
22.22776199999999
 20
-54.359795
 30
0.0
 40
3.0
  1
深さ 10
100
AcDbText
  0
TEXT
  5
101
330
1E
100
AcDbEntity
  8
MO_001_VIEW_PV
  6
C_SOLID_L
100
AcDbText
 10
88.511719
 20
-89.083594
 30
0.0
 40
4.167187
  1
単位：mm
100
AcDbText
  0
TEXT
  5
102
330
1E
100
AcDbEntity
  8
MO_001_VIEW_PV
  6
C_SOLID_L
100
AcDbText
 10
88.511719
 20
-95.08359400000001
 30
0.0
 40
4.167187
  1
図は励磁時を示す
100
AcDbText
  0
DIMENSION
  5
104
330
1E
100
AcDbEntity
  8
MO_001_VIEW_PV
  6
C_SOLID_M
100
AcDbDimension
  2
*D0
 10
30.0
 20
22.361252
 30
0.0
 11
30.0
 21
22.361252
 31
0.0
  3
STANDARD
100
AcDbAlignedDimension
 13
22.0
 23
5.554999999999998
 33
0.0
 14
22.0
 24
-5.554999999999998
 34
0.0
 50
89.999523
100
AcDbRotatedDimension
  0
DIMENSION
  5
106
330
1E
100
AcDbEntity
  8
MO_001_VIEW_PV
  6
C_SOLID_M
100
AcDbDimension
  2
*D1
 10
11.09999799999999
 20
48.0
 30
0.0
 11
11.09999799999999
 21
48.0
 31
0.0
  3
STANDARD
100
AcDbAlignedDimension
 13
22.199997
 23
5.354998999999998
 33
0.0
 14
0.0
 24
37.850006
 34
0.0
100
AcDbRotatedDimension
  0
DIMENSION
  5
108
330
1E
100
AcDbEntity
  8
MO_001_VIEW_PV
  6
C_SOLID_M
100
AcDbDimension
  2
*D2
 10
-40.700001
 20
48.0
 30
0.0
 11
-40.700001
 21
48.0
 31
0.0
  1
82以下
  3
STANDARD
100
AcDbAlignedDimension
 13
-81.40000200000001
 23
40.59999799999999
 33
0.0
 14
0.0
 24
37.850006
 34
0.0
100
AcDbRotatedDimension
  0
DIMENSION
  5
10A
330
1E
100
AcDbEntity
  8
MO_001_VIEW_PV
  6
C_SOLID_M
100
AcDbDimension
  2
*D3
 10
-52.5
 20
54.0
 30
0.0
 11
-52.5
 21
54.0
 31
0.0
  3
STANDARD
100
AcDbAlignedDimension
 13
0.0
 23
37.850006
 33
0.0
 14
-105.0
 24
5.409411
 34
0.0
100
AcDbRotatedDimension
  0
DIMENSION
  5
10C
330
1E
100
AcDbEntity
  8
MO_001_VIEW_PV
  6
C_SOLID_M
100
AcDbDimension
  2
*D4
 10
90.0
 20
54.0
 30
0.0
 11
90.0
 21
54.0
 31
0.0
  1
%%C87以下
  3
STANDARD
100
AcDbAlignedDimension
 13
132.850006
 23
0.0
 33
0.0
 14
47.14999399999999
 24
0.0
 34
0.0
100
AcDbRotatedDimension
  0
DIMENSION
  5
10E
330
1E
100
AcDbEntity
  8
MO_001_VIEW_PV
  6
C_SOLID_M
100
AcDbDimension
  2
*D5
 10
90.0
 20
48.0
 30
0.0
 11
90.0
 21
48.0
 31
0.0
  3
STANDARD
100
AcDbAlignedDimension
 13
117.0
 23
5.0
 33
0.0
 14
63.0
 24
5.0
 34
0.0
100
AcDbRotatedDimension
  0
DIMENSION
  5
110
330
1E
100
AcDbEntity
  8
MO_001_VIEW_PV
  6
C_SOLID_M
100
AcDbDimension
  2
*D6
 10
42.0
 20
0.0
 30
0.0
 11
42.0
 21
0.0
 31
0.0
  3
STANDARD
100
AcDbAlignedDimension
 13
85.0
 23
-27.0
 33
0.0
 14
85.0
 24
27.0
 34
0.0
 50
89.999523
100
AcDbRotatedDimension
  0
LINE
  5
111
330
1E
100
AcDbEntity
  8
MO_001_VIEW_PV
  6
C_SOLID_L
100
AcDbLine
 10
62.22356
 20
-2.897778999999998
 30
0.0
 11
49.566237
 21
-50.13552199999999
 31
0.0
  0
POLYLINE
  5
112
330
1E
100
AcDbEntity
  8
MO_001_VIEW_PV
  6
C_SOLID_L
100
AcDb2dPolyline
 66
     1
 10
0.0
 20
0.0
 30
0.0
 70
     1
  0
VERTEX
  5
204
330
112
100
AcDbEntity
  8
MO_001_VIEW_PV
  6
C_SOLID_L
100
AcDbVertex
100
AcDb2dVertex
 10
61.92835899999999
 20
-6.253995999999999
 30
0.0
  0
VERTEX
  5
205
330
112
100
AcDbEntity
  8
MO_001_VIEW_PV
  6
C_SOLID_L
100
AcDbVertex
100
AcDb2dVertex
 10
62.09208
 20
-3.388469
 30
0.0
  0
VERTEX
  5
206
330
112
100
AcDbEntity
  8
MO_001_VIEW_PV
  6
C_SOLID_L
100
AcDbVertex
100
AcDb2dVertex
 10
60.801101
 20
-5.951948
 30
0.0
  0
SEQEND
  5
207
330
112
100
AcDbEntity
  8
MO_001_VIEW_PV
  6
C_SOLID_L
  0
LINE
  5
117
330
1E
100
AcDbEntity
  8
MO_001_VIEW_PV
  6
C_SOLID_L
100
AcDbLine
 10
74.200002
 20
-75.00000400000002
 30
0.0
 11
59.999998
 21
-69.00000099999999
 31
0.0
  0
POLYLINE
  5
118
330
1E
100
AcDbEntity
  8
MO_001_VIEW_PV
  6
C_SOLID_L
100
AcDb2dPolyline
 66
     1
 10
0.0
 20
0.0
 30
0.0
 70
     1
  0
VERTEX
  5
208
330
118
100
AcDbEntity
  8
MO_001_VIEW_PV
  6
C_SOLID_L
100
AcDbVertex
100
AcDb2dVertex
 10
70.916287
 20
-74.245981
 30
0.0
  0
VERTEX
  5
209
330
118
100
AcDbEntity
  8
MO_001_VIEW_PV
  6
C_SOLID_L
100
AcDbVertex
100
AcDb2dVertex
 10
73.73206
 20
-74.80228100000002
 30
0.0
  0
VERTEX
  5
20A
330
118
100
AcDbEntity
  8
MO_001_VIEW_PV
  6
C_SOLID_L
100
AcDbVertex
100
AcDb2dVertex
 10
71.37051200000001
 20
-73.170982
 30
0.0
  0
SEQEND
  5
20B
330
118
100
AcDbEntity
  8
MO_001_VIEW_PV
  6
C_SOLID_L
  0
ENDSEC
  0
SECTION
  2
OBJECTS
  0
DICTIONARY
  5
1A
330
0
100
AcDbDictionary
  3
ACAD_GROUP
350
1B
  3
ACAD_MLINESTYLE
350
1C
  3
ACAD_LAYOUT
350
164
  3
ACAD_PLOTSETTINGS
350
165
1001
ACAD
1000
TREAT_AS_HARD
1070
     0
1000
TREAT_AS_HARD
1070
     0
  0
DICTIONARY
  5
16A
330
1E
100
AcDbDictionary
  3
ACAD_LAYOUTSELFREF
350
1C1
1001
ACAD
1000
TREAT_AS_HARD
1070
     0
  0
DICTIONARY
  5
16C
330
1F
100
AcDbDictionary
  3
ACAD_LAYOUTSELFREF
350
1C2
1001
ACAD
1000
TREAT_AS_HARD
1070
     0
  0
DICTIONARY
  5
1B
102
{ACAD_REACTORS
330
1A
102
}
330
1A
100
AcDbDictionary
1001
ACAD
1000
TREAT_AS_HARD
1070
     0
1000
TREAT_AS_HARD
1070
     0
  0
DICTIONARY
  5
1C
102
{ACAD_REACTORS
330
1A
102
}
330
1A
100
AcDbDictionary
  3
STANDARD
350
1D
1001
ACAD
1000
TREAT_AS_HARD
1070
     0
1000
TREAT_AS_HARD
1070
     0
  0
DICTIONARY
  5
164
102
{ACAD_REACTORS
330
1A
102
}
330
1A
100
AcDbDictionary
1001
ACAD
1000
TREAT_AS_HARD
1070
     0
1000
TREAT_AS_HARD
1070
     0
  0
DICTIONARY
  5
165
102
{ACAD_REACTORS
330
1A
102
}
330
1A
100
AcDbDictionary
1001
ACAD
1000
TREAT_AS_HARD
1070
     0
1000
TREAT_AS_HARD
1070
     0
  0
XRECORD
  5
1C1
102
{ACAD_REACTORS
330
16A
102
}
330
16A
100
AcDbXrecord
340
1E
  0
XRECORD
  5
1C2
102
{ACAD_REACTORS
330
16C
102
}
330
16C
100
AcDbXrecord
340
1F
  0
MLINESTYLE
  5
1D
102
{ACAD_REACTORS
330
1C
102
}
330
1C
100
AcDbMlineStyle
  2
STANDARD
 70
     0
  3

 62
     0
 51
90.0
 52
90.0
 71
     2
 49
0.5
 62
   256
  6
BYLAYER
 49
-0.5
 62
   256
  6
BYLAYER
  0
ENDSEC
  0
EOF
