  0
SECTION
  2
HEADER
  9
$ACADVER
  1
AC1012
  9
$DWGCODEPAGE
  3
dos932
  9
$INSBASE
 10
0.0
 20
0.0
 30
0.0
  9
$EXTMIN
 10
-52.69226238655869
 20
-71.34317801548127
 30
-0.0015258207003583
  9
$EXTMAX
 10
112.506808548641
 20
49.12775223978883
 30
0.0000000349246037
  9
$LIMMIN
 10
-52.687153
 20
-74.45976299999999
  9
$LIMMAX
 10
114.7499999999999
 20
51.0
  9
$ORTHOMODE
 70
     0
  9
$REGENMODE
 70
     1
  9
$FILLMODE
 70
     1
  9
$QTEXTMODE
 70
     0
  9
$MIRRTEXT
 70
     1
  9
$DRAGMODE
 70
     2
  9
$LTSCALE
 40
1.0
  9
$OSMODE
 70
    37
  9
$ATTMODE
 70
     1
  9
$TEXTSIZE
 40
4.1672
  9
$TRACEWID
 40
0.05
  9
$TEXTSTYLE
  7
STANDARD
  9
$CLAYER
  8
0
  9
$CELTYPE
  6
CONTINUOUS
  9
$CECOLOR
 62
   256
  9
$CELTSCALE
 40
1.0
  9
$DELOBJ
 70
     1
  9
$DISPSILH
 70
     0
  9
$DIMSCALE
 40
1.0
  9
$DIMASZ
 40
0.18
  9
$DIMEXO
 40
0.0625
  9
$DIMDLI
 40
0.38
  9
$DIMRND
 40
0.0
  9
$DIMDLE
 40
0.0
  9
$DIMEXE
 40
0.18
  9
$DIMTP
 40
0.0
  9
$DIMTM
 40
0.0
  9
$DIMTXT
 40
0.18
  9
$DIMCEN
 40
0.09
  9
$DIMTSZ
 40
0.0
  9
$DIMTOL
 70
     0
  9
$DIMLIM
 70
     0
  9
$DIMTIH
 70
     1
  9
$DIMTOH
 70
     1
  9
$DIMSE1
 70
     0
  9
$DIMSE2
 70
     0
  9
$DIMTAD
 70
     0
  9
$DIMZIN
 70
     0
  9
$DIMBLK
  1

  9
$DIMASO
 70
     1
  9
$DIMSHO
 70
     1
  9
$DIMPOST
  1

  9
$DIMAPOST
  1

  9
$DIMALT
 70
     0
  9
$DIMALTD
 70
     2
  9
$DIMALTF
 40
25.4
  9
$DIMLFAC
 40
1.0
  9
$DIMTOFL
 70
     0
  9
$DIMTVP
 40
0.0
  9
$DIMTIX
 70
     0
  9
$DIMSOXD
 70
     0
  9
$DIMSAH
 70
     0
  9
$DIMBLK1
  1

  9
$DIMBLK2
  1

  9
$DIMSTYLE
  2
STANDARD
  9
$DIMCLRD
 70
     0
  9
$DIMCLRE
 70
     0
  9
$DIMCLRT
 70
     0
  9
$DIMTFAC
 40
1.0
  9
$DIMGAP
 40
0.09
  9
$DIMJUST
 70
     0
  9
$DIMSD1
 70
     0
  9
$DIMSD2
 70
     0
  9
$DIMTOLJ
 70
     1
  9
$DIMTZIN
 70
     0
  9
$DIMALTZ
 70
     0
  9
$DIMALTTZ
 70
     0
  9
$DIMFIT
 70
     3
  9
$DIMUPT
 70
     0
  9
$DIMUNIT
 70
     2
  9
$DIMDEC
 70
     4
  9
$DIMTDEC
 70
     4
  9
$DIMALTU
 70
     2
  9
$DIMALTTD
 70
     2
  9
$DIMTXSTY
  7
STANDARD
  9
$DIMAUNIT
 70
     0
  9
$LUNITS
 70
     2
  9
$LUPREC
 70
     6
  9
$SKETCHINC
 40
0.1
  9
$FILLETRAD
 40
0.0
  9
$AUNITS
 70
     0
  9
$AUPREC
 70
     4
  9
$MENU
  1
acad
  9
$ELEVATION
 40
0.0
  9
$PELEVATION
 40
0.0
  9
$THICKNESS
 40
0.0
  9
$LIMCHECK
 70
     0
  9
$BLIPMODE
 70
     0
  9
$CHAMFERA
 40
0.0
  9
$CHAMFERB
 40
0.0
  9
$CHAMFERC
 40
0.0
  9
$CHAMFERD
 40
0.0
  9
$SKPOLY
 70
     0
  9
$TDCREATE
 40
2376123.569110150
  9
$TDUPDATE
 40
2451687.703698495
  9
$TDINDWG
 40
0.0005721065
  9
$TDUSRTIMER
 40
0.0005721065
  9
$USRTIMER
 70
     1
  9
$ANGBASE
 50
0.0
  9
$ANGDIR
 70
     0
  9
$PDMODE
 70
     0
  9
$PDSIZE
 40
0.0
  9
$PLINEWID
 40
0.0
  9
$COORDS
 70
     1
  9
$SPLFRAME
 70
     0
  9
$SPLINETYPE
 70
     6
  9
$SPLINESEGS
 70
     8
  9
$ATTDIA
 70
     0
  9
$ATTREQ
 70
     1
  9
$HANDLING
 70
 10241
  9
$HANDSEED
  5
3A6
  9
$SURFTAB1
 70
     6
  9
$SURFTAB2
 70
     6
  9
$SURFTYPE
 70
     6
  9
$SURFU
 70
     6
  9
$SURFV
 70
     6
  9
$UCSNAME
  2

  9
$UCSORG
 10
0.0
 20
0.0
 30
0.0
  9
$UCSXDIR
 10
1.0
 20
0.0
 30
0.0
  9
$UCSYDIR
 10
0.0
 20
1.0
 30
0.0
  9
$PUCSNAME
  2

  9
$PUCSORG
 10
0.0
 20
0.0
 30
0.0
  9
$PUCSXDIR
 10
1.0
 20
0.0
 30
0.0
  9
$PUCSYDIR
 10
0.0
 20
1.0
 30
0.0
  9
$USERI1
 70
     0
  9
$USERI2
 70
     0
  9
$USERI3
 70
     0
  9
$USERI4
 70
     0
  9
$USERI5
 70
     0
  9
$USERR1
 40
0.0
  9
$USERR2
 40
0.0
  9
$USERR3
 40
0.0
  9
$USERR4
 40
0.0
  9
$USERR5
 40
0.0
  9
$WORLDVIEW
 70
     1
  9
$SHADEDGE
 70
     3
  9
$SHADEDIF
 70
    70
  9
$TILEMODE
 70
     1
  9
$MAXACTVP
 70
    16
  9
$PINSBASE
 10
0.0
 20
0.0
 30
0.0
  9
$PLIMCHECK
 70
     0
  9
$PEXTMIN
 10
-52.687153
 20
-74.45976299999999
 30
1.000000000000000E+20
  9
$PEXTMAX
 10
114.7499999999999
 20
51.0
 30
-1.000000000000000E+20
  9
$PLIMMIN
 10
0.0
 20
0.0
  9
$PLIMMAX
 10
12.0
 20
9.0
  9
$UNITMODE
 70
     0
  9
$VISRETAIN
 70
     0
  9
$PLINEGEN
 70
     0
  9
$PSLTSCALE
 70
     1
  9
$TREEDEPTH
 70
  3020
  9
$PICKSTYLE
 70
     1
  9
$CMLSTYLE
  2
STANDARD
  9
$CMLJUST
 70
     0
  9
$CMLSCALE
 40
1.0
  9
$SAVEIMAGES
 70
     1
  0
ENDSEC
  0
SECTION
  2
CLASSES
  0
CLASS
  1
ACDBDICTIONARYWDFLT
  2
AcDbDictionaryWithDefault
  3
AutoCAD 2000
 90
    32768
280
     0
281
     0
  0
CLASS
  1
ACDBPLACEHOLDER
  2
AcDbPlaceHolder
  3
AutoCAD 2000
 90
    32768
280
     0
281
     0
  0
CLASS
  1
LAYOUT
  2
AcDbLayout
  3
AutoCAD 2000
 90
    32768
280
     0
281
     0
  0
CLASS
  1
LONG_TRANSACTION
  2
AcDbLongTransaction
  3
AutoCAD 2000
 90
    32768
280
     0
281
     0
  0
CLASS
  1
LWPOLYLINE
  2
AcDbPolyline
  3
AutoCAD 2000
 90
    32768
280
     0
281
     1
  0
CLASS
  1
HATCH
  2
AcDbHatch
  3
AutoCAD 2000
 90
    32768
280
     0
281
     1
  0
CLASS
  1
XRECORD
  2
AcDbXrecord
  3
AutoCAD 2000
 90
    32768
280
     0
281
     0
  0
ENDSEC
  0
SECTION
  2
TABLES
  0
TABLE
  2
VPORT
  5
7
330
0
100
AcDbSymbolTable
 70
     2
  0
VPORT
  5
2DF
330
7
100
AcDbSymbolTableRecord
100
AcDbViewportTableRecord
  2
*ACTIVE
 70
     0
 10
0.0
 20
0.0
 11
1.0
 21
1.0
 12
31.02886880672064
 22
-11.72988149999999
 13
0.0
 23
0.0
 14
6.349999999999999
 24
6.349999999999999
 15
6.349999999999999
 25
6.349999999999999
 16
0.0
 26
0.0
 36
1.0
 17
0.0
 27
0.0
 37
0.0
 40
126.7576226172413
 41
1.644214162348877
 42
50.0
 43
0.0
 44
0.0
 50
0.0
 51
0.0
 71
     0
 72
   100
 73
     1
 74
     1
 75
     0
 76
     0
 77
     0
 78
     0
  0
ENDTAB
  0
TABLE
  2
LTYPE
  5
4
330
0
100
AcDbSymbolTable
 70
    37
  0
LTYPE
  5
12
330
4
100
AcDbSymbolTableRecord
100
AcDbLinetypeTableRecord
  2
BYBLOCK
 70
     0
  3

 72
    65
 73
     0
 40
0.0
  0
LTYPE
  5
13
330
4
100
AcDbSymbolTableRecord
100
AcDbLinetypeTableRecord
  2
BYLAYER
 70
     0
  3

 72
    65
 73
     0
 40
0.0
  0
LTYPE
  5
14
330
4
100
AcDbSymbolTableRecord
100
AcDbLinetypeTableRecord
  2
CONTINUOUS
 70
     0
  3
DXF Default line type
 72
    65
 73
     0
 40
0.0
  0
LTYPE
  5
20
330
4
100
AcDbSymbolTableRecord
100
AcDbLinetypeTableRecord
  2
DASHED
 70
     0
  3
DXF Dashed
 72
    65
 73
     2
 40
0.75
 49
0.5
 74
     0
 49
-0.25
 74
     0
  0
LTYPE
  5
21
330
4
100
AcDbSymbolTableRecord
100
AcDbLinetypeTableRecord
  2
HIDDEN
 70
     0
  3
DXF Hidden
 72
    65
 73
     2
 40
0.375
 49
0.25
 74
     0
 49
-0.125
 74
     0
  0
LTYPE
  5
22
330
4
100
AcDbSymbolTableRecord
100
AcDbLinetypeTableRecord
  2
CENTER
 70
     0
  3
DXF Center
 72
    65
 73
     4
 40
2.0
 49
1.25
 74
     0
 49
-0.25
 74
     0
 49
0.25
 74
     0
 49
-0.25
 74
     0
  0
LTYPE
  5
23
330
4
100
AcDbSymbolTableRecord
100
AcDbLinetypeTableRecord
  2
PHANTOM
 70
     0
  3
DXF Phantom
 72
    65
 73
     6
 40
2.5
 49
1.25
 74
     0
 49
-0.25
 74
     0
 49
0.25
 74
     0
 49
-0.25
 74
     0
 49
0.25
 74
     0
 49
-0.25
 74
     0
  0
LTYPE
  5
24
330
4
100
AcDbSymbolTableRecord
100
AcDbLinetypeTableRecord
  2
DOT
 70
     0
  3
DXF DOT
 72
    65
 73
     2
 40
0.25
 49
0.0
 74
     0
 49
-0.25
 74
     0
  0
LTYPE
  5
25
330
4
100
AcDbSymbolTableRecord
100
AcDbLinetypeTableRecord
  2
DASHDOT
 70
     0
  3
DXF Dash Dot
 72
    65
 73
     4
 40
1.0
 49
0.5
 74
     0
 49
-0.25
 74
     0
 49
0.0
 74
     0
 49
-0.25
 74
     0
  0
LTYPE
  5
26
330
4
100
AcDbSymbolTableRecord
100
AcDbLinetypeTableRecord
  2
BORDER
 70
     0
  3
DXF Border
 72
    65
 73
     6
 40
1.75
 49
0.5
 74
     0
 49
-0.25
 74
     0
 49
0.5
 74
     0
 49
-0.25
 74
     0
 49
0.0
 74
     0
 49
-0.25
 74
     0
  0
LTYPE
  5
27
330
4
100
AcDbSymbolTableRecord
100
AcDbLinetypeTableRecord
  2
DIVIDE
 70
     0
  3
DXF Divide
 72
    65
 73
     6
 40
1.25
 49
0.5
 74
     0
 49
-0.25
 74
     0
 49
0.0
 74
     0
 49
-0.25
 74
     0
 49
0.0
 74
     0
 49
-0.25
 74
     0
  0
LTYPE
  5
28
330
4
100
AcDbSymbolTableRecord
100
AcDbLinetypeTableRecord
  2
C_SOLID_L
 70
     0
  3
CADAM Solid Light
 72
    65
 73
     0
 40
0.0
  0
LTYPE
  5
29
330
4
100
AcDbSymbolTableRecord
100
AcDbLinetypeTableRecord
  2
C_SOLID_M
 70
     0
  3
CADAM Solid Medium
 72
    65
 73
     0
 40
0.0
  0
LTYPE
  5
2A
330
4
100
AcDbSymbolTableRecord
100
AcDbLinetypeTableRecord
  2
C_SOLID_H
 70
     0
  3
CADAM Solid Heavy
 72
    65
 73
     0
 40
0.0
  0
LTYPE
  5
2B
330
4
100
AcDbSymbolTableRecord
100
AcDbLinetypeTableRecord
  2
C_DASHED_L
 70
     0
  3
CADAM Dashed Light
 72
    65
 73
     2
 40
0.375
 49
0.25
 74
     0
 49
-0.125
 74
     0
  0
LTYPE
  5
2C
330
4
100
AcDbSymbolTableRecord
100
AcDbLinetypeTableRecord
  2
C_DASHED_M
 70
     0
  3
CADAM Dashed Medium
 72
    65
 73
     2
 40
0.5
 49
0.375
 74
     0
 49
-0.125
 74
     0
  0
LTYPE
  5
2D
330
4
100
AcDbSymbolTableRecord
100
AcDbLinetypeTableRecord
  2
C_CENTER_L
 70
     0
  3
CADAM Center Light
 72
    65
 73
     4
 40
2.0
 49
1.25
 74
     0
 49
-0.25
 74
     0
 49
0.25
 74
     0
 49
-0.25
 74
     0
  0
LTYPE
  5
2E
330
4
100
AcDbSymbolTableRecord
100
AcDbLinetypeTableRecord
  2
C_PHANTOM_L
 70
     0
  3
CADAM Phantom Light
 72
    65
 73
     6
 40
2.5
 49
1.25
 74
     0
 49
-0.25
 74
     0
 49
0.25
 74
     0
 49
-0.25
 74
     0
 49
0.25
 74
     0
 49
-0.25
 74
     0
  0
LTYPE
  5
2F
330
4
100
AcDbSymbolTableRecord
100
AcDbLinetypeTableRecord
  2
C_BREAK_M
 70
     0
  3
CADAM Break Medium
 72
    65
 73
     4
 40
1.0
 49
0.5
 74
     0
 49
-0.25
 74
     0
 49
0.0
 74
     0
 49
-0.25
 74
     0
  0
LTYPE
  5
30
330
4
100
AcDbSymbolTableRecord
100
AcDbLinetypeTableRecord
  2
C_NC
 70
     0
  3
CADAM NC
 72
    65
 73
     0
 40
0.0
  0
LTYPE
  5
31
330
4
100
AcDbSymbolTableRecord
100
AcDbLinetypeTableRecord
  2
DSH1
 70
     0
  3
CADAM Style2 Type 1 Dashed Line
 72
    65
 73
     2
 40
0.075
 49
0.04
 74
     0
 49
-0.035
 74
     0
  0
LTYPE
  5
32
330
4
100
AcDbSymbolTableRecord
100
AcDbLinetypeTableRecord
  2
DSH2
 70
     0
  3
CADAM Style2 Type 2 Dashed Line
 72
    65
 73
     2
 40
0.15
 49
0.11
 74
     0
 49
-0.04
 74
     0
  0
LTYPE
  5
33
330
4
100
AcDbSymbolTableRecord
100
AcDbLinetypeTableRecord
  2
DSH3
 70
     0
  3
CADAM Style2 Type 3 Dashed Line
 72
    65
 73
     2
 40
0.2
 49
0.15
 74
     0
 49
-0.05
 74
     0
  0
LTYPE
  5
34
330
4
100
AcDbSymbolTableRecord
100
AcDbLinetypeTableRecord
  2
DSH4
 70
     0
  3
CADAM Style2 Type 4 Dashed Line
 72
    65
 73
     2
 40
0.36
 49
0.28
 74
     0
 49
-0.08
 74
     0
  0
LTYPE
  5
35
330
4
100
AcDbSymbolTableRecord
100
AcDbLinetypeTableRecord
  2
DSH5
 70
     0
  3
CADAM Style2 Type 5 Dashed Line
 72
    65
 73
     2
 40
0.47
 49
0.39
 74
     0
 49
-0.08
 74
     0
  0
LTYPE
  5
36
330
4
100
AcDbSymbolTableRecord
100
AcDbLinetypeTableRecord
  2
DSH6
 70
     0
  3
CADAM Style2 Type 6 Dashed Line
 72
    65
 73
     2
 40
0.9
 49
0.8100000000000001
 74
     0
 49
-0.09
 74
     0
  0
LTYPE
  5
37
330
4
100
AcDbSymbolTableRecord
100
AcDbLinetypeTableRecord
  2
PL1
 70
     0
  3
Style 2 Type 1 Phantom Line
 72
    65
 73
     6
 40
1.0
 49
0.6
 74
     0
 49
-0.08
 74
     0
 49
0.08
 74
     0
 49
-0.08
 74
     0
 49
0.08
 74
     0
 49
-0.08
 74
     0
  0
LTYPE
  5
38
330
4
100
AcDbSymbolTableRecord
100
AcDbLinetypeTableRecord
  2
PL2
 70
     0
  3
Style 2 Type 2 Phantom Line
 72
    65
 73
     6
 40
1.08
 49
0.6
 74
     0
 49
-0.08
 74
     0
 49
0.12
 74
     0
 49
-0.08
 74
     0
 49
0.12
 74
     0
 49
-0.08
 74
     0
  0
LTYPE
  5
39
330
4
100
AcDbSymbolTableRecord
100
AcDbLinetypeTableRecord
  2
PL3
 70
     0
  3
Style 2 Type 3 Phantom Line
 72
    65
 73
     6
 40
2.0
 49
1.439999999999999
 74
     0
 49
-0.08
 74
     0
 49
0.16
 74
     0
 49
-0.08
 74
     0
 49
0.16
 74
     0
 49
-0.08
 74
     0
  0
LTYPE
  5
3A
330
4
100
AcDbSymbolTableRecord
100
AcDbLinetypeTableRecord
  2
CL1
 70
     0
  3
CADAM Style 2 Type 1 Center Line
 72
    65
 73
     4
 40
0.7
 49
0.45
 74
     0
 49
-0.06
 74
     0
 49
0.13
 74
     0
 49
-0.06
 74
     0
  0
LTYPE
  5
3B
330
4
100
AcDbSymbolTableRecord
100
AcDbLinetypeTableRecord
  2
CL2
 70
     0
  3
CADAM Style 2 Type 2 Center Line
 72
    65
 73
     4
 40
1.199999999999999
 49
1.01
 74
     0
 49
-0.06
 74
     0
 49
0.11
 74
     0
 49
-0.06
 74
     0
  0
LTYPE
  5
3C
330
4
100
AcDbSymbolTableRecord
100
AcDbLinetypeTableRecord
  2
CL3
 70
     0
  3
CADAM Style 2 Type 3 Center Line
 72
    65
 73
     4
 40
1.199999999999999
 49
0.98
 74
     0
 49
-0.06
 74
     0
 49
0.1
 74
     0
 49
-0.06
 74
     0
  0
LTYPE
  5
3D
330
4
100
AcDbSymbolTableRecord
100
AcDbLinetypeTableRecord
  2
CL4
 70
     0
  3
CADAM Style 2 Type 4 Center Line
 72
    65
 73
     4
 40
2.2
 49
1.929999999999999
 74
     0
 49
-0.07
 74
     0
 49
0.13
 74
     0
 49
-0.07
 74
     0
  0
LTYPE
  5
3E
330
4
100
AcDbSymbolTableRecord
100
AcDbLinetypeTableRecord
  2
CL5
 70
     0
  3
CADAM Style 2 Type 5 Center Line
 72
    65
 73
     4
 40
2.2
 49
1.879999999999999
 74
     0
 49
-0.07
 74
     0
 49
0.18
 74
     0
 49
-0.07
 74
     0
  0
LTYPE
  5
3F
330
4
100
AcDbSymbolTableRecord
100
AcDbLinetypeTableRecord
  2
SBK1
 70
     0
  3
CADAM Style 2 Type 1 SetBack Line
 72
    65
 73
     8
 40
2.7
 49
0.1
 74
     0
 49
-0.08
 74
     0
 49
0.1
 74
     0
 49
-0.8
 74
     0
 49
0.0
 74
     0
 49
0.0
 74
     0
 49
0.0
 74
     0
 49
0.0
 74
     0
  0
LTYPE
  5
40
330
4
100
AcDbSymbolTableRecord
100
AcDbLinetypeTableRecord
  2
SBK2
 70
     0
  3
CADAM Style 2 Type 2 SetBack Line
 72
    65
 73
     8
 40
3.709999999999999
 49
0.13
 74
     0
 49
-0.08
 74
     0
 49
0.13
 74
     0
 49
-0.8
 74
     0
 49
0.0
 74
     0
 49
0.0
 74
     0
 49
0.0
 74
     0
 49
0.0
 74
     0
  0
LTYPE
  5
41
330
4
100
AcDbSymbolTableRecord
100
AcDbLinetypeTableRecord
  2
STCH
 70
     0
  3
CADAM Style2 Stitch Line
 72
    65
 73
     2
 40
0.25
 49
0.0
 74
     0
 49
-0.25
 74
     0
  0
LTYPE
  5
42
330
4
100
AcDbSymbolTableRecord
100
AcDbLinetypeTableRecord
  2
MTCH
 70
     0
  3
CADAM Style2 Match Line
 72
    65
 73
     6
 40
2.0
 49
1.439999999999999
 74
     0
 49
-0.8
 74
     0
 49
0.16
 74
     0
 49
-0.08
 74
     0
 49
0.16
 74
     0
 49
-0.08
 74
     0
  0
LTYPE
  5
43
330
4
100
AcDbSymbolTableRecord
100
AcDbLinetypeTableRecord
  2
SLD
 70
     0
  3
CADAM Solid_EXT2
 72
    65
 73
     0
 40
0.0
  0
ENDTAB
  0
TABLE
  2
LAYER
  5
2
330
0
100
AcDbSymbolTable
 70
     7
  0
LAYER
  5
15
330
2
100
AcDbSymbolTableRecord
100
AcDbLayerTableRecord
  2
0
 70
     0
 62
     7
  6
CONTINUOUS
  0
LAYER
  5
44
330
2
100
AcDbSymbolTableRecord
100
AcDbLayerTableRecord
  2
MO_001_NOSHOW
 70
     1
 62
     7
  6
CONTINUOUS
  0
LAYER
  5
45
330
2
100
AcDbSymbolTableRecord
100
AcDbLayerTableRecord
  2
MO_001_VIEW_PV
 70
     0
 62
     7
  6
CONTINUOUS
  0
LAYER
  5
46
330
2
100
AcDbSymbolTableRecord
100
AcDbLayerTableRecord
  2
OVERLAY_MAP
 70
     1
 62
     7
  6
CONTINUOUS
  0
LAYER
  5
47
330
2
100
AcDbSymbolTableRecord
100
AcDbLayerTableRecord
  2
DITTOS
 70
     0
 62
     7
  6
CONTINUOUS
  0
LAYER
  5
48
330
2
100
AcDbSymbolTableRecord
100
AcDbLayerTableRecord
  2
SYMBOLS
 70
     0
 62
     7
  6
CONTINUOUS
  0
LAYER
  5
49
330
2
100
AcDbSymbolTableRecord
100
AcDbLayerTableRecord
  2
SETS
 70
     0
 62
     7
  6
CONTINUOUS
  0
ENDTAB
  0
TABLE
  2
STYLE
  5
3
330
0
100
AcDbSymbolTable
 70
     1
  0
STYLE
  5
18
330
3
100
AcDbSymbolTableRecord
100
AcDbTextStyleTableRecord
  2
STANDARD
 70
     0
 40
4.1672
 41
1.0
 50
0.0
 71
     0
 42
4.1672
  3
monotxt
  4
BIGFONT
  0
ENDTAB
  0
TABLE
  2
VIEW
  5
5
330
0
100
AcDbSymbolTable
 70
     0
  0
ENDTAB
  0
TABLE
  2
UCS
  5
6
330
0
100
AcDbSymbolTable
 70
     1
  0
UCS
  5
4A
330
6
100
AcDbSymbolTableRecord
100
AcDbUCSTableRecord
  2
MO_001_VIEW_PV_P
 70
     0
 10
0.0
 20
0.0
 30
0.0
 11
1.0
 21
0.0
 31
0.0
 12
-0.0000000002051034
 22
1.0
 32
0.0
  0
ENDTAB
  0
TABLE
  2
APPID
  5
8
330
0
100
AcDbSymbolTable
 70
     1
  0
APPID
  5
17
330
8
100
AcDbSymbolTableRecord
100
AcDbRegAppTableRecord
  2
ACAD
 70
     0
  0
ENDTAB
  0
TABLE
  2
DIMSTYLE
  5
9
330
0
100
AcDbSymbolTable
 70
     1
  0
DIMSTYLE
105
19
102
{ACAD_REACTORS
330
244
330
246
330
248
330
24A
330
24C
330
24E
330
250
330
252
330
254
330
256
330
258
330
25A
102
}
330
9
100
AcDbSymbolTableRecord
100
AcDbDimStyleTableRecord
  2
STANDARD
 70
     0
  3

  4

  5

  6

  7

 40
1.0
 41
0.18
 42
0.0625
 43
0.38
 44
0.18
 45
0.0
 46
0.0
 47
0.0
 48
0.0
140
0.18
141
0.09
142
0.0
143
25.4
144
1.0
145
0.0
146
1.0
147
0.09
 71
     0
 72
     0
 73
     1
 74
     1
 75
     0
 76
     0
 77
     0
 78
     0
170
     0
171
     2
172
     0
173
     0
174
     0
175
     0
176
     0
177
     0
178
     0
270
     2
271
     4
272
     4
273
     2
274
     2
340
18
275
     0
280
     0
281
     0
282
     0
283
     1
284
     0
285
     0
286
     0
287
     3
288
     0
  0
ENDTAB
  0
TABLE
  2
BLOCK_RECORD
  5
C
330
0
100
AcDbSymbolTable
 70
    12
  0
BLOCK_RECORD
  5
1E
102
{ACAD_XDICTIONARY
360
2E0
102
}
330
C
100
AcDbSymbolTableRecord
100
AcDbBlockTableRecord
  2
*MODEL_SPACE
  0
BLOCK_RECORD
  5
1F
102
{ACAD_XDICTIONARY
360
2E2
102
}
330
C
100
AcDbSymbolTableRecord
100
AcDbBlockTableRecord
  2
*PAPER_SPACE
  0
BLOCK_RECORD
  5
243
330
C
100
AcDbSymbolTableRecord
100
AcDbBlockTableRecord
  2
*D0
  0
BLOCK_RECORD
  5
245
330
C
100
AcDbSymbolTableRecord
100
AcDbBlockTableRecord
  2
*D1
  0
BLOCK_RECORD
  5
247
330
C
100
AcDbSymbolTableRecord
100
AcDbBlockTableRecord
  2
*D2
  0
BLOCK_RECORD
  5
249
330
C
100
AcDbSymbolTableRecord
100
AcDbBlockTableRecord
  2
*D3
  0
BLOCK_RECORD
  5
24B
330
C
100
AcDbSymbolTableRecord
100
AcDbBlockTableRecord
  2
*D4
  0
BLOCK_RECORD
  5
24D
330
C
100
AcDbSymbolTableRecord
100
AcDbBlockTableRecord
  2
*D5
  0
BLOCK_RECORD
  5
24F
330
C
100
AcDbSymbolTableRecord
100
AcDbBlockTableRecord
  2
*D6
  0
BLOCK_RECORD
  5
251
330
C
100
AcDbSymbolTableRecord
100
AcDbBlockTableRecord
  2
*D7
  0
BLOCK_RECORD
  5
253
330
C
100
AcDbSymbolTableRecord
100
AcDbBlockTableRecord
  2
*D8
  0
BLOCK_RECORD
  5
255
330
C
100
AcDbSymbolTableRecord
100
AcDbBlockTableRecord
  2
*D9
  0
BLOCK_RECORD
  5
257
330
C
100
AcDbSymbolTableRecord
100
AcDbBlockTableRecord
  2
*D10
  0
BLOCK_RECORD
  5
259
330
C
100
AcDbSymbolTableRecord
100
AcDbBlockTableRecord
  2
*D11
  0
ENDTAB
  0
ENDSEC
  0
SECTION
  2
BLOCKS
  0
BLOCK
  5
E
330
1E
100
AcDbEntity
  8
0
100
AcDbBlockBegin
  2
*MODEL_SPACE
 70
     0
 10
0.0
 20
0.0
 30
0.0
  3
*MODEL_SPACE
  1

  0
ENDBLK
  5
F
330
1E
100
AcDbEntity
  8
0
100
AcDbBlockEnd
  0
BLOCK
  5
10
330
1F
100
AcDbEntity
 67
     1
  8
0
100
AcDbBlockBegin
  2
*PAPER_SPACE
 70
     0
 10
0.0
 20
0.0
 30
0.0
  3
*PAPER_SPACE
  1

  0
ENDBLK
  5
11
330
1F
100
AcDbEntity
 67
     1
  8
0
100
AcDbBlockEnd
  0
BLOCK
  5
261
330
243
100
AcDbEntity
  8
0
100
AcDbBlockBegin
  2
*D0
 70
     1
 10
0.0
 20
0.0
 30
0.0
  3
*D0
  1

  0
TEXT
  5
262
330
243
100
AcDbEntity
  8
MO_001_VIEW_PV
  6
BYBLOCK
100
AcDbText
 10
-15.41837399999999
 20
35.625
 30
0.0
 40
1.5
  1
%%P0.1
100
AcDbText
  0
TEXT
  5
263
330
243
100
AcDbEntity
  8
MO_001_VIEW_PV
  6
BYBLOCK
100
AcDbText
 10
-24.20408899999999
 20
33.75
 30
0.0
 40
3.0
  1
2.9
100
AcDbText
  0
LINE
  5
264
330
243
100
AcDbEntity
  8
MO_001_VIEW_PV
  6
BYBLOCK
100
AcDbLine
 10
-31.906992
 20
33.0
 30
0.0
 11
-29.00699799999999
 21
33.0
 31
0.0
  0
LINE
  5
265
330
243
100
AcDbEntity
  8
MO_001_VIEW_PV
  6
BYBLOCK
100
AcDbLine
 10
-29.00699799999999
 20
33.0
 30
0.0
 11
-22.656998
 21
33.0
 31
0.0
  0
SOLID
  5
266
330
243
100
AcDbEntity
  8
MO_001_VIEW_PV
  6
BYBLOCK
100
AcDbTrace
 10
-31.906992
 20
33.635
 30
0.0
 11
-31.906992
 21
32.365
 31
0.0
 12
-31.906992
 22
33.635
 32
0.0
 13
-31.906992
 23
33.635
 33
0.0
  0
SOLID
  5
267
330
243
100
AcDbEntity
  8
MO_001_VIEW_PV
  6
BYBLOCK
100
AcDbTrace
 10
-25.688738
 20
33.58351199999999
 30
0.0
 11
-28.49899799999999
 21
33.0
 31
0.0
 12
-25.688738
 22
32.416488
 32
0.0
 13
-25.688738
 23
32.416488
 33
0.0
  0
LINE
  5
268
330
243
100
AcDbEntity
  8
MO_001_VIEW_PV
  6
BYBLOCK
100
AcDbLine
 10
-31.906992
 20
25.0
 30
0.0
 11
-31.906992
 21
35.28599899999999
 31
0.0
  0
LINE
  5
269
330
243
100
AcDbEntity
  8
MO_001_VIEW_PV
  6
BYBLOCK
100
AcDbLine
 10
-29.00699799999999
 20
25.0
 30
0.0
 11
-29.00699799999999
 21
35.28599899999999
 31
0.0
  0
LINE
  5
26A
330
243
100
AcDbEntity
  8
MO_001_VIEW_PV
  6
BYBLOCK
100
AcDbLine
 10
-29.00699799999999
 20
33.0
 30
0.0
 11
-9.096946
 21
33.0
 31
0.0
  0
ENDBLK
  5
26B
330
243
100
AcDbEntity
  8
0
100
AcDbBlockEnd
  0
BLOCK
  5
26C
330
245
100
AcDbEntity
  8
0
100
AcDbBlockBegin
  2
*D1
 70
     1
 10
0.0
 20
0.0
 30
0.0
  3
*D1
  1

  0
TEXT
  5
26D
330
245
100
AcDbEntity
  8
MO_001_VIEW_PV
  6
BYBLOCK
100
AcDbText
 10
-42.93715399999999
 20
35.625
 30
0.0
 40
1.5
  1
%%P0.3
100
AcDbText
  0
TEXT
  5
26E
330
245
100
AcDbEntity
  8
MO_001_VIEW_PV
  6
BYBLOCK
100
AcDbText
 10
-51.722868
 20
33.75
 30
0.0
 40
3.0
  1
2.2
100
AcDbText
  0
LINE
  5
26F
330
245
100
AcDbEntity
  8
MO_001_VIEW_PV
  6
BYBLOCK
100
AcDbLine
 10
-34.077179
 20
33.0
 30
0.0
 11
-31.906992
 21
33.0
 31
0.0
  0
LINE
  5
270
330
245
100
AcDbEntity
  8
MO_001_VIEW_PV
  6
BYBLOCK
100
AcDbLine
 10
-34.077179
 20
33.0
 30
0.0
 11
-40.42717899999999
 21
33.0
 31
0.0
  0
SOLID
  5
271
330
245
100
AcDbEntity
  8
MO_001_VIEW_PV
  6
BYBLOCK
100
AcDbTrace
 10
-37.395439
 20
32.416488
 30
0.0
 11
-34.58517899999999
 21
33.0
 31
0.0
 12
-37.395439
 22
33.58351199999999
 32
0.0
 13
-37.395439
 23
33.58351199999999
 33
0.0
  0
LINE
  5
272
330
245
100
AcDbEntity
  8
MO_001_VIEW_PV
  6
BYBLOCK
100
AcDbLine
 10
-34.077179
 20
12.90377799999999
 30
0.0
 11
-34.077179
 21
35.28599899999999
 31
0.0
  0
LINE
  5
273
330
245
100
AcDbEntity
  8
MO_001_VIEW_PV
  6
BYBLOCK
100
AcDbLine
 10
-31.906992
 20
25.0
 30
0.0
 11
-31.906992
 21
35.28599899999999
 31
0.0
  0
LINE
  5
274
330
245
100
AcDbEntity
  8
MO_001_VIEW_PV
  6
BYBLOCK
100
AcDbLine
 10
-52.687153
 20
33.0
 30
0.0
 11
-34.077179
 21
33.0
 31
0.0
  0
ENDBLK
  5
275
330
245
100
AcDbEntity
  8
0
100
AcDbBlockEnd
  0
BLOCK
  5
276
330
247
100
AcDbEntity
  8
0
100
AcDbBlockBegin
  2
*D2
 70
     1
 10
0.0
 20
0.0
 30
0.0
  3
*D2
  1

  0
TEXT
  5
277
330
247
100
AcDbEntity
  8
MO_001_VIEW_PV
  6
BYBLOCK
100
AcDbText
 10
-22.610018
 20
39.75
 30
0.0
 40
3.0
  1
35以下
100
AcDbText
  0
LINE
  5
278
330
247
100
AcDbEntity
  8
MO_001_VIEW_PV
  6
BYBLOCK
100
AcDbLine
 10
-34.077179
 20
39.0
 30
0.0
 11
0.0
 21
39.0
 31
0.0
  0
SOLID
  5
279
330
247
100
AcDbEntity
  8
MO_001_VIEW_PV
  6
BYBLOCK
100
AcDbTrace
 10
-30.758919
 20
39.583512
 30
0.0
 11
-33.569179
 21
39.0
 31
0.0
 12
-30.758919
 22
38.416488
 32
0.0
 13
-30.758919
 23
38.416488
 33
0.0
  0
SOLID
  5
27A
330
247
100
AcDbEntity
  8
MO_001_VIEW_PV
  6
BYBLOCK
100
AcDbTrace
 10
-3.318259999999999
 20
38.416488
 30
0.0
 11
-0.508
 21
39.0
 31
0.0
 12
-3.318259999999999
 22
39.583512
 32
0.0
 13
-3.318259999999999
 23
39.583512
 33
0.0
  0
LINE
  5
27B
330
247
100
AcDbEntity
  8
MO_001_VIEW_PV
  6
BYBLOCK
100
AcDbLine
 10
-34.077179
 20
12.90377799999999
 30
0.0
 11
-34.077179
 21
41.285999
 31
0.0
  0
LINE
  5
27C
330
247
100
AcDbEntity
  8
MO_001_VIEW_PV
  6
BYBLOCK
100
AcDbLine
 10
0.0
 20
24.599998
 30
0.0
 11
0.0
 21
41.285999
 31
0.0
  0
ENDBLK
  5
27D
330
247
100
AcDbEntity
  8
0
100
AcDbBlockEnd
  0
BLOCK
  5
27E
330
249
100
AcDbEntity
  8
0
100
AcDbBlockBegin
  2
*D3
 70
     1
 10
0.0
 20
0.0
 30
0.0
  3
*D3
  1

  0
TEXT
  5
27F
330
249
100
AcDbEntity
  8
MO_001_VIEW_PV
  6
BYBLOCK
100
AcDbText
 10
30.734311
 20
41.625
 30
0.0
 40
1.5
  1
%%P0.5
100
AcDbText
  0
TEXT
  5
280
330
249
100
AcDbEntity
  8
MO_001_VIEW_PV
  6
BYBLOCK
100
AcDbText
 10
18.94859699999999
 20
39.75
 30
0.0
 40
3.0
  1
18.4
100
AcDbText
  0
LINE
  5
281
330
249
100
AcDbEntity
  8
MO_001_VIEW_PV
  6
BYBLOCK
100
AcDbLine
 10
0.0
 20
39.0
 30
0.0
 11
18.39999999999999
 21
39.0
 31
0.0
  0
SOLID
  5
282
330
249
100
AcDbEntity
  8
MO_001_VIEW_PV
  6
BYBLOCK
100
AcDbTrace
 10
3.318259999999999
 20
39.583512
 30
0.0
 11
0.508
 21
39.0
 31
0.0
 12
3.318259999999999
 22
38.416488
 32
0.0
 13
3.318259999999999
 23
38.416488
 33
0.0
  0
SOLID
  5
283
330
249
100
AcDbEntity
  8
MO_001_VIEW_PV
  6
BYBLOCK
100
AcDbTrace
 10
15.081739
 20
38.416488
 30
0.0
 11
17.892
 21
39.0
 31
0.0
 12
15.081739
 22
39.583512
 32
0.0
 13
15.081739
 23
39.583512
 33
0.0
  0
LINE
  5
284
330
249
100
AcDbEntity
  8
MO_001_VIEW_PV
  6
BYBLOCK
100
AcDbLine
 10
0.0
 20
24.599998
 30
0.0
 11
0.0
 21
41.285999
 31
0.0
  0
LINE
  5
285
330
249
100
AcDbEntity
  8
MO_001_VIEW_PV
  6
BYBLOCK
100
AcDbLine
 10
18.39999999999999
 20
19.949997
 30
0.0
 11
18.39999999999999
 21
41.285999
 31
0.0
  0
LINE
  5
286
330
249
100
AcDbEntity
  8
MO_001_VIEW_PV
  6
BYBLOCK
100
AcDbLine
 10
18.39999999999999
 20
39.0
 30
0.0
 11
37.05574
 21
39.0
 31
0.0
  0
ENDBLK
  5
287
330
249
100
AcDbEntity
  8
0
100
AcDbBlockEnd
  0
BLOCK
  5
288
330
24B
100
AcDbEntity
  8
0
100
AcDbBlockBegin
  2
*D4
 70
     1
 10
0.0
 20
0.0
 30
0.0
  3
*D4
  1

  0
TEXT
  5
289
330
24B
100
AcDbEntity
  8
MO_001_VIEW_PV
  6
BYBLOCK
100
AcDbText
 10
30.352025
 20
47.625
 30
0.0
 40
1.5
  1
%%P0.5
100
AcDbText
  0
TEXT
  5
28A
330
24B
100
AcDbEntity
  8
MO_001_VIEW_PV
  6
BYBLOCK
100
AcDbText
 10
18.56631099999999
 20
45.75
 30
0.0
 40
3.0
  1
17.3
100
AcDbText
  0
LINE
  5
28B
330
24B
100
AcDbEntity
  8
MO_001_VIEW_PV
  6
BYBLOCK
100
AcDbLine
 10
17.293001
 20
45.0
 30
0.0
 11
0.0
 21
45.0
 31
0.0
  0
SOLID
  5
28C
330
24B
100
AcDbEntity
  8
MO_001_VIEW_PV
  6
BYBLOCK
100
AcDbTrace
 10
13.974741
 20
44.416488
 30
0.0
 11
16.785001
 21
45.0
 31
0.0
 12
13.974741
 22
45.58351199999999
 32
0.0
 13
13.974741
 23
45.58351199999999
 33
0.0
  0
SOLID
  5
28D
330
24B
100
AcDbEntity
  8
MO_001_VIEW_PV
  6
BYBLOCK
100
AcDbTrace
 10
3.318259999999999
 20
45.58351199999999
 30
0.0
 11
0.508
 21
45.0
 31
0.0
 12
3.318259999999999
 22
44.416488
 32
0.0
 13
3.318259999999999
 23
44.416488
 33
0.0
  0
LINE
  5
28E
330
24B
100
AcDbEntity
  8
MO_001_VIEW_PV
  6
BYBLOCK
100
AcDbLine
 10
17.293001
 20
3.669998
 30
0.0
 11
17.293001
 21
47.28599899999999
 31
0.0
  0
LINE
  5
28F
330
24B
100
AcDbEntity
  8
MO_001_VIEW_PV
  6
BYBLOCK
100
AcDbLine
 10
0.0
 20
24.599998
 30
0.0
 11
0.0
 21
47.28599899999999
 31
0.0
  0
LINE
  5
290
330
24B
100
AcDbEntity
  8
MO_001_VIEW_PV
  6
BYBLOCK
100
AcDbLine
 10
36.673454
 20
45.0
 30
0.0
 11
17.293001
 21
45.0
 31
0.0
  0
ENDBLK
  5
291
330
24B
100
AcDbEntity
  8
0
100
AcDbBlockEnd
  0
BLOCK
  5
292
330
24D
100
AcDbEntity
  8
0
100
AcDbBlockBegin
  2
*D5
 70
     1
 10
0.0
 20
0.0
 30
0.0
  3
*D5
  1

  0
LINE
  5
293
330
24D
100
AcDbEntity
  8
MO_001_VIEW_PV
  6
BYBLOCK
100
AcDbLine
 10
-48.006996
 20
3.824408999999999
 30
0.0
 11
-48.006996
 21
32.21235699999999
 31
0.0
  0
TEXT
  5
294
330
24D
100
AcDbEntity
  8
MO_001_VIEW_PV
  6
BYBLOCK
100
AcDbText
 10
-20.78921199999999
 20
47.625
 30
0.0
 40
1.5
  1
%%P1.0
100
AcDbText
  0
TEXT
  5
295
330
24D
100
AcDbEntity
  8
MO_001_VIEW_PV
  6
BYBLOCK
100
AcDbText
 10
-32.574927
 20
45.75
 30
0.0
 40
3.0
  1
48.0
100
AcDbText
  0
LINE
  5
296
330
24D
100
AcDbEntity
  8
MO_001_VIEW_PV
  6
BYBLOCK
100
AcDbLine
 10
0.0
 20
45.0
 30
0.0
 11
-48.006996
 21
45.0
 31
0.0
  0
SOLID
  5
297
330
24D
100
AcDbEntity
  8
MO_001_VIEW_PV
  6
BYBLOCK
100
AcDbTrace
 10
-3.318259999999999
 20
44.416488
 30
0.0
 11
-0.508
 21
45.0
 31
0.0
 12
-3.318259999999999
 22
45.58351199999999
 32
0.0
 13
-3.318259999999999
 23
45.58351199999999
 33
0.0
  0
SOLID
  5
298
330
24D
100
AcDbEntity
  8
MO_001_VIEW_PV
  6
BYBLOCK
100
AcDbTrace
 10
-44.688736
 20
45.58351199999999
 30
0.0
 11
-47.498996
 21
45.0
 31
0.0
 12
-44.688736
 22
44.416488
 32
0.0
 13
-44.688736
 23
44.416488
 33
0.0
  0
LINE
  5
299
330
24D
100
AcDbEntity
  8
MO_001_VIEW_PV
  6
BYBLOCK
100
AcDbLine
 10
0.0
 20
24.599998
 30
0.0
 11
0.0
 21
47.28599899999999
 31
0.0
  0
LINE
  5
29A
330
24D
100
AcDbEntity
  8
MO_001_VIEW_PV
  6
BYBLOCK
100
AcDbLine
 10
-48.006996
 20
37.30122399999999
 30
0.0
 11
-48.006996
 21
47.28599899999999
 31
0.0
  0
ENDBLK
  5
29B
330
24D
100
AcDbEntity
  8
0
100
AcDbBlockEnd
  0
BLOCK
  5
29C
330
24F
100
AcDbEntity
  8
0
100
AcDbBlockBegin
  2
*D6
 70
     1
 10
0.0
 20
0.0
 30
0.0
  3
*D6
  1

  0
TEXT
  5
29D
330
24F
100
AcDbEntity
  8
MO_001_VIEW_PV
  6
BYBLOCK
100
AcDbText
 10
24.375
 20
23.58689
 30
0.0
 40
1.5
  1
%%P0.03
 50
90.0
100
AcDbText
  0
TEXT
  5
29E
330
24F
100
AcDbEntity
  8
MO_001_VIEW_PV
  6
BYBLOCK
100
AcDbText
 10
26.25
 20
8.801175999999999
 30
0.0
 40
3.0
  1
%%C7.94
 50
90.0
100
AcDbText
  0
LINE
  5
29F
330
24F
100
AcDbEntity
  8
MO_001_VIEW_PV
  6
BYBLOCK
100
AcDbLine
 10
27.0
 20
-3.970001
 30
0.0
 11
27.0
 21
3.970001
 31
0.0
  0
LINE
  5
2A0
330
24F
100
AcDbEntity
  8
MO_001_VIEW_PV
  6
BYBLOCK
100
AcDbLine
 10
27.0
 20
-3.970001
 30
0.0
 11
27.0
 21
-10.320001
 31
0.0
  0
LINE
  5
2A1
330
24F
100
AcDbEntity
  8
MO_001_VIEW_PV
  6
BYBLOCK
100
AcDbLine
 10
27.0
 20
3.970001
 30
0.0
 11
27.0
 21
10.320001
 31
0.0
  0
SOLID
  5
2A2
330
24F
100
AcDbEntity
  8
MO_001_VIEW_PV
  6
BYBLOCK
100
AcDbTrace
 10
27.58351199999999
 20
-7.288261
 30
0.0
 11
27.0
 21
-4.478000999999999
 31
0.0
 12
26.416488
 22
-7.288261
 32
0.0
 13
26.416488
 23
-7.288261
 33
0.0
  0
SOLID
  5
2A3
330
24F
100
AcDbEntity
  8
MO_001_VIEW_PV
  6
BYBLOCK
100
AcDbTrace
 10
26.416488
 20
7.288261
 30
0.0
 11
27.0
 21
4.478000999999999
 31
0.0
 12
27.58351199999999
 22
7.288261
 32
0.0
 13
27.58351199999999
 23
7.288261
 33
0.0
  0
LINE
  5
2A4
330
24F
100
AcDbEntity
  8
MO_001_VIEW_PV
  6
BYBLOCK
100
AcDbLine
 10
16.993002
 20
-3.970001
 30
0.0
 11
29.285999
 21
-3.970001
 31
0.0
  0
LINE
  5
2A5
330
24F
100
AcDbEntity
  8
MO_001_VIEW_PV
  6
BYBLOCK
100
AcDbLine
 10
16.993002
 20
3.970001
 30
0.0
 11
29.285999
 21
3.970001
 31
0.0
  0
LINE
  5
2A6
330
24F
100
AcDbEntity
  8
MO_001_VIEW_PV
  6
BYBLOCK
100
AcDbLine
 10
27.0
 20
3.970001
 30
0.0
 11
27.0
 21
31.40831799999999
 31
0.0
  0
ENDBLK
  5
2A7
330
24F
100
AcDbEntity
  8
0
100
AcDbBlockEnd
  0
BLOCK
  5
2A8
330
251
100
AcDbEntity
  8
0
100
AcDbBlockBegin
  2
*D7
 70
     1
 10
0.0
 20
0.0
 30
0.0
  3
*D7
  1

  0
TEXT
  5
2A9
330
251
100
AcDbEntity
  8
MO_001_VIEW_PV
  6
BYBLOCK
100
AcDbText
 10
18.164838
 20
-29.25
 30
0.0
 40
3.0
  1
11.1以上
100
AcDbText
  0
LINE
  5
2AA
330
251
100
AcDbEntity
  8
MO_001_VIEW_PV
  6
BYBLOCK
100
AcDbLine
 10
17.293001
 20
-30.0
 30
0.0
 11
5.893000999999999
 21
-30.0
 31
0.0
  0
SOLID
  5
2AB
330
251
100
AcDbEntity
  8
MO_001_VIEW_PV
  6
BYBLOCK
100
AcDbTrace
 10
13.974741
 20
-30.583512
 30
0.0
 11
16.785001
 21
-30.0
 31
0.0
 12
13.974741
 22
-29.416488
 32
0.0
 13
13.974741
 23
-29.416488
 33
0.0
  0
SOLID
  5
2AC
330
251
100
AcDbEntity
  8
MO_001_VIEW_PV
  6
BYBLOCK
100
AcDbTrace
 10
9.211261
 20
-29.416488
 30
0.0
 11
6.401000999999999
 21
-30.0
 31
0.0
 12
9.211261
 22
-30.583512
 32
0.0
 13
9.211261
 23
-30.583512
 33
0.0
  0
LINE
  5
2AD
330
251
100
AcDbEntity
  8
MO_001_VIEW_PV
  6
BYBLOCK
100
AcDbLine
 10
17.293001
 20
-3.669998
 30
0.0
 11
17.293001
 21
-32.28599899999999
 31
0.0
  0
LINE
  5
2AE
330
251
100
AcDbEntity
  8
MO_001_VIEW_PV
  6
BYBLOCK
100
AcDbLine
 10
5.893000999999999
 20
2.769997
 30
0.0
 11
5.893000999999999
 21
-32.28599899999999
 31
0.0
  0
LINE
  5
2AF
330
251
100
AcDbEntity
  8
MO_001_VIEW_PV
  6
BYBLOCK
100
AcDbLine
 10
36.27197999999999
 20
-30.0
 30
0.0
 11
17.293001
 21
-30.0
 31
0.0
  0
ENDBLK
  5
2B0
330
251
100
AcDbEntity
  8
0
100
AcDbBlockEnd
  0
BLOCK
  5
2B1
330
253
100
AcDbEntity
  8
0
100
AcDbBlockBegin
  2
*D8
 70
     1
 10
0.0
 20
0.0
 30
0.0
  3
*D8
  1

  0
LINE
  5
2B2
330
253
100
AcDbEntity
  8
MO_001_VIEW_PV
  6
BYBLOCK
100
AcDbLine
 10
39.0
 20
-18.25
 30
0.0
 11
39.0
 21
18.25
 31
0.0
  0
SOLID
  5
2B3
330
253
100
AcDbEntity
  8
MO_001_VIEW_PV
  6
BYBLOCK
100
AcDbTrace
 10
38.416488
 20
-14.93173999999999
 30
0.0
 11
39.0
 21
-17.742
 31
0.0
 12
39.583512
 22
-14.93173999999999
 32
0.0
 13
39.583512
 23
-14.93173999999999
 33
0.0
  0
SOLID
  5
2B4
330
253
100
AcDbEntity
  8
MO_001_VIEW_PV
  6
BYBLOCK
100
AcDbTrace
 10
39.583512
 20
14.93173999999999
 30
0.0
 11
39.0
 21
17.742
 31
0.0
 12
38.416488
 22
14.93173999999999
 32
0.0
 13
38.416488
 23
14.93173999999999
 33
0.0
  0
LINE
  5
2B5
330
253
100
AcDbEntity
  8
MO_001_VIEW_PV
  6
BYBLOCK
100
AcDbLine
 10
67.0
 20
-18.25
 30
0.0
 11
36.714001
 21
-18.25
 31
0.0
  0
LINE
  5
2B6
330
253
100
AcDbEntity
  8
MO_001_VIEW_PV
  6
BYBLOCK
100
AcDbLine
 10
67.0
 20
18.25
 30
0.0
 11
36.714001
 21
18.25
 31
0.0
  0
TEXT
  5
2B7
330
253
100
AcDbEntity
  8
MO_001_VIEW_PV
  6
BYBLOCK
100
AcDbText
 10
36.375
 20
3.214285999999999
 30
0.0
 40
1.5
  1
%%P0.3
 50
90.0
100
AcDbText
  0
TEXT
  5
2B8
330
253
100
AcDbEntity
  8
MO_001_VIEW_PV
  6
BYBLOCK
100
AcDbText
 10
38.25
 20
-8.571427999999999
 30
0.0
 40
3.0
  1
36.5
 50
90.0
100
AcDbText
  0
ENDBLK
  5
2B9
330
253
100
AcDbEntity
  8
0
100
AcDbBlockEnd
  0
BLOCK
  5
2BA
330
255
100
AcDbEntity
  8
0
100
AcDbBlockBegin
  2
*D9
 70
     1
 10
0.0
 20
0.0
 30
0.0
  3
*D9
  1

  0
TEXT
  5
2BB
330
255
100
AcDbEntity
  8
MO_001_VIEW_PV
  6
BYBLOCK
100
AcDbText
 10
64.92857099999999
 20
39.75
 30
0.0
 40
3.0
  1
%%C27以下
100
AcDbText
  0
LINE
  5
2BC
330
255
100
AcDbEntity
  8
MO_001_VIEW_PV
  6
BYBLOCK
100
AcDbLine
 10
60.900002
 20
39.0
 30
0.0
 11
83.90000200000001
 21
39.0
 31
0.0
  0
SOLID
  5
2BD
330
255
100
AcDbEntity
  8
MO_001_VIEW_PV
  6
BYBLOCK
100
AcDbTrace
 10
64.21826199999999
 20
39.583512
 30
0.0
 11
61.40800200000001
 21
39.0
 31
0.0
 12
64.21826199999999
 22
38.416488
 32
0.0
 13
64.21826199999999
 23
38.416488
 33
0.0
  0
SOLID
  5
2BE
330
255
100
AcDbEntity
  8
MO_001_VIEW_PV
  6
BYBLOCK
100
AcDbTrace
 10
80.581741
 20
38.416488
 30
0.0
 11
83.392002
 21
39.0
 31
0.0
 12
80.581741
 22
39.583512
 32
0.0
 13
80.581741
 23
39.583512
 33
0.0
  0
LINE
  5
2BF
330
255
100
AcDbEntity
  8
MO_001_VIEW_PV
  6
BYBLOCK
100
AcDbLine
 10
60.900002
 20
0.0
 30
0.0
 11
60.900002
 21
41.285999
 31
0.0
  0
LINE
  5
2C0
330
255
100
AcDbEntity
  8
MO_001_VIEW_PV
  6
BYBLOCK
100
AcDbLine
 10
83.90000200000001
 20
0.0
 30
0.0
 11
83.90000200000001
 21
41.285999
 31
0.0
  0
ENDBLK
  5
2C1
330
255
100
AcDbEntity
  8
0
100
AcDbBlockEnd
  0
BLOCK
  5
2C2
330
257
100
AcDbEntity
  8
0
100
AcDbBlockBegin
  2
*D10
 70
     1
 10
0.0
 20
0.0
 30
0.0
  3
*D10
  1

  0
TEXT
  5
2C3
330
257
100
AcDbEntity
  8
MO_001_VIEW_PV
  6
BYBLOCK
100
AcDbText
 10
64.92857099999999
 20
45.75
 30
0.0
 40
3.0
  1
%%C59以下
100
AcDbText
  0
LINE
  5
2C4
330
257
100
AcDbEntity
  8
MO_001_VIEW_PV
  6
BYBLOCK
100
AcDbLine
 10
43.19999699999999
 20
45.0
 30
0.0
 11
100.800003
 21
45.0
 31
0.0
  0
SOLID
  5
2C5
330
257
100
AcDbEntity
  8
MO_001_VIEW_PV
  6
BYBLOCK
100
AcDbTrace
 10
46.51825699999999
 20
45.58351199999999
 30
0.0
 11
43.707997
 21
45.0
 31
0.0
 12
46.51825699999999
 22
44.416488
 32
0.0
 13
46.51825699999999
 23
44.416488
 33
0.0
  0
SOLID
  5
2C6
330
257
100
AcDbEntity
  8
MO_001_VIEW_PV
  6
BYBLOCK
100
AcDbTrace
 10
97.48174300000002
 20
44.416488
 30
0.0
 11
100.292003
 21
45.0
 31
0.0
 12
97.48174300000002
 22
45.58351199999999
 32
0.0
 13
97.48174300000002
 23
45.58351199999999
 33
0.0
  0
LINE
  5
2C7
330
257
100
AcDbEntity
  8
MO_001_VIEW_PV
  6
BYBLOCK
100
AcDbLine
 10
43.19999699999999
 20
0.0
 30
0.0
 11
43.19999699999999
 21
47.28599899999999
 31
0.0
  0
LINE
  5
2C8
330
257
100
AcDbEntity
  8
MO_001_VIEW_PV
  6
BYBLOCK
100
AcDbLine
 10
100.800003
 20
0.0
 30
0.0
 11
100.800003
 21
47.28599899999999
 31
0.0
  0
ENDBLK
  5
2C9
330
257
100
AcDbEntity
  8
0
100
AcDbBlockEnd
  0
BLOCK
  5
2CA
330
259
100
AcDbEntity
  8
0
100
AcDbBlockBegin
  2
*D11
 70
     1
 10
0.0
 20
0.0
 30
0.0
  3
*D11
  1

  0
TEXT
  5
2CB
330
259
100
AcDbEntity
  8
MO_001_VIEW_PV
  6
BYBLOCK
100
AcDbText
 10
107.25
 20
-7.071428999999999
 30
0.0
 40
3.0
  1
長さ250以上
 50
90.0
100
AcDbText
  0
LINE
  5
2CC
330
259
100
AcDbEntity
  8
MO_001_VIEW_PV
  6
BYBLOCK
100
AcDbLine
 10
108.0
 20
-50.24993900000001
 30
0.0
 11
108.0
 21
-26.79809
 31
0.0
  0
SOLID
  5
2CD
330
259
100
AcDbEntity
  8
MO_001_VIEW_PV
  6
BYBLOCK
100
AcDbTrace
 10
107.4164879999999
 20
-46.93167899999999
 30
0.0
 11
108.0
 21
-49.741939
 31
0.0
 12
108.583512
 22
-46.93167899999999
 32
0.0
 13
108.583512
 23
-46.93167899999999
 33
0.0
  0
SOLID
  5
2CE
330
259
100
AcDbEntity
  8
MO_001_VIEW_PV
  6
BYBLOCK
100
AcDbTrace
 10
108.583512
 20
-30.11635
 30
0.0
 11
108.0
 21
-27.30609
 31
0.0
 12
107.4164879999999
 22
-30.11635
 32
0.0
 13
107.4164879999999
 23
-30.11635
 33
0.0
  0
LINE
  5
2CF
330
259
100
AcDbEntity
  8
MO_001_VIEW_PV
  6
BYBLOCK
100
AcDbLine
 10
81.823975
 20
-50.24993900000001
 30
0.0
 11
110.286003
 21
-50.24993900000001
 31
0.0
  0
LINE
  5
2D0
330
259
100
AcDbEntity
  8
MO_001_VIEW_PV
  6
BYBLOCK
100
AcDbLine
 10
82.85000600000001
 20
-26.79809
 30
0.0
 11
110.286003
 21
-26.79809
 31
0.0
  0
LINE
  5
2D1
330
259
100
AcDbEntity
  8
MO_001_VIEW_PV
  6
BYBLOCK
100
AcDbLine
 10
108.0
 20
-26.79809
 30
0.0
 11
108.0
 21
14.035713
 31
0.0
  0
ENDBLK
  5
2D2
330
259
100
AcDbEntity
  8
0
100
AcDbBlockEnd
  0
ENDSEC
  0
SECTION
  2
ENTITIES
  0
TEXT
  5
4B
330
1E
100
AcDbEntity
  8
OVERLAY_MAP
  6
C_SOLID_L
100
AcDbText
 10
0.0
 20
6.349999999999999
 30
0.0
 40
4.1672
  1
Model Overlay Name
100
AcDbText
  0
TEXT
  5
4C
330
1E
100
AcDbEntity
  8
OVERLAY_MAP
  6
C_SOLID_L
100
AcDbText
 10
126.999998
 20
0.0
 30
0.0
 40
4.1672
  1
Number
100
AcDbText
  0
TEXT
  5
4D
330
1E
100
AcDbEntity
  8
OVERLAY_MAP
  6
C_SOLID_L
100
AcDbText
 10
177.7999969999999
 20
0.0
 30
0.0
 40
4.1672
  1
File Text
100
AcDbText
  0
TEXT
  5
4E
330
1E
100
AcDbEntity
  8
OVERLAY_MAP
  6
C_SOLID_L
100
AcDbText
 10
0.0
 20
-6.349999999999999
 30
0.0
 40
4.1672
  1
ro 6s349 
100
AcDbText
  0
TEXT
  5
4F
330
1E
100
AcDbEntity
  8
OVERLAY_MAP
  6
C_SOLID_L
100
AcDbText
 10
126.999998
 20
-6.349999999999999
 30
0.0
 40
4.1672
  1
001
100
AcDbText
  0
TEXT
  5
50
330
1E
100
AcDbEntity
  8
OVERLAY_MAP
  6
C_SOLID_L
100
AcDbText
 10
177.7999969999999
 20
-6.349999999999999
 30
0.0
 40
4.1672
  1
                                                                   00139
100
AcDbText
  0
LINE
  5
51
330
1E
100
AcDbEntity
  8
MO_001_VIEW_PV
  6
C_CENTER_L
100
AcDbLine
 10
72.0
 20
31.799999
 30
0.0
 11
72.0
 21
-31.799999
 31
0.0
  0
LINE
  5
52
330
1E
100
AcDbEntity
  8
MO_001_VIEW_PV
  6
C_CENTER_L
100
AcDbLine
 10
40.19999699999999
 20
0.0
 30
0.0
 11
102.8130109999999
 21
0.0
 31
0.0
  0
CIRCLE
  5
53
330
1E
100
AcDbEntity
  8
MO_001_VIEW_PV
  6
C_SOLID_M
100
AcDbCircle
 10
72.0
 20
0.0
 30
0.0
 40
28.79999899999999
  0
CIRCLE
  5
54
330
1E
100
AcDbEntity
  8
MO_001_VIEW_PV
  6
C_SOLID_M
100
AcDbCircle
 10
72.0
 20
0.0
 30
0.0
 40
25.200001
  0
CIRCLE
  5
55
330
1E
100
AcDbEntity
  8
MO_001_VIEW_PV
  6
C_SOLID_M
100
AcDbCircle
 10
72.0
 20
0.0
 30
0.0
 40
24.700001
  0
CIRCLE
  5
56
330
1E
100
AcDbEntity
  8
MO_001_VIEW_PV
  6
C_SOLID_M
100
AcDbCircle
 10
72.0
 20
0.0
 30
0.0
 40
3.97
  0
CIRCLE
  5
57
330
1E
100
AcDbEntity
  8
MO_001_VIEW_PV
  6
C_SOLID_M
100
AcDbCircle
 10
72.0
 20
0.0
 30
0.0
 40
3.670001
  0
LINE
  5
58
330
1E
100
AcDbEntity
  8
MO_001_VIEW_PV
  6
C_CENTER_L
100
AcDbLine
 10
67.0
 20
18.25
 30
0.0
 11
77.0
 21
18.25
 31
0.0
  0
CIRCLE
  5
59
330
1E
100
AcDbEntity
  8
MO_001_VIEW_PV
  6
C_SOLID_M
100
AcDbCircle
 10
72.0
 20
18.25
 30
0.0
 40
2.5
  0
CIRCLE
  5
5A
330
1E
100
AcDbEntity
  8
MO_001_VIEW_PV
  6
C_SOLID_M
100
AcDbCircle
 10
72.0
 20
18.25
 30
0.0
 40
1.7
  0
CIRCLE
  5
5B
330
1E
100
AcDbEntity
  8
MO_001_VIEW_PV
  6
C_SOLID_M
100
AcDbCircle
 10
72.0
 20
-18.25
 30
0.0
 40
1.7
  0
CIRCLE
  5
5C
330
1E
100
AcDbEntity
  8
MO_001_VIEW_PV
  6
C_SOLID_M
100
AcDbCircle
 10
72.0
 20
-18.25
 30
0.0
 40
2.5
  0
LINE
  5
5D
330
1E
100
AcDbEntity
  8
MO_001_VIEW_PV
  6
C_CENTER_L
100
AcDbLine
 10
67.0
 20
-18.24999899999999
 30
0.0
 11
77.0
 21
-18.24999899999999
 31
0.0
  0
CIRCLE
  5
5E
330
1E
100
AcDbEntity
  8
MO_001_VIEW_PV
  6
C_SOLID_M
100
AcDbCircle
 10
72.0
 20
0.0
 30
0.0
 40
24.6
  0
ARC
  5
5F
330
1E
100
AcDbEntity
  8
MO_001_VIEW_PV
  6
C_SOLID_M
100
AcDbCircle
 10
75.59120899999999
 20
-9.866773
 30
0.0
 40
2.1
100
AcDbArc
 50
211.1791799999999
 51
345.218385
  0
CIRCLE
  5
60
330
1E
100
AcDbEntity
  8
MO_001_VIEW_PV
  6
C_SOLID_M
100
AcDbCircle
 10
90.25
 20
0.0
 30
0.0
 40
2.649999999999999
  0
CIRCLE
  5
61
330
1E
100
AcDbEntity
  8
MO_001_VIEW_PV
  6
C_SOLID_M
100
AcDbCircle
 10
72.0
 20
18.25
 30
0.0
 40
2.649999999999999
  0
CIRCLE
  5
62
330
1E
100
AcDbEntity
  8
MO_001_VIEW_PV
  6
C_SOLID_M
100
AcDbCircle
 10
53.75
 20
0.0
 30
0.0
 40
2.649999999999999
  0
CIRCLE
  5
63
330
1E
100
AcDbEntity
  8
MO_001_VIEW_PV
  6
C_SOLID_M
100
AcDbCircle
 10
72.0
 20
-18.25
 30
0.0
 40
2.649999999999999
  0
LINE
  5
64
330
1E
100
AcDbEntity
  8
MO_001_VIEW_PV
  6
C_SOLID_M
100
AcDbLine
 10
70.34396499999999
 20
-10.975771
 30
0.0
 11
70.22460999999999
 21
-11.76681799999999
 31
0.0
  0
LINE
  5
65
330
1E
100
AcDbEntity
  8
MO_001_VIEW_PV
  6
C_SOLID_M
100
AcDbLine
 10
73.656055
 20
-10.975764
 30
0.0
 11
73.77540999999999
 21
-11.76681199999999
 31
0.0
  0
ARC
  5
66
330
1E
100
AcDbEntity
  8
MO_001_VIEW_PV
  6
C_SOLID_M
100
AcDbCircle
 10
72.0
 20
0.0
 30
0.0
 40
11.1
100
AcDbArc
 50
260.696091
 51
279.303904
  0
ARC
  5
67
330
1E
100
AcDbEntity
  8
MO_001_VIEW_PV
  6
C_SOLID_M
100
AcDbCircle
 10
72.0
 20
0.0
 30
0.0
 40
11.90000099999999
100
AcDbArc
 50
261.419818
 51
278.5801769999999
  0
LINE
  5
68
330
1E
100
AcDbEntity
  8
MO_001_VIEW_PV
  6
C_SOLID_M
100
AcDbLine
 10
68.91108800000001
 20
-11.905827
 30
0.0
 11
70.22461599999999
 21
-11.766823
 31
0.0
  0
LINE
  5
69
330
1E
100
AcDbEntity
  8
MO_001_VIEW_PV
  6
C_SOLID_M
100
AcDbLine
 10
73.775416
 20
-11.76681899999999
 30
0.0
 11
75.088943
 21
-11.90582299999999
 31
0.0
  0
ARC
  5
6A
330
1E
100
AcDbEntity
  8
MO_001_VIEW_PV
  6
C_SOLID_M
100
AcDbCircle
 10
81.09326199999999
 20
-5.250001
 30
0.0
 40
2.1
100
AcDbArc
 50
251.1791789999999
 51
48.820799
  0
LINE
  5
6B
330
1E
100
AcDbEntity
  8
MO_001_VIEW_PV
  6
C_SOLID_M
100
AcDbLine
 10
77.78645899999999
 20
-9.472407
 30
0.0
 11
78.203505
 21
-10.155106
 31
0.0
  0
LINE
  5
6C
330
1E
100
AcDbEntity
  8
MO_001_VIEW_PV
  6
C_SOLID_M
100
AcDbLine
 10
80.323732
 20
-7.343445
 30
0.0
 11
80.92363399999999
 21
-7.872699
 31
0.0
  0
ARC
  5
6D
330
1E
100
AcDbEntity
  8
MO_001_VIEW_PV
  6
C_SOLID_M
100
AcDbCircle
 10
72.0
 20
0.0
 30
0.0
 40
11.1
100
AcDbArc
 50
300.6960899999999
 51
319.303902
  0
ARC
  5
6E
330
1E
100
AcDbEntity
  8
MO_001_VIEW_PV
  6
C_SOLID_M
100
AcDbCircle
 10
72.0
 20
0.0
 30
0.0
 40
11.90000099999999
100
AcDbArc
 50
301.4198169999999
 51
318.5801759999999
  0
LINE
  5
6F
330
1E
100
AcDbEntity
  8
MO_001_VIEW_PV
  6
C_SOLID_M
100
AcDbLine
 10
77.286668
 20
-11.10590799999999
 30
0.0
 11
77.90793100000001
 21
-10.46165299999999
 31
0.0
  0
LINE
  5
70
330
1E
100
AcDbEntity
  8
MO_001_VIEW_PV
  6
C_SOLID_M
100
AcDbLine
 10
80.92359100000001
 20
-7.872700999999999
 30
0.0
 11
82.019158
 21
-7.134867999999999
 31
0.0
  0
ARC
  5
71
330
1E
100
AcDbEntity
  8
MO_001_VIEW_PV
  6
C_SOLID_M
100
AcDbCircle
 10
82.340485
 20
1.823304
 30
0.0
 40
2.1
100
AcDbArc
 50
291.1791779999999
 51
88.82079799999999
  0
LINE
  5
72
330
1E
100
AcDbEntity
  8
MO_001_VIEW_PV
  6
C_SOLID_M
100
AcDbLine
 10
82.521468
 20
-3.536801999999999
 30
0.0
 11
83.27976600000001
 21
-3.791705999999999
 31
0.0
  0
LINE
  5
73
330
1E
100
AcDbEntity
  8
MO_001_VIEW_PV
  6
C_SOLID_M
100
AcDbLine
 10
83.096571
 20
-0.275035
 30
0.0
 11
83.89632799999999
 21
-0.294858
 31
0.0
  0
ARC
  5
74
330
1E
100
AcDbEntity
  8
MO_001_VIEW_PV
  6
C_SOLID_M
100
AcDbCircle
 10
72.0
 20
0.0
 30
0.0
 40
11.1
100
AcDbArc
 50
340.696091
 51
359.3039019999999
  0
ARC
  5
75
330
1E
100
AcDbEntity
  8
MO_001_VIEW_PV
  6
C_SOLID_M
100
AcDbCircle
 10
72.0
 20
0.0
 30
0.0
 40
11.90000099999999
100
AcDbArc
 50
341.419818
 51
358.5801759999999
  0
LINE
  5
76
330
1E
100
AcDbEntity
  8
MO_001_VIEW_PV
  6
C_SOLID_M
100
AcDbLine
 10
83.188563
 20
-5.109423999999999
 30
0.0
 11
83.27976300000001
 21
-3.791714999999999
 31
0.0
  0
LINE
  5
77
330
1E
100
AcDbEntity
  8
MO_001_VIEW_PV
  6
C_SOLID_M
100
AcDbLine
 10
83.896352
 20
-0.294862
 30
0.0
 11
84.261336
 21
0.9745719999999998
 31
0.0
  0
ARC
  5
78
330
1E
100
AcDbEntity
  8
MO_001_VIEW_PV
  6
C_SOLID_M
100
AcDbCircle
 10
78.749268
 20
8.043466
 30
0.0
 40
2.1
100
AcDbArc
 50
331.1791769999999
 51
128.820796
  0
LINE
  5
79
330
1E
100
AcDbEntity
  8
MO_001_VIEW_PV
  6
C_SOLID_M
100
AcDbLine
 10
82.333308
 20
4.053701
 30
0.0
 11
83.078055
 21
4.345861
 31
0.0
  0
LINE
  5
7A
330
1E
100
AcDbEntity
  8
MO_001_VIEW_PV
  6
C_SOLID_M
100
AcDbLine
 10
80.677275
 20
6.922080999999999
 30
0.0
 11
81.30266699999999
 21
7.420969999999999
 31
0.0
  0
ARC
  5
7B
330
1E
100
AcDbEntity
  8
MO_001_VIEW_PV
  6
C_SOLID_M
100
AcDbCircle
 10
72.0
 20
0.0
 30
0.0
 40
11.1
100
AcDbArc
 50
20.696091
 51
39.30390399999999
  0
ARC
  5
7C
330
1E
100
AcDbEntity
  8
MO_001_VIEW_PV
  6
C_SOLID_M
100
AcDbCircle
 10
72.0
 20
0.0
 30
0.0
 40
11.90000099999999
100
AcDbArc
 50
21.41981799999999
 51
38.58017699999999
  0
LINE
  5
7D
330
1E
100
AcDbEntity
  8
MO_001_VIEW_PV
  6
C_SOLID_M
100
AcDbLine
 10
83.85523499999999
 20
3.277812999999999
 30
0.0
 11
83.078091
 21
4.345858999999999
 31
0.0
  0
LINE
  5
7E
330
1E
100
AcDbEntity
  8
MO_001_VIEW_PV
  6
C_SOLID_M
100
AcDbLine
 10
81.302672
 20
7.42095
 30
0.0
 11
80.76629
 21
8.628
 31
0.0
  0
ARC
  5
7F
330
1E
100
AcDbEntity
  8
MO_001_VIEW_PV
  6
C_SOLID_M
100
AcDbCircle
 10
72.0
 20
10.5
 30
0.0
 40
2.1
100
AcDbArc
 50
11.17917599999999
 51
168.820802
  0
LINE
  5
80
330
1E
100
AcDbEntity
  8
MO_001_VIEW_PV
  6
C_SOLID_M
100
AcDbLine
 10
77.31009399999999
 20
9.747435000000001
 30
0.0
 11
77.692806
 21
10.449956
 31
0.0
  0
LINE
  5
81
330
1E
100
AcDbEntity
  8
MO_001_VIEW_PV
  6
C_SOLID_M
100
AcDbLine
 10
74.19775600000001
 20
10.88025
 30
0.0
 11
74.35615300000001
 21
11.664413
 31
0.0
  0
ARC
  5
82
330
1E
100
AcDbEntity
  8
MO_001_VIEW_PV
  6
C_SOLID_M
100
AcDbCircle
 10
72.0
 20
0.0
 30
0.0
 40
11.1
100
AcDbArc
 50
60.69609399999999
 51
79.30390600000001
  0
ARC
  5
83
330
1E
100
AcDbEntity
  8
MO_001_VIEW_PV
  6
C_SOLID_M
100
AcDbCircle
 10
72.0
 20
0.0
 30
0.0
 40
11.90000099999999
100
AcDbArc
 50
61.41981999999999
 51
78.580179
  0
LINE
  5
84
330
1E
100
AcDbEntity
  8
MO_001_VIEW_PV
  6
C_SOLID_M
100
AcDbLine
 10
78.974666
 20
10.131332
 30
0.0
 11
77.692812
 21
10.449964
 31
0.0
  0
LINE
  5
85
330
1E
100
AcDbEntity
  8
MO_001_VIEW_PV
  6
C_SOLID_M
100
AcDbLine
 10
74.35613599999999
 20
11.664409
 30
0.0
 11
73.16937
 21
12.24428099999999
 31
0.0
  0
ARC
  5
86
330
1E
100
AcDbEntity
  8
MO_001_VIEW_PV
  6
C_SOLID_M
100
AcDbCircle
 10
65.250732
 20
8.043467999999998
 30
0.0
 40
2.1
100
AcDbArc
 50
51.179178
 51
208.820808
  0
LINE
  5
87
330
1E
100
AcDbEntity
  8
MO_001_VIEW_PV
  6
C_SOLID_M
100
AcDbLine
 10
69.80223399999999
 20
10.88025
 30
0.0
 11
69.643837
 21
11.664413
 31
0.0
  0
LINE
  5
88
330
1E
100
AcDbEntity
  8
MO_001_VIEW_PV
  6
C_SOLID_M
100
AcDbLine
 10
66.689914
 20
9.747448
 30
0.0
 11
66.307204
 21
10.449967
 31
0.0
  0
ARC
  5
89
330
1E
100
AcDbEntity
  8
MO_001_VIEW_PV
  6
C_SOLID_M
100
AcDbCircle
 10
72.0
 20
0.0
 30
0.0
 40
11.1
100
AcDbArc
 50
100.696092
 51
119.3039109999999
  0
ARC
  5
8A
330
1E
100
AcDbEntity
  8
MO_001_VIEW_PV
  6
C_SOLID_M
100
AcDbCircle
 10
72.0
 20
0.0
 30
0.0
 40
11.90000099999999
100
AcDbArc
 50
101.4198189999999
 51
118.580185
  0
LINE
  5
8B
330
1E
100
AcDbEntity
  8
MO_001_VIEW_PV
  6
C_SOLID_M
100
AcDbLine
 10
70.83063
 20
12.24428999999999
 30
0.0
 11
69.643861
 21
11.664417
 31
0.0
  0
LINE
  5
8C
330
1E
100
AcDbEntity
  8
MO_001_VIEW_PV
  6
C_SOLID_M
100
AcDbLine
 10
66.30719299999999
 20
10.44996899999999
 30
0.0
 11
65.025339
 21
10.131337
 31
0.0
  0
ARC
  5
8D
330
1E
100
AcDbEntity
  8
MO_001_VIEW_PV
  6
C_SOLID_M
100
AcDbCircle
 10
61.659515
 20
1.823306999999999
 30
0.0
 40
2.1
100
AcDbArc
 50
91.17918000000001
 51
248.8208129999999
  0
LINE
  5
8E
330
1E
100
AcDbEntity
  8
MO_001_VIEW_PV
  6
C_SOLID_M
100
AcDbLine
 10
63.322712
 20
6.922057999999999
 30
0.0
 11
62.697327
 21
7.420942
 31
0.0
  0
LINE
  5
8F
330
1E
100
AcDbEntity
  8
MO_001_VIEW_PV
  6
C_SOLID_M
100
AcDbLine
 10
61.666688
 20
4.053709999999999
 30
0.0
 11
60.92194499999999
 21
4.345869
 31
0.0
  0
ARC
  5
90
330
1E
100
AcDbEntity
  8
MO_001_VIEW_PV
  6
C_SOLID_M
100
AcDbCircle
 10
72.0
 20
0.0
 30
0.0
 40
11.1
100
AcDbArc
 50
140.696091
 51
159.3039169999999
  0
ARC
  5
91
330
1E
100
AcDbEntity
  8
MO_001_VIEW_PV
  6
C_SOLID_M
100
AcDbCircle
 10
72.0
 20
0.0
 30
0.0
 40
11.90000099999999
100
AcDbArc
 50
141.4198179999999
 51
158.5801899999999
  0
LINE
  5
92
330
1E
100
AcDbEntity
  8
MO_001_VIEW_PV
  6
C_SOLID_M
100
AcDbLine
 10
63.233728
 20
8.628007
 30
0.0
 11
62.697345
 21
7.420957
 31
0.0
  0
LINE
  5
93
330
1E
100
AcDbEntity
  8
MO_001_VIEW_PV
  6
C_SOLID_M
100
AcDbLine
 10
60.921921
 20
4.345873
 30
0.0
 11
60.144777
 21
3.277826999999999
 31
0.0
  0
ARC
  5
94
330
1E
100
AcDbEntity
  8
MO_001_VIEW_PV
  6
C_SOLID_M
100
AcDbCircle
 10
62.90673100000001
 20
-5.249998999999999
 30
0.0
 40
2.1
100
AcDbArc
 50
131.179179
 51
288.820805
  0
LINE
  5
95
330
1E
100
AcDbEntity
  8
MO_001_VIEW_PV
  6
C_SOLID_M
100
AcDbLine
 10
60.90339399999999
 20
-0.275037
 30
0.0
 11
60.103644
 21
-0.294859
 31
0.0
  0
LINE
  5
96
330
1E
100
AcDbEntity
  8
MO_001_VIEW_PV
  6
C_SOLID_M
100
AcDbLine
 10
61.47855500000001
 20
-3.536816999999999
 30
0.0
 11
60.720256
 21
-3.791720999999999
 31
0.0
  0
ARC
  5
97
330
1E
100
AcDbEntity
  8
MO_001_VIEW_PV
  6
C_SOLID_M
100
AcDbCircle
 10
72.0
 20
0.0
 30
0.0
 40
11.1
100
AcDbArc
 50
180.696101
 51
199.3039259999999
  0
ARC
  5
98
330
1E
100
AcDbEntity
  8
MO_001_VIEW_PV
  6
C_SOLID_M
100
AcDbCircle
 10
72.0
 20
0.0
 30
0.0
 40
11.90000099999999
100
AcDbArc
 50
181.419827
 51
198.5801999999999
  0
LINE
  5
99
330
1E
100
AcDbEntity
  8
MO_001_VIEW_PV
  6
C_SOLID_M
100
AcDbLine
 10
59.738649
 20
0.9745700000000001
 30
0.0
 11
60.103632
 21
-0.294861
 31
0.0
  0
LINE
  5
9A
330
1E
100
AcDbEntity
  8
MO_001_VIEW_PV
  6
C_SOLID_M
100
AcDbLine
 10
60.720241
 20
-3.791711
 30
0.0
 11
60.811441
 21
-5.109421
 31
0.0
  0
ARC
  5
9B
330
1E
100
AcDbEntity
  8
MO_001_VIEW_PV
  6
C_SOLID_M
100
AcDbCircle
 10
68.40879100000001
 20
-9.866772
 30
0.0
 40
2.1
100
AcDbArc
 50
171.179185
 51
328.820797
  0
LINE
  5
9C
330
1E
100
AcDbEntity
  8
MO_001_VIEW_PV
  6
C_SOLID_M
100
AcDbLine
 10
63.67629599999999
 20
-7.343441
 30
0.0
 11
63.076391
 21
-7.872697999999999
 31
0.0
  0
LINE
  5
9D
330
1E
100
AcDbEntity
  8
MO_001_VIEW_PV
  6
C_SOLID_M
100
AcDbLine
 10
66.213514
 20
-9.472409999999999
 30
0.0
 11
65.79647
 21
-10.155106
 31
0.0
  0
ARC
  5
9E
330
1E
100
AcDbEntity
  8
MO_001_VIEW_PV
  6
C_SOLID_M
100
AcDbCircle
 10
72.0
 20
0.0
 30
0.0
 40
11.1
100
AcDbArc
 50
220.696106
 51
239.303932
  0
ARC
  5
9F
330
1E
100
AcDbEntity
  8
MO_001_VIEW_PV
  6
C_SOLID_M
100
AcDbCircle
 10
72.0
 20
0.0
 30
0.0
 40
11.90000099999999
100
AcDbArc
 50
221.419833
 51
238.5802049999999
  0
LINE
  5
A0
330
1E
100
AcDbEntity
  8
MO_001_VIEW_PV
  6
C_SOLID_M
100
AcDbLine
 10
61.98082900000001
 20
-7.134863
 30
0.0
 11
63.076393
 21
-7.872694999999999
 31
0.0
  0
LINE
  5
A1
330
1E
100
AcDbEntity
  8
MO_001_VIEW_PV
  6
C_SOLID_M
100
AcDbLine
 10
65.79646099999999
 20
-10.155103
 30
0.0
 11
66.713334
 21
-11.10590799999999
 31
0.0
  0
ARC
  5
A2
330
1E
100
AcDbEntity
  8
MO_001_VIEW_PV
  6
C_SOLID_M
100
AcDbCircle
 10
72.0
 20
0.0
 30
0.0
 40
11.1
100
AcDbArc
 50
264.733266
 51
90.000002
  0
ARC
  5
A3
330
1E
100
AcDbEntity
  8
MO_001_VIEW_PV
  6
C_SOLID_M
100
AcDbCircle
 10
72.0
 20
0.0
 30
0.0
 40
4.0
100
AcDbArc
 50
269.999998
 51
41.459303
  0
ARC
  5
A4
330
1E
100
AcDbEntity
  8
MO_001_VIEW_PV
  6
C_SOLID_M
100
AcDbCircle
 10
72.0
 20
0.0
 30
0.0
 40
12.09999999999999
100
AcDbArc
 50
303.8299279999999
 51
311.428493
  0
ARC
  5
A5
330
1E
100
AcDbEntity
  8
MO_001_VIEW_PV
  6
C_SOLID_M
100
AcDbCircle
 10
72.0
 20
0.0
 30
0.0
 40
10.74000099999999
100
AcDbArc
 50
269.999998
 51
90.000002
  0
LINE
  5
A6
330
1E
100
AcDbEntity
  8
MO_001_VIEW_PV
  6
C_SOLID_M
100
AcDbLine
 10
80.244587
 20
-9.342296000000001
 30
0.0
 11
80.00638
 21
-9.072373999999999
 31
0.0
  0
ARC
  5
A7
330
1E
100
AcDbEntity
  8
MO_001_VIEW_PV
  6
C_SOLID_M
100
AcDbCircle
 10
76.654854
 20
-12.24509499999999
 30
0.0
 40
2.0
100
AcDbArc
 50
78.33214699999999
 51
110.8138019999999
  0
LINE
  5
A8
330
1E
100
AcDbEntity
  8
MO_001_VIEW_PV
  6
C_SOLID_M
100
AcDbLine
 10
71.01407399999999
 20
-10.69540099999999
 30
0.0
 11
70.98109699999999
 21
-11.05313699999999
 31
0.0
  0
ARC
  5
A9
330
1E
100
AcDbEntity
  8
MO_001_VIEW_PV
  6
C_SOLID_M
100
AcDbCircle
 10
72.0
 20
0.18
 30
0.0
 40
10.92
100
AcDbArc
 50
90.000002
 51
270.000001
  0
ARC
  5
AA
330
1E
100
AcDbEntity
  8
MO_001_VIEW_PV
  6
C_SOLID_M
100
AcDbCircle
 10
72.0
 20
0.18
 30
0.0
 40
10.560001
100
AcDbArc
 50
90.000002
 51
270.000001
  0
ARC
  5
AB
330
1E
100
AcDbEntity
  8
MO_001_VIEW_PV
  6
C_SOLID_M
100
AcDbCircle
 10
72.0
 20
0.0
 30
0.0
 40
10.380001
100
AcDbArc
 50
269.999998
 51
90.000002
  0
ARC
  5
AC
330
1E
100
AcDbEntity
  8
MO_001_VIEW_PV
  6
C_SOLID_M
100
AcDbCircle
 10
72.0
 20
0.18
 30
0.0
 40
10.200001
100
AcDbArc
 50
90.000002
 51
270.000001
  0
LINE
  5
AD
330
1E
100
AcDbEntity
  8
MO_001_VIEW_PV
  6
C_SOLID_M
100
AcDbLine
 10
74.442131
 20
3.129999999999999
 30
0.0
 11
74.727913
 21
3.129999999999999
 31
0.0
  0
ARC
  5
AE
330
1E
100
AcDbEntity
  8
MO_001_VIEW_PV
  6
C_SOLID_M
100
AcDbCircle
 10
74.727913
 20
2.41
 30
0.0
 40
0.36
100
AcDbArc
 50
41.459286
 51
66.12411299999999
  0
ARC
  5
AF
330
1E
100
AcDbEntity
  8
MO_001_VIEW_PV
  6
C_SOLID_M
100
AcDbCircle
 10
72.0
 20
0.0
 30
0.0
 40
4.36
100
AcDbArc
 50
269.999998
 51
90.000002
  0
ARC
  5
B0
330
1E
100
AcDbEntity
  8
MO_001_VIEW_PV
  6
C_SOLID_M
100
AcDbCircle
 10
74.727913
 20
2.41
 30
0.0
 40
0.72
100
AcDbArc
 50
41.459286
 51
89.99998900000001
  0
ARC
  5
B1
330
1E
100
AcDbEntity
  8
MO_001_VIEW_PV
  6
C_SOLID_M
100
AcDbCircle
 10
72.0
 20
0.18
 30
0.0
 40
4.179999999999999
100
AcDbArc
 50
90.000002
 51
270.000001
  0
ARC
  5
B2
330
1E
100
AcDbEntity
  8
MO_001_VIEW_PV
  6
C_SOLID_M
100
AcDbCircle
 10
72.0
 20
0.18
 30
0.0
 40
4.54
100
AcDbArc
 50
90.000002
 51
270.000001
  0
ARC
  5
B3
330
1E
100
AcDbEntity
  8
MO_001_VIEW_PV
  6
C_SOLID_M
100
AcDbCircle
 10
72.0
 20
0.0
 30
0.0
 40
4.719999999999999
100
AcDbArc
 50
269.999998
 51
90.000002
  0
ARC
  5
B4
330
1E
100
AcDbEntity
  8
MO_001_VIEW_PV
  6
C_SOLID_M
100
AcDbCircle
 10
72.0
 20
0.18
 30
0.0
 40
4.900001
100
AcDbArc
 50
90.000002
 51
270.000001
  0
ARC
  5
B5
330
1E
100
AcDbEntity
  8
MO_001_VIEW_PV
  6
C_SOLID_M
100
AcDbCircle
 10
72.0
 20
0.0
 30
0.0
 40
5.080001
100
AcDbArc
 50
269.999998
 51
90.000002
  0
ARC
  5
B6
330
1E
100
AcDbEntity
  8
MO_001_VIEW_PV
  6
C_SOLID_M
100
AcDbCircle
 10
72.0
 20
-0.5660000000000001
 30
0.0
 40
9.814000999999999
100
AcDbArc
 50
269.999998
 51
90.000002
  0
ARC
  5
B7
330
1E
100
AcDbEntity
  8
MO_001_VIEW_PV
  6
C_SOLID_M
100
AcDbCircle
 10
72.0
 20
0.0965
 30
0.0
 40
9.151500999999999
100
AcDbArc
 50
90.000002
 51
270.000001
  0
ARC
  5
B8
330
1E
100
AcDbEntity
  8
MO_001_VIEW_PV
  6
C_SOLID_M
100
AcDbCircle
 10
72.0
 20
-0.4695
 30
0.0
 40
8.585500999999998
100
AcDbArc
 50
269.999998
 51
90.000002
  0
ARC
  5
B9
330
1E
100
AcDbEntity
  8
MO_001_VIEW_PV
  6
C_SOLID_M
100
AcDbCircle
 10
72.0
 20
0.193
 30
0.0
 40
7.923000999999999
100
AcDbArc
 50
90.000002
 51
270.000001
  0
ARC
  5
BA
330
1E
100
AcDbEntity
  8
MO_001_VIEW_PV
  6
C_SOLID_M
100
AcDbCircle
 10
72.0
 20
-0.373
 30
0.0
 40
7.357000999999999
100
AcDbArc
 50
269.999998
 51
90.000002
  0
ARC
  5
BB
330
1E
100
AcDbEntity
  8
MO_001_VIEW_PV
  6
C_SOLID_M
100
AcDbCircle
 10
72.0
 20
0.2894999999999999
 30
0.0
 40
6.694500999999999
100
AcDbArc
 50
90.000002
 51
270.000001
  0
ARC
  5
BC
330
1E
100
AcDbEntity
  8
MO_001_VIEW_PV
  6
C_SOLID_M
100
AcDbCircle
 10
72.0
 20
-0.2765
 30
0.0
 40
6.128499999999999
100
AcDbArc
 50
269.999998
 51
90.000002
  0
ARC
  5
BD
330
1E
100
AcDbEntity
  8
MO_001_VIEW_PV
  6
C_SOLID_M
100
AcDbCircle
 10
72.0
 20
0.386
 30
0.0
 40
5.466001
100
AcDbArc
 50
90.000002
 51
270.000001
  0
ARC
  5
BE
330
1E
100
AcDbEntity
  8
MO_001_VIEW_PV
  6
C_SOLID_M
100
AcDbCircle
 10
72.0
 20
0.386
 30
0.0
 40
5.105999999999999
100
AcDbArc
 50
90.000002
 51
270.000001
  0
ARC
  5
BF
330
1E
100
AcDbEntity
  8
MO_001_VIEW_PV
  6
C_SOLID_M
100
AcDbCircle
 10
72.0
 20
-0.2765
 30
0.0
 40
5.7685
100
AcDbArc
 50
269.999998
 51
90.000002
  0
ARC
  5
C0
330
1E
100
AcDbEntity
  8
MO_001_VIEW_PV
  6
C_SOLID_M
100
AcDbCircle
 10
72.0
 20
0.2894999999999999
 30
0.0
 40
6.3345
100
AcDbArc
 50
90.000002
 51
270.000001
  0
ARC
  5
C1
330
1E
100
AcDbEntity
  8
MO_001_VIEW_PV
  6
C_SOLID_M
100
AcDbCircle
 10
72.0
 20
-0.373
 30
0.0
 40
6.997
100
AcDbArc
 50
269.999998
 51
90.000002
  0
ARC
  5
C2
330
1E
100
AcDbEntity
  8
MO_001_VIEW_PV
  6
C_SOLID_M
100
AcDbCircle
 10
72.0
 20
0.193
 30
0.0
 40
7.563000999999999
100
AcDbArc
 50
90.000002
 51
270.000001
  0
ARC
  5
C3
330
1E
100
AcDbEntity
  8
MO_001_VIEW_PV
  6
C_SOLID_M
100
AcDbCircle
 10
72.0
 20
-0.4695
 30
0.0
 40
8.2255
100
AcDbArc
 50
269.999998
 51
90.000002
  0
ARC
  5
C4
330
1E
100
AcDbEntity
  8
MO_001_VIEW_PV
  6
C_SOLID_M
100
AcDbCircle
 10
72.0
 20
0.0965
 30
0.0
 40
8.791499999999999
100
AcDbArc
 50
90.000002
 51
270.000001
  0
ARC
  5
C5
330
1E
100
AcDbEntity
  8
MO_001_VIEW_PV
  6
C_SOLID_M
100
AcDbCircle
 10
72.0
 20
-0.5660000000000001
 30
0.0
 40
9.454
100
AcDbArc
 50
269.999998
 51
90.000002
  0
ARC
  5
C6
330
1E
100
AcDbEntity
  8
MO_001_VIEW_PV
  6
C_SOLID_M
100
AcDbCircle
 10
72.0
 20
0.0
 30
0.0
 40
12.46
100
AcDbArc
 50
303.8299279999999
 51
311.428493
  0
ARC
  5
C7
330
1E
100
AcDbEntity
  8
MO_001_VIEW_PV
  6
C_SOLID_M
100
AcDbCircle
 10
78.34671800000001
 20
-9.46991
 30
0.0
 40
0.7
100
AcDbArc
 50
258.3321419999999
 51
303.8299279999999
  0
ARC
  5
C8
330
1E
100
AcDbEntity
  8
MO_001_VIEW_PV
  6
C_SOLID_M
100
AcDbCircle
 10
78.34671800000001
 20
-9.46991
 30
0.0
 40
1.06
100
AcDbArc
 50
258.3321419999999
 51
303.8299279999999
  0
LINE
  5
C9
330
1E
100
AcDbEntity
  8
MO_001_VIEW_PV
  6
C_SOLID_M
100
AcDbLine
 10
77.05931099999999
 20
-10.28641899999999
 30
0.0
 11
78.132328
 21
-10.508002
 31
0.0
  0
LINE
  5
CA
330
1E
100
AcDbEntity
  8
MO_001_VIEW_PV
  6
C_SOLID_M
100
AcDbLine
 10
77.132116
 20
-9.933858
 30
0.0
 11
78.20513299999999
 21
-10.155441
 31
0.0
  0
ARC
  5
CB
330
1E
100
AcDbEntity
  8
MO_001_VIEW_PV
  6
C_SOLID_M
100
AcDbCircle
 10
76.654854
 20
-12.24509499999999
 30
0.0
 40
2.359999999999999
100
AcDbArc
 50
78.33214699999999
 51
81.604457
  0
ARC
  5
CC
330
1E
100
AcDbEntity
  8
MO_001_VIEW_PV
  6
C_SOLID_M
100
AcDbCircle
 10
75.59120899999999
 20
-9.866773
 30
0.0
 40
2.1
100
AcDbArc
 50
355.057474
 51
8.820799
  0
LINE
  5
CD
330
1E
100
AcDbEntity
  8
MO_001_VIEW_PV
  6
C_CENTER_L
100
AcDbLine
 10
-50.857677
 20
0.0
 30
0.0
 11
20.74097599999999
 21
0.0
 31
0.0
  0
LINE
  5
CE
330
1E
100
AcDbEntity
  8
MO_001_VIEW_PV
  6
C_SOLID_M
100
AcDbLine
 10
-0.8
 20
24.699997
 30
0.0
 11
-0.8
 21
-24.699997
 31
0.0
  0
LINE
  5
CF
330
1E
100
AcDbEntity
  8
MO_001_VIEW_PV
  6
C_SOLID_M
100
AcDbLine
 10
-1.499999
 20
25.199997
 30
0.0
 11
-1.3
 21
25.199997
 31
0.0
  0
LINE
  5
D0
330
1E
100
AcDbEntity
  8
MO_001_VIEW_PV
  6
C_SOLID_M
100
AcDbLine
 10
-1.499999
 20
-25.199997
 30
0.0
 11
-1.299998999999999
 21
-25.199997
 31
0.0
  0
LINE
  5
D1
330
1E
100
AcDbEntity
  8
MO_001_VIEW_PV
  6
C_SOLID_M
100
AcDbLine
 10
-1.299998999999999
 20
25.200005
 30
0.0
 11
-0.799998
 21
24.70000499999999
 31
0.0
  0
LINE
  5
D2
330
1E
100
AcDbEntity
  8
MO_001_VIEW_PV
  6
C_SOLID_M
100
AcDbLine
 10
-0.7999990000000001
 20
-24.700001
 30
0.0
 11
-1.299998999999999
 21
-25.200001
 31
0.0
  0
LINE
  5
D3
330
1E
100
AcDbEntity
  8
MO_001_VIEW_PV
  6
C_SOLID_M
100
AcDbLine
 10
-1.3
 20
25.199997
 30
0.0
 11
-1.3
 21
-25.199997
 31
0.0
  0
LINE
  5
D4
330
1E
100
AcDbEntity
  8
MO_001_VIEW_PV
  6
C_SOLID_M
100
AcDbLine
 10
-27.19999899999999
 20
23.0
 30
0.0
 11
-27.19999899999999
 21
-23.0
 31
0.0
  0
LINE
  5
D5
330
1E
100
AcDbEntity
  8
MO_001_VIEW_PV
  6
C_SOLID_M
100
AcDbLine
 10
-1.499999
 20
28.800003
 30
0.0
 11
-1.499999
 21
-28.800003
 31
0.0
  0
LINE
  5
D6
330
1E
100
AcDbEntity
  8
MO_001_VIEW_PV
  6
C_SOLID_M
100
AcDbLine
 10
-21.4
 20
28.800003
 30
0.0
 11
-1.499999
 21
28.800003
 31
0.0
  0
LINE
  5
D7
330
1E
100
AcDbEntity
  8
MO_001_VIEW_PV
  6
C_SOLID_M
100
AcDbLine
 10
-21.4
 20
-28.800003
 30
0.0
 11
-1.499999
 21
-28.800003
 31
0.0
  0
ARC
  5
D8
330
1E
100
AcDbEntity
  8
MO_001_VIEW_PV
  6
C_SOLID_M
100
AcDbCircle
 10
-21.4
 20
23.0
 30
0.0
 40
5.799999999999999
100
AcDbArc
 50
90.000002
 51
180.000005
  0
LINE
  5
D9
330
1E
100
AcDbEntity
  8
MO_001_VIEW_PV
  6
C_SOLID_M
100
AcDbLine
 10
-29.00699799999999
 20
-25.0
 30
0.0
 11
-29.00699799999999
 21
25.0
 31
0.0
  0
LINE
  5
DA
330
1E
100
AcDbEntity
  8
MO_001_VIEW_PV
  6
C_SOLID_M
100
AcDbLine
 10
-31.906992
 20
-25.0
 30
0.0
 11
-31.906992
 21
25.0
 31
0.0
  0
LINE
  5
DB
330
1E
100
AcDbEntity
  8
MO_001_VIEW_PV
  6
C_SOLID_M
100
AcDbLine
 10
-31.906992
 20
25.0
 30
0.0
 11
-29.00699799999999
 21
25.0
 31
0.0
  0
LINE
  5
DC
330
1E
100
AcDbEntity
  8
MO_001_VIEW_PV
  6
C_SOLID_M
100
AcDbLine
 10
-31.906992
 20
-25.0
 30
0.0
 11
-29.00699799999999
 21
-25.0
 31
0.0
  0
ARC
  5
DD
330
1E
100
AcDbEntity
  8
MO_001_VIEW_PV
  6
C_SOLID_M
100
AcDbCircle
 10
-31.695679
 20
12.90377799999999
 30
0.0
 40
2.381499999999999
100
AcDbArc
 50
95.09061800000001
 51
184.8434969999999
  0
LINE
  5
DE
330
1E
100
AcDbEntity
  8
MO_001_VIEW_PV
  6
C_SOLID_M
100
AcDbLine
 10
-34.068512
 20
12.702711
 30
0.0
 11
-33.393386
 21
4.735345999999999
 31
0.0
  0
ARC
  5
DF
330
1E
100
AcDbEntity
  8
MO_001_VIEW_PV
  6
C_SOLID_M
100
AcDbCircle
 10
-31.898911
 20
4.861983999999999
 30
0.0
 40
1.5
100
AcDbArc
 50
184.843514
 51
269.6913069999999
  0
ARC
  5
E0
330
1E
100
AcDbEntity
  8
MO_001_VIEW_PV
  6
C_SOLID_M
100
AcDbCircle
 10
-31.695679
 20
-18.64465299999999
 30
0.0
 40
2.381499999999999
100
AcDbArc
 50
95.09061800000001
 51
180.0000189999999
  0
LINE
  5
E1
330
1E
100
AcDbEntity
  8
MO_001_VIEW_PV
  6
C_SOLID_M
100
AcDbLine
 10
-34.07717499999999
 20
-18.644654
 30
0.0
 11
-34.07717499999999
 21
-19.100006
 31
0.0
  0
ARC
  5
E2
330
1E
100
AcDbEntity
  8
MO_001_VIEW_PV
  6
C_SOLID_M
100
AcDbCircle
 10
-31.695679
 20
-19.100006
 30
0.0
 40
2.381499999999999
100
AcDbArc
 50
179.999978
 51
264.909379
  0
ARC
  5
E3
330
1E
100
AcDbEntity
  8
MO_001_VIEW_PV
  6
C_SOLID_M
100
AcDbCircle
 10
-28.288498
 20
-18.87232999999999
 30
0.0
 40
2.381499999999999
100
AcDbArc
 50
62.802155
 51
107.5597769999999
  0
ARC
  5
E4
330
1E
100
AcDbEntity
  8
MO_001_VIEW_PV
  6
C_SOLID_M
100
AcDbCircle
 10
-28.288498
 20
-18.87232999999999
 30
0.0
 40
2.381499999999999
100
AcDbArc
 50
252.440223
 51
297.197845
  0
LINE
  5
E5
330
1E
100
AcDbEntity
  8
MO_001_VIEW_PV
  6
C_SOLID_M
100
AcDbLine
 10
-32.906998
 20
-11.07499699999999
 30
0.0
 11
-32.906998
 21
3.751237999999999
 31
0.0
  0
LINE
  5
E6
330
1E
100
AcDbEntity
  8
MO_001_VIEW_PV
  6
C_SOLID_M
100
AcDbLine
 10
-29.00699799999999
 20
13.349998
 30
0.0
 11
-27.19999899999999
 21
13.349998
 31
0.0
  0
LINE
  5
E7
330
1E
100
AcDbEntity
  8
MO_001_VIEW_PV
  6
C_SOLID_M
100
AcDbLine
 10
-29.00699799999999
 20
-13.349998
 30
0.0
 11
-27.19999899999999
 21
-13.349998
 31
0.0
  0
LINE
  5
E8
330
1E
100
AcDbEntity
  8
MO_001_VIEW_PV
  6
C_SOLID_M
100
AcDbLine
 10
-32.906998
 20
-11.07499699999999
 30
0.0
 11
-31.906992
 21
-11.07499699999999
 31
0.0
  0
LINE
  5
E9
330
1E
100
AcDbEntity
  8
MO_001_VIEW_PV
  6
C_SOLID_M
100
AcDbLine
 10
17.293001
 20
-3.669998
 30
0.0
 11
17.293001
 21
3.669998
 31
0.0
  0
LINE
  5
EA
330
1E
100
AcDbEntity
  8
MO_001_VIEW_PV
  6
C_SOLID_M
100
AcDbLine
 10
-48.006996
 20
-3.824408999999999
 30
0.0
 11
-48.006996
 21
3.824408999999999
 31
0.0
  0
LINE
  5
EB
330
1E
100
AcDbEntity
  8
MO_001_VIEW_PV
  6
C_SOLID_M
100
AcDbLine
 10
5.893000999999999
 20
3.970001
 30
0.0
 11
16.993002
 21
3.970001
 31
0.0
  0
LINE
  5
EC
330
1E
100
AcDbEntity
  8
MO_001_VIEW_PV
  6
C_SOLID_M
100
AcDbLine
 10
5.193001
 20
-3.970001
 30
0.0
 11
16.993002
 21
-3.970001
 31
0.0
  0
LINE
  5
ED
330
1E
100
AcDbEntity
  8
MO_001_VIEW_PV
  6
C_SOLID_M
100
AcDbLine
 10
16.99299899999999
 20
3.970005999999999
 30
0.0
 11
17.292999
 21
3.670007
 31
0.0
  0
LINE
  5
EE
330
1E
100
AcDbEntity
  8
MO_001_VIEW_PV
  6
C_SOLID_M
100
AcDbLine
 10
16.993009
 20
-3.969983999999999
 30
0.0
 11
17.293008
 21
-3.669985
 31
0.0
  0
LINE
  5
EF
330
1E
100
AcDbEntity
  8
MO_001_VIEW_PV
  6
C_SOLID_M
100
AcDbLine
 10
-47.607008
 20
3.970012999999999
 30
0.0
 11
-48.007007
 21
3.824423999999999
 31
0.0
  0
LINE
  5
F0
330
1E
100
AcDbEntity
  8
MO_001_VIEW_PV
  6
C_SOLID_M
100
AcDbLine
 10
-47.607004
 20
-3.969991999999999
 30
0.0
 11
-48.00699999999999
 21
-3.824403999999999
 31
0.0
  0
LINE
  5
F1
330
1E
100
AcDbEntity
  8
MO_001_VIEW_PV
  6
C_SOLID_M
100
AcDbLine
 10
-47.606995
 20
-3.970001
 30
0.0
 11
-47.606995
 21
3.970001
 31
0.0
  0
LINE
  5
F2
330
1E
100
AcDbEntity
  8
MO_001_VIEW_PV
  6
C_SOLID_M
100
AcDbLine
 10
16.993002
 20
-3.970001
 30
0.0
 11
16.993002
 21
3.970001
 31
0.0
  0
LINE
  5
F3
330
1E
100
AcDbEntity
  8
MO_001_VIEW_PV
  6
C_SOLID_M
100
AcDbLine
 10
-47.606995
 20
3.970001
 30
0.0
 11
-33.104881
 21
3.970001
 31
0.0
  0
LINE
  5
F4
330
1E
100
AcDbEntity
  8
MO_001_VIEW_PV
  6
C_SOLID_M
100
AcDbLine
 10
-47.606995
 20
-3.970001
 30
0.0
 11
-32.906998
 21
-3.970001
 31
0.0
  0
LINE
  5
F5
330
1E
100
AcDbEntity
  8
MO_001_VIEW_PV
  6
C_SOLID_M
100
AcDbLine
 10
5.893000999999999
 20
2.769997
 30
0.0
 11
5.893000999999999
 21
3.970001
 31
0.0
  0
LINE
  5
F6
330
1E
100
AcDbEntity
  8
MO_001_VIEW_PV
  6
C_SOLID_M
100
AcDbLine
 10
5.193001
 20
2.769997
 30
0.0
 11
5.893000999999999
 21
2.769997
 31
0.0
  0
LINE
  5
F7
330
1E
100
AcDbEntity
  8
MO_001_VIEW_PV
  6
C_SOLID_M
100
AcDbLine
 10
-32.306995
 20
-2.573134999999999
 30
0.0
 11
-32.306995
 21
2.573134999999999
 31
0.0
  0
LINE
  5
F8
330
1E
100
AcDbEntity
  8
MO_001_VIEW_PV
  6
C_SOLID_M
100
AcDbLine
 10
-32.906998
 20
-10.637596
 30
0.0
 11
-32.306995
 21
-10.637596
 31
0.0
  0
LINE
  5
F9
330
1E
100
AcDbEntity
  8
MO_001_VIEW_PV
  6
C_SOLID_M
100
AcDbLine
 10
-32.306995
 20
-8.319350999999999
 30
0.0
 11
-31.906992
 21
-8.319350999999999
 31
0.0
  0
LINE
  5
FA
330
1E
100
AcDbEntity
  8
MO_001_VIEW_PV
  6
C_SOLID_M
100
AcDbLine
 10
-32.906998
 20
-8.064460999999999
 30
0.0
 11
-32.306995
 21
-8.064460999999999
 31
0.0
  0
LINE
  5
FB
330
1E
100
AcDbEntity
  8
MO_001_VIEW_PV
  6
C_SOLID_M
100
AcDbLine
 10
-32.306995
 20
-10.82724
 30
0.0
 11
-31.906992
 21
-10.82724
 31
0.0
  0
LINE
  5
FC
330
1E
100
AcDbEntity
  8
MO_001_VIEW_PV
  6
C_SOLID_M
100
AcDbLine
 10
-32.306995
 20
2.204200999999999
 30
0.0
 11
-31.906992
 21
2.204200999999999
 31
0.0
  0
LINE
  5
FD
330
1E
100
AcDbEntity
  8
MO_001_VIEW_PV
  6
C_SOLID_M
100
AcDbLine
 10
-32.906998
 20
2.573134999999999
 30
0.0
 11
-32.306995
 21
2.573134999999999
 31
0.0
  0
LINE
  5
FE
330
1E
100
AcDbEntity
  8
MO_001_VIEW_PV
  6
C_SOLID_M
100
AcDbLine
 10
-32.306995
 20
-2.204200999999999
 30
0.0
 11
-31.906992
 21
-2.204200999999999
 31
0.0
  0
LINE
  5
FF
330
1E
100
AcDbEntity
  8
MO_001_VIEW_PV
  6
C_SOLID_M
100
AcDbLine
 10
-32.906998
 20
-2.573134999999999
 30
0.0
 11
-32.306995
 21
-2.573134999999999
 31
0.0
  0
LINE
  5
100
330
1E
100
AcDbEntity
  8
MO_001_VIEW_PV
  6
C_SOLID_M
100
AcDbLine
 10
-32.306995
 20
-10.82724
 30
0.0
 11
-32.306995
 21
-8.064460999999999
 31
0.0
  0
LINE
  5
101
330
1E
100
AcDbEntity
  8
MO_001_VIEW_PV
  6
C_CENTER_L
100
AcDbLine
 10
-4.785523
 20
-18.25
 30
0.0
 11
21.180422
 21
-18.25
 31
0.0
  0
LINE
  5
102
330
1E
100
AcDbEntity
  8
MO_001_VIEW_PV
  6
C_SOLID_M
100
AcDbLine
 10
18.39999999999999
 20
-19.949997
 30
0.0
 11
18.39999999999999
 21
-16.550003
 31
0.0
  0
LINE
  5
103
330
1E
100
AcDbEntity
  8
MO_001_VIEW_PV
  6
C_SOLID_M
100
AcDbLine
 10
0.0
 20
-20.75
 30
0.0
 11
17.6
 21
-20.75
 31
0.0
  0
LINE
  5
104
330
1E
100
AcDbEntity
  8
MO_001_VIEW_PV
  6
C_SOLID_M
100
AcDbLine
 10
0.0
 20
-15.75
 30
0.0
 11
17.6
 21
-15.75
 31
0.0
  0
LINE
  5
105
330
1E
100
AcDbEntity
  8
MO_001_VIEW_PV
  6
C_SOLID_M
100
AcDbLine
 10
0.0
 20
-19.949997
 30
0.0
 11
18.39999999999999
 21
-19.949997
 31
0.0
  0
LINE
  5
106
330
1E
100
AcDbEntity
  8
MO_001_VIEW_PV
  6
C_SOLID_M
100
AcDbLine
 10
0.0
 20
-16.550003
 30
0.0
 11
18.39999999999999
 21
-16.550003
 31
0.0
  0
LINE
  5
107
330
1E
100
AcDbEntity
  8
MO_001_VIEW_PV
  6
C_SOLID_M
100
AcDbLine
 10
17.6
 20
-20.75
 30
0.0
 11
17.6
 21
-15.75
 31
0.0
  0
LINE
  5
108
330
1E
100
AcDbEntity
  8
MO_001_VIEW_PV
  6
C_SOLID_M
100
AcDbLine
 10
17.599999
 20
-20.750001
 30
0.0
 11
18.39999899999999
 21
-19.95000199999999
 31
0.0
  0
LINE
  5
109
330
1E
100
AcDbEntity
  8
MO_001_VIEW_PV
  6
C_SOLID_M
100
AcDbLine
 10
17.600002
 20
-15.74999899999999
 30
0.0
 11
18.39999899999999
 21
-16.549996
 31
0.0
  0
LINE
  5
10A
330
1E
100
AcDbEntity
  8
MO_001_VIEW_PV
  6
C_CENTER_L
100
AcDbLine
 10
-4.785523
 20
18.25
 30
0.0
 11
21.180422
 21
18.25
 31
0.0
  0
LINE
  5
10B
330
1E
100
AcDbEntity
  8
MO_001_VIEW_PV
  6
C_SOLID_M
100
AcDbLine
 10
18.39999999999999
 20
19.949997
 30
0.0
 11
18.39999999999999
 21
16.550003
 31
0.0
  0
LINE
  5
10C
330
1E
100
AcDbEntity
  8
MO_001_VIEW_PV
  6
C_SOLID_M
100
AcDbLine
 10
0.0
 20
20.75
 30
0.0
 11
17.6
 21
20.75
 31
0.0
  0
LINE
  5
10D
330
1E
100
AcDbEntity
  8
MO_001_VIEW_PV
  6
C_SOLID_M
100
AcDbLine
 10
0.0
 20
15.75
 30
0.0
 11
17.6
 21
15.75
 31
0.0
  0
LINE
  5
10E
330
1E
100
AcDbEntity
  8
MO_001_VIEW_PV
  6
C_SOLID_M
100
AcDbLine
 10
0.0
 20
19.949997
 30
0.0
 11
18.39999999999999
 21
19.949997
 31
0.0
  0
LINE
  5
10F
330
1E
100
AcDbEntity
  8
MO_001_VIEW_PV
  6
C_SOLID_M
100
AcDbLine
 10
0.0
 20
16.550003
 30
0.0
 11
18.39999999999999
 21
16.550003
 31
0.0
  0
LINE
  5
110
330
1E
100
AcDbEntity
  8
MO_001_VIEW_PV
  6
C_SOLID_M
100
AcDbLine
 10
17.6
 20
20.75
 30
0.0
 11
17.6
 21
15.75
 31
0.0
  0
LINE
  5
111
330
1E
100
AcDbEntity
  8
MO_001_VIEW_PV
  6
C_SOLID_M
100
AcDbLine
 10
17.6
 20
20.749998
 30
0.0
 11
18.39999999999999
 21
19.949998
 31
0.0
  0
LINE
  5
112
330
1E
100
AcDbEntity
  8
MO_001_VIEW_PV
  6
C_SOLID_M
100
AcDbLine
 10
17.6
 20
15.74999299999999
 30
0.0
 11
18.39999999999999
 21
16.549993
 31
0.0
  0
LINE
  5
113
330
1E
100
AcDbEntity
  8
MO_001_VIEW_PV
  6
C_SOLID_M
100
AcDbLine
 10
-0.7999990000000001
 20
24.599998
 30
0.0
 11
-0.7999990000000001
 21
-24.599998
 31
0.0
  0
LINE
  5
114
330
1E
100
AcDbEntity
  8
MO_001_VIEW_PV
  6
C_SOLID_M
100
AcDbLine
 10
0.0
 20
24.599998
 30
0.0
 11
0.0
 21
-24.599998
 31
0.0
  0
LINE
  5
115
330
1E
100
AcDbEntity
  8
MO_001_VIEW_PV
  6
C_SOLID_M
100
AcDbLine
 10
-0.7999990000000001
 20
24.599998
 30
0.0
 11
0.0
 21
24.599998
 31
0.0
  0
LINE
  5
116
330
1E
100
AcDbEntity
  8
MO_001_VIEW_PV
  6
C_SOLID_M
100
AcDbLine
 10
-0.7999990000000001
 20
-24.599998
 30
0.0
 11
0.0
 21
-24.599998
 31
0.0
  0
ARC
  5
117
330
1E
100
AcDbEntity
  8
MO_001_VIEW_PV
  6
C_SOLID_M
100
AcDbCircle
 10
2.500004
 20
-3.191711
 30
0.0
 40
0.6
100
AcDbArc
 50
249.8759789999999
 51
6.738516999999999
  0
ARC
  5
118
330
1E
100
AcDbEntity
  8
MO_001_VIEW_PV
  6
C_SOLID_M
100
AcDbCircle
 10
11.437828
 20
-2.135666
 30
0.0
 40
8.4
100
AcDbArc
 50
173.2614909999999
 51
186.738533
  0
ARC
  5
119
330
1E
100
AcDbEntity
  8
MO_001_VIEW_PV
  6
C_SOLID_M
100
AcDbCircle
 10
2.500004
 20
-1.07962
 30
0.0
 40
0.6
100
AcDbArc
 50
353.261468
 51
110.124035
  0
ARC
  5
11A
330
1E
100
AcDbEntity
  8
MO_001_VIEW_PV
  6
C_SOLID_M
100
AcDbCircle
 10
1.571056
 20
1.455543999999999
 30
0.0
 40
2.1
100
AcDbArc
 50
221.572023
 51
290.124016
  0
ARC
  5
11B
330
1E
100
AcDbEntity
  8
MO_001_VIEW_PV
  6
C_SOLID_M
100
AcDbCircle
 10
1.571056
 20
-5.726874999999999
 30
0.0
 40
2.1
100
AcDbArc
 50
69.87597
 51
138.427977
  0
LINE
  5
11C
330
1E
100
AcDbEntity
  8
MO_001_VIEW_PV
  6
C_SOLID_M
100
AcDbLine
 10
2.301825999999999
 20
-7.343445
 30
0.0
 11
2.700000999999999
 21
-7.343445
 31
0.0
  0
LINE
  5
11D
330
1E
100
AcDbEntity
  8
MO_001_VIEW_PV
  6
C_SOLID_M
100
AcDbLine
 10
2.301825999999999
 20
-7.872696
 30
0.0
 11
2.700000999999999
 21
-7.872696
 31
0.0
  0
LINE
  5
11E
330
1E
100
AcDbEntity
  8
MO_001_VIEW_PV
  6
C_SOLID_M
100
AcDbLine
 10
2.301825999999999
 20
-10.155106
 30
0.0
 11
2.700000999999999
 21
-10.155106
 31
0.0
  0
LINE
  5
11F
330
1E
100
AcDbEntity
  8
MO_001_VIEW_PV
  6
C_SOLID_M
100
AcDbLine
 10
0.4000020000000001
 20
-11.900002
 30
0.0
 11
3.100001999999999
 21
-11.900002
 31
0.0
  0
LINE
  5
120
330
1E
100
AcDbEntity
  8
MO_001_VIEW_PV
  6
C_SOLID_M
100
AcDbLine
 10
0.4000020000000001
 20
-11.76681499999999
 30
0.0
 11
3.100001999999999
 21
-11.76681499999999
 31
0.0
  0
LINE
  5
121
330
1E
100
AcDbEntity
  8
MO_001_VIEW_PV
  6
C_SOLID_M
100
AcDbLine
 10
0.4000020000000001
 20
-10.97576899999999
 30
0.0
 11
3.100001999999999
 21
-10.97576899999999
 31
0.0
  0
LINE
  5
122
330
1E
100
AcDbEntity
  8
MO_001_VIEW_PV
  6
C_SOLID_M
100
AcDbLine
 10
3.100001999999999
 20
-10.97576899999999
 30
0.0
 11
3.100001999999999
 21
-11.900002
 31
0.0
  0
ARC
  5
123
330
1E
100
AcDbEntity
  8
MO_001_VIEW_PV
  6
C_SOLID_M
100
AcDbCircle
 10
0.4000020000000001
 20
-12.300003
 30
0.0
 40
0.4
100
AcDbArc
 50
90.000002
 51
180.000005
  0
ARC
  5
124
330
1E
100
AcDbEntity
  8
MO_001_VIEW_PV
  6
C_SOLID_M
100
AcDbCircle
 10
0.4000020000000001
 20
-12.166817
 30
0.0
 40
0.4
100
AcDbArc
 50
90.000002
 51
180.000005
  0
ARC
  5
125
330
1E
100
AcDbEntity
  8
MO_001_VIEW_PV
  6
C_SOLID_M
100
AcDbCircle
 10
0.4000020000000001
 20
-12.175766
 30
0.0
 40
1.199999999999999
100
AcDbArc
 50
90.000002
 51
109.4712939999999
  0
ARC
  5
126
330
1E
100
AcDbEntity
  8
MO_001_VIEW_PV
  6
C_SOLID_M
100
AcDbCircle
 10
1.571056
 20
1.660125999999999
 30
0.0
 40
2.1
100
AcDbArc
 50
221.572023
 51
290.124016
  0
ARC
  5
127
330
1E
100
AcDbEntity
  8
MO_001_VIEW_PV
  6
C_SOLID_M
100
AcDbCircle
 10
2.500004
 20
-0.8750379999999998
 30
0.0
 40
0.6
100
AcDbArc
 50
353.261468
 51
110.124035
  0
LINE
  5
128
330
1E
100
AcDbEntity
  8
MO_001_VIEW_PV
  6
C_SOLID_M
100
AcDbLine
 10
3.100001999999999
 20
-0.8750379999999998
 30
0.0
 11
3.100001999999999
 21
-1.07962
 31
0.0
  0
LINE
  5
129
330
1E
100
AcDbEntity
  8
MO_001_VIEW_PV
  6
C_SOLID_M
100
AcDbLine
 10
3.100001999999999
 20
-7.743438999999999
 30
0.0
 11
3.100001999999999
 21
-9.755111999999998
 31
0.0
  0
ARC
  5
12A
330
1E
100
AcDbEntity
  8
MO_001_VIEW_PV
  6
C_SOLID_M
100
AcDbCircle
 10
2.700000999999999
 20
-8.272697
 30
0.0
 40
0.4
100
AcDbArc
 50
0.0
 51
89.99998900000001
  0
ARC
  5
12B
330
1E
100
AcDbEntity
  8
MO_001_VIEW_PV
  6
C_SOLID_M
100
AcDbCircle
 10
2.700000999999999
 20
-7.743438999999999
 30
0.0
 40
0.4
100
AcDbArc
 50
0.0
 51
89.99998900000001
  0
ARC
  5
12C
330
1E
100
AcDbEntity
  8
MO_001_VIEW_PV
  6
C_SOLID_M
100
AcDbCircle
 10
2.700000999999999
 20
-9.755111999999998
 30
0.0
 40
0.4
100
AcDbArc
 50
269.999998
 51
0.0
  0
POLYLINE
  5
12D
330
1E
100
AcDbEntity
  8
MO_001_VIEW_PV
  6
C_SOLID_M
100
AcDb2dPolyline
 66
     1
 10
0.0
 20
0.0
 30
0.0
  0
VERTEX
  5
2E4
330
12D
100
AcDbEntity
  8
MO_001_VIEW_PV
  6
C_SOLID_M
100
AcDbVertex
100
AcDb2dVertex
 10
0.000001
 20
-7.434391999999999
 30
0.0
  0
VERTEX
  5
2E5
330
12D
100
AcDbEntity
  8
MO_001_VIEW_PV
  6
C_SOLID_M
100
AcDbVertex
100
AcDb2dVertex
 10
0.108891
 20
-7.521142999999999
 30
0.0
  0
VERTEX
  5
2E6
330
12D
100
AcDbEntity
  8
MO_001_VIEW_PV
  6
C_SOLID_M
100
AcDbVertex
100
AcDb2dVertex
 10
0.318857
 20
-7.65713
 30
0.0
  0
VERTEX
  5
2E7
330
12D
100
AcDbEntity
  8
MO_001_VIEW_PV
  6
C_SOLID_M
100
AcDbVertex
100
AcDb2dVertex
 10
0.4906950000000001
 20
-7.744718999999999
 30
0.0
  0
VERTEX
  5
2E8
330
12D
100
AcDbEntity
  8
MO_001_VIEW_PV
  6
C_SOLID_M
100
AcDbVertex
100
AcDb2dVertex
 10
0.767537
 20
-7.850938
 30
0.0
  0
VERTEX
  5
2E9
330
12D
100
AcDbEntity
  8
MO_001_VIEW_PV
  6
C_SOLID_M
100
AcDbVertex
100
AcDb2dVertex
 10
1.061884999999999
 20
-7.924952
 30
0.0
  0
VERTEX
  5
2EA
330
12D
100
AcDbEntity
  8
MO_001_VIEW_PV
  6
C_SOLID_M
100
AcDbVertex
100
AcDb2dVertex
 10
1.372228
 20
-7.965507
 30
0.0
  0
VERTEX
  5
2EB
330
12D
100
AcDbEntity
  8
MO_001_VIEW_PV
  6
C_SOLID_M
100
AcDbVertex
100
AcDb2dVertex
 10
1.608304999999999
 20
-7.972442999999999
 30
0.0
  0
VERTEX
  5
2EC
330
12D
100
AcDbEntity
  8
MO_001_VIEW_PV
  6
C_SOLID_M
100
AcDbVertex
100
AcDb2dVertex
 10
1.785216999999999
 20
-7.964352
 30
0.0
  0
VERTEX
  5
2ED
330
12D
100
AcDbEntity
  8
MO_001_VIEW_PV
  6
C_SOLID_M
100
AcDbVertex
100
AcDb2dVertex
 10
2.047334
 20
-7.931000999999999
 30
0.0
  0
VERTEX
  5
2EE
330
12D
100
AcDbEntity
  8
MO_001_VIEW_PV
  6
C_SOLID_M
100
AcDbVertex
100
AcDb2dVertex
 10
2.301824
 20
-7.872694999999999
 30
0.0
  0
SEQEND
  5
2EF
330
12D
100
AcDbEntity
  8
MO_001_VIEW_PV
  6
C_SOLID_M
  0
POLYLINE
  5
13A
330
1E
100
AcDbEntity
  8
MO_001_VIEW_PV
  6
C_SOLID_M
100
AcDb2dPolyline
 66
     1
 10
0.0
 20
0.0
 30
0.0
  0
VERTEX
  5
2F0
330
13A
100
AcDbEntity
  8
MO_001_VIEW_PV
  6
C_SOLID_M
100
AcDbVertex
100
AcDb2dVertex
 10
-0.000002
 20
-6.905143999999999
 30
0.0
  0
VERTEX
  5
2F1
330
13A
100
AcDbEntity
  8
MO_001_VIEW_PV
  6
C_SOLID_M
100
AcDbVertex
100
AcDb2dVertex
 10
0.108888
 20
-6.991894999999999
 30
0.0
  0
VERTEX
  5
2F2
330
13A
100
AcDbEntity
  8
MO_001_VIEW_PV
  6
C_SOLID_M
100
AcDbVertex
100
AcDb2dVertex
 10
0.318855
 20
-7.127883999999999
 30
0.0
  0
VERTEX
  5
2F3
330
13A
100
AcDbEntity
  8
MO_001_VIEW_PV
  6
C_SOLID_M
100
AcDbVertex
100
AcDb2dVertex
 10
0.4906930000000001
 20
-7.215474
 30
0.0
  0
VERTEX
  5
2F4
330
13A
100
AcDbEntity
  8
MO_001_VIEW_PV
  6
C_SOLID_M
100
AcDbVertex
100
AcDb2dVertex
 10
0.767536
 20
-7.321693999999999
 30
0.0
  0
VERTEX
  5
2F5
330
13A
100
AcDbEntity
  8
MO_001_VIEW_PV
  6
C_SOLID_M
100
AcDbVertex
100
AcDb2dVertex
 10
1.061884
 20
-7.395707999999999
 30
0.0
  0
VERTEX
  5
2F6
330
13A
100
AcDbEntity
  8
MO_001_VIEW_PV
  6
C_SOLID_M
100
AcDbVertex
100
AcDb2dVertex
 10
1.372228
 20
-7.436263
 30
0.0
  0
VERTEX
  5
2F7
330
13A
100
AcDbEntity
  8
MO_001_VIEW_PV
  6
C_SOLID_M
100
AcDbVertex
100
AcDb2dVertex
 10
1.608305999999999
 20
-7.443199
 30
0.0
  0
VERTEX
  5
2F8
330
13A
100
AcDbEntity
  8
MO_001_VIEW_PV
  6
C_SOLID_M
100
AcDbVertex
100
AcDb2dVertex
 10
1.785218999999999
 20
-7.435108999999999
 30
0.0
  0
VERTEX
  5
2F9
330
13A
100
AcDbEntity
  8
MO_001_VIEW_PV
  6
C_SOLID_M
100
AcDbVertex
100
AcDb2dVertex
 10
2.047336
 20
-7.401757
 30
0.0
  0
VERTEX
  5
2FA
330
13A
100
AcDbEntity
  8
MO_001_VIEW_PV
  6
C_SOLID_M
100
AcDbVertex
100
AcDb2dVertex
 10
2.301826999999999
 20
-7.343449999999999
 30
0.0
  0
SEQEND
  5
2FB
330
13A
100
AcDbEntity
  8
MO_001_VIEW_PV
  6
C_SOLID_M
  0
POLYLINE
  5
147
330
1E
100
AcDbEntity
  8
MO_001_VIEW_PV
  6
C_SOLID_M
100
AcDb2dPolyline
 66
     1
 10
0.0
 20
0.0
 30
0.0
  0
VERTEX
  5
2FC
330
147
100
AcDbEntity
  8
MO_001_VIEW_PV
  6
C_SOLID_M
100
AcDbVertex
100
AcDb2dVertex
 10
2.301826999999999
 20
-10.15510099999999
 30
0.0
  0
VERTEX
  5
2FD
330
147
100
AcDbEntity
  8
MO_001_VIEW_PV
  6
C_SOLID_M
100
AcDbVertex
100
AcDb2dVertex
 10
1.999247999999999
 20
-10.088713
 30
0.0
  0
VERTEX
  5
2FE
330
147
100
AcDbEntity
  8
MO_001_VIEW_PV
  6
C_SOLID_M
100
AcDbVertex
100
AcDb2dVertex
 10
1.765614
 20
-10.06198099999999
 30
0.0
  0
VERTEX
  5
2FF
330
147
100
AcDbEntity
  8
MO_001_VIEW_PV
  6
C_SOLID_M
100
AcDbVertex
100
AcDb2dVertex
 10
1.58861
 20
-10.055155
 30
0.0
  0
VERTEX
  5
300
330
147
100
AcDbEntity
  8
MO_001_VIEW_PV
  6
C_SOLID_M
100
AcDbVertex
100
AcDb2dVertex
 10
1.323262999999999
 20
-10.066277
 30
0.0
  0
VERTEX
  5
301
330
147
100
AcDbEntity
  8
MO_001_VIEW_PV
  6
C_SOLID_M
100
AcDbVertex
100
AcDb2dVertex
 10
1.061884
 20
-10.102843
 30
0.0
  0
VERTEX
  5
302
330
147
100
AcDbEntity
  8
MO_001_VIEW_PV
  6
C_SOLID_M
100
AcDbVertex
100
AcDb2dVertex
 10
0.762988
 20
-10.178296
 30
0.0
  0
VERTEX
  5
303
330
147
100
AcDbEntity
  8
MO_001_VIEW_PV
  6
C_SOLID_M
100
AcDbVertex
100
AcDb2dVertex
 10
0.550385
 20
-10.256797
 30
0.0
  0
VERTEX
  5
304
330
147
100
AcDbEntity
  8
MO_001_VIEW_PV
  6
C_SOLID_M
100
AcDbVertex
100
AcDb2dVertex
 10
0.399268
 20
-10.327349
 30
0.0
  0
VERTEX
  5
305
330
147
100
AcDbEntity
  8
MO_001_VIEW_PV
  6
C_SOLID_M
100
AcDbVertex
100
AcDb2dVertex
 10
0.188563
 20
-10.45073499999999
 30
0.0
  0
VERTEX
  5
306
330
147
100
AcDbEntity
  8
MO_001_VIEW_PV
  6
C_SOLID_M
100
AcDbVertex
100
AcDb2dVertex
 10
-0.000002
 20
-10.593407
 30
0.0
  0
SEQEND
  5
307
330
147
100
AcDbEntity
  8
MO_001_VIEW_PV
  6
C_SOLID_M
  0
POLYLINE
  5
154
330
1E
100
AcDbEntity
  8
MO_001_VIEW_PV
  6
C_SOLID_M
100
AcDb2dPolyline
 66
     1
 10
0.0
 20
0.0
 30
0.0
  0
VERTEX
  5
308
330
154
100
AcDbEntity
  8
MO_001_VIEW_PV
  6
C_SOLID_M
100
AcDbVertex
100
AcDb2dVertex
 10
2.293569999999999
 20
4.379872999999999
 30
0.0
  0
VERTEX
  5
309
330
154
100
AcDbEntity
  8
MO_001_VIEW_PV
  6
C_SOLID_M
100
AcDbVertex
100
AcDb2dVertex
 10
2.442325999999999
 20
4.348442999999999
 30
0.0
  0
VERTEX
  5
30A
330
154
100
AcDbEntity
  8
MO_001_VIEW_PV
  6
C_SOLID_M
100
AcDbVertex
100
AcDb2dVertex
 10
2.55688
 20
4.348372
 30
0.0
  0
VERTEX
  5
30B
330
154
100
AcDbEntity
  8
MO_001_VIEW_PV
  6
C_SOLID_M
100
AcDbVertex
100
AcDb2dVertex
 10
2.641663
 20
4.361612
 30
0.0
  0
VERTEX
  5
30C
330
154
100
AcDbEntity
  8
MO_001_VIEW_PV
  6
C_SOLID_M
100
AcDbVertex
100
AcDb2dVertex
 10
2.762853999999999
 20
4.402163999999999
 30
0.0
  0
VERTEX
  5
30D
330
154
100
AcDbEntity
  8
MO_001_VIEW_PV
  6
C_SOLID_M
100
AcDbVertex
100
AcDb2dVertex
 10
2.871929
 20
4.465800999999999
 30
0.0
  0
VERTEX
  5
30E
330
154
100
AcDbEntity
  8
MO_001_VIEW_PV
  6
C_SOLID_M
100
AcDbVertex
100
AcDb2dVertex
 10
2.978647999999999
 20
4.567019999999999
 30
0.0
  0
VERTEX
  5
30F
330
154
100
AcDbEntity
  8
MO_001_VIEW_PV
  6
C_SOLID_M
100
AcDbVertex
100
AcDb2dVertex
 10
3.038684999999999
 20
4.657601
 30
0.0
  0
VERTEX
  5
310
330
154
100
AcDbEntity
  8
MO_001_VIEW_PV
  6
C_SOLID_M
100
AcDbVertex
100
AcDb2dVertex
 10
3.07092
 20
4.7316
 30
0.0
  0
VERTEX
  5
311
330
154
100
AcDbEntity
  8
MO_001_VIEW_PV
  6
C_SOLID_M
100
AcDbVertex
100
AcDb2dVertex
 10
3.097151999999999
 20
4.848698
 30
0.0
  0
VERTEX
  5
312
330
154
100
AcDbEntity
  8
MO_001_VIEW_PV
  6
C_SOLID_M
100
AcDbVertex
100
AcDb2dVertex
 10
3.095857
 20
4.968296999999999
 30
0.0
  0
SEQEND
  5
313
330
154
100
AcDbEntity
  8
MO_001_VIEW_PV
  6
C_SOLID_M
  0
POLYLINE
  5
161
330
1E
100
AcDbEntity
  8
MO_001_VIEW_PV
  6
C_SOLID_M
100
AcDb2dPolyline
 66
     1
 10
0.0
 20
0.0
 30
0.0
  0
VERTEX
  5
314
330
161
100
AcDbEntity
  8
MO_001_VIEW_PV
  6
C_SOLID_M
100
AcDbVertex
100
AcDb2dVertex
 10
3.095857
 20
6.798516
 30
0.0
  0
VERTEX
  5
315
330
161
100
AcDbEntity
  8
MO_001_VIEW_PV
  6
C_SOLID_M
100
AcDbVertex
100
AcDb2dVertex
 10
3.05235
 20
6.341752999999999
 30
0.0
  0
VERTEX
  5
316
330
161
100
AcDbEntity
  8
MO_001_VIEW_PV
  6
C_SOLID_M
100
AcDbVertex
100
AcDb2dVertex
 10
3.03783
 20
5.883405999999999
 30
0.0
  0
VERTEX
  5
317
330
161
100
AcDbEntity
  8
MO_001_VIEW_PV
  6
C_SOLID_M
100
AcDbVertex
100
AcDb2dVertex
 10
3.05235
 20
5.425057999999999
 30
0.0
  0
VERTEX
  5
318
330
161
100
AcDbEntity
  8
MO_001_VIEW_PV
  6
C_SOLID_M
100
AcDbVertex
100
AcDb2dVertex
 10
3.095858
 20
4.968295999999999
 30
0.0
  0
SEQEND
  5
319
330
161
100
AcDbEntity
  8
MO_001_VIEW_PV
  6
C_SOLID_M
  0
POLYLINE
  5
168
330
1E
100
AcDbEntity
  8
MO_001_VIEW_PV
  6
C_SOLID_M
100
AcDb2dPolyline
 66
     1
 10
0.0
 20
0.0
 30
0.0
  0
VERTEX
  5
31A
330
168
100
AcDbEntity
  8
MO_001_VIEW_PV
  6
C_SOLID_M
100
AcDbVertex
100
AcDb2dVertex
 10
3.095858
 20
6.798519
 30
0.0
  0
VERTEX
  5
31B
330
168
100
AcDbEntity
  8
MO_001_VIEW_PV
  6
C_SOLID_M
100
AcDbVertex
100
AcDb2dVertex
 10
3.094352
 20
6.940153999999999
 30
0.0
  0
VERTEX
  5
31C
330
168
100
AcDbEntity
  8
MO_001_VIEW_PV
  6
C_SOLID_M
100
AcDbVertex
100
AcDb2dVertex
 10
3.067906999999999
 20
7.043639999999999
 30
0.0
  0
VERTEX
  5
31D
330
168
100
AcDbEntity
  8
MO_001_VIEW_PV
  6
C_SOLID_M
100
AcDbVertex
100
AcDb2dVertex
 10
3.034406
 20
7.117152
 30
0.0
  0
VERTEX
  5
31E
330
168
100
AcDbEntity
  8
MO_001_VIEW_PV
  6
C_SOLID_M
100
AcDbVertex
100
AcDb2dVertex
 10
2.963858999999999
 20
7.217227
 30
0.0
  0
VERTEX
  5
31F
330
168
100
AcDbEntity
  8
MO_001_VIEW_PV
  6
C_SOLID_M
100
AcDbVertex
100
AcDb2dVertex
 10
2.871929999999999
 20
7.301014
 30
0.0
  0
VERTEX
  5
320
330
168
100
AcDbEntity
  8
MO_001_VIEW_PV
  6
C_SOLID_M
100
AcDbVertex
100
AcDb2dVertex
 10
2.741165999999999
 20
7.373972999999999
 30
0.0
  0
VERTEX
  5
321
330
168
100
AcDbEntity
  8
MO_001_VIEW_PV
  6
C_SOLID_M
100
AcDbVertex
100
AcDb2dVertex
 10
2.632356
 20
7.40723
 30
0.0
  0
VERTEX
  5
322
330
168
100
AcDbEntity
  8
MO_001_VIEW_PV
  6
C_SOLID_M
100
AcDbVertex
100
AcDb2dVertex
 10
2.547356999999999
 20
7.419214
 30
0.0
  0
VERTEX
  5
323
330
168
100
AcDbEntity
  8
MO_001_VIEW_PV
  6
C_SOLID_M
100
AcDbVertex
100
AcDb2dVertex
 10
2.418588
 20
7.415799
 30
0.0
  0
VERTEX
  5
324
330
168
100
AcDbEntity
  8
MO_001_VIEW_PV
  6
C_SOLID_M
100
AcDbVertex
100
AcDb2dVertex
 10
2.293572
 20
7.386942999999999
 30
0.0
  0
SEQEND
  5
325
330
168
100
AcDbEntity
  8
MO_001_VIEW_PV
  6
C_SOLID_M
  0
POLYLINE
  5
175
330
1E
100
AcDbEntity
  8
MO_001_VIEW_PV
  6
C_SOLID_M
100
AcDb2dPolyline
 66
     1
 10
0.0
 20
0.0
 30
0.0
  0
VERTEX
  5
326
330
175
100
AcDbEntity
  8
MO_001_VIEW_PV
  6
C_SOLID_M
100
AcDbVertex
100
AcDb2dVertex
 10
0.000001
 20
7.923875999999999
 30
0.0
  0
VERTEX
  5
327
330
175
100
AcDbEntity
  8
MO_001_VIEW_PV
  6
C_SOLID_M
100
AcDbVertex
100
AcDb2dVertex
 10
0.108497
 20
7.818519
 30
0.0
  0
VERTEX
  5
328
330
175
100
AcDbEntity
  8
MO_001_VIEW_PV
  6
C_SOLID_M
100
AcDbVertex
100
AcDb2dVertex
 10
0.317644
 20
7.653289999999999
 30
0.0
  0
VERTEX
  5
329
330
175
100
AcDbEntity
  8
MO_001_VIEW_PV
  6
C_SOLID_M
100
AcDbVertex
100
AcDb2dVertex
 10
0.4887800000000001
 20
7.546786999999999
 30
0.0
  0
VERTEX
  5
32A
330
175
100
AcDbEntity
  8
MO_001_VIEW_PV
  6
C_SOLID_M
100
AcDbVertex
100
AcDb2dVertex
 10
0.6240630000000001
 20
7.477413
 30
0.0
  0
VERTEX
  5
32B
330
175
100
AcDbEntity
  8
MO_001_VIEW_PV
  6
C_SOLID_M
100
AcDbVertex
100
AcDb2dVertex
 10
0.8363659999999999
 20
7.391127
 30
0.0
  0
VERTEX
  5
32C
330
175
100
AcDbEntity
  8
MO_001_VIEW_PV
  6
C_SOLID_M
100
AcDbVertex
100
AcDb2dVertex
 10
1.057617999999999
 20
7.327086999999999
 30
0.0
  0
VERTEX
  5
32D
330
175
100
AcDbEntity
  8
MO_001_VIEW_PV
  6
C_SOLID_M
100
AcDbVertex
100
AcDb2dVertex
 10
1.211179999999999
 20
7.296757
 30
0.0
  0
VERTEX
  5
32E
330
175
100
AcDbEntity
  8
MO_001_VIEW_PV
  6
C_SOLID_M
100
AcDbVertex
100
AcDb2dVertex
 10
1.484229999999999
 20
7.269580999999999
 30
0.0
  0
VERTEX
  5
32F
330
175
100
AcDbEntity
  8
MO_001_VIEW_PV
  6
C_SOLID_M
100
AcDbVertex
100
AcDb2dVertex
 10
1.690249999999999
 20
7.271057
 30
0.0
  0
VERTEX
  5
330
330
175
100
AcDbEntity
  8
MO_001_VIEW_PV
  6
C_SOLID_M
100
AcDbVertex
100
AcDb2dVertex
 10
1.84412
 20
7.284467
 30
0.0
  0
VERTEX
  5
331
330
175
100
AcDbEntity
  8
MO_001_VIEW_PV
  6
C_SOLID_M
100
AcDbVertex
100
AcDb2dVertex
 10
2.071893
 20
7.324175
 30
0.0
  0
VERTEX
  5
332
330
175
100
AcDbEntity
  8
MO_001_VIEW_PV
  6
C_SOLID_M
100
AcDbVertex
100
AcDb2dVertex
 10
2.293566999999999
 20
7.386944
 30
0.0
  0
SEQEND
  5
333
330
175
100
AcDbEntity
  8
MO_001_VIEW_PV
  6
C_SOLID_M
  0
POLYLINE
  5
184
330
1E
100
AcDbEntity
  8
MO_001_VIEW_PV
  6
C_SOLID_M
100
AcDb2dPolyline
 66
     1
 10
0.0
 20
0.0
 30
0.0
  0
VERTEX
  5
334
330
184
100
AcDbEntity
  8
MO_001_VIEW_PV
  6
C_SOLID_M
100
AcDbVertex
100
AcDb2dVertex
 10
2.293568
 20
4.379878999999999
 30
0.0
  0
VERTEX
  5
335
330
184
100
AcDbEntity
  8
MO_001_VIEW_PV
  6
C_SOLID_M
100
AcDbVertex
100
AcDb2dVertex
 10
2.144238
 20
4.424877999999999
 30
0.0
  0
VERTEX
  5
336
330
184
100
AcDbEntity
  8
MO_001_VIEW_PV
  6
C_SOLID_M
100
AcDbVertex
100
AcDb2dVertex
 10
1.875715
 20
4.478282
 30
0.0
  0
VERTEX
  5
337
330
184
100
AcDbEntity
  8
MO_001_VIEW_PV
  6
C_SOLID_M
100
AcDbVertex
100
AcDb2dVertex
 10
1.670647999999999
 20
4.496715
 30
0.0
  0
VERTEX
  5
338
330
184
100
AcDbEntity
  8
MO_001_VIEW_PV
  6
C_SOLID_M
100
AcDbVertex
100
AcDb2dVertex
 10
1.51611
 20
4.498241
 30
0.0
  0
VERTEX
  5
339
330
184
100
AcDbEntity
  8
MO_001_VIEW_PV
  6
C_SOLID_M
100
AcDbVertex
100
AcDb2dVertex
 10
1.285123
 20
4.480751
 30
0.0
  0
VERTEX
  5
33A
330
184
100
AcDbEntity
  8
MO_001_VIEW_PV
  6
C_SOLID_M
100
AcDbVertex
100
AcDb2dVertex
 10
1.057617999999999
 20
4.439735999999999
 30
0.0
  0
VERTEX
  5
33B
330
184
100
AcDbEntity
  8
MO_001_VIEW_PV
  6
C_SOLID_M
100
AcDbVertex
100
AcDb2dVertex
 10
0.9069259999999999
 20
4.398838999999999
 30
0.0
  0
VERTEX
  5
33C
330
184
100
AcDbEntity
  8
MO_001_VIEW_PV
  6
C_SOLID_M
100
AcDbVertex
100
AcDb2dVertex
 10
0.6526410000000001
 20
4.302564
 30
0.0
  0
VERTEX
  5
33D
330
184
100
AcDbEntity
  8
MO_001_VIEW_PV
  6
C_SOLID_M
100
AcDbVertex
100
AcDb2dVertex
 10
0.4720060000000001
 20
4.210570999999999
 30
0.0
  0
VERTEX
  5
33E
330
184
100
AcDbEntity
  8
MO_001_VIEW_PV
  6
C_SOLID_M
100
AcDbVertex
100
AcDb2dVertex
 10
0.343381
 20
4.131027999999999
 30
0.0
  0
VERTEX
  5
33F
330
184
100
AcDbEntity
  8
MO_001_VIEW_PV
  6
C_SOLID_M
100
AcDbVertex
100
AcDb2dVertex
 10
0.163117
 20
3.995796999999999
 30
0.0
  0
VERTEX
  5
340
330
184
100
AcDbEntity
  8
MO_001_VIEW_PV
  6
C_SOLID_M
100
AcDbVertex
100
AcDb2dVertex
 10
0.000001
 20
3.842947
 30
0.0
  0
SEQEND
  5
341
330
184
100
AcDbEntity
  8
MO_001_VIEW_PV
  6
C_SOLID_M
  0
POLYLINE
  5
193
330
1E
100
AcDbEntity
  8
MO_001_VIEW_PV
  6
C_SOLID_M
100
AcDb2dPolyline
 66
     1
 10
0.0
 20
0.0
 30
0.0
  0
VERTEX
  5
342
330
193
100
AcDbEntity
  8
MO_001_VIEW_PV
  6
C_SOLID_M
100
AcDbVertex
100
AcDb2dVertex
 10
2.293568
 20
4.087717999999999
 30
0.0
  0
VERTEX
  5
343
330
193
100
AcDbEntity
  8
MO_001_VIEW_PV
  6
C_SOLID_M
100
AcDbVertex
100
AcDb2dVertex
 10
2.144238
 20
4.132717999999999
 30
0.0
  0
VERTEX
  5
344
330
193
100
AcDbEntity
  8
MO_001_VIEW_PV
  6
C_SOLID_M
100
AcDbVertex
100
AcDb2dVertex
 10
1.875715
 20
4.186122
 30
0.0
  0
VERTEX
  5
345
330
193
100
AcDbEntity
  8
MO_001_VIEW_PV
  6
C_SOLID_M
100
AcDbVertex
100
AcDb2dVertex
 10
1.670647999999999
 20
4.204555
 30
0.0
  0
VERTEX
  5
346
330
193
100
AcDbEntity
  8
MO_001_VIEW_PV
  6
C_SOLID_M
100
AcDbVertex
100
AcDb2dVertex
 10
1.51611
 20
4.206081
 30
0.0
  0
VERTEX
  5
347
330
193
100
AcDbEntity
  8
MO_001_VIEW_PV
  6
C_SOLID_M
100
AcDbVertex
100
AcDb2dVertex
 10
1.285123
 20
4.188591
 30
0.0
  0
VERTEX
  5
348
330
193
100
AcDbEntity
  8
MO_001_VIEW_PV
  6
C_SOLID_M
100
AcDbVertex
100
AcDb2dVertex
 10
1.057617999999999
 20
4.147575999999999
 30
0.0
  0
VERTEX
  5
349
330
193
100
AcDbEntity
  8
MO_001_VIEW_PV
  6
C_SOLID_M
100
AcDbVertex
100
AcDb2dVertex
 10
0.906925
 20
4.106678999999999
 30
0.0
  0
VERTEX
  5
34A
330
193
100
AcDbEntity
  8
MO_001_VIEW_PV
  6
C_SOLID_M
100
AcDbVertex
100
AcDb2dVertex
 10
0.6526410000000001
 20
4.010403
 30
0.0
  0
VERTEX
  5
34B
330
193
100
AcDbEntity
  8
MO_001_VIEW_PV
  6
C_SOLID_M
100
AcDbVertex
100
AcDb2dVertex
 10
0.4720050000000001
 20
3.918408999999999
 30
0.0
  0
VERTEX
  5
34C
330
193
100
AcDbEntity
  8
MO_001_VIEW_PV
  6
C_SOLID_M
100
AcDbVertex
100
AcDb2dVertex
 10
0.34338
 20
3.838866
 30
0.0
  0
VERTEX
  5
34D
330
193
100
AcDbEntity
  8
MO_001_VIEW_PV
  6
C_SOLID_M
100
AcDbVertex
100
AcDb2dVertex
 10
0.163116
 20
3.703633999999999
 30
0.0
  0
VERTEX
  5
34E
330
193
100
AcDbEntity
  8
MO_001_VIEW_PV
  6
C_SOLID_M
100
AcDbVertex
100
AcDb2dVertex
 10
0.000001
 20
3.550783
 30
0.0
  0
SEQEND
  5
34F
330
193
100
AcDbEntity
  8
MO_001_VIEW_PV
  6
C_SOLID_M
  0
POLYLINE
  5
1A2
330
1E
100
AcDbEntity
  8
MO_001_VIEW_PV
  6
C_SOLID_M
100
AcDb2dPolyline
 66
     1
 10
0.0
 20
0.0
 30
0.0
  0
VERTEX
  5
350
330
1A2
100
AcDbEntity
  8
MO_001_VIEW_PV
  6
C_SOLID_M
100
AcDbVertex
100
AcDb2dVertex
 10
2.293569999999999
 20
4.087712999999999
 30
0.0
  0
VERTEX
  5
351
330
1A2
100
AcDbEntity
  8
MO_001_VIEW_PV
  6
C_SOLID_M
100
AcDbVertex
100
AcDb2dVertex
 10
2.433552
 20
4.057129999999999
 30
0.0
  0
VERTEX
  5
352
330
1A2
100
AcDbEntity
  8
MO_001_VIEW_PV
  6
C_SOLID_M
100
AcDbVertex
100
AcDb2dVertex
 10
2.541497
 20
4.055037
 30
0.0
  0
VERTEX
  5
353
330
1A2
100
AcDbEntity
  8
MO_001_VIEW_PV
  6
C_SOLID_M
100
AcDbVertex
100
AcDb2dVertex
 10
2.621763999999999
 20
4.065294
 30
0.0
  0
VERTEX
  5
354
330
1A2
100
AcDbEntity
  8
MO_001_VIEW_PV
  6
C_SOLID_M
100
AcDbVertex
100
AcDb2dVertex
 10
2.737554
 20
4.099223999999999
 30
0.0
  0
VERTEX
  5
355
330
1A2
100
AcDbEntity
  8
MO_001_VIEW_PV
  6
C_SOLID_M
100
AcDbVertex
100
AcDb2dVertex
 10
2.843615999999999
 20
4.154101999999999
 30
0.0
  0
VERTEX
  5
356
330
1A2
100
AcDbEntity
  8
MO_001_VIEW_PV
  6
C_SOLID_M
100
AcDbVertex
100
AcDb2dVertex
 10
2.950784999999999
 20
4.24313
 30
0.0
  0
VERTEX
  5
357
330
1A2
100
AcDbEntity
  8
MO_001_VIEW_PV
  6
C_SOLID_M
100
AcDbVertex
100
AcDb2dVertex
 10
3.014450999999999
 20
4.324089999999999
 30
0.0
  0
VERTEX
  5
358
330
1A2
100
AcDbEntity
  8
MO_001_VIEW_PV
  6
C_SOLID_M
100
AcDbVertex
100
AcDb2dVertex
 10
3.051363
 20
4.391056999999999
 30
0.0
  0
VERTEX
  5
359
330
1A2
100
AcDbEntity
  8
MO_001_VIEW_PV
  6
C_SOLID_M
100
AcDbVertex
100
AcDb2dVertex
 10
3.087717
 20
4.498616999999999
 30
0.0
  0
VERTEX
  5
35A
330
1A2
100
AcDbEntity
  8
MO_001_VIEW_PV
  6
C_SOLID_M
100
AcDbVertex
100
AcDb2dVertex
 10
3.100001999999999
 20
4.610770999999999
 30
0.0
  0
SEQEND
  5
35B
330
1A2
100
AcDbEntity
  8
MO_001_VIEW_PV
  6
C_SOLID_M
  0
LINE
  5
1AF
330
1E
100
AcDbEntity
  8
MO_001_VIEW_PV
  6
C_SOLID_M
100
AcDbLine
 10
3.100001999999999
 20
4.610770999999999
 30
0.0
 11
3.100001999999999
 21
4.902930999999999
 31
0.0
  0
POLYLINE
  5
1B0
330
1E
100
AcDbEntity
  8
MO_001_VIEW_PV
  6
C_SOLID_M
100
AcDb2dPolyline
 66
     1
 10
0.0
 20
0.0
 30
0.0
  0
VERTEX
  5
35C
330
1B0
100
AcDbEntity
  8
MO_001_VIEW_PV
  6
C_SOLID_M
100
AcDbVertex
100
AcDb2dVertex
 10
2.293572999999999
 20
10.463397
 30
0.0
  0
VERTEX
  5
35D
330
1B0
100
AcDbEntity
  8
MO_001_VIEW_PV
  6
C_SOLID_M
100
AcDbVertex
100
AcDb2dVertex
 10
2.442327999999999
 20
10.450985
 30
0.0
  0
VERTEX
  5
35E
330
1B0
100
AcDbEntity
  8
MO_001_VIEW_PV
  6
C_SOLID_M
100
AcDbVertex
100
AcDb2dVertex
 10
2.669363999999999
 20
10.458913
 30
0.0
  0
VERTEX
  5
35F
330
1B0
100
AcDbEntity
  8
MO_001_VIEW_PV
  6
C_SOLID_M
100
AcDbVertex
100
AcDb2dVertex
 10
2.775672
 20
10.474561
 30
0.0
  0
VERTEX
  5
360
330
1B0
100
AcDbEntity
  8
MO_001_VIEW_PV
  6
C_SOLID_M
100
AcDbVertex
100
AcDb2dVertex
 10
2.871929999999999
 20
10.49733299999999
 30
0.0
  0
VERTEX
  5
361
330
1B0
100
AcDbEntity
  8
MO_001_VIEW_PV
  6
C_SOLID_M
100
AcDbVertex
100
AcDb2dVertex
 10
2.978649
 20
10.537308
 30
0.0
  0
VERTEX
  5
362
330
1B0
100
AcDbEntity
  8
MO_001_VIEW_PV
  6
C_SOLID_M
100
AcDbVertex
100
AcDb2dVertex
 10
3.038684999999999
 20
10.57308099999999
 30
0.0
  0
VERTEX
  5
363
330
1B0
100
AcDbEntity
  8
MO_001_VIEW_PV
  6
C_SOLID_M
100
AcDbVertex
100
AcDb2dVertex
 10
3.07092
 20
10.602305
 30
0.0
  0
VERTEX
  5
364
330
1B0
100
AcDbEntity
  8
MO_001_VIEW_PV
  6
C_SOLID_M
100
AcDbVertex
100
AcDb2dVertex
 10
3.097151999999999
 20
10.64855
 30
0.0
  0
VERTEX
  5
365
330
1B0
100
AcDbEntity
  8
MO_001_VIEW_PV
  6
C_SOLID_M
100
AcDbVertex
100
AcDb2dVertex
 10
3.095857
 20
10.695783
 30
0.0
  0
SEQEND
  5
366
330
1B0
100
AcDbEntity
  8
MO_001_VIEW_PV
  6
C_SOLID_M
  0
POLYLINE
  5
1BC
330
1E
100
AcDbEntity
  8
MO_001_VIEW_PV
  6
C_SOLID_M
100
AcDb2dPolyline
 66
     1
 10
0.0
 20
0.0
 30
0.0
  0
VERTEX
  5
367
330
1BC
100
AcDbEntity
  8
MO_001_VIEW_PV
  6
C_SOLID_M
100
AcDbVertex
100
AcDb2dVertex
 10
3.095857
 20
11.418597
 30
0.0
  0
VERTEX
  5
368
330
1BC
100
AcDbEntity
  8
MO_001_VIEW_PV
  6
C_SOLID_M
100
AcDbVertex
100
AcDb2dVertex
 10
3.05235
 20
11.23820599999999
 30
0.0
  0
VERTEX
  5
369
330
1BC
100
AcDbEntity
  8
MO_001_VIEW_PV
  6
C_SOLID_M
100
AcDbVertex
100
AcDb2dVertex
 10
3.03783
 20
11.057189
 30
0.0
  0
VERTEX
  5
36A
330
1BC
100
AcDbEntity
  8
MO_001_VIEW_PV
  6
C_SOLID_M
100
AcDbVertex
100
AcDb2dVertex
 10
3.05235
 20
10.876173
 30
0.0
  0
VERTEX
  5
36B
330
1BC
100
AcDbEntity
  8
MO_001_VIEW_PV
  6
C_SOLID_M
100
AcDbVertex
100
AcDb2dVertex
 10
3.095858
 20
10.695782
 30
0.0
  0
SEQEND
  5
36C
330
1BC
100
AcDbEntity
  8
MO_001_VIEW_PV
  6
C_SOLID_M
  0
POLYLINE
  5
1C3
330
1E
100
AcDbEntity
  8
MO_001_VIEW_PV
  6
C_SOLID_M
100
AcDb2dPolyline
 66
     1
 10
0.0
 20
0.0
 30
0.0
  0
VERTEX
  5
36D
330
1C3
100
AcDbEntity
  8
MO_001_VIEW_PV
  6
C_SOLID_M
100
AcDbVertex
100
AcDb2dVertex
 10
3.095857
 20
11.418597
 30
0.0
  0
VERTEX
  5
36E
330
1C3
100
AcDbEntity
  8
MO_001_VIEW_PV
  6
C_SOLID_M
100
AcDbVertex
100
AcDb2dVertex
 10
3.094352
 20
11.474533
 30
0.0
  0
VERTEX
  5
36F
330
1C3
100
AcDbEntity
  8
MO_001_VIEW_PV
  6
C_SOLID_M
100
AcDbVertex
100
AcDb2dVertex
 10
3.067906999999999
 20
11.515402
 30
0.0
  0
VERTEX
  5
370
330
1C3
100
AcDbEntity
  8
MO_001_VIEW_PV
  6
C_SOLID_M
100
AcDbVertex
100
AcDb2dVertex
 10
3.034406
 20
11.54443399999999
 30
0.0
  0
VERTEX
  5
371
330
1C3
100
AcDbEntity
  8
MO_001_VIEW_PV
  6
C_SOLID_M
100
AcDbVertex
100
AcDb2dVertex
 10
2.96386
 20
11.583957
 30
0.0
  0
VERTEX
  5
372
330
1C3
100
AcDbEntity
  8
MO_001_VIEW_PV
  6
C_SOLID_M
100
AcDbVertex
100
AcDb2dVertex
 10
2.871929999999999
 20
11.617047
 30
0.0
  0
VERTEX
  5
373
330
1C3
100
AcDbEntity
  8
MO_001_VIEW_PV
  6
C_SOLID_M
100
AcDbVertex
100
AcDb2dVertex
 10
2.741165999999999
 20
11.64586
 30
0.0
  0
VERTEX
  5
374
330
1C3
100
AcDbEntity
  8
MO_001_VIEW_PV
  6
C_SOLID_M
100
AcDbVertex
100
AcDb2dVertex
 10
2.518720999999999
 20
11.66430599999999
 30
0.0
  0
VERTEX
  5
375
330
1C3
100
AcDbEntity
  8
MO_001_VIEW_PV
  6
C_SOLID_M
100
AcDbVertex
100
AcDb2dVertex
 10
2.293572
 20
11.650982
 30
0.0
  0
SEQEND
  5
376
330
1C3
100
AcDbEntity
  8
MO_001_VIEW_PV
  6
C_SOLID_M
  0
POLYLINE
  5
1CE
330
1E
100
AcDbEntity
  8
MO_001_VIEW_PV
  6
C_SOLID_M
100
AcDb2dPolyline
 66
     1
 10
0.0
 20
0.0
 30
0.0
  0
VERTEX
  5
377
330
1CE
100
AcDbEntity
  8
MO_001_VIEW_PV
  6
C_SOLID_M
100
AcDbVertex
100
AcDb2dVertex
 10
0.000001
 20
11.863036
 30
0.0
  0
VERTEX
  5
378
330
1CE
100
AcDbEntity
  8
MO_001_VIEW_PV
  6
C_SOLID_M
100
AcDbVertex
100
AcDb2dVertex
 10
0.225167
 20
11.782906
 30
0.0
  0
VERTEX
  5
379
330
1CE
100
AcDbEntity
  8
MO_001_VIEW_PV
  6
C_SOLID_M
100
AcDbVertex
100
AcDb2dVertex
 10
0.414061
 20
11.73138099999999
 30
0.0
  0
VERTEX
  5
37A
330
1CE
100
AcDbEntity
  8
MO_001_VIEW_PV
  6
C_SOLID_M
100
AcDbVertex
100
AcDb2dVertex
 10
0.7238760000000001
 20
11.669413
 30
0.0
  0
VERTEX
  5
37B
330
1CE
100
AcDbEntity
  8
MO_001_VIEW_PV
  6
C_SOLID_M
100
AcDbVertex
100
AcDb2dVertex
 10
1.057617
 20
11.627343
 30
0.0
  0
VERTEX
  5
37C
330
1CE
100
AcDbEntity
  8
MO_001_VIEW_PV
  6
C_SOLID_M
100
AcDbVertex
100
AcDb2dVertex
 10
1.366753
 20
11.60762599999999
 30
0.0
  0
VERTEX
  5
37D
330
1CE
100
AcDbEntity
  8
MO_001_VIEW_PV
  6
C_SOLID_M
100
AcDbVertex
100
AcDb2dVertex
 10
1.836819
 20
11.610164
 30
0.0
  0
VERTEX
  5
37E
330
1CE
100
AcDbEntity
  8
MO_001_VIEW_PV
  6
C_SOLID_M
100
AcDbVertex
100
AcDb2dVertex
 10
2.068318
 20
11.62587199999999
 30
0.0
  0
VERTEX
  5
37F
330
1CE
100
AcDbEntity
  8
MO_001_VIEW_PV
  6
C_SOLID_M
100
AcDbVertex
100
AcDb2dVertex
 10
2.293566999999999
 20
11.650982
 30
0.0
  0
SEQEND
  5
380
330
1CE
100
AcDbEntity
  8
MO_001_VIEW_PV
  6
C_SOLID_M
  0
POLYLINE
  5
1D9
330
1E
100
AcDbEntity
  8
MO_001_VIEW_PV
  6
C_SOLID_M
100
AcDb2dPolyline
 66
     1
 10
0.0
 20
0.0
 30
0.0
  0
VERTEX
  5
381
330
1D9
100
AcDbEntity
  8
MO_001_VIEW_PV
  6
C_SOLID_M
100
AcDbVertex
100
AcDb2dVertex
 10
2.293568
 20
10.463397
 30
0.0
  0
VERTEX
  5
382
330
1D9
100
AcDbEntity
  8
MO_001_VIEW_PV
  6
C_SOLID_M
100
AcDbVertex
100
AcDb2dVertex
 10
1.991704999999999
 20
10.49479999999999
 30
0.0
  0
VERTEX
  5
383
330
1D9
100
AcDbEntity
  8
MO_001_VIEW_PV
  6
C_SOLID_M
100
AcDbVertex
100
AcDb2dVertex
 10
1.523468999999999
 20
10.51020899999999
 30
0.0
  0
VERTEX
  5
384
330
1D9
100
AcDbEntity
  8
MO_001_VIEW_PV
  6
C_SOLID_M
100
AcDbVertex
100
AcDb2dVertex
 10
1.288769
 20
10.50341799999999
 30
0.0
  0
VERTEX
  5
385
330
1D9
100
AcDbEntity
  8
MO_001_VIEW_PV
  6
C_SOLID_M
100
AcDbVertex
100
AcDb2dVertex
 10
1.057617999999999
 20
10.48703699999999
 30
0.0
  0
VERTEX
  5
386
330
1D9
100
AcDbEntity
  8
MO_001_VIEW_PV
  6
C_SOLID_M
100
AcDbVertex
100
AcDb2dVertex
 10
0.759945
 20
10.45065099999999
 30
0.0
  0
VERTEX
  5
387
330
1D9
100
AcDbEntity
  8
MO_001_VIEW_PV
  6
C_SOLID_M
100
AcDbVertex
100
AcDb2dVertex
 10
0.548225
 20
10.412897
 30
0.0
  0
VERTEX
  5
388
330
1D9
100
AcDbEntity
  8
MO_001_VIEW_PV
  6
C_SOLID_M
100
AcDbVertex
100
AcDb2dVertex
 10
0.255536
 20
10.340596
 30
0.0
  0
VERTEX
  5
389
330
1D9
100
AcDbEntity
  8
MO_001_VIEW_PV
  6
C_SOLID_M
100
AcDbVertex
100
AcDb2dVertex
 10
0.122646
 20
10.29794199999999
 30
0.0
  0
VERTEX
  5
38A
330
1D9
100
AcDbEntity
  8
MO_001_VIEW_PV
  6
C_SOLID_M
100
AcDbVertex
100
AcDb2dVertex
 10
0.000001
 20
10.251344
 30
0.0
  0
SEQEND
  5
38B
330
1D9
100
AcDbEntity
  8
MO_001_VIEW_PV
  6
C_SOLID_M
  0
POLYLINE
  5
1E5
330
1E
100
AcDbEntity
  8
MO_001_VIEW_PV
  6
C_SOLID_M
100
AcDb2dPolyline
 66
     1
 10
0.0
 20
0.0
 30
0.0
  0
VERTEX
  5
38C
330
1E5
100
AcDbEntity
  8
MO_001_VIEW_PV
  6
C_SOLID_M
100
AcDbVertex
100
AcDb2dVertex
 10
2.293568
 20
9.760882999999999
 30
0.0
  0
VERTEX
  5
38D
330
1E5
100
AcDbEntity
  8
MO_001_VIEW_PV
  6
C_SOLID_M
100
AcDbVertex
100
AcDb2dVertex
 10
1.991704999999999
 20
9.792286
 30
0.0
  0
VERTEX
  5
38E
330
1E5
100
AcDbEntity
  8
MO_001_VIEW_PV
  6
C_SOLID_M
100
AcDbVertex
100
AcDb2dVertex
 10
1.523468999999999
 20
9.807693999999999
 30
0.0
  0
VERTEX
  5
38F
330
1E5
100
AcDbEntity
  8
MO_001_VIEW_PV
  6
C_SOLID_M
100
AcDbVertex
100
AcDb2dVertex
 10
1.288769
 20
9.800902999999999
 30
0.0
  0
VERTEX
  5
390
330
1E5
100
AcDbEntity
  8
MO_001_VIEW_PV
  6
C_SOLID_M
100
AcDbVertex
100
AcDb2dVertex
 10
1.057617999999999
 20
9.784522
 30
0.0
  0
VERTEX
  5
391
330
1E5
100
AcDbEntity
  8
MO_001_VIEW_PV
  6
C_SOLID_M
100
AcDbVertex
100
AcDb2dVertex
 10
0.759945
 20
9.748136
 30
0.0
  0
VERTEX
  5
392
330
1E5
100
AcDbEntity
  8
MO_001_VIEW_PV
  6
C_SOLID_M
100
AcDbVertex
100
AcDb2dVertex
 10
0.548225
 20
9.710383
 30
0.0
  0
VERTEX
  5
393
330
1E5
100
AcDbEntity
  8
MO_001_VIEW_PV
  6
C_SOLID_M
100
AcDbVertex
100
AcDb2dVertex
 10
0.255536
 20
9.638082
 30
0.0
  0
VERTEX
  5
394
330
1E5
100
AcDbEntity
  8
MO_001_VIEW_PV
  6
C_SOLID_M
100
AcDbVertex
100
AcDb2dVertex
 10
0.122646
 20
9.595428
 30
0.0
  0
VERTEX
  5
395
330
1E5
100
AcDbEntity
  8
MO_001_VIEW_PV
  6
C_SOLID_M
100
AcDbVertex
100
AcDb2dVertex
 10
0.000001
 20
9.54883
 30
0.0
  0
SEQEND
  5
396
330
1E5
100
AcDbEntity
  8
MO_001_VIEW_PV
  6
C_SOLID_M
  0
POLYLINE
  5
1F1
330
1E
100
AcDbEntity
  8
MO_001_VIEW_PV
  6
C_SOLID_M
100
AcDb2dPolyline
 66
     1
 10
0.0
 20
0.0
 30
0.0
  0
VERTEX
  5
397
330
1F1
100
AcDbEntity
  8
MO_001_VIEW_PV
  6
C_SOLID_M
100
AcDbVertex
100
AcDb2dVertex
 10
2.293572999999999
 20
9.760882999999999
 30
0.0
  0
VERTEX
  5
398
330
1F1
100
AcDbEntity
  8
MO_001_VIEW_PV
  6
C_SOLID_M
100
AcDbVertex
100
AcDb2dVertex
 10
2.433555
 20
9.748805
 30
0.0
  0
VERTEX
  5
399
330
1F1
100
AcDbEntity
  8
MO_001_VIEW_PV
  6
C_SOLID_M
100
AcDbVertex
100
AcDb2dVertex
 10
2.648099
 20
9.754258999999999
 30
0.0
  0
VERTEX
  5
39A
330
1F1
100
AcDbEntity
  8
MO_001_VIEW_PV
  6
C_SOLID_M
100
AcDbVertex
100
AcDb2dVertex
 10
2.749903999999999
 20
9.767441999999999
 30
0.0
  0
VERTEX
  5
39B
330
1F1
100
AcDbEntity
  8
MO_001_VIEW_PV
  6
C_SOLID_M
100
AcDbVertex
100
AcDb2dVertex
 10
2.843616999999999
 20
9.787102
 30
0.0
  0
VERTEX
  5
39C
330
1F1
100
AcDbEntity
  8
MO_001_VIEW_PV
  6
C_SOLID_M
100
AcDbVertex
100
AcDb2dVertex
 10
2.950784999999999
 20
9.822262
 30
0.0
  0
VERTEX
  5
39D
330
1F1
100
AcDbEntity
  8
MO_001_VIEW_PV
  6
C_SOLID_M
100
AcDbVertex
100
AcDb2dVertex
 10
3.014451999999999
 20
9.854235
 30
0.0
  0
VERTEX
  5
39E
330
1F1
100
AcDbEntity
  8
MO_001_VIEW_PV
  6
C_SOLID_M
100
AcDbVertex
100
AcDb2dVertex
 10
3.051363
 20
9.880682
 30
0.0
  0
VERTEX
  5
39F
330
1F1
100
AcDbEntity
  8
MO_001_VIEW_PV
  6
C_SOLID_M
100
AcDbVertex
100
AcDb2dVertex
 10
3.087717
 20
9.923161
 30
0.0
  0
VERTEX
  5
3A0
330
1F1
100
AcDbEntity
  8
MO_001_VIEW_PV
  6
C_SOLID_M
100
AcDbVertex
100
AcDb2dVertex
 10
3.100001999999999
 20
9.967452999999999
 30
0.0
  0
SEQEND
  5
3A1
330
1F1
100
AcDbEntity
  8
MO_001_VIEW_PV
  6
C_SOLID_M
  0
LINE
  5
1FD
330
1E
100
AcDbEntity
  8
MO_001_VIEW_PV
  6
C_SOLID_M
100
AcDbLine
 10
3.100001999999999
 20
9.967452999999999
 30
0.0
 11
3.100001999999999
 21
10.66996799999999
 31
0.0
  0
LINE
  5
1FE
330
1E
100
AcDbEntity
  8
MO_001_VIEW_PV
  6
C_SOLID_M
100
AcDbLine
 10
3.200000999999999
 20
11.09999799999999
 30
0.0
 11
3.200000999999999
 21
-11.09999799999999
 31
0.0
  0
LINE
  5
1FF
330
1E
100
AcDbEntity
  8
MO_001_VIEW_PV
  6
C_SOLID_M
100
AcDbLine
 10
3.100001999999999
 20
-11.09999799999999
 30
0.0
 11
3.200000999999999
 21
-11.09999799999999
 31
0.0
  0
LINE
  5
200
330
1E
100
AcDbEntity
  8
MO_001_VIEW_PV
  6
C_SOLID_M
100
AcDbLine
 10
3.038641999999999
 20
11.09999799999999
 30
0.0
 11
3.200000999999999
 21
11.09999799999999
 31
0.0
  0
LINE
  5
201
330
1E
100
AcDbEntity
  8
MO_001_VIEW_PV
  6
C_SOLID_M
100
AcDbLine
 10
5.193001
 20
-4.720000999999999
 30
0.0
 11
5.193001
 21
5.080001999999999
 31
0.0
  0
LINE
  5
202
330
1E
100
AcDbEntity
  8
MO_001_VIEW_PV
  6
C_SOLID_M
100
AcDbLine
 10
4.572319999999999
 20
-5.080001999999999
 30
0.0
 11
5.060445999999999
 21
-5.080001999999999
 31
0.0
  0
LINE
  5
203
330
1E
100
AcDbEntity
  8
MO_001_VIEW_PV
  6
C_SOLID_M
100
AcDbLine
 10
4.844312999999999
 20
5.080001999999999
 30
0.0
 11
5.193001
 21
5.080001999999999
 31
0.0
  0
LINE
  5
204
330
1E
100
AcDbEntity
  8
MO_001_VIEW_PV
  6
C_SOLID_M
100
AcDbLine
 10
3.200000999999999
 20
9.248001
 30
0.0
 11
3.432555999999999
 21
9.248001
 31
0.0
  0
LINE
  5
205
330
1E
100
AcDbEntity
  8
MO_001_VIEW_PV
  6
C_SOLID_M
100
AcDbLine
 10
3.200000999999999
 20
-9.054999999999999
 30
0.0
 11
3.665112
 21
-9.054999999999999
 31
0.0
  0
LINE
  5
206
330
1E
100
AcDbEntity
  8
MO_001_VIEW_PV
  6
C_SOLID_M
100
AcDbLine
 10
3.648276999999999
 20
-7.730002999999999
 30
0.0
 11
4.130222999999999
 21
-7.730002999999999
 31
0.0
  0
LINE
  5
207
330
1E
100
AcDbEntity
  8
MO_001_VIEW_PV
  6
C_SOLID_M
100
AcDbLine
 10
4.110776999999999
 20
-6.404999
 30
0.0
 11
4.595334999999999
 21
-6.404999
 31
0.0
  0
LINE
  5
208
330
1E
100
AcDbEntity
  8
MO_001_VIEW_PV
  6
C_SOLID_M
100
AcDbLine
 10
3.446938999999999
 20
8.115997
 30
0.0
 11
3.897666999999999
 21
8.115997
 31
0.0
  0
LINE
  5
209
330
1E
100
AcDbEntity
  8
MO_001_VIEW_PV
  6
C_SOLID_M
100
AcDbLine
 10
3.914280999999999
 20
6.984000999999999
 30
0.0
 11
4.362778999999999
 21
6.984000999999999
 31
0.0
  0
LINE
  5
20A
330
1E
100
AcDbEntity
  8
MO_001_VIEW_PV
  6
C_SOLID_M
100
AcDbLine
 10
4.382441
 20
5.851996999999999
 30
0.0
 11
4.82789
 21
5.851996999999999
 31
0.0
  0
LINE
  5
20B
330
1E
100
AcDbEntity
  8
MO_001_VIEW_PV
  6
C_SOLID_M
100
AcDbLine
 10
3.432555999999999
 20
9.248008
 30
0.0
 11
3.665112
 21
-9.055003999999998
 31
0.0
  0
LINE
  5
20C
330
1E
100
AcDbEntity
  8
MO_001_VIEW_PV
  6
C_SOLID_M
100
AcDbLine
 10
4.130222999999999
 20
-7.729997999999999
 30
0.0
 11
3.897667999999999
 21
8.116006
 31
0.0
  0
LINE
  5
20D
330
1E
100
AcDbEntity
  8
MO_001_VIEW_PV
  6
C_SOLID_M
100
AcDbLine
 10
4.362779999999999
 20
6.983999
 30
0.0
 11
4.595334999999999
 21
-6.405002999999999
 31
0.0
  0
LINE
  5
20E
330
1E
100
AcDbEntity
  8
MO_001_VIEW_PV
  6
C_SOLID_M
100
AcDbLine
 10
5.060444999999999
 20
-5.080002999999999
 30
0.0
 11
4.82789
 21
5.851994
 31
0.0
  0
LINE
  5
20F
330
1E
100
AcDbEntity
  8
MO_001_VIEW_PV
  6
C_SOLID_M
100
AcDbLine
 10
5.052787999999999
 20
-4.720000999999999
 30
0.0
 11
5.193001
 21
-4.720000999999999
 31
0.0
  0
LINE
  5
210
330
1E
100
AcDbEntity
  8
MO_001_VIEW_PV
  6
C_SOLID_M
100
AcDbLine
 10
63.75
 20
-35.749939
 30
0.0
 11
61.14999399999999
 21
-35.749939
 31
0.0
  0
LINE
  5
211
330
1E
100
AcDbEntity
  8
MO_001_VIEW_PV
  6
C_SOLID_M
100
AcDbLine
 10
61.64999399999999
 20
-40.749939
 30
0.0
 11
61.64999399999999
 21
-35.749939
 31
0.0
  0
LINE
  5
212
330
1E
100
AcDbEntity
  8
MO_001_VIEW_PV
  6
C_SOLID_M
100
AcDbLine
 10
63.24998499999999
 20
-40.749939
 30
0.0
 11
63.24998499999999
 21
-35.749939
 31
0.0
  0
LINE
  5
213
330
1E
100
AcDbEntity
  8
MO_001_VIEW_PV
  6
C_SOLID_M
100
AcDbLine
 10
63.24998499999999
 20
-45.24993900000001
 30
0.0
 11
63.24998499999999
 21
-41.749939
 31
0.0
  0
LINE
  5
214
330
1E
100
AcDbEntity
  8
MO_001_VIEW_PV
  6
C_SOLID_M
100
AcDbLine
 10
61.64999399999999
 20
-45.24993900000001
 30
0.0
 11
61.64999399999999
 21
-41.749939
 31
0.0
  0
LINE
  5
215
330
1E
100
AcDbEntity
  8
MO_001_VIEW_PV
  6
C_SOLID_M
100
AcDbLine
 10
61.64999399999999
 20
-45.24993900000001
 30
0.0
 11
63.24998499999999
 21
-45.24993900000001
 31
0.0
  0
LINE
  5
216
330
1E
100
AcDbEntity
  8
MO_001_VIEW_PV
  6
C_SOLID_M
100
AcDbLine
 10
62.723969
 20
-45.24993900000001
 30
0.0
 11
62.723969
 21
-50.24993900000001
 31
0.0
  0
LINE
  5
217
330
1E
100
AcDbEntity
  8
MO_001_VIEW_PV
  6
C_SOLID_M
100
AcDbLine
 10
62.17601
 20
-45.24993900000001
 30
0.0
 11
62.17601
 21
-50.24993900000001
 31
0.0
  0
LINE
  5
218
330
1E
100
AcDbEntity
  8
MO_001_VIEW_PV
  6
C_SOLID_M
100
AcDbLine
 10
62.17601
 20
-50.24993900000001
 30
0.0
 11
62.723969
 21
-50.24993900000001
 31
0.0
  0
ARC
  5
219
330
1E
100
AcDbEntity
  8
MO_001_VIEW_PV
  6
C_SOLID_M
100
AcDbCircle
 10
62.049988
 20
-41.049934
 30
0.0
 40
0.499994
100
AcDbArc
 50
36.869634
 51
143.1303709999999
  0
ARC
  5
21A
330
1E
100
AcDbEntity
  8
MO_001_VIEW_PV
  6
C_SOLID_M
100
AcDbCircle
 10
62.049988
 20
-40.449944
 30
0.0
 40
0.499994
100
AcDbArc
 50
216.869629
 51
323.1303759999999
  0
ARC
  5
21B
330
1E
100
AcDbEntity
  8
MO_001_VIEW_PV
  6
C_SOLID_M
100
AcDbCircle
 10
62.849991
 20
-40.449944
 30
0.0
 40
0.499994
100
AcDbArc
 50
216.869629
 51
323.1303689999999
  0
ARC
  5
21C
330
1E
100
AcDbEntity
  8
MO_001_VIEW_PV
  6
C_SOLID_M
100
AcDbCircle
 10
62.849991
 20
-41.449944
 30
0.0
 40
0.499994
100
AcDbArc
 50
216.869643
 51
323.1303759999999
  0
ARC
  5
21D
330
1E
100
AcDbEntity
  8
MO_001_VIEW_PV
  6
C_SOLID_M
100
AcDbCircle
 10
62.849991
 20
-42.049934
 30
0.0
 40
0.499994
100
AcDbArc
 50
36.86963099999999
 51
143.1303709999999
  0
ARC
  5
21E
330
1E
100
AcDbEntity
  8
MO_001_VIEW_PV
  6
C_SOLID_M
100
AcDbCircle
 10
62.049988
 20
-42.049934
 30
0.0
 40
0.499994
100
AcDbArc
 50
36.86963099999999
 51
143.1303709999999
  0
LINE
  5
21F
330
1E
100
AcDbEntity
  8
MO_001_VIEW_PV
  6
C_SOLID_M
100
AcDbLine
 10
82.85000600000001
 20
-35.749939
 30
0.0
 11
80.25
 21
-35.749939
 31
0.0
  0
LINE
  5
220
330
1E
100
AcDbEntity
  8
MO_001_VIEW_PV
  6
C_SOLID_M
100
AcDbLine
 10
80.75000000000001
 20
-40.749939
 30
0.0
 11
80.75000000000001
 21
-35.749939
 31
0.0
  0
LINE
  5
221
330
1E
100
AcDbEntity
  8
MO_001_VIEW_PV
  6
C_SOLID_M
100
AcDbLine
 10
82.34999100000001
 20
-40.749939
 30
0.0
 11
82.34999100000001
 21
-35.749939
 31
0.0
  0
LINE
  5
222
330
1E
100
AcDbEntity
  8
MO_001_VIEW_PV
  6
C_SOLID_M
100
AcDbLine
 10
82.34999100000001
 20
-45.24993900000001
 30
0.0
 11
82.34999100000001
 21
-41.749939
 31
0.0
  0
LINE
  5
223
330
1E
100
AcDbEntity
  8
MO_001_VIEW_PV
  6
C_SOLID_M
100
AcDbLine
 10
80.75000000000001
 20
-45.24993900000001
 30
0.0
 11
80.75000000000001
 21
-41.749939
 31
0.0
  0
LINE
  5
224
330
1E
100
AcDbEntity
  8
MO_001_VIEW_PV
  6
C_SOLID_M
100
AcDbLine
 10
80.75000000000001
 20
-45.24993900000001
 30
0.0
 11
82.34999100000001
 21
-45.24993900000001
 31
0.0
  0
LINE
  5
225
330
1E
100
AcDbEntity
  8
MO_001_VIEW_PV
  6
C_SOLID_M
100
AcDbLine
 10
81.823975
 20
-45.24993900000001
 30
0.0
 11
81.823975
 21
-50.24993900000001
 31
0.0
  0
LINE
  5
226
330
1E
100
AcDbEntity
  8
MO_001_VIEW_PV
  6
C_SOLID_M
100
AcDbLine
 10
81.276016
 20
-45.24993900000001
 30
0.0
 11
81.276016
 21
-50.24993900000001
 31
0.0
  0
LINE
  5
227
330
1E
100
AcDbEntity
  8
MO_001_VIEW_PV
  6
C_SOLID_M
100
AcDbLine
 10
81.276016
 20
-50.24993900000001
 30
0.0
 11
81.823975
 21
-50.24993900000001
 31
0.0
  0
ARC
  5
228
330
1E
100
AcDbEntity
  8
MO_001_VIEW_PV
  6
C_SOLID_M
100
AcDbCircle
 10
81.149994
 20
-41.049934
 30
0.0
 40
0.499994
100
AcDbArc
 50
36.869634
 51
143.1303709999999
  0
ARC
  5
229
330
1E
100
AcDbEntity
  8
MO_001_VIEW_PV
  6
C_SOLID_M
100
AcDbCircle
 10
81.149994
 20
-40.449944
 30
0.0
 40
0.499994
100
AcDbArc
 50
216.869629
 51
323.1303759999999
  0
ARC
  5
22A
330
1E
100
AcDbEntity
  8
MO_001_VIEW_PV
  6
C_SOLID_M
100
AcDbCircle
 10
81.949997
 20
-40.449944
 30
0.0
 40
0.499994
100
AcDbArc
 50
216.869629
 51
323.1303689999999
  0
ARC
  5
22B
330
1E
100
AcDbEntity
  8
MO_001_VIEW_PV
  6
C_SOLID_M
100
AcDbCircle
 10
81.949997
 20
-41.449944
 30
0.0
 40
0.499994
100
AcDbArc
 50
216.869643
 51
323.1303759999999
  0
ARC
  5
22C
330
1E
100
AcDbEntity
  8
MO_001_VIEW_PV
  6
C_SOLID_M
100
AcDbCircle
 10
81.949997
 20
-42.049934
 30
0.0
 40
0.499994
100
AcDbArc
 50
36.86963099999999
 51
143.1303709999999
  0
ARC
  5
22D
330
1E
100
AcDbEntity
  8
MO_001_VIEW_PV
  6
C_SOLID_M
100
AcDbCircle
 10
81.149994
 20
-42.049934
 30
0.0
 40
0.499994
100
AcDbArc
 50
36.86963099999999
 51
143.1303709999999
  0
LINE
  5
22E
330
1E
100
AcDbEntity
  8
MO_001_VIEW_PV
  6
C_SOLID_M
100
AcDbLine
 10
61.14999399999999
 20
-35.749939
 30
0.0
 11
61.14999399999999
 21
-26.79809
 31
0.0
  0
LINE
  5
22F
330
1E
100
AcDbEntity
  8
MO_001_VIEW_PV
  6
C_SOLID_M
100
AcDbLine
 10
63.75
 20
-35.749939
 30
0.0
 11
63.75
 21
-27.50159299999999
 31
0.0
  0
LINE
  5
230
330
1E
100
AcDbEntity
  8
MO_001_VIEW_PV
  6
C_SOLID_M
100
AcDbLine
 10
80.25
 20
-35.749939
 30
0.0
 11
80.25
 21
-27.50159299999999
 31
0.0
  0
LINE
  5
231
330
1E
100
AcDbEntity
  8
MO_001_VIEW_PV
  6
C_SOLID_M
100
AcDbLine
 10
82.85000600000001
 20
-35.749939
 30
0.0
 11
82.85000600000001
 21
-26.79809
 31
0.0
  0
ARC
  5
232
330
1E
100
AcDbEntity
  8
MO_001_VIEW_PV
  6
C_SOLID_M
100
AcDbCircle
 10
-21.4
 20
-23.0
 30
0.0
 40
5.799999999999999
100
AcDbArc
 50
180.000009
 51
218.0784769999999
  0
LINE
  5
233
330
1E
100
AcDbEntity
  8
MO_001_VIEW_PV
  6
C_SOLID_M
100
AcDbLine
 10
-30.844651
 20
-35.133128
 30
0.0
 11
-32.683128
 21
-33.294651
 31
0.0
  0
LINE
  5
234
330
1E
100
AcDbEntity
  8
MO_001_VIEW_PV
  6
C_SOLID_M
100
AcDbLine
 10
-35.865108
 20
-37.183738
 30
0.0
 11
-32.329574
 21
-33.648204
 31
0.0
  0
LINE
  5
235
330
1E
100
AcDbEntity
  8
MO_001_VIEW_PV
  6
C_SOLID_M
100
AcDbLine
 10
-34.733738
 20
-38.315108
 30
0.0
 11
-31.19820499999999
 21
-34.77957399999999
 31
0.0
  0
ARC
  5
236
330
1E
100
AcDbEntity
  8
MO_001_VIEW_PV
  6
C_SOLID_M
100
AcDbCircle
 10
-35.794403
 20
-37.678719
 30
0.0
 40
0.499994
100
AcDbArc
 50
351.869635
 51
98.13037299999999
  0
ARC
  5
237
330
1E
100
AcDbEntity
  8
MO_001_VIEW_PV
  6
C_SOLID_M
100
AcDbCircle
 10
-35.37014
 20
-37.254463
 30
0.0
 40
0.499994
100
AcDbArc
 50
171.869621
 51
278.130385
  0
ARC
  5
238
330
1E
100
AcDbEntity
  8
MO_001_VIEW_PV
  6
C_SOLID_M
100
AcDbCircle
 10
-34.804459
 20
-37.820137
 30
0.0
 40
0.499994
100
AcDbArc
 50
171.869621
 51
278.1303569999999
  0
LINE
  5
239
330
1E
100
AcDbEntity
  8
MO_001_VIEW_PV
  6
C_SOLID_M
100
AcDbLine
 10
-32.683128
 20
-33.294651
 30
0.0
 11
-25.36054599999999
 21
-25.97207
 31
0.0
  0
LINE
  5
23A
330
1E
100
AcDbEntity
  8
MO_001_VIEW_PV
  6
C_SOLID_M
100
AcDbLine
 10
-30.844651
 20
-35.133128
 30
0.0
 11
-23.32540499999999
 21
-27.613882
 31
0.0
  0
ARC
  5
23B
330
1E
100
AcDbEntity
  8
MO_001_VIEW_PV
  6
C_SOLID_M
100
AcDbCircle
 10
-27.890974
 20
-31.19097899999999
 30
0.0
 40
5.799999999999999
100
AcDbArc
 50
25.88854599999999
 51
77.321013
  0
ARC
  5
23C
330
1E
100
AcDbEntity
  8
MO_001_VIEW_PV
  6
C_SOLID_M
100
AcDbCircle
 10
-21.4
 20
-23.0
 30
0.0
 40
5.799999999999999
100
AcDbArc
 50
244.1332309999999
 51
269.999998
  0
LINE
  5
23D
330
1E
100
AcDbEntity
  8
MO_001_VIEW_PV
  6
C_SOLID_L
100
AcDbLine
 10
-1.736642999999999
 20
-39.0
 30
0.0
 11
32.691189
 21
-39.0
 31
0.0
  0
TEXT
  5
23E
330
1E
100
AcDbEntity
  8
MO_001_VIEW_PV
  6
C_SOLID_L
100
AcDbText
 10
3.365064999999999
 20
-37.811771
 30
0.0
 40
3.0
  1
2-M5 P0.8
100
AcDbText
  0
TEXT
  5
23F
330
1E
100
AcDbEntity
  8
MO_001_VIEW_PV
  6
C_SOLID_L
100
AcDbText
 10
112.5
 20
-26.071429
 30
0.0
 40
3.0
  1
(UL1430 AWG20)
 50
90.0
100
AcDbText
  0
TEXT
  5
240
330
1E
100
AcDbEntity
  8
MO_001_VIEW_PV
  6
C_SOLID_L
100
AcDbText
 10
-25.488281
 20
-59.083594
 30
0.0
 40
4.167187
  1
6S X3・X4・X9付
100
AcDbText
  0
TEXT
  5
241
330
1E
100
AcDbEntity
  8
MO_001_VIEW_PV
  6
C_SOLID_L
100
AcDbText
 10
70.51171899999999
 20
-65.08359399999999
 30
0.0
 40
4.167187
  1
単位：mm
100
AcDbText
  0
TEXT
  5
242
330
1E
100
AcDbEntity
  8
MO_001_VIEW_PV
  6
C_SOLID_L
100
AcDbText
 10
70.51171899999999
 20
-71.33437499999999
 30
0.0
 40
4.167187
  1
無励磁時
100
AcDbText
  0
DIMENSION
  5
244
330
1E
100
AcDbEntity
  8
MO_001_VIEW_PV
  6
C_SOLID_M
100
AcDbDimension
  2
*D0
 10
-17.13266
 20
33.0
 30
0.0
 11
-17.13266
 21
33.0
 31
0.0
  3
STANDARD
100
AcDbAlignedDimension
 13
-29.00699799999999
 23
25.0
 33
0.0
 14
-31.906992
 24
25.0
 34
0.0
100
AcDbRotatedDimension
  0
DIMENSION
  5
246
330
1E
100
AcDbEntity
  8
MO_001_VIEW_PV
  6
C_SOLID_M
100
AcDbDimension
  2
*D1
 10
-44.65144
 20
33.0
 30
0.0
 11
-44.65144
 21
33.0
 31
0.0
  3
STANDARD
100
AcDbAlignedDimension
 13
-31.906992
 23
25.0
 33
0.0
 14
-34.077179
 24
12.90377799999999
 34
0.0
100
AcDbRotatedDimension
  0
DIMENSION
  5
248
330
1E
100
AcDbEntity
  8
MO_001_VIEW_PV
  6
C_SOLID_M
100
AcDbDimension
  2
*D2
 10
-17.038589
 20
39.0
 30
0.0
 11
-17.038589
 21
39.0
 31
0.0
  1
35以下
  3
STANDARD
100
AcDbAlignedDimension
 13
-34.077179
 23
12.90377799999999
 33
0.0
 14
0.0
 24
24.599998
 34
0.0
100
AcDbRotatedDimension
  0
DIMENSION
  5
24A
330
1E
100
AcDbEntity
  8
MO_001_VIEW_PV
  6
C_SOLID_M
100
AcDbDimension
  2
*D3
 10
27.520025
 20
39.0
 30
0.0
 11
27.520025
 21
39.0
 31
0.0
  3
STANDARD
100
AcDbAlignedDimension
 13
0.0
 23
24.599998
 33
0.0
 14
18.39999999999999
 24
19.949997
 34
0.0
100
AcDbRotatedDimension
  0
DIMENSION
  5
24C
330
1E
100
AcDbEntity
  8
MO_001_VIEW_PV
  6
C_SOLID_M
100
AcDbDimension
  2
*D4
 10
27.137739
 20
45.0
 30
0.0
 11
27.137739
 21
45.0
 31
0.0
  3
STANDARD
100
AcDbAlignedDimension
 13
0.0
 23
24.599998
 33
0.0
 14
17.293001
 24
3.669998
 34
0.0
100
AcDbRotatedDimension
  0
DIMENSION
  5
24E
330
1E
100
AcDbEntity
  8
MO_001_VIEW_PV
  6
C_SOLID_M
100
AcDbDimension
  2
*D5
 10
-24.003498
 20
45.0
 30
0.0
 11
-24.003498
 21
45.0
 31
0.0
  3
STANDARD
100
AcDbAlignedDimension
 13
-48.006996
 23
3.824408999999999
 33
0.0
 14
0.0
 24
24.599998
 34
0.0
100
AcDbRotatedDimension
  0
DIMENSION
  5
250
330
1E
100
AcDbEntity
  8
MO_001_VIEW_PV
  6
C_SOLID_M
100
AcDbDimension
  2
*D6
 10
27.0
 20
19.62260399999999
 30
0.0
 11
27.0
 21
19.62260399999999
 31
0.0
  3
STANDARD
100
AcDbAlignedDimension
 13
16.993002
 23
3.970001
 33
0.0
 14
16.993002
 24
-3.970001
 34
0.0
 50
89.999523
100
AcDbRotatedDimension
  0
DIMENSION
  5
252
330
1E
100
AcDbEntity
  8
MO_001_VIEW_PV
  6
C_SOLID_M
100
AcDbDimension
  2
*D7
 10
26.73626699999999
 20
-30.0
 30
0.0
 11
26.73626699999999
 21
-30.0
 31
0.0
  1
11.4以上
  3
STANDARD
100
AcDbAlignedDimension
 13
5.893000999999999
 23
2.769997
 33
0.0
 14
17.293001
 24
-3.669998
 34
0.0
100
AcDbRotatedDimension
  0
DIMENSION
  5
254
330
1E
100
AcDbEntity
  8
MO_001_VIEW_PV
  6
C_SOLID_M
100
AcDbDimension
  2
*D8
 10
39.0
 20
0.0
 30
0.0
 11
39.0
 21
0.0
 31
0.0
  3
STANDARD
100
AcDbAlignedDimension
 13
67.0
 23
18.25
 33
0.0
 14
67.0
 24
-18.25
 34
0.0
 50
89.999523
100
AcDbRotatedDimension
  0
DIMENSION
  5
256
330
1E
100
AcDbEntity
  8
MO_001_VIEW_PV
  6
C_SOLID_M
100
AcDbDimension
  2
*D9
 10
72.0
 20
39.0
 30
0.0
 11
72.0
 21
39.0
 31
0.0
  1
%%C26以下
  3
STANDARD
100
AcDbAlignedDimension
 13
83.90000200000001
 23
0.0
 33
0.0
 14
60.900002
 24
0.0
 34
0.0
100
AcDbRotatedDimension
  0
DIMENSION
  5
258
330
1E
100
AcDbEntity
  8
MO_001_VIEW_PV
  6
C_SOLID_M
100
AcDbDimension
  2
*D10
 10
72.0
 20
45.0
 30
0.0
 11
72.0
 21
45.0
 31
0.0
  1
%%C59以下
  3
STANDARD
100
AcDbAlignedDimension
 13
100.800003
 23
0.0
 33
0.0
 14
43.19999699999999
 24
0.0
 34
0.0
100
AcDbRotatedDimension
  0
DIMENSION
  5
25A
330
1E
100
AcDbEntity
  8
MO_001_VIEW_PV
  6
C_SOLID_M
100
AcDbDimension
  2
*D11
 10
108.0
 20
3.0
 30
0.0
 11
108.0
 21
3.0
 31
0.0
  1
長さ250以上
  3
STANDARD
100
AcDbAlignedDimension
 13
82.85000600000001
 23
-26.79809
 33
0.0
 14
81.823975
 24
-50.24993900000001
 34
0.0
 50
89.999523
100
AcDbRotatedDimension
  0
LINE
  5
25B
330
1E
100
AcDbEntity
  8
MO_001_VIEW_PV
  6
C_SOLID_L
100
AcDbLine
 10
8.8
 20
-20.74999899999999
 30
0.0
 11
-1.736641999999999
 21
-38.99999799999999
 31
0.0
  0
POLYLINE
  5
25C
330
1E
100
AcDbEntity
  8
MO_001_VIEW_PV
  6
C_SOLID_L
100
AcDb2dPolyline
 66
     1
 10
0.0
 20
0.0
 30
0.0
 70
     1
  0
VERTEX
  5
3A2
330
25C
100
AcDbEntity
  8
MO_001_VIEW_PV
  6
C_SOLID_L
100
AcDbVertex
100
AcDb2dVertex
 10
7.646205999999999
 20
-23.91545199999999
 30
0.0
  0
VERTEX
  5
3A3
330
25C
100
AcDbEntity
  8
MO_001_VIEW_PV
  6
C_SOLID_L
100
AcDbVertex
100
AcDb2dVertex
 10
8.545999999999999
 20
-21.18994
 30
0.0
  0
VERTEX
  5
3A4
330
25C
100
AcDbEntity
  8
MO_001_VIEW_PV
  6
C_SOLID_L
100
AcDbVertex
100
AcDb2dVertex
 10
6.635533999999999
 20
-23.331941
 30
0.0
  0
SEQEND
  5
3A5
330
25C
100
AcDbEntity
  8
MO_001_VIEW_PV
  6
C_SOLID_L
  0
ENDSEC
  0
SECTION
  2
OBJECTS
  0
DICTIONARY
  5
1A
330
0
100
AcDbDictionary
  3
ACAD_GROUP
350
1B
  3
ACAD_MLINESTYLE
350
1C
  3
ACAD_LAYOUT
350
2DA
  3
ACAD_PLOTSETTINGS
350
2DB
1001
ACAD
1000
TREAT_AS_HARD
1070
     0
  0
DICTIONARY
  5
2E0
330
1E
100
AcDbDictionary
  3
ACAD_LAYOUTSELFREF
350
2E1
  0
DICTIONARY
  5
2E2
330
1F
100
AcDbDictionary
  3
ACAD_LAYOUTSELFREF
350
2E3
  0
DICTIONARY
  5
1B
102
{ACAD_REACTORS
330
1A
102
}
330
1A
100
AcDbDictionary
1001
ACAD
1000
TREAT_AS_HARD
1070
     0
  0
DICTIONARY
  5
1C
102
{ACAD_REACTORS
330
1A
102
}
330
1A
100
AcDbDictionary
  3
STANDARD
350
1D
1001
ACAD
1000
TREAT_AS_HARD
1070
     0
  0
DICTIONARY
  5
2DA
102
{ACAD_REACTORS
330
1A
102
}
330
1A
100
AcDbDictionary
1001
ACAD
1000
TREAT_AS_HARD
1070
     0
  0
DICTIONARY
  5
2DB
102
{ACAD_REACTORS
330
1A
102
}
330
1A
100
AcDbDictionary
1001
ACAD
1000
TREAT_AS_HARD
1070
     0
  0
XRECORD
  5
2E1
102
{ACAD_REACTORS
330
2E0
102
}
330
2E0
100
AcDbXrecord
340
1E
  0
XRECORD
  5
2E3
102
{ACAD_REACTORS
330
2E2
102
}
330
2E2
100
AcDbXrecord
340
1F
  0
MLINESTYLE
  5
1D
102
{ACAD_REACTORS
330
1C
102
}
330
1C
100
AcDbMlineStyle
  2
STANDARD
 70
     0
  3

 62
     0
 51
90.0
 52
90.0
 71
     2
 49
0.5
 62
   256
  6
BYLAYER
 49
-0.5
 62
   256
  6
BYLAYER
  0
ENDSEC
  0
EOF
