  0
SECTION
  2
HEADER
  9
$ACADVER
  1
AC1012
  9
$DWGCODEPAGE
  3
dos932
  9
$INSBASE
 10
0.0
 20
0.0
 30
0.0
  9
$EXTMIN
 10
-78.67674725792852
 20
-101.3437531379115
 30
-0.0015258207003583
  9
$EXTMAX
 10
145.5112301537187
 20
64.13247552541531
 30
0.0000000349246037
  9
$LIMMIN
 10
-78.66983799999999
 20
-104.4597629999999
  9
$LIMMAX
 10
147.75
 20
66.0
  9
$ORTHOMODE
 70
     0
  9
$REGENMODE
 70
     1
  9
$FILLMODE
 70
     1
  9
$QTEXTMODE
 70
     0
  9
$MIRRTEXT
 70
     1
  9
$DRAGMODE
 70
     2
  9
$LTSCALE
 40
1.0
  9
$OSMODE
 70
    37
  9
$ATTMODE
 70
     1
  9
$TEXTSIZE
 40
4.1672
  9
$TRACEWID
 40
0.05
  9
$TEXTSTYLE
  7
STANDARD
  9
$CLAYER
  8
0
  9
$CELTYPE
  6
CONTINUOUS
  9
$CECOLOR
 62
   256
  9
$CELTSCALE
 40
1.0
  9
$DELOBJ
 70
     1
  9
$DISPSILH
 70
     0
  9
$DIMSCALE
 40
1.0
  9
$DIMASZ
 40
0.18
  9
$DIMEXO
 40
0.0625
  9
$DIMDLI
 40
0.38
  9
$DIMRND
 40
0.0
  9
$DIMDLE
 40
0.0
  9
$DIMEXE
 40
0.18
  9
$DIMTP
 40
0.0
  9
$DIMTM
 40
0.0
  9
$DIMTXT
 40
0.18
  9
$DIMCEN
 40
0.09
  9
$DIMTSZ
 40
0.0
  9
$DIMTOL
 70
     0
  9
$DIMLIM
 70
     0
  9
$DIMTIH
 70
     1
  9
$DIMTOH
 70
     1
  9
$DIMSE1
 70
     0
  9
$DIMSE2
 70
     0
  9
$DIMTAD
 70
     0
  9
$DIMZIN
 70
     0
  9
$DIMBLK
  1

  9
$DIMASO
 70
     1
  9
$DIMSHO
 70
     1
  9
$DIMPOST
  1

  9
$DIMAPOST
  1

  9
$DIMALT
 70
     0
  9
$DIMALTD
 70
     2
  9
$DIMALTF
 40
25.4
  9
$DIMLFAC
 40
1.0
  9
$DIMTOFL
 70
     0
  9
$DIMTVP
 40
0.0
  9
$DIMTIX
 70
     0
  9
$DIMSOXD
 70
     0
  9
$DIMSAH
 70
     0
  9
$DIMBLK1
  1

  9
$DIMBLK2
  1

  9
$DIMSTYLE
  2
STANDARD
  9
$DIMCLRD
 70
     0
  9
$DIMCLRE
 70
     0
  9
$DIMCLRT
 70
     0
  9
$DIMTFAC
 40
1.0
  9
$DIMGAP
 40
0.09
  9
$DIMJUST
 70
     0
  9
$DIMSD1
 70
     0
  9
$DIMSD2
 70
     0
  9
$DIMTOLJ
 70
     1
  9
$DIMTZIN
 70
     0
  9
$DIMALTZ
 70
     0
  9
$DIMALTTZ
 70
     0
  9
$DIMFIT
 70
     3
  9
$DIMUPT
 70
     0
  9
$DIMUNIT
 70
     2
  9
$DIMDEC
 70
     4
  9
$DIMTDEC
 70
     4
  9
$DIMALTU
 70
     2
  9
$DIMALTTD
 70
     2
  9
$DIMTXSTY
  7
STANDARD
  9
$DIMAUNIT
 70
     0
  9
$LUNITS
 70
     2
  9
$LUPREC
 70
     6
  9
$SKETCHINC
 40
0.1
  9
$FILLETRAD
 40
0.0
  9
$AUNITS
 70
     0
  9
$AUPREC
 70
     4
  9
$MENU
  1
acad
  9
$ELEVATION
 40
0.0
  9
$PELEVATION
 40
0.0
  9
$THICKNESS
 40
0.0
  9
$LIMCHECK
 70
     0
  9
$BLIPMODE
 70
     0
  9
$CHAMFERA
 40
0.0
  9
$CHAMFERB
 40
0.0
  9
$CHAMFERC
 40
0.0
  9
$CHAMFERD
 40
0.0
  9
$SKPOLY
 70
     0
  9
$TDCREATE
 40
2376122.594768669
  9
$TDUPDATE
 40
2451687.710459259
  9
$TDINDWG
 40
0.0006458333
  9
$TDUSRTIMER
 40
0.0006458333
  9
$USRTIMER
 70
     1
  9
$ANGBASE
 50
0.0
  9
$ANGDIR
 70
     0
  9
$PDMODE
 70
     0
  9
$PDSIZE
 40
0.0
  9
$PLINEWID
 40
0.0
  9
$COORDS
 70
     1
  9
$SPLFRAME
 70
     0
  9
$SPLINETYPE
 70
     6
  9
$SPLINESEGS
 70
     8
  9
$ATTDIA
 70
     0
  9
$ATTREQ
 70
     1
  9
$HANDLING
 70
 10241
  9
$HANDSEED
  5
649
  9
$SURFTAB1
 70
     6
  9
$SURFTAB2
 70
     6
  9
$SURFTYPE
 70
     6
  9
$SURFU
 70
     6
  9
$SURFV
 70
     6
  9
$UCSNAME
  2

  9
$UCSORG
 10
0.0
 20
0.0
 30
0.0
  9
$UCSXDIR
 10
1.0
 20
0.0
 30
0.0
  9
$UCSYDIR
 10
0.0
 20
1.0
 30
0.0
  9
$PUCSNAME
  2

  9
$PUCSORG
 10
0.0
 20
0.0
 30
0.0
  9
$PUCSXDIR
 10
1.0
 20
0.0
 30
0.0
  9
$PUCSYDIR
 10
0.0
 20
1.0
 30
0.0
  9
$USERI1
 70
     0
  9
$USERI2
 70
     0
  9
$USERI3
 70
     0
  9
$USERI4
 70
     0
  9
$USERI5
 70
     0
  9
$USERR1
 40
0.0
  9
$USERR2
 40
0.0
  9
$USERR3
 40
0.0
  9
$USERR4
 40
0.0
  9
$USERR5
 40
0.0
  9
$WORLDVIEW
 70
     1
  9
$SHADEDGE
 70
     3
  9
$SHADEDIF
 70
    70
  9
$TILEMODE
 70
     1
  9
$MAXACTVP
 70
    16
  9
$PINSBASE
 10
0.0
 20
0.0
 30
0.0
  9
$PLIMCHECK
 70
     0
  9
$PEXTMIN
 10
-78.66983799999999
 20
-104.4597629999999
 30
1.000000000000000E+20
  9
$PEXTMAX
 10
147.75
 20
66.0
 30
-1.000000000000000E+20
  9
$PLIMMIN
 10
0.0
 20
0.0
  9
$PLIMMAX
 10
12.0
 20
9.0
  9
$UNITMODE
 70
     0
  9
$VISRETAIN
 70
     0
  9
$PLINEGEN
 70
     0
  9
$PSLTSCALE
 70
     1
  9
$TREEDEPTH
 70
  3020
  9
$PICKSTYLE
 70
     1
  9
$CMLSTYLE
  2
STANDARD
  9
$CMLJUST
 70
     0
  9
$CMLSCALE
 40
1.0
  9
$SAVEIMAGES
 70
     1
  0
ENDSEC
  0
SECTION
  2
CLASSES
  0
CLASS
  1
ACDBDICTIONARYWDFLT
  2
AcDbDictionaryWithDefault
  3
AutoCAD 2000
 90
    32768
280
     0
281
     0
  0
CLASS
  1
ACDBPLACEHOLDER
  2
AcDbPlaceHolder
  3
AutoCAD 2000
 90
    32768
280
     0
281
     0
  0
CLASS
  1
LAYOUT
  2
AcDbLayout
  3
AutoCAD 2000
 90
    32768
280
     0
281
     0
  0
CLASS
  1
LONG_TRANSACTION
  2
AcDbLongTransaction
  3
AutoCAD 2000
 90
    32768
280
     0
281
     0
  0
CLASS
  1
LWPOLYLINE
  2
AcDbPolyline
  3
AutoCAD 2000
 90
    32768
280
     0
281
     1
  0
CLASS
  1
HATCH
  2
AcDbHatch
  3
AutoCAD 2000
 90
    32768
280
     0
281
     1
  0
CLASS
  1
XRECORD
  2
AcDbXrecord
  3
AutoCAD 2000
 90
    32768
280
     0
281
     0
  0
ENDSEC
  0
SECTION
  2
TABLES
  0
TABLE
  2
VPORT
  5
7
330
0
100
AcDbSymbolTable
 70
     2
  0
VPORT
  5
43F
330
7
100
AcDbSymbolTableRecord
100
AcDbViewportTableRecord
  2
*ACTIVE
 70
     0
 10
0.0
 20
0.0
 11
1.0
 21
1.0
 12
34.53662637103575
 22
-19.22988149999999
 13
0.0
 23
0.0
 14
6.349999999999999
 24
6.349999999999999
 15
6.349999999999999
 25
6.349999999999999
 16
0.0
 26
0.0
 36
1.0
 17
0.0
 27
0.0
 37
0.0
 40
172.2231398586206
 41
1.644214162348877
 42
50.0
 43
0.0
 44
0.0
 50
0.0
 51
0.0
 71
     0
 72
   100
 73
     1
 74
     1
 75
     0
 76
     0
 77
     0
 78
     0
  0
ENDTAB
  0
TABLE
  2
LTYPE
  5
4
330
0
100
AcDbSymbolTable
 70
    37
  0
LTYPE
  5
12
330
4
100
AcDbSymbolTableRecord
100
AcDbLinetypeTableRecord
  2
BYBLOCK
 70
     0
  3

 72
    65
 73
     0
 40
0.0
  0
LTYPE
  5
13
330
4
100
AcDbSymbolTableRecord
100
AcDbLinetypeTableRecord
  2
BYLAYER
 70
     0
  3

 72
    65
 73
     0
 40
0.0
  0
LTYPE
  5
14
330
4
100
AcDbSymbolTableRecord
100
AcDbLinetypeTableRecord
  2
CONTINUOUS
 70
     0
  3
DXF Default line type
 72
    65
 73
     0
 40
0.0
  0
LTYPE
  5
20
330
4
100
AcDbSymbolTableRecord
100
AcDbLinetypeTableRecord
  2
DASHED
 70
     0
  3
DXF Dashed
 72
    65
 73
     2
 40
0.75
 49
0.5
 74
     0
 49
-0.25
 74
     0
  0
LTYPE
  5
21
330
4
100
AcDbSymbolTableRecord
100
AcDbLinetypeTableRecord
  2
HIDDEN
 70
     0
  3
DXF Hidden
 72
    65
 73
     2
 40
0.375
 49
0.25
 74
     0
 49
-0.125
 74
     0
  0
LTYPE
  5
22
330
4
100
AcDbSymbolTableRecord
100
AcDbLinetypeTableRecord
  2
CENTER
 70
     0
  3
DXF Center
 72
    65
 73
     4
 40
2.0
 49
1.25
 74
     0
 49
-0.25
 74
     0
 49
0.25
 74
     0
 49
-0.25
 74
     0
  0
LTYPE
  5
23
330
4
100
AcDbSymbolTableRecord
100
AcDbLinetypeTableRecord
  2
PHANTOM
 70
     0
  3
DXF Phantom
 72
    65
 73
     6
 40
2.5
 49
1.25
 74
     0
 49
-0.25
 74
     0
 49
0.25
 74
     0
 49
-0.25
 74
     0
 49
0.25
 74
     0
 49
-0.25
 74
     0
  0
LTYPE
  5
24
330
4
100
AcDbSymbolTableRecord
100
AcDbLinetypeTableRecord
  2
DOT
 70
     0
  3
DXF DOT
 72
    65
 73
     2
 40
0.25
 49
0.0
 74
     0
 49
-0.25
 74
     0
  0
LTYPE
  5
25
330
4
100
AcDbSymbolTableRecord
100
AcDbLinetypeTableRecord
  2
DASHDOT
 70
     0
  3
DXF Dash Dot
 72
    65
 73
     4
 40
1.0
 49
0.5
 74
     0
 49
-0.25
 74
     0
 49
0.0
 74
     0
 49
-0.25
 74
     0
  0
LTYPE
  5
26
330
4
100
AcDbSymbolTableRecord
100
AcDbLinetypeTableRecord
  2
BORDER
 70
     0
  3
DXF Border
 72
    65
 73
     6
 40
1.75
 49
0.5
 74
     0
 49
-0.25
 74
     0
 49
0.5
 74
     0
 49
-0.25
 74
     0
 49
0.0
 74
     0
 49
-0.25
 74
     0
  0
LTYPE
  5
27
330
4
100
AcDbSymbolTableRecord
100
AcDbLinetypeTableRecord
  2
DIVIDE
 70
     0
  3
DXF Divide
 72
    65
 73
     6
 40
1.25
 49
0.5
 74
     0
 49
-0.25
 74
     0
 49
0.0
 74
     0
 49
-0.25
 74
     0
 49
0.0
 74
     0
 49
-0.25
 74
     0
  0
LTYPE
  5
28
330
4
100
AcDbSymbolTableRecord
100
AcDbLinetypeTableRecord
  2
C_SOLID_L
 70
     0
  3
CADAM Solid Light
 72
    65
 73
     0
 40
0.0
  0
LTYPE
  5
29
330
4
100
AcDbSymbolTableRecord
100
AcDbLinetypeTableRecord
  2
C_SOLID_M
 70
     0
  3
CADAM Solid Medium
 72
    65
 73
     0
 40
0.0
  0
LTYPE
  5
2A
330
4
100
AcDbSymbolTableRecord
100
AcDbLinetypeTableRecord
  2
C_SOLID_H
 70
     0
  3
CADAM Solid Heavy
 72
    65
 73
     0
 40
0.0
  0
LTYPE
  5
2B
330
4
100
AcDbSymbolTableRecord
100
AcDbLinetypeTableRecord
  2
C_DASHED_L
 70
     0
  3
CADAM Dashed Light
 72
    65
 73
     2
 40
0.375
 49
0.25
 74
     0
 49
-0.125
 74
     0
  0
LTYPE
  5
2C
330
4
100
AcDbSymbolTableRecord
100
AcDbLinetypeTableRecord
  2
C_DASHED_M
 70
     0
  3
CADAM Dashed Medium
 72
    65
 73
     2
 40
0.5
 49
0.375
 74
     0
 49
-0.125
 74
     0
  0
LTYPE
  5
2D
330
4
100
AcDbSymbolTableRecord
100
AcDbLinetypeTableRecord
  2
C_CENTER_L
 70
     0
  3
CADAM Center Light
 72
    65
 73
     4
 40
2.0
 49
1.25
 74
     0
 49
-0.25
 74
     0
 49
0.25
 74
     0
 49
-0.25
 74
     0
  0
LTYPE
  5
2E
330
4
100
AcDbSymbolTableRecord
100
AcDbLinetypeTableRecord
  2
C_PHANTOM_L
 70
     0
  3
CADAM Phantom Light
 72
    65
 73
     6
 40
2.5
 49
1.25
 74
     0
 49
-0.25
 74
     0
 49
0.25
 74
     0
 49
-0.25
 74
     0
 49
0.25
 74
     0
 49
-0.25
 74
     0
  0
LTYPE
  5
2F
330
4
100
AcDbSymbolTableRecord
100
AcDbLinetypeTableRecord
  2
C_BREAK_M
 70
     0
  3
CADAM Break Medium
 72
    65
 73
     4
 40
1.0
 49
0.5
 74
     0
 49
-0.25
 74
     0
 49
0.0
 74
     0
 49
-0.25
 74
     0
  0
LTYPE
  5
30
330
4
100
AcDbSymbolTableRecord
100
AcDbLinetypeTableRecord
  2
C_NC
 70
     0
  3
CADAM NC
 72
    65
 73
     0
 40
0.0
  0
LTYPE
  5
31
330
4
100
AcDbSymbolTableRecord
100
AcDbLinetypeTableRecord
  2
DSH1
 70
     0
  3
CADAM Style2 Type 1 Dashed Line
 72
    65
 73
     2
 40
0.075
 49
0.04
 74
     0
 49
-0.035
 74
     0
  0
LTYPE
  5
32
330
4
100
AcDbSymbolTableRecord
100
AcDbLinetypeTableRecord
  2
DSH2
 70
     0
  3
CADAM Style2 Type 2 Dashed Line
 72
    65
 73
     2
 40
0.15
 49
0.11
 74
     0
 49
-0.04
 74
     0
  0
LTYPE
  5
33
330
4
100
AcDbSymbolTableRecord
100
AcDbLinetypeTableRecord
  2
DSH3
 70
     0
  3
CADAM Style2 Type 3 Dashed Line
 72
    65
 73
     2
 40
0.2
 49
0.15
 74
     0
 49
-0.05
 74
     0
  0
LTYPE
  5
34
330
4
100
AcDbSymbolTableRecord
100
AcDbLinetypeTableRecord
  2
DSH4
 70
     0
  3
CADAM Style2 Type 4 Dashed Line
 72
    65
 73
     2
 40
0.36
 49
0.28
 74
     0
 49
-0.08
 74
     0
  0
LTYPE
  5
35
330
4
100
AcDbSymbolTableRecord
100
AcDbLinetypeTableRecord
  2
DSH5
 70
     0
  3
CADAM Style2 Type 5 Dashed Line
 72
    65
 73
     2
 40
0.47
 49
0.39
 74
     0
 49
-0.08
 74
     0
  0
LTYPE
  5
36
330
4
100
AcDbSymbolTableRecord
100
AcDbLinetypeTableRecord
  2
DSH6
 70
     0
  3
CADAM Style2 Type 6 Dashed Line
 72
    65
 73
     2
 40
0.9
 49
0.8100000000000001
 74
     0
 49
-0.09
 74
     0
  0
LTYPE
  5
37
330
4
100
AcDbSymbolTableRecord
100
AcDbLinetypeTableRecord
  2
PL1
 70
     0
  3
Style 2 Type 1 Phantom Line
 72
    65
 73
     6
 40
1.0
 49
0.6
 74
     0
 49
-0.08
 74
     0
 49
0.08
 74
     0
 49
-0.08
 74
     0
 49
0.08
 74
     0
 49
-0.08
 74
     0
  0
LTYPE
  5
38
330
4
100
AcDbSymbolTableRecord
100
AcDbLinetypeTableRecord
  2
PL2
 70
     0
  3
Style 2 Type 2 Phantom Line
 72
    65
 73
     6
 40
1.08
 49
0.6
 74
     0
 49
-0.08
 74
     0
 49
0.12
 74
     0
 49
-0.08
 74
     0
 49
0.12
 74
     0
 49
-0.08
 74
     0
  0
LTYPE
  5
39
330
4
100
AcDbSymbolTableRecord
100
AcDbLinetypeTableRecord
  2
PL3
 70
     0
  3
Style 2 Type 3 Phantom Line
 72
    65
 73
     6
 40
2.0
 49
1.439999999999999
 74
     0
 49
-0.08
 74
     0
 49
0.16
 74
     0
 49
-0.08
 74
     0
 49
0.16
 74
     0
 49
-0.08
 74
     0
  0
LTYPE
  5
3A
330
4
100
AcDbSymbolTableRecord
100
AcDbLinetypeTableRecord
  2
CL1
 70
     0
  3
CADAM Style 2 Type 1 Center Line
 72
    65
 73
     4
 40
0.7
 49
0.45
 74
     0
 49
-0.06
 74
     0
 49
0.13
 74
     0
 49
-0.06
 74
     0
  0
LTYPE
  5
3B
330
4
100
AcDbSymbolTableRecord
100
AcDbLinetypeTableRecord
  2
CL2
 70
     0
  3
CADAM Style 2 Type 2 Center Line
 72
    65
 73
     4
 40
1.199999999999999
 49
1.01
 74
     0
 49
-0.06
 74
     0
 49
0.11
 74
     0
 49
-0.06
 74
     0
  0
LTYPE
  5
3C
330
4
100
AcDbSymbolTableRecord
100
AcDbLinetypeTableRecord
  2
CL3
 70
     0
  3
CADAM Style 2 Type 3 Center Line
 72
    65
 73
     4
 40
1.199999999999999
 49
0.98
 74
     0
 49
-0.06
 74
     0
 49
0.1
 74
     0
 49
-0.06
 74
     0
  0
LTYPE
  5
3D
330
4
100
AcDbSymbolTableRecord
100
AcDbLinetypeTableRecord
  2
CL4
 70
     0
  3
CADAM Style 2 Type 4 Center Line
 72
    65
 73
     4
 40
2.2
 49
1.929999999999999
 74
     0
 49
-0.07
 74
     0
 49
0.13
 74
     0
 49
-0.07
 74
     0
  0
LTYPE
  5
3E
330
4
100
AcDbSymbolTableRecord
100
AcDbLinetypeTableRecord
  2
CL5
 70
     0
  3
CADAM Style 2 Type 5 Center Line
 72
    65
 73
     4
 40
2.2
 49
1.879999999999999
 74
     0
 49
-0.07
 74
     0
 49
0.18
 74
     0
 49
-0.07
 74
     0
  0
LTYPE
  5
3F
330
4
100
AcDbSymbolTableRecord
100
AcDbLinetypeTableRecord
  2
SBK1
 70
     0
  3
CADAM Style 2 Type 1 SetBack Line
 72
    65
 73
     8
 40
2.7
 49
0.1
 74
     0
 49
-0.08
 74
     0
 49
0.1
 74
     0
 49
-0.8
 74
     0
 49
0.0
 74
     0
 49
0.0
 74
     0
 49
0.0
 74
     0
 49
0.0
 74
     0
  0
LTYPE
  5
40
330
4
100
AcDbSymbolTableRecord
100
AcDbLinetypeTableRecord
  2
SBK2
 70
     0
  3
CADAM Style 2 Type 2 SetBack Line
 72
    65
 73
     8
 40
3.709999999999999
 49
0.13
 74
     0
 49
-0.08
 74
     0
 49
0.13
 74
     0
 49
-0.8
 74
     0
 49
0.0
 74
     0
 49
0.0
 74
     0
 49
0.0
 74
     0
 49
0.0
 74
     0
  0
LTYPE
  5
41
330
4
100
AcDbSymbolTableRecord
100
AcDbLinetypeTableRecord
  2
STCH
 70
     0
  3
CADAM Style2 Stitch Line
 72
    65
 73
     2
 40
0.25
 49
0.0
 74
     0
 49
-0.25
 74
     0
  0
LTYPE
  5
42
330
4
100
AcDbSymbolTableRecord
100
AcDbLinetypeTableRecord
  2
MTCH
 70
     0
  3
CADAM Style2 Match Line
 72
    65
 73
     6
 40
2.0
 49
1.439999999999999
 74
     0
 49
-0.8
 74
     0
 49
0.16
 74
     0
 49
-0.08
 74
     0
 49
0.16
 74
     0
 49
-0.08
 74
     0
  0
LTYPE
  5
43
330
4
100
AcDbSymbolTableRecord
100
AcDbLinetypeTableRecord
  2
SLD
 70
     0
  3
CADAM Solid_EXT2
 72
    65
 73
     0
 40
0.0
  0
ENDTAB
  0
TABLE
  2
LAYER
  5
2
330
0
100
AcDbSymbolTable
 70
     7
  0
LAYER
  5
15
330
2
100
AcDbSymbolTableRecord
100
AcDbLayerTableRecord
  2
0
 70
     0
 62
     7
  6
CONTINUOUS
  0
LAYER
  5
44
330
2
100
AcDbSymbolTableRecord
100
AcDbLayerTableRecord
  2
MO_001_NOSHOW
 70
     1
 62
     7
  6
CONTINUOUS
  0
LAYER
  5
45
330
2
100
AcDbSymbolTableRecord
100
AcDbLayerTableRecord
  2
MO_001_VIEW_PV
 70
     0
 62
     7
  6
CONTINUOUS
  0
LAYER
  5
46
330
2
100
AcDbSymbolTableRecord
100
AcDbLayerTableRecord
  2
OVERLAY_MAP
 70
     1
 62
     7
  6
CONTINUOUS
  0
LAYER
  5
47
330
2
100
AcDbSymbolTableRecord
100
AcDbLayerTableRecord
  2
DITTOS
 70
     0
 62
     7
  6
CONTINUOUS
  0
LAYER
  5
48
330
2
100
AcDbSymbolTableRecord
100
AcDbLayerTableRecord
  2
SYMBOLS
 70
     0
 62
     7
  6
CONTINUOUS
  0
LAYER
  5
49
330
2
100
AcDbSymbolTableRecord
100
AcDbLayerTableRecord
  2
SETS
 70
     0
 62
     7
  6
CONTINUOUS
  0
ENDTAB
  0
TABLE
  2
STYLE
  5
3
330
0
100
AcDbSymbolTable
 70
     1
  0
STYLE
  5
18
330
3
100
AcDbSymbolTableRecord
100
AcDbTextStyleTableRecord
  2
STANDARD
 70
     0
 40
4.1672
 41
1.0
 50
0.0
 71
     0
 42
4.1672
  3
monotxt
  4
BIGFONT
  0
ENDTAB
  0
TABLE
  2
VIEW
  5
5
330
0
100
AcDbSymbolTable
 70
     0
  0
ENDTAB
  0
TABLE
  2
UCS
  5
6
330
0
100
AcDbSymbolTable
 70
     1
  0
UCS
  5
4A
330
6
100
AcDbSymbolTableRecord
100
AcDbUCSTableRecord
  2
MO_001_VIEW_PV_P
 70
     0
 10
0.0
 20
0.0
 30
0.0
 11
1.0
 21
0.0
 31
0.0
 12
-0.0000000002051034
 22
1.0
 32
0.0
  0
ENDTAB
  0
TABLE
  2
APPID
  5
8
330
0
100
AcDbSymbolTable
 70
     1
  0
APPID
  5
17
330
8
100
AcDbSymbolTableRecord
100
AcDbRegAppTableRecord
  2
ACAD
 70
     0
  0
ENDTAB
  0
TABLE
  2
DIMSTYLE
  5
9
330
0
100
AcDbSymbolTable
 70
     1
  0
DIMSTYLE
105
19
102
{ACAD_REACTORS
330
39F
330
3A1
330
3A3
330
3A5
330
3AF
330
3B1
330
3B3
330
3B5
330
3B7
330
3BF
330
3C1
330
3C3
102
}
330
9
100
AcDbSymbolTableRecord
100
AcDbDimStyleTableRecord
  2
STANDARD
 70
     0
  3

  4

  5

  6

  7

 40
1.0
 41
0.18
 42
0.0625
 43
0.38
 44
0.18
 45
0.0
 46
0.0
 47
0.0
 48
0.0
140
0.18
141
0.09
142
0.0
143
25.4
144
1.0
145
0.0
146
1.0
147
0.09
 71
     0
 72
     0
 73
     1
 74
     1
 75
     0
 76
     0
 77
     0
 78
     0
170
     0
171
     2
172
     0
173
     0
174
     0
175
     0
176
     0
177
     0
178
     0
270
     2
271
     4
272
     4
273
     2
274
     2
340
18
275
     0
280
     0
281
     0
282
     0
283
     1
284
     0
285
     0
286
     0
287
     3
288
     0
  0
ENDTAB
  0
TABLE
  2
BLOCK_RECORD
  5
C
330
0
100
AcDbSymbolTable
 70
    12
  0
BLOCK_RECORD
  5
1E
102
{ACAD_XDICTIONARY
360
440
102
}
330
C
100
AcDbSymbolTableRecord
100
AcDbBlockTableRecord
  2
*MODEL_SPACE
  0
BLOCK_RECORD
  5
1F
102
{ACAD_XDICTIONARY
360
442
102
}
330
C
100
AcDbSymbolTableRecord
100
AcDbBlockTableRecord
  2
*PAPER_SPACE
  0
BLOCK_RECORD
  5
39E
330
C
100
AcDbSymbolTableRecord
100
AcDbBlockTableRecord
  2
*D0
  0
BLOCK_RECORD
  5
3A0
330
C
100
AcDbSymbolTableRecord
100
AcDbBlockTableRecord
  2
*D1
  0
BLOCK_RECORD
  5
3A2
330
C
100
AcDbSymbolTableRecord
100
AcDbBlockTableRecord
  2
*D2
  0
BLOCK_RECORD
  5
3A4
330
C
100
AcDbSymbolTableRecord
100
AcDbBlockTableRecord
  2
*D3
  0
BLOCK_RECORD
  5
3AE
330
C
100
AcDbSymbolTableRecord
100
AcDbBlockTableRecord
  2
*D4
  0
BLOCK_RECORD
  5
3B0
330
C
100
AcDbSymbolTableRecord
100
AcDbBlockTableRecord
  2
*D5
  0
BLOCK_RECORD
  5
3B2
330
C
100
AcDbSymbolTableRecord
100
AcDbBlockTableRecord
  2
*D6
  0
BLOCK_RECORD
  5
3B4
330
C
100
AcDbSymbolTableRecord
100
AcDbBlockTableRecord
  2
*D7
  0
BLOCK_RECORD
  5
3B6
330
C
100
AcDbSymbolTableRecord
100
AcDbBlockTableRecord
  2
*D8
  0
BLOCK_RECORD
  5
3BE
330
C
100
AcDbSymbolTableRecord
100
AcDbBlockTableRecord
  2
*D9
  0
BLOCK_RECORD
  5
3C0
330
C
100
AcDbSymbolTableRecord
100
AcDbBlockTableRecord
  2
*D10
  0
BLOCK_RECORD
  5
3C2
330
C
100
AcDbSymbolTableRecord
100
AcDbBlockTableRecord
  2
*D11
  0
ENDTAB
  0
ENDSEC
  0
SECTION
  2
BLOCKS
  0
BLOCK
  5
E
330
1E
100
AcDbEntity
  8
0
100
AcDbBlockBegin
  2
*MODEL_SPACE
 70
     0
 10
0.0
 20
0.0
 30
0.0
  3
*MODEL_SPACE
  1

  0
ENDBLK
  5
F
330
1E
100
AcDbEntity
  8
0
100
AcDbBlockEnd
  0
BLOCK
  5
10
330
1F
100
AcDbEntity
 67
     1
  8
0
100
AcDbBlockBegin
  2
*PAPER_SPACE
 70
     0
 10
0.0
 20
0.0
 30
0.0
  3
*PAPER_SPACE
  1

  0
ENDBLK
  5
11
330
1F
100
AcDbEntity
 67
     1
  8
0
100
AcDbBlockEnd
  0
BLOCK
  5
3C4
330
39E
100
AcDbEntity
  8
0
100
AcDbBlockBegin
  2
*D0
 70
     1
 10
0.0
 20
0.0
 30
0.0
  3
*D0
  1

  0
TEXT
  5
3C5
330
39E
100
AcDbEntity
  8
MO_001_VIEW_PV
  6
BYBLOCK
100
AcDbText
 10
82.92857099999999
 20
54.75
 30
0.0
 40
3.0
  1
%%C37以下
100
AcDbText
  0
LINE
  5
3C6
330
39E
100
AcDbEntity
  8
MO_001_VIEW_PV
  6
BYBLOCK
100
AcDbLine
 10
73.09999799999999
 20
54.0
 30
0.0
 11
106.8999939999999
 21
54.0
 31
0.0
  0
SOLID
  5
3C7
330
39E
100
AcDbEntity
  8
MO_001_VIEW_PV
  6
BYBLOCK
100
AcDbTrace
 10
76.41825899999999
 20
54.583512
 30
0.0
 11
73.60799799999999
 21
54.0
 31
0.0
 12
76.41825899999999
 22
53.416488
 32
0.0
 13
76.41825899999999
 23
53.416488
 33
0.0
  0
SOLID
  5
3C8
330
39E
100
AcDbEntity
  8
MO_001_VIEW_PV
  6
BYBLOCK
100
AcDbTrace
 10
103.5817339999999
 20
53.416488
 30
0.0
 11
106.3919939999999
 21
54.0
 31
0.0
 12
103.5817339999999
 22
54.583512
 32
0.0
 13
103.5817339999999
 23
54.583512
 33
0.0
  0
LINE
  5
3C9
330
39E
100
AcDbEntity
  8
MO_001_VIEW_PV
  6
BYBLOCK
100
AcDbLine
 10
73.09999799999999
 20
0.0
 30
0.0
 11
73.09999799999999
 21
56.285999
 31
0.0
  0
LINE
  5
3CA
330
39E
100
AcDbEntity
  8
MO_001_VIEW_PV
  6
BYBLOCK
100
AcDbLine
 10
106.8999939999999
 20
0.0
 30
0.0
 11
106.8999939999999
 21
56.285999
 31
0.0
  0
ENDBLK
  5
3CB
330
39E
100
AcDbEntity
  8
0
100
AcDbBlockEnd
  0
BLOCK
  5
3CC
330
3A0
100
AcDbEntity
  8
0
100
AcDbBlockBegin
  2
*D1
 70
     1
 10
0.0
 20
0.0
 30
0.0
  3
*D1
  1

  0
TEXT
  5
3CD
330
3A0
100
AcDbEntity
  8
MO_001_VIEW_PV
  6
BYBLOCK
100
AcDbText
 10
82.92857099999999
 20
60.75
 30
0.0
 40
3.0
  1
%%C87以下
100
AcDbText
  0
LINE
  5
3CE
330
3A0
100
AcDbEntity
  8
MO_001_VIEW_PV
  6
BYBLOCK
100
AcDbLine
 10
47.150002
 20
60.0
 30
0.0
 11
132.850006
 21
60.0
 31
0.0
  0
SOLID
  5
3CF
330
3A0
100
AcDbEntity
  8
MO_001_VIEW_PV
  6
BYBLOCK
100
AcDbTrace
 10
50.468262
 20
60.583512
 30
0.0
 11
47.658002
 21
60.0
 31
0.0
 12
50.468262
 22
59.416488
 32
0.0
 13
50.468262
 23
59.416488
 33
0.0
  0
SOLID
  5
3D0
330
3A0
100
AcDbEntity
  8
MO_001_VIEW_PV
  6
BYBLOCK
100
AcDbTrace
 10
129.5317459999999
 20
59.416488
 30
0.0
 11
132.3420059999999
 21
60.0
 31
0.0
 12
129.5317459999999
 22
60.583512
 32
0.0
 13
129.5317459999999
 23
60.583512
 33
0.0
  0
LINE
  5
3D1
330
3A0
100
AcDbEntity
  8
MO_001_VIEW_PV
  6
BYBLOCK
100
AcDbLine
 10
47.150002
 20
0.0
 30
0.0
 11
47.150002
 21
62.28599899999999
 31
0.0
  0
LINE
  5
3D2
330
3A0
100
AcDbEntity
  8
MO_001_VIEW_PV
  6
BYBLOCK
100
AcDbLine
 10
132.850006
 20
0.0
 30
0.0
 11
132.850006
 21
62.28599899999999
 31
0.0
  0
ENDBLK
  5
3D3
330
3A0
100
AcDbEntity
  8
0
100
AcDbBlockEnd
  0
BLOCK
  5
3D4
330
3A2
100
AcDbEntity
  8
0
100
AcDbBlockBegin
  2
*D2
 70
     1
 10
0.0
 20
0.0
 30
0.0
  3
*D2
  1

  0
LINE
  5
3D5
330
3A2
100
AcDbEntity
  8
MO_001_VIEW_PV
  6
BYBLOCK
100
AcDbLine
 10
42.0
 20
-27.0
 30
0.0
 11
42.0
 21
27.0
 31
0.0
  0
SOLID
  5
3D6
330
3A2
100
AcDbEntity
  8
MO_001_VIEW_PV
  6
BYBLOCK
100
AcDbTrace
 10
41.416488
 20
-23.68173999999999
 30
0.0
 11
42.0
 21
-26.49199999999999
 31
0.0
 12
42.58351199999999
 22
-23.68173999999999
 32
0.0
 13
42.58351199999999
 23
-23.68173999999999
 33
0.0
  0
SOLID
  5
3D7
330
3A2
100
AcDbEntity
  8
MO_001_VIEW_PV
  6
BYBLOCK
100
AcDbTrace
 10
42.58351199999999
 20
23.68173999999999
 30
0.0
 11
42.0
 21
26.49199999999999
 31
0.0
 12
41.416488
 22
23.68173999999999
 32
0.0
 13
41.416488
 23
23.68173999999999
 33
0.0
  0
LINE
  5
3D8
330
3A2
100
AcDbEntity
  8
MO_001_VIEW_PV
  6
BYBLOCK
100
AcDbLine
 10
84.0
 20
-27.0
 30
0.0
 11
39.713997
 21
-27.0
 31
0.0
  0
LINE
  5
3D9
330
3A2
100
AcDbEntity
  8
MO_001_VIEW_PV
  6
BYBLOCK
100
AcDbLine
 10
84.0
 20
27.0
 30
0.0
 11
39.713997
 21
27.0
 31
0.0
  0
TEXT
  5
3DA
330
3A2
100
AcDbEntity
  8
MO_001_VIEW_PV
  6
BYBLOCK
100
AcDbText
 10
39.375
 20
0.214286
 30
0.0
 40
1.5
  1
%%P0.3
 50
90.0
100
AcDbText
  0
TEXT
  5
3DB
330
3A2
100
AcDbEntity
  8
MO_001_VIEW_PV
  6
BYBLOCK
100
AcDbText
 10
41.25
 20
-5.571429
 30
0.0
 40
3.0
  1
54
 50
90.0
100
AcDbText
  0
ENDBLK
  5
3DC
330
3A2
100
AcDbEntity
  8
0
100
AcDbBlockEnd
  0
BLOCK
  5
3DD
330
3A4
100
AcDbEntity
  8
0
100
AcDbBlockBegin
  2
*D3
 70
     1
 10
0.0
 20
0.0
 30
0.0
  3
*D3
  1

  0
TEXT
  5
3DE
330
3A4
100
AcDbEntity
  8
MO_001_VIEW_PV
  6
BYBLOCK
100
AcDbText
 10
140.25
 20
-19.905366
 30
0.0
 40
3.0
  1
長さ250以上
 50
90.0
100
AcDbText
  0
LINE
  5
3DF
330
3A4
100
AcDbEntity
  8
MO_001_VIEW_PV
  6
BYBLOCK
100
AcDbLine
 10
141.0
 20
-78.350006
 30
0.0
 11
141.0
 21
-39.690056
 31
0.0
  0
SOLID
  5
3E0
330
3A4
100
AcDbEntity
  8
MO_001_VIEW_PV
  6
BYBLOCK
100
AcDbTrace
 10
140.4164879999999
 20
-75.031746
 30
0.0
 11
141.0
 21
-77.84200600000001
 31
0.0
 12
141.583512
 22
-75.031746
 32
0.0
 13
141.583512
 23
-75.031746
 33
0.0
  0
SOLID
  5
3E1
330
3A4
100
AcDbEntity
  8
MO_001_VIEW_PV
  6
BYBLOCK
100
AcDbTrace
 10
141.583512
 20
-43.008316
 30
0.0
 11
141.0
 21
-40.198056
 31
0.0
 12
140.4164879999999
 22
-43.008316
 32
0.0
 13
140.4164879999999
 23
-43.008316
 33
0.0
  0
LINE
  5
3E2
330
3A4
100
AcDbEntity
  8
MO_001_VIEW_PV
  6
BYBLOCK
100
AcDbLine
 10
104.799988
 20
-78.350006
 30
0.0
 11
143.2859949999999
 21
-78.350006
 31
0.0
  0
LINE
  5
3E3
330
3A4
100
AcDbEntity
  8
MO_001_VIEW_PV
  6
BYBLOCK
100
AcDbLine
 10
106.149994
 20
-39.690056
 30
0.0
 11
143.2859949999999
 21
-39.690056
 31
0.0
  0
LINE
  5
3E4
330
3A4
100
AcDbEntity
  8
MO_001_VIEW_PV
  6
BYBLOCK
100
AcDbLine
 10
141.0
 20
-39.690056
 30
0.0
 11
141.0
 21
1.201783
 31
0.0
  0
ENDBLK
  5
3E5
330
3A4
100
AcDbEntity
  8
0
100
AcDbBlockEnd
  0
BLOCK
  5
3E6
330
3AE
100
AcDbEntity
  8
0
100
AcDbBlockBegin
  2
*D4
 70
     1
 10
0.0
 20
0.0
 30
0.0
  3
*D4
  1

  0
TEXT
  5
3E7
330
3AE
100
AcDbEntity
  8
MO_001_VIEW_PV
  6
BYBLOCK
100
AcDbText
 10
-60.823243
 20
50.625
 30
0.0
 40
1.5
  1
%%P0.3
100
AcDbText
  0
TEXT
  5
3E8
330
3AE
100
AcDbEntity
  8
MO_001_VIEW_PV
  6
BYBLOCK
100
AcDbText
 10
-69.608958
 20
48.75
 30
0.0
 40
3.0
  1
3.6
100
AcDbText
  0
LINE
  5
3E9
330
3AE
100
AcDbEntity
  8
MO_001_VIEW_PV
  6
BYBLOCK
100
AcDbLine
 10
-53.517998
 20
48.0
 30
0.0
 11
-49.917999
 21
48.0
 31
0.0
  0
LINE
  5
3EA
330
3AE
100
AcDbEntity
  8
MO_001_VIEW_PV
  6
BYBLOCK
100
AcDbLine
 10
-53.517998
 20
48.0
 30
0.0
 11
-59.867998
 21
48.0
 31
0.0
  0
SOLID
  5
3EB
330
3AE
100
AcDbEntity
  8
MO_001_VIEW_PV
  6
BYBLOCK
100
AcDbTrace
 10
-56.83625799999999
 20
47.416488
 30
0.0
 11
-54.025998
 21
48.0
 31
0.0
 12
-56.83625799999999
 22
48.583512
 32
0.0
 13
-56.83625799999999
 23
48.583512
 33
0.0
  0
LINE
  5
3EC
330
3AE
100
AcDbEntity
  8
MO_001_VIEW_PV
  6
BYBLOCK
100
AcDbLine
 10
-53.517998
 20
20.831345
 30
0.0
 11
-53.517998
 21
50.28599899999999
 31
0.0
  0
LINE
  5
3ED
330
3AE
100
AcDbEntity
  8
MO_001_VIEW_PV
  6
BYBLOCK
100
AcDbLine
 10
-49.917999
 20
37.75
 30
0.0
 11
-49.917999
 21
50.28599899999999
 31
0.0
  0
LINE
  5
3EE
330
3AE
100
AcDbEntity
  8
MO_001_VIEW_PV
  6
BYBLOCK
100
AcDbLine
 10
-70.573242
 20
48.0
 30
0.0
 11
-53.517998
 21
48.0
 31
0.0
  0
ENDBLK
  5
3EF
330
3AE
100
AcDbEntity
  8
0
100
AcDbBlockEnd
  0
BLOCK
  5
3F0
330
3B0
100
AcDbEntity
  8
0
100
AcDbBlockBegin
  2
*D5
 70
     1
 10
0.0
 20
0.0
 30
0.0
  3
*D5
  1

  0
TEXT
  5
3F1
330
3B0
100
AcDbEntity
  8
MO_001_VIEW_PV
  6
BYBLOCK
100
AcDbText
 10
-32.295671
 20
50.625
 30
0.0
 40
1.5
  1
%%P0.1
100
AcDbText
  0
TEXT
  5
3F2
330
3B0
100
AcDbEntity
  8
MO_001_VIEW_PV
  6
BYBLOCK
100
AcDbText
 10
-41.08138499999999
 20
48.75
 30
0.0
 40
3.0
  1
4.0
100
AcDbText
  0
LINE
  5
3F3
330
3B0
100
AcDbEntity
  8
MO_001_VIEW_PV
  6
BYBLOCK
100
AcDbLine
 10
-49.917999
 20
48.0
 30
0.0
 11
-45.917999
 21
48.0
 31
0.0
  0
LINE
  5
3F4
330
3B0
100
AcDbEntity
  8
MO_001_VIEW_PV
  6
BYBLOCK
100
AcDbLine
 10
-45.917999
 20
48.0
 30
0.0
 11
-39.567999
 21
48.0
 31
0.0
  0
SOLID
  5
3F5
330
3B0
100
AcDbEntity
  8
MO_001_VIEW_PV
  6
BYBLOCK
100
AcDbTrace
 10
-49.917999
 20
48.635
 30
0.0
 11
-49.917999
 21
47.365
 31
0.0
 12
-49.917999
 22
48.635
 32
0.0
 13
-49.917999
 23
48.635
 33
0.0
  0
SOLID
  5
3F6
330
3B0
100
AcDbEntity
  8
MO_001_VIEW_PV
  6
BYBLOCK
100
AcDbTrace
 10
-42.599739
 20
48.583512
 30
0.0
 11
-45.409999
 21
48.0
 31
0.0
 12
-42.599739
 22
47.416488
 32
0.0
 13
-42.599739
 23
47.416488
 33
0.0
  0
LINE
  5
3F7
330
3B0
100
AcDbEntity
  8
MO_001_VIEW_PV
  6
BYBLOCK
100
AcDbLine
 10
-49.917999
 20
37.75
 30
0.0
 11
-49.917999
 21
50.28599899999999
 31
0.0
  0
LINE
  5
3F8
330
3B0
100
AcDbEntity
  8
MO_001_VIEW_PV
  6
BYBLOCK
100
AcDbLine
 10
-45.917999
 20
37.75
 30
0.0
 11
-45.917999
 21
50.28599899999999
 31
0.0
  0
LINE
  5
3F9
330
3B0
100
AcDbEntity
  8
MO_001_VIEW_PV
  6
BYBLOCK
100
AcDbLine
 10
-45.917999
 20
48.0
 30
0.0
 11
-25.974241
 21
48.0
 31
0.0
  0
ENDBLK
  5
3FA
330
3B0
100
AcDbEntity
  8
0
100
AcDbBlockEnd
  0
BLOCK
  5
3FB
330
3B2
100
AcDbEntity
  8
0
100
AcDbBlockBegin
  2
*D6
 70
     1
 10
0.0
 20
0.0
 30
0.0
  3
*D6
  1

  0
TEXT
  5
3FC
330
3B2
100
AcDbEntity
  8
MO_001_VIEW_PV
  6
BYBLOCK
100
AcDbText
 10
16.50528599999999
 20
62.625
 30
0.0
 40
1.5
  1
%%P0.5
100
AcDbText
  0
TEXT
  5
3FD
330
3B2
100
AcDbEntity
  8
MO_001_VIEW_PV
  6
BYBLOCK
100
AcDbText
 10
4.719572
 20
60.75
 30
0.0
 40
3.0
  1
26.6
100
AcDbText
  0
LINE
  5
3FE
330
3B2
100
AcDbEntity
  8
MO_001_VIEW_PV
  6
BYBLOCK
100
AcDbLine
 10
26.582001
 20
60.0
 30
0.0
 11
0.0
 21
60.0
 31
0.0
  0
SOLID
  5
3FF
330
3B2
100
AcDbEntity
  8
MO_001_VIEW_PV
  6
BYBLOCK
100
AcDbTrace
 10
23.263741
 20
59.416488
 30
0.0
 11
26.074001
 21
60.0
 31
0.0
 12
23.263741
 22
60.583512
 32
0.0
 13
23.263741
 23
60.583512
 33
0.0
  0
SOLID
  5
400
330
3B2
100
AcDbEntity
  8
MO_001_VIEW_PV
  6
BYBLOCK
100
AcDbTrace
 10
3.318259999999999
 20
60.583512
 30
0.0
 11
0.508
 21
60.0
 31
0.0
 12
3.318259999999999
 22
59.416488
 32
0.0
 13
3.318259999999999
 23
59.416488
 33
0.0
  0
LINE
  5
401
330
3B2
100
AcDbEntity
  8
MO_001_VIEW_PV
  6
BYBLOCK
100
AcDbLine
 10
26.582001
 20
5.255005
 30
0.0
 11
26.582001
 21
62.28599899999999
 31
0.0
  0
LINE
  5
402
330
3B2
100
AcDbEntity
  8
MO_001_VIEW_PV
  6
BYBLOCK
100
AcDbLine
 10
0.0
 20
37.69999699999999
 30
0.0
 11
0.0
 21
62.28599899999999
 31
0.0
  0
ENDBLK
  5
403
330
3B2
100
AcDbEntity
  8
0
100
AcDbBlockEnd
  0
BLOCK
  5
404
330
3B4
100
AcDbEntity
  8
0
100
AcDbBlockBegin
  2
*D7
 70
     1
 10
0.0
 20
0.0
 30
0.0
  3
*D7
  1

  0
TEXT
  5
405
330
3B4
100
AcDbEntity
  8
MO_001_VIEW_PV
  6
BYBLOCK
100
AcDbText
 10
13.814286
 20
56.625
 30
0.0
 40
1.5
  1
%%P0.5
100
AcDbText
  0
TEXT
  5
406
330
3B4
100
AcDbEntity
  8
MO_001_VIEW_PV
  6
BYBLOCK
100
AcDbText
 10
2.028572
 20
54.75
 30
0.0
 40
3.0
  1
21.2
100
AcDbText
  0
LINE
  5
407
330
3B4
100
AcDbEntity
  8
MO_001_VIEW_PV
  6
BYBLOCK
100
AcDbLine
 10
0.0
 20
54.0
 30
0.0
 11
21.20000099999999
 21
54.0
 31
0.0
  0
SOLID
  5
408
330
3B4
100
AcDbEntity
  8
MO_001_VIEW_PV
  6
BYBLOCK
100
AcDbTrace
 10
3.318259999999999
 20
54.583512
 30
0.0
 11
0.508
 21
54.0
 31
0.0
 12
3.318259999999999
 22
53.416488
 32
0.0
 13
3.318259999999999
 23
53.416488
 33
0.0
  0
SOLID
  5
409
330
3B4
100
AcDbEntity
  8
MO_001_VIEW_PV
  6
BYBLOCK
100
AcDbTrace
 10
17.881741
 20
53.416488
 30
0.0
 11
20.692001
 21
54.0
 31
0.0
 12
17.881741
 22
54.583512
 32
0.0
 13
17.881741
 23
54.583512
 33
0.0
  0
LINE
  5
40A
330
3B4
100
AcDbEntity
  8
MO_001_VIEW_PV
  6
BYBLOCK
100
AcDbLine
 10
0.0
 20
37.69999699999999
 30
0.0
 11
0.0
 21
56.285999
 31
0.0
  0
LINE
  5
40B
330
3B4
100
AcDbEntity
  8
MO_001_VIEW_PV
  6
BYBLOCK
100
AcDbLine
 10
21.20000099999999
 20
29.0
 30
0.0
 11
21.20000099999999
 21
56.285999
 31
0.0
  0
ENDBLK
  5
40C
330
3B4
100
AcDbEntity
  8
0
100
AcDbBlockEnd
  0
BLOCK
  5
40D
330
3B6
100
AcDbEntity
  8
0
100
AcDbBlockBegin
  2
*D8
 70
     1
 10
0.0
 20
0.0
 30
0.0
  3
*D8
  1

  0
TEXT
  5
40E
330
3B6
100
AcDbEntity
  8
MO_001_VIEW_PV
  6
BYBLOCK
100
AcDbText
 10
30.375
 20
29.46428599999999
 30
0.0
 40
1.5
  1
%%P0.03
 50
90.0
100
AcDbText
  0
TEXT
  5
40F
330
3B6
100
AcDbEntity
  8
MO_001_VIEW_PV
  6
BYBLOCK
100
AcDbText
 10
32.25
 20
11.67857099999999
 30
0.0
 40
3.0
  1
%%C11.11
 50
90.0
100
AcDbText
  0
LINE
  5
410
330
3B6
100
AcDbEntity
  8
MO_001_VIEW_PV
  6
BYBLOCK
100
AcDbLine
 10
33.0
 20
-5.554992999999999
 30
0.0
 11
33.0
 21
5.554992999999999
 31
0.0
  0
LINE
  5
411
330
3B6
100
AcDbEntity
  8
MO_001_VIEW_PV
  6
BYBLOCK
100
AcDbLine
 10
33.0
 20
-5.554992999999999
 30
0.0
 11
33.0
 21
-11.90499299999999
 31
0.0
  0
LINE
  5
412
330
3B6
100
AcDbEntity
  8
MO_001_VIEW_PV
  6
BYBLOCK
100
AcDbLine
 10
33.0
 20
5.554992999999999
 30
0.0
 11
33.0
 21
11.90499299999999
 31
0.0
  0
SOLID
  5
413
330
3B6
100
AcDbEntity
  8
MO_001_VIEW_PV
  6
BYBLOCK
100
AcDbTrace
 10
33.58351199999999
 20
-8.873253
 30
0.0
 11
33.0
 21
-6.062992999999999
 31
0.0
 12
32.416488
 22
-8.873253
 32
0.0
 13
32.416488
 23
-8.873253
 33
0.0
  0
SOLID
  5
414
330
3B6
100
AcDbEntity
  8
MO_001_VIEW_PV
  6
BYBLOCK
100
AcDbTrace
 10
32.416488
 20
8.873253
 30
0.0
 11
33.0
 21
6.062992999999999
 31
0.0
 12
33.58351199999999
 22
8.873253
 32
0.0
 13
33.58351199999999
 23
8.873253
 33
0.0
  0
LINE
  5
415
330
3B6
100
AcDbEntity
  8
MO_001_VIEW_PV
  6
BYBLOCK
100
AcDbLine
 10
26.282001
 20
-5.554992999999999
 30
0.0
 11
35.28599899999999
 21
-5.554992999999999
 31
0.0
  0
LINE
  5
416
330
3B6
100
AcDbEntity
  8
MO_001_VIEW_PV
  6
BYBLOCK
100
AcDbLine
 10
26.282001
 20
5.554992999999999
 30
0.0
 11
35.28599899999999
 21
5.554992999999999
 31
0.0
  0
LINE
  5
417
330
3B6
100
AcDbEntity
  8
MO_001_VIEW_PV
  6
BYBLOCK
100
AcDbLine
 10
33.0
 20
5.554992999999999
 30
0.0
 11
33.0
 21
37.285713
 31
0.0
  0
ENDBLK
  5
418
330
3B6
100
AcDbEntity
  8
0
100
AcDbBlockEnd
  0
BLOCK
  5
419
330
3BE
100
AcDbEntity
  8
0
100
AcDbBlockBegin
  2
*D9
 70
     1
 10
0.0
 20
0.0
 30
0.0
  3
*D9
  1

  0
TEXT
  5
41A
330
3BE
100
AcDbEntity
  8
MO_001_VIEW_PV
  6
BYBLOCK
100
AcDbText
 10
27.884176
 20
-47.25
 30
0.0
 40
3.0
  1
17.5以上
100
AcDbText
  0
LINE
  5
41B
330
3BE
100
AcDbEntity
  8
MO_001_VIEW_PV
  6
BYBLOCK
100
AcDbLine
 10
26.582001
 20
-48.0
 30
0.0
 11
8.782002
 21
-48.0
 31
0.0
  0
SOLID
  5
41C
330
3BE
100
AcDbEntity
  8
MO_001_VIEW_PV
  6
BYBLOCK
100
AcDbTrace
 10
23.263741
 20
-48.583512
 30
0.0
 11
26.074001
 21
-48.0
 31
0.0
 12
23.263741
 22
-47.416488
 32
0.0
 13
23.263741
 23
-47.416488
 33
0.0
  0
SOLID
  5
41D
330
3BE
100
AcDbEntity
  8
MO_001_VIEW_PV
  6
BYBLOCK
100
AcDbTrace
 10
12.10026299999999
 20
-47.416488
 30
0.0
 11
9.290002000000001
 21
-48.0
 31
0.0
 12
12.10026299999999
 22
-48.583512
 32
0.0
 13
12.10026299999999
 23
-48.583512
 33
0.0
  0
LINE
  5
41E
330
3BE
100
AcDbEntity
  8
MO_001_VIEW_PV
  6
BYBLOCK
100
AcDbLine
 10
26.582001
 20
-5.255005
 30
0.0
 11
26.582001
 21
-50.28599899999999
 31
0.0
  0
LINE
  5
41F
330
3BE
100
AcDbEntity
  8
MO_001_VIEW_PV
  6
BYBLOCK
100
AcDbLine
 10
8.782002
 20
4.154999
 30
0.0
 11
8.782002
 21
-50.28599899999999
 31
0.0
  0
LINE
  5
420
330
3BE
100
AcDbEntity
  8
MO_001_VIEW_PV
  6
BYBLOCK
100
AcDbLine
 10
45.991318
 20
-48.0
 30
0.0
 11
26.582001
 21
-48.0
 31
0.0
  0
ENDBLK
  5
421
330
3BE
100
AcDbEntity
  8
0
100
AcDbBlockEnd
  0
BLOCK
  5
422
330
3C0
100
AcDbEntity
  8
0
100
AcDbBlockBegin
  2
*D10
 70
     1
 10
0.0
 20
0.0
 30
0.0
  3
*D10
  1

  0
TEXT
  5
423
330
3C0
100
AcDbEntity
  8
MO_001_VIEW_PV
  6
BYBLOCK
100
AcDbText
 10
-32.330428
 20
54.75
 30
0.0
 40
3.0
  1
55以下
100
AcDbText
  0
LINE
  5
424
330
3C0
100
AcDbEntity
  8
MO_001_VIEW_PV
  6
BYBLOCK
100
AcDbLine
 10
-53.517998
 20
54.0
 30
0.0
 11
0.0
 21
54.0
 31
0.0
  0
SOLID
  5
425
330
3C0
100
AcDbEntity
  8
MO_001_VIEW_PV
  6
BYBLOCK
100
AcDbTrace
 10
-50.199738
 20
54.583512
 30
0.0
 11
-53.00999799999999
 21
54.0
 31
0.0
 12
-50.199738
 22
53.416488
 32
0.0
 13
-50.199738
 23
53.416488
 33
0.0
  0
SOLID
  5
426
330
3C0
100
AcDbEntity
  8
MO_001_VIEW_PV
  6
BYBLOCK
100
AcDbTrace
 10
-3.318259999999999
 20
53.416488
 30
0.0
 11
-0.508
 21
54.0
 31
0.0
 12
-3.318259999999999
 22
54.583512
 32
0.0
 13
-3.318259999999999
 23
54.583512
 33
0.0
  0
LINE
  5
427
330
3C0
100
AcDbEntity
  8
MO_001_VIEW_PV
  6
BYBLOCK
100
AcDbLine
 10
-53.517998
 20
20.831345
 30
0.0
 11
-53.517998
 21
56.285999
 31
0.0
  0
LINE
  5
428
330
3C0
100
AcDbEntity
  8
MO_001_VIEW_PV
  6
BYBLOCK
100
AcDbLine
 10
0.0
 20
37.69999699999999
 30
0.0
 11
0.0
 21
56.285999
 31
0.0
  0
ENDBLK
  5
429
330
3C0
100
AcDbEntity
  8
0
100
AcDbBlockEnd
  0
BLOCK
  5
42A
330
3C2
100
AcDbEntity
  8
0
100
AcDbBlockBegin
  2
*D11
 70
     1
 10
0.0
 20
0.0
 30
0.0
  3
*D11
  1

  0
TEXT
  5
42B
330
3C2
100
AcDbEntity
  8
MO_001_VIEW_PV
  6
BYBLOCK
100
AcDbText
 10
-33.544713
 20
62.625
 30
0.0
 40
1.5
  1
%%P1.0
100
AcDbText
  0
TEXT
  5
42C
330
3C2
100
AcDbEntity
  8
MO_001_VIEW_PV
  6
BYBLOCK
100
AcDbText
 10
-45.330428
 20
60.75
 30
0.0
 40
3.0
  1
73.5
100
AcDbText
  0
LINE
  5
42D
330
3C2
100
AcDbEntity
  8
MO_001_VIEW_PV
  6
BYBLOCK
100
AcDbLine
 10
0.0
 20
60.0
 30
0.0
 11
-73.51799799999999
 21
60.0
 31
0.0
  0
SOLID
  5
42E
330
3C2
100
AcDbEntity
  8
MO_001_VIEW_PV
  6
BYBLOCK
100
AcDbTrace
 10
-3.318259999999999
 20
59.416488
 30
0.0
 11
-0.508
 21
60.0
 31
0.0
 12
-3.318259999999999
 22
60.583512
 32
0.0
 13
-3.318259999999999
 23
60.583512
 33
0.0
  0
SOLID
  5
42F
330
3C2
100
AcDbEntity
  8
MO_001_VIEW_PV
  6
BYBLOCK
100
AcDbTrace
 10
-70.19973799999999
 20
60.583512
 30
0.0
 11
-73.00999799999999
 21
60.0
 31
0.0
 12
-70.19973799999999
 22
59.416488
 32
0.0
 13
-70.19973799999999
 23
59.416488
 33
0.0
  0
LINE
  5
430
330
3C2
100
AcDbEntity
  8
MO_001_VIEW_PV
  6
BYBLOCK
100
AcDbLine
 10
0.0
 20
37.69999699999999
 30
0.0
 11
0.0
 21
62.28599899999999
 31
0.0
  0
LINE
  5
431
330
3C2
100
AcDbEntity
  8
MO_001_VIEW_PV
  6
BYBLOCK
100
AcDbLine
 10
-73.51799799999999
 20
5.409408999999999
 30
0.0
 11
-73.51799799999999
 21
62.28599899999999
 31
0.0
  0
ENDBLK
  5
432
330
3C2
100
AcDbEntity
  8
0
100
AcDbBlockEnd
  0
ENDSEC
  0
SECTION
  2
ENTITIES
  0
TEXT
  5
4B
330
1E
100
AcDbEntity
  8
OVERLAY_MAP
  6
C_SOLID_L
100
AcDbText
 10
0.0
 20
6.349999999999999
 30
0.0
 40
4.1672
  1
Model Overlay Name
100
AcDbText
  0
TEXT
  5
4C
330
1E
100
AcDbEntity
  8
OVERLAY_MAP
  6
C_SOLID_L
100
AcDbText
 10
126.999998
 20
0.0
 30
0.0
 40
4.1672
  1
Number
100
AcDbText
  0
TEXT
  5
4D
330
1E
100
AcDbEntity
  8
OVERLAY_MAP
  6
C_SOLID_L
100
AcDbText
 10
177.7999969999999
 20
0.0
 30
0.0
 40
4.1672
  1
File Text
100
AcDbText
  0
TEXT
  5
4E
330
1E
100
AcDbEntity
  8
OVERLAY_MAP
  6
C_SOLID_L
100
AcDbText
 10
0.0
 20
-6.349999999999999
 30
0.0
 40
4.1672
  1
ro 8s349 
100
AcDbText
  0
TEXT
  5
4F
330
1E
100
AcDbEntity
  8
OVERLAY_MAP
  6
C_SOLID_L
100
AcDbText
 10
126.999998
 20
-6.349999999999999
 30
0.0
 40
4.1672
  1
001
100
AcDbText
  0
TEXT
  5
50
330
1E
100
AcDbEntity
  8
OVERLAY_MAP
  6
C_SOLID_L
100
AcDbText
 10
177.7999969999999
 20
-6.349999999999999
 30
0.0
 40
4.1672
  1
                                                                   00139
100
AcDbText
  0
LINE
  5
51
330
1E
100
AcDbEntity
  8
MO_001_VIEW_PV
  6
C_CENTER_L
100
AcDbLine
 10
45.0
 20
0.0
 30
0.0
 11
135.0
 21
0.0
 31
0.0
  0
LINE
  5
52
330
1E
100
AcDbEntity
  8
MO_001_VIEW_PV
  6
C_CENTER_L
100
AcDbLine
 10
90.0
 20
45.849998
 30
0.0
 11
90.0
 21
-45.849998
 31
0.0
  0
CIRCLE
  5
53
330
1E
100
AcDbEntity
  8
MO_001_VIEW_PV
  6
C_SOLID_M
100
AcDbCircle
 10
90.0
 20
0.0
 30
0.0
 40
42.849998
  0
CIRCLE
  5
54
330
1E
100
AcDbEntity
  8
MO_001_VIEW_PV
  6
C_SOLID_M
100
AcDbCircle
 10
90.0
 20
0.0
 30
0.0
 40
42.04999899999999
  0
CIRCLE
  5
55
330
1E
100
AcDbEntity
  8
MO_001_VIEW_PV
  6
C_SOLID_M
100
AcDbCircle
 10
90.0
 20
0.0
 30
0.0
 40
38.25
  0
CIRCLE
  5
56
330
1E
100
AcDbEntity
  8
MO_001_VIEW_PV
  6
C_SOLID_M
100
AcDbCircle
 10
90.0
 20
0.0
 30
0.0
 40
37.850002
  0
LINE
  5
57
330
1E
100
AcDbEntity
  8
MO_001_VIEW_PV
  6
C_CENTER_L
100
AcDbLine
 10
84.0
 20
27.0
 30
0.0
 11
96.0
 21
27.0
 31
0.0
  0
CIRCLE
  5
58
330
1E
100
AcDbEntity
  8
MO_001_VIEW_PV
  6
C_SOLID_M
100
AcDbCircle
 10
90.0
 20
27.0
 30
0.0
 40
2.0
  0
CIRCLE
  5
59
330
1E
100
AcDbEntity
  8
MO_001_VIEW_PV
  6
C_SOLID_M
100
AcDbCircle
 10
90.0
 20
27.0
 30
0.0
 40
3.0
  0
CIRCLE
  5
5A
330
1E
100
AcDbEntity
  8
MO_001_VIEW_PV
  6
C_SOLID_M
100
AcDbCircle
 10
90.0
 20
0.0
 30
0.0
 40
5.254999999999999
  0
CIRCLE
  5
5B
330
1E
100
AcDbEntity
  8
MO_001_VIEW_PV
  6
C_SOLID_M
100
AcDbCircle
 10
90.0
 20
0.0
 30
0.0
 40
5.554999999999999
  0
CIRCLE
  5
5C
330
1E
100
AcDbEntity
  8
MO_001_VIEW_PV
  6
C_SOLID_M
100
AcDbCircle
 10
90.0
 20
-27.0
 30
0.0
 40
3.0
  0
CIRCLE
  5
5D
330
1E
100
AcDbEntity
  8
MO_001_VIEW_PV
  6
C_SOLID_M
100
AcDbCircle
 10
90.0
 20
-27.0
 30
0.0
 40
2.0
  0
LINE
  5
5E
330
1E
100
AcDbEntity
  8
MO_001_VIEW_PV
  6
C_CENTER_L
100
AcDbLine
 10
84.0
 20
-27.0
 30
0.0
 11
96.0
 21
-27.0
 31
0.0
  0
CIRCLE
  5
5F
330
1E
100
AcDbEntity
  8
MO_001_VIEW_PV
  6
C_SOLID_M
100
AcDbCircle
 10
90.0
 20
0.0
 30
0.0
 40
37.700001
  0
CIRCLE
  5
60
330
1E
100
AcDbEntity
  8
MO_001_VIEW_PV
  6
C_SOLID_M
100
AcDbCircle
 10
90.0
 20
27.0
 30
0.0
 40
3.299999999999999
  0
CIRCLE
  5
61
330
1E
100
AcDbEntity
  8
MO_001_VIEW_PV
  6
C_SOLID_M
100
AcDbCircle
 10
63.0
 20
0.0
 30
0.0
 40
3.299999999999999
  0
CIRCLE
  5
62
330
1E
100
AcDbEntity
  8
MO_001_VIEW_PV
  6
C_SOLID_M
100
AcDbCircle
 10
90.0
 20
-27.0
 30
0.0
 40
3.299999999999999
  0
CIRCLE
  5
63
330
1E
100
AcDbEntity
  8
MO_001_VIEW_PV
  6
C_SOLID_M
100
AcDbCircle
 10
117.0
 20
0.0
 30
0.0
 40
3.299999999999999
  0
ARC
  5
64
330
1E
100
AcDbEntity
  8
MO_001_VIEW_PV
  6
C_SOLID_M
100
AcDbCircle
 10
80.61530299999999
 20
11.184249
 30
0.0
 40
3.299999999999999
100
AcDbArc
 50
57.472757
 51
202.63461
  0
ARC
  5
65
330
1E
100
AcDbEntity
  8
MO_001_VIEW_PV
  6
C_SOLID_M
100
AcDbCircle
 10
90.0
 20
0.0
 30
0.0
 40
15.9
100
AcDbArc
 50
101.4114249999999
 51
118.588558
  0
ARC
  5
66
330
1E
100
AcDbEntity
  8
MO_001_VIEW_PV
  6
C_SOLID_M
100
AcDbCircle
 10
90.0
 20
0.0
 30
0.0
 40
16.89999999999999
100
AcDbArc
 50
101.9231219999999
 51
118.076854
  0
LINE
  5
67
330
1E
100
AcDbEntity
  8
MO_001_VIEW_PV
  6
C_SOLID_M
100
AcDbLine
 10
86.508479
 20
16.535397
 30
0.0
 11
86.854147
 21
15.585684
 31
0.0
  0
LINE
  5
68
330
1E
100
AcDbEntity
  8
MO_001_VIEW_PV
  6
C_SOLID_M
100
AcDbLine
 10
82.045928
 20
14.911164
 30
0.0
 11
82.39159499999999
 21
13.961451
 31
0.0
  0
LINE
  5
69
330
1E
100
AcDbEntity
  8
MO_001_VIEW_PV
  6
C_SOLID_M
100
AcDbLine
 10
86.508473
 20
16.535391
 30
0.0
 11
87.46121700000001
 21
16.708216
 31
0.0
  0
LINE
  5
6A
330
1E
100
AcDbEntity
  8
MO_001_VIEW_PV
  6
C_SOLID_M
100
AcDbLine
 10
82.04593499999999
 20
14.91116099999999
 30
0.0
 11
81.20500099999999
 21
14.431141
 31
0.0
  0
ARC
  5
6B
330
1E
100
AcDbEntity
  8
MO_001_VIEW_PV
  6
C_SOLID_M
100
AcDbCircle
 10
75.621811
 20
2.535265
 30
0.0
 40
3.299999999999999
100
AcDbArc
 50
97.472755
 51
242.6346019999999
  0
ARC
  5
6C
330
1E
100
AcDbEntity
  8
MO_001_VIEW_PV
  6
C_SOLID_M
100
AcDbCircle
 10
90.0
 20
0.0
 30
0.0
 40
15.9
100
AcDbArc
 50
141.4114309999999
 51
158.5885639999999
  0
ARC
  5
6D
330
1E
100
AcDbEntity
  8
MO_001_VIEW_PV
  6
C_SOLID_M
100
AcDbCircle
 10
90.0
 20
0.0
 30
0.0
 40
16.89999999999999
100
AcDbArc
 50
141.923121
 51
158.07686
  0
LINE
  5
6E
330
1E
100
AcDbEntity
  8
MO_001_VIEW_PV
  6
C_SOLID_M
100
AcDbLine
 10
76.69660799999999
 20
10.42252
 30
0.0
 11
77.57186400000001
 21
9.917191
 31
0.0
  0
LINE
  5
6F
330
1E
100
AcDbEntity
  8
MO_001_VIEW_PV
  6
C_SOLID_M
100
AcDbLine
 10
74.322129
 20
6.309814
 30
0.0
 11
75.19739100000001
 21
5.804481
 31
0.0
  0
LINE
  5
70
330
1E
100
AcDbEntity
  8
MO_001_VIEW_PV
  6
C_SOLID_M
100
AcDbLine
 10
76.696591
 20
10.42253399999999
 30
0.0
 11
77.31534599999999
 21
11.167338
 31
0.0
  0
LINE
  5
71
330
1E
100
AcDbEntity
  8
MO_001_VIEW_PV
  6
C_SOLID_M
100
AcDbLine
 10
74.32210600000001
 20
6.309801
 30
0.0
 11
73.98646499999999
 21
5.401542
 31
0.0
  0
ARC
  5
72
330
1E
100
AcDbEntity
  8
MO_001_VIEW_PV
  6
C_SOLID_M
100
AcDbCircle
 10
77.356033
 20
-7.299996000000001
 30
0.0
 40
3.299999999999999
100
AcDbArc
 50
137.472761
 51
282.6345939999999
  0
ARC
  5
73
330
1E
100
AcDbEntity
  8
MO_001_VIEW_PV
  6
C_SOLID_M
100
AcDbCircle
 10
90.0
 20
0.0
 30
0.0
 40
15.9
100
AcDbArc
 50
181.41144
 51
198.5885729999999
  0
ARC
  5
74
330
1E
100
AcDbEntity
  8
MO_001_VIEW_PV
  6
C_SOLID_M
100
AcDbCircle
 10
90.0
 20
0.0
 30
0.0
 40
16.89999999999999
100
AcDbArc
 50
181.92313
 51
198.0768689999999
  0
LINE
  5
75
330
1E
100
AcDbEntity
  8
MO_001_VIEW_PV
  6
C_SOLID_M
100
AcDbLine
 10
73.109538
 20
-0.5671420000000001
 30
0.0
 11
74.104842
 21
-0.391643
 31
0.0
  0
LINE
  5
76
330
1E
100
AcDbEntity
  8
MO_001_VIEW_PV
  6
C_SOLID_M
100
AcDbLine
 10
73.934178
 20
-5.243946
 30
0.0
 11
74.929489
 21
-5.068444999999999
 31
0.0
  0
LINE
  5
77
330
1E
100
AcDbEntity
  8
MO_001_VIEW_PV
  6
C_SOLID_M
100
AcDbLine
 10
73.10953600000001
 20
-0.5671390000000001
 30
0.0
 11
73.10477900000001
 21
0.4011420000000001
 31
0.0
  0
LINE
  5
78
330
1E
100
AcDbEntity
  8
MO_001_VIEW_PV
  6
C_SOLID_M
100
AcDbLine
 10
73.934153
 20
-5.243958
 30
0.0
 11
74.26085400000001
 21
-6.155470999999999
 31
0.0
  0
ARC
  5
79
330
1E
100
AcDbEntity
  8
MO_001_VIEW_PV
  6
C_SOLID_M
100
AcDbCircle
 10
85.006508
 20
-13.719507
 30
0.0
 40
3.299999999999999
100
AcDbArc
 50
177.472767
 51
322.634586
  0
ARC
  5
7A
330
1E
100
AcDbEntity
  8
MO_001_VIEW_PV
  6
C_SOLID_M
100
AcDbCircle
 10
90.0
 20
0.0
 30
0.0
 40
15.9
100
AcDbArc
 50
221.4114459999999
 51
238.588579
  0
ARC
  5
7B
330
1E
100
AcDbEntity
  8
MO_001_VIEW_PV
  6
C_SOLID_M
100
AcDbCircle
 10
90.0
 20
0.0
 30
0.0
 40
16.89999999999999
100
AcDbArc
 50
221.923136
 51
238.0768749999999
  0
LINE
  5
7C
330
1E
100
AcDbEntity
  8
MO_001_VIEW_PV
  6
C_SOLID_M
100
AcDbLine
 10
77.42569499999999
 20
-11.291447
 30
0.0
 11
78.075334
 21
-10.517238
 31
0.0
  0
LINE
  5
7D
330
1E
100
AcDbEntity
  8
MO_001_VIEW_PV
  6
C_SOLID_M
100
AcDbLine
 10
81.06359499999999
 20
-14.344017
 30
0.0
 11
81.713239
 21
-13.569801
 31
0.0
  0
LINE
  5
7E
330
1E
100
AcDbEntity
  8
MO_001_VIEW_PV
  6
C_SOLID_M
100
AcDbLine
 10
77.425703
 20
-11.291446
 30
0.0
 11
76.79966
 21
-10.552758
 31
0.0
  0
LINE
  5
7F
330
1E
100
AcDbEntity
  8
MO_001_VIEW_PV
  6
C_SOLID_M
100
AcDbLine
 10
81.063617
 20
-14.344016
 30
0.0
 11
81.899794
 21
-14.832276
 31
0.0
  0
ARC
  5
80
330
1E
100
AcDbEntity
  8
MO_001_VIEW_PV
  6
C_SOLID_M
100
AcDbCircle
 10
94.99349200000001
 20
-13.719507
 30
0.0
 40
3.299999999999999
100
AcDbArc
 50
217.4727759999999
 51
343.095297
  0
ARC
  5
81
330
1E
100
AcDbEntity
  8
MO_001_VIEW_PV
  6
C_SOLID_M
100
AcDbCircle
 10
90.0
 20
0.0
 30
0.0
 40
15.9
100
AcDbArc
 50
261.411444
 51
278.588578
  0
ARC
  5
82
330
1E
100
AcDbEntity
  8
MO_001_VIEW_PV
  6
C_SOLID_M
100
AcDbCircle
 10
90.0
 20
0.0
 30
0.0
 40
16.89999999999999
100
AcDbArc
 50
261.923135
 51
278.076874
  0
LINE
  5
83
330
1E
100
AcDbEntity
  8
MO_001_VIEW_PV
  6
C_SOLID_M
100
AcDbLine
 10
87.62553
 20
-16.732357
 30
0.0
 11
87.62552900000001
 21
-15.72170299999999
 31
0.0
  0
LINE
  5
84
330
1E
100
AcDbEntity
  8
MO_001_VIEW_PV
  6
C_SOLID_M
100
AcDbLine
 10
92.374477
 20
-16.732364
 30
0.0
 11
92.374477
 21
-15.72170199999999
 31
0.0
  0
LINE
  5
85
330
1E
100
AcDbEntity
  8
MO_001_VIEW_PV
  6
C_SOLID_M
100
AcDbLine
 10
87.625522
 20
-16.73235899999999
 30
0.0
 11
86.67112499999999
 21
-16.56890299999999
 31
0.0
  0
LINE
  5
86
330
1E
100
AcDbEntity
  8
MO_001_VIEW_PV
  6
C_SOLID_M
100
AcDbLine
 10
92.37448499999999
 20
-16.73236099999999
 30
0.0
 11
93.32888199999999
 21
-16.56890499999999
 31
0.0
  0
ARC
  5
87
330
1E
100
AcDbEntity
  8
MO_001_VIEW_PV
  6
C_SOLID_M
100
AcDbCircle
 10
102.643967
 20
-7.299997
 30
0.0
 40
3.299999999999999
100
AcDbArc
 50
257.472775
 51
42.634577
  0
ARC
  5
88
330
1E
100
AcDbEntity
  8
MO_001_VIEW_PV
  6
C_SOLID_M
100
AcDbCircle
 10
90.0
 20
0.0
 30
0.0
 40
15.9
100
AcDbArc
 50
301.411443
 51
318.588577
  0
ARC
  5
89
330
1E
100
AcDbEntity
  8
MO_001_VIEW_PV
  6
C_SOLID_M
100
AcDbCircle
 10
90.0
 20
0.0
 30
0.0
 40
16.89999999999999
100
AcDbArc
 50
301.923134
 51
318.076873
  0
LINE
  5
8A
330
1E
100
AcDbEntity
  8
MO_001_VIEW_PV
  6
C_SOLID_M
100
AcDbLine
 10
98.93639100000001
 20
-14.34401499999999
 30
0.0
 11
98.28675200000001
 21
-13.56980599999999
 31
0.0
  0
LINE
  5
8B
330
1E
100
AcDbEntity
  8
MO_001_VIEW_PV
  6
C_SOLID_M
100
AcDbLine
 10
102.5742999999999
 20
-11.291455
 30
0.0
 11
101.924656
 21
-10.51723999999999
 31
0.0
  0
LINE
  5
8C
330
1E
100
AcDbEntity
  8
MO_001_VIEW_PV
  6
C_SOLID_M
100
AcDbLine
 10
98.299123
 20
-14.716139
 30
0.0
 11
98.100219
 21
-14.83228299999999
 31
0.0
  0
LINE
  5
8D
330
1E
100
AcDbEntity
  8
MO_001_VIEW_PV
  6
C_SOLID_M
100
AcDbLine
 10
102.574328
 20
-11.291435
 30
0.0
 11
103.2003709999999
 21
-10.552746
 31
0.0
  0
ARC
  5
8E
330
1E
100
AcDbEntity
  8
MO_001_VIEW_PV
  6
C_SOLID_M
100
AcDbCircle
 10
104.3781889999999
 20
2.535263
 30
0.0
 40
3.299999999999999
100
AcDbArc
 50
297.472774
 51
82.634579
  0
ARC
  5
8F
330
1E
100
AcDbEntity
  8
MO_001_VIEW_PV
  6
C_SOLID_M
100
AcDbCircle
 10
90.0
 20
0.0
 30
0.0
 40
15.9
100
AcDbArc
 50
341.411444
 51
358.5885769999999
  0
ARC
  5
90
330
1E
100
AcDbEntity
  8
MO_001_VIEW_PV
  6
C_SOLID_M
100
AcDbCircle
 10
90.0
 20
0.0
 30
0.0
 40
16.89999999999999
100
AcDbArc
 50
341.923134
 51
358.0768729999999
  0
LINE
  5
91
330
1E
100
AcDbEntity
  8
MO_001_VIEW_PV
  6
C_SOLID_M
100
AcDbLine
 10
106.065857
 20
-5.243942999999999
 30
0.0
 11
105.07056
 21
-5.068445999999999
 31
0.0
  0
LINE
  5
92
330
1E
100
AcDbEntity
  8
MO_001_VIEW_PV
  6
C_SOLID_M
100
AcDbLine
 10
106.890518
 20
-0.5671430000000001
 30
0.0
 11
105.8952059999999
 21
-0.391643
 31
0.0
  0
LINE
  5
93
330
1E
100
AcDbEntity
  8
MO_001_VIEW_PV
  6
C_SOLID_M
100
AcDbLine
 10
106.0658149999999
 20
-5.243958999999999
 30
0.0
 11
105.7391139999999
 21
-6.155469999999999
 31
0.0
  0
LINE
  5
94
330
1E
100
AcDbEntity
  8
MO_001_VIEW_PV
  6
C_SOLID_M
100
AcDbLine
 10
106.8905199999999
 20
-0.567125
 30
0.0
 11
106.895277
 21
0.4011560000000001
 31
0.0
  0
ARC
  5
95
330
1E
100
AcDbEntity
  8
MO_001_VIEW_PV
  6
C_SOLID_M
100
AcDbCircle
 10
99.38470500000001
 20
11.18424599999999
 30
0.0
 40
3.299999999999999
100
AcDbArc
 50
337.472774
 51
122.634585
  0
ARC
  5
96
330
1E
100
AcDbEntity
  8
MO_001_VIEW_PV
  6
C_SOLID_M
100
AcDbCircle
 10
90.0
 20
0.0
 30
0.0
 40
15.9
100
AcDbArc
 50
21.411444
 51
38.588578
  0
ARC
  5
97
330
1E
100
AcDbEntity
  8
MO_001_VIEW_PV
  6
C_SOLID_M
100
AcDbCircle
 10
90.0
 20
0.0
 30
0.0
 40
16.89999999999999
100
AcDbArc
 50
21.923135
 51
38.07687399999999
  0
LINE
  5
98
330
1E
100
AcDbEntity
  8
MO_001_VIEW_PV
  6
C_SOLID_M
100
AcDbLine
 10
105.677897
 20
6.309825
 30
0.0
 11
104.802641
 21
5.804496
 31
0.0
  0
LINE
  5
99
330
1E
100
AcDbEntity
  8
MO_001_VIEW_PV
  6
C_SOLID_M
100
AcDbLine
 10
103.303429
 20
10.422538
 30
0.0
 11
102.428167
 21
9.917203999999999
 31
0.0
  0
LINE
  5
9A
330
1E
100
AcDbEntity
  8
MO_001_VIEW_PV
  6
C_SOLID_M
100
AcDbLine
 10
105.677878
 20
6.309809999999999
 30
0.0
 11
106.0135179999999
 21
5.401553999999999
 31
0.0
  0
LINE
  5
9B
330
1E
100
AcDbEntity
  8
MO_001_VIEW_PV
  6
C_SOLID_M
100
AcDbLine
 10
103.3034039999999
 20
10.422545
 30
0.0
 11
102.684649
 21
11.16734899999999
 31
0.0
  0
ARC
  5
9C
330
1E
100
AcDbEntity
  8
MO_001_VIEW_PV
  6
C_SOLID_M
100
AcDbCircle
 10
90.0
 20
14.599997
 30
0.0
 40
3.299999999999999
100
AcDbArc
 50
17.472775
 51
162.6345909999999
  0
ARC
  5
9D
330
1E
100
AcDbEntity
  8
MO_001_VIEW_PV
  6
C_SOLID_M
100
AcDbCircle
 10
90.0
 20
0.0
 30
0.0
 40
15.9
100
AcDbArc
 50
61.41144699999999
 51
78.58858000000001
  0
ARC
  5
9E
330
1E
100
AcDbEntity
  8
MO_001_VIEW_PV
  6
C_SOLID_M
100
AcDbCircle
 10
90.0
 20
0.0
 30
0.0
 40
16.89999999999999
100
AcDbArc
 50
61.923137
 51
78.076876
  0
LINE
  5
9F
330
1E
100
AcDbEntity
  8
MO_001_VIEW_PV
  6
C_SOLID_M
100
AcDbLine
 10
97.954083
 20
14.911154
 30
0.0
 11
97.60841800000001
 21
13.96144599999999
 31
0.0
  0
LINE
  5
A0
330
1E
100
AcDbEntity
  8
MO_001_VIEW_PV
  6
C_SOLID_M
100
AcDbLine
 10
93.49153499999999
 20
16.535396
 30
0.0
 11
93.14586700000001
 21
15.585681
 31
0.0
  0
LINE
  5
A1
330
1E
100
AcDbEntity
  8
MO_001_VIEW_PV
  6
C_SOLID_M
100
AcDbLine
 10
97.95408000000001
 20
14.911171
 30
0.0
 11
98.79500700000001
 21
14.431155
 31
0.0
  0
LINE
  5
A2
330
1E
100
AcDbEntity
  8
MO_001_VIEW_PV
  6
C_SOLID_M
100
AcDbLine
 10
93.491502
 20
16.535389
 30
0.0
 11
92.53875800000001
 21
16.708213
 31
0.0
  0
ARC
  5
A3
330
1E
100
AcDbEntity
  8
MO_001_VIEW_PV
  6
C_SOLID_M
100
AcDbCircle
 10
90.0
 20
0.0
 30
0.0
 40
15.9
100
AcDbArc
 50
273.7990779999999
 51
90.000002
  0
ARC
  5
A4
330
1E
100
AcDbEntity
  8
MO_001_VIEW_PV
  6
C_SOLID_M
100
AcDbCircle
 10
90.0
 20
0.0
 30
0.0
 40
5.554999999999999
100
AcDbArc
 50
269.999998
 51
342.736598
  0
ARC
  5
A5
330
1E
100
AcDbEntity
  8
MO_001_VIEW_PV
  6
C_SOLID_M
100
AcDbCircle
 10
90.0
 20
0.0
 30
0.0
 40
17.1
100
AcDbArc
 50
304.007342
 51
311.84482
  0
ARC
  5
A6
330
1E
100
AcDbEntity
  8
MO_001_VIEW_PV
  6
C_SOLID_M
100
AcDbCircle
 10
90.0
 20
0.0
 30
0.0
 40
15.4
100
AcDbArc
 50
269.999998
 51
90.000002
  0
ARC
  5
A7
330
1E
100
AcDbEntity
  8
MO_001_VIEW_PV
  6
C_SOLID_M
100
AcDbCircle
 10
90.0
 20
0.0
 30
0.0
 40
17.6
100
AcDbArc
 50
304.007342
 51
311.84482
  0
LINE
  5
A8
330
1E
100
AcDbEntity
  8
MO_001_VIEW_PV
  6
C_SOLID_M
100
AcDbLine
 10
101.741231
 20
-13.1112
 30
0.0
 11
101.407678
 21
-12.738728
 31
0.0
  0
ARC
  5
A9
330
1E
100
AcDbEntity
  8
MO_001_VIEW_PV
  6
C_SOLID_M
100
AcDbCircle
 10
99.00471500000001
 20
-13.346351
 30
0.0
 40
1.5
100
AcDbArc
 50
255.9664109999999
 51
304.007342
  0
ARC
  5
AA
330
1E
100
AcDbEntity
  8
MO_001_VIEW_PV
  6
C_SOLID_M
100
AcDbCircle
 10
97.031921
 20
-16.46092399999999
 30
0.0
 40
2.0
100
AcDbArc
 50
75.96640900000001
 51
113.131633
  0
LINE
  5
AB
330
1E
100
AcDbEntity
  8
MO_001_VIEW_PV
  6
C_SOLID_M
100
AcDbLine
 10
97.51690600000001
 20
-14.520613
 30
0.0
 11
98.640985
 21
-14.80157799999999
 31
0.0
  0
ARC
  5
AC
330
1E
100
AcDbEntity
  8
MO_001_VIEW_PV
  6
C_SOLID_M
100
AcDbCircle
 10
99.00471500000001
 20
-13.346351
 30
0.0
 40
1.0
100
AcDbArc
 50
255.9664109999999
 51
304.007342
  0
LINE
  5
AD
330
1E
100
AcDbEntity
  8
MO_001_VIEW_PV
  6
C_SOLID_M
100
AcDbLine
 10
97.63815100000002
 20
-14.03553699999999
 30
0.0
 11
98.762231
 21
-14.316501
 31
0.0
  0
ARC
  5
AE
330
1E
100
AcDbEntity
  8
MO_001_VIEW_PV
  6
C_SOLID_M
100
AcDbCircle
 10
97.031921
 20
-16.46092399999999
 30
0.0
 40
2.5
100
AcDbArc
 50
75.96640900000001
 51
78.734268
  0
LINE
  5
AF
330
1E
100
AcDbEntity
  8
MO_001_VIEW_PV
  6
C_SOLID_M
100
AcDbLine
 10
91.053522
 20
-15.865066
 30
0.0
 11
91.02039299999999
 21
-15.366165
 31
0.0
  0
ARC
  5
B0
330
1E
100
AcDbEntity
  8
MO_001_VIEW_PV
  6
C_SOLID_M
100
AcDbCircle
 10
90.0
 20
0.25
 30
0.0
 40
15.65
100
AcDbArc
 50
90.000002
 51
270.000001
  0
ARC
  5
B1
330
1E
100
AcDbEntity
  8
MO_001_VIEW_PV
  6
C_SOLID_M
100
AcDbCircle
 10
90.0
 20
0.25
 30
0.0
 40
15.15
100
AcDbArc
 50
90.000002
 51
270.000001
  0
ARC
  5
B2
330
1E
100
AcDbEntity
  8
MO_001_VIEW_PV
  6
C_SOLID_M
100
AcDbCircle
 10
90.0
 20
0.0
 30
0.0
 40
14.9
100
AcDbArc
 50
269.999998
 51
90.000002
  0
ARC
  5
B3
330
1E
100
AcDbEntity
  8
MO_001_VIEW_PV
  6
C_SOLID_M
100
AcDbCircle
 10
90.0
 20
0.25
 30
0.0
 40
14.65
100
AcDbArc
 50
90.000002
 51
270.000001
  0
ARC
  5
B4
330
1E
100
AcDbEntity
  8
MO_001_VIEW_PV
  6
C_SOLID_M
100
AcDbCircle
 10
93.394852
 20
-1.054999999999999
 30
0.0
 40
2.5
100
AcDbArc
 50
342.736598
 51
30.405328
  0
ARC
  5
B5
330
1E
100
AcDbEntity
  8
MO_001_VIEW_PV
  6
C_SOLID_M
100
AcDbCircle
 10
90.0
 20
0.0
 30
0.0
 40
6.054999999999999
100
AcDbArc
 50
269.999998
 51
90.000002
  0
ARC
  5
B6
330
1E
100
AcDbEntity
  8
MO_001_VIEW_PV
  6
C_SOLID_M
100
AcDbCircle
 10
90.0
 20
0.25
 30
0.0
 40
5.804999999999999
100
AcDbArc
 50
90.000002
 51
270.000001
  0
ARC
  5
B7
330
1E
100
AcDbEntity
  8
MO_001_VIEW_PV
  6
C_SOLID_M
100
AcDbCircle
 10
90.0
 20
0.25
 30
0.0
 40
6.304999999999999
100
AcDbArc
 50
90.000002
 51
270.000001
  0
ARC
  5
B8
330
1E
100
AcDbEntity
  8
MO_001_VIEW_PV
  6
C_SOLID_M
100
AcDbCircle
 10
90.0
 20
0.0
 30
0.0
 40
6.554999999999999
100
AcDbArc
 50
269.999998
 51
90.000002
  0
ARC
  5
B9
330
1E
100
AcDbEntity
  8
MO_001_VIEW_PV
  6
C_SOLID_M
100
AcDbCircle
 10
90.0
 20
0.25
 30
0.0
 40
6.804999999999999
100
AcDbArc
 50
90.000002
 51
270.000001
  0
ARC
  5
BA
330
1E
100
AcDbEntity
  8
MO_001_VIEW_PV
  6
C_SOLID_M
100
AcDbCircle
 10
90.0
 20
0.0
 30
0.0
 40
7.054999999999999
100
AcDbArc
 50
269.999998
 51
90.000002
  0
ARC
  5
BB
330
1E
100
AcDbEntity
  8
MO_001_VIEW_PV
  6
C_SOLID_M
100
AcDbCircle
 10
90.0
 20
-0.8345
 30
0.0
 40
14.0655
100
AcDbArc
 50
269.999998
 51
90.000002
  0
ARC
  5
BC
330
1E
100
AcDbEntity
  8
MO_001_VIEW_PV
  6
C_SOLID_M
100
AcDbCircle
 10
90.0
 20
0.146125
 30
0.0
 40
13.084875
100
AcDbArc
 50
90.000002
 51
270.000001
  0
ARC
  5
BD
330
1E
100
AcDbEntity
  8
MO_001_VIEW_PV
  6
C_SOLID_M
100
AcDbCircle
 10
90.0
 20
-0.688375
 30
0.0
 40
12.250374
100
AcDbArc
 50
269.999998
 51
90.000002
  0
ARC
  5
BE
330
1E
100
AcDbEntity
  8
MO_001_VIEW_PV
  6
C_SOLID_M
100
AcDbCircle
 10
90.0
 20
0.29225
 30
0.0
 40
11.26975
100
AcDbArc
 50
90.000002
 51
270.000001
  0
ARC
  5
BF
330
1E
100
AcDbEntity
  8
MO_001_VIEW_PV
  6
C_SOLID_M
100
AcDbCircle
 10
90.0
 20
-0.5422500000000001
 30
0.0
 40
10.435249
100
AcDbArc
 50
269.999998
 51
90.000002
  0
ARC
  5
C0
330
1E
100
AcDbEntity
  8
MO_001_VIEW_PV
  6
C_SOLID_M
100
AcDbCircle
 10
90.0
 20
0.438375
 30
0.0
 40
9.454624
100
AcDbArc
 50
90.000002
 51
270.000001
  0
ARC
  5
C1
330
1E
100
AcDbEntity
  8
MO_001_VIEW_PV
  6
C_SOLID_M
100
AcDbCircle
 10
90.0
 20
-0.396125
 30
0.0
 40
8.620124999999999
100
AcDbArc
 50
269.999998
 51
90.000002
  0
ARC
  5
C2
330
1E
100
AcDbEntity
  8
MO_001_VIEW_PV
  6
C_SOLID_M
100
AcDbCircle
 10
90.0
 20
0.5845000000000001
 30
0.0
 40
7.639499999999999
100
AcDbArc
 50
90.000002
 51
270.000001
  0
ARC
  5
C3
330
1E
100
AcDbEntity
  8
MO_001_VIEW_PV
  6
C_SOLID_M
100
AcDbCircle
 10
90.0
 20
0.5845000000000001
 30
0.0
 40
7.139499999999999
100
AcDbArc
 50
90.000002
 51
270.000001
  0
ARC
  5
C4
330
1E
100
AcDbEntity
  8
MO_001_VIEW_PV
  6
C_SOLID_M
100
AcDbCircle
 10
90.0
 20
-0.396125
 30
0.0
 40
8.120124999999999
100
AcDbArc
 50
269.999998
 51
90.000002
  0
ARC
  5
C5
330
1E
100
AcDbEntity
  8
MO_001_VIEW_PV
  6
C_SOLID_M
100
AcDbCircle
 10
90.0
 20
0.438375
 30
0.0
 40
8.954624
100
AcDbArc
 50
90.000002
 51
270.000001
  0
ARC
  5
C6
330
1E
100
AcDbEntity
  8
MO_001_VIEW_PV
  6
C_SOLID_M
100
AcDbCircle
 10
90.0
 20
-0.5422500000000001
 30
0.0
 40
9.935249
100
AcDbArc
 50
269.999998
 51
90.000002
  0
ARC
  5
C7
330
1E
100
AcDbEntity
  8
MO_001_VIEW_PV
  6
C_SOLID_M
100
AcDbCircle
 10
90.0
 20
0.29225
 30
0.0
 40
10.76975
100
AcDbArc
 50
90.000002
 51
270.000001
  0
ARC
  5
C8
330
1E
100
AcDbEntity
  8
MO_001_VIEW_PV
  6
C_SOLID_M
100
AcDbCircle
 10
90.0
 20
-0.688375
 30
0.0
 40
11.750374
100
AcDbArc
 50
269.999998
 51
90.000002
  0
ARC
  5
C9
330
1E
100
AcDbEntity
  8
MO_001_VIEW_PV
  6
C_SOLID_M
100
AcDbCircle
 10
90.0
 20
0.146125
 30
0.0
 40
12.584875
100
AcDbArc
 50
90.000002
 51
270.000001
  0
ARC
  5
CA
330
1E
100
AcDbEntity
  8
MO_001_VIEW_PV
  6
C_SOLID_M
100
AcDbCircle
 10
90.0
 20
-0.8345
 30
0.0
 40
13.5655
100
AcDbArc
 50
269.999998
 51
90.000002
  0
ARC
  5
CB
330
1E
100
AcDbEntity
  8
MO_001_VIEW_PV
  6
C_SOLID_M
100
AcDbCircle
 10
94.99349200000001
 20
-13.719507
 30
0.0
 40
3.299999999999999
100
AcDbArc
 50
351.787688
 51
2.634577999999999
  0
LINE
  5
CC
330
1E
100
AcDbEntity
  8
MO_001_VIEW_PV
  6
C_SOLID_M
100
AcDbLine
 10
106.149994
 20
-39.690056
 30
0.0
 11
106.149994
 21
-62.850006
 31
0.0
  0
LINE
  5
CD
330
1E
100
AcDbEntity
  8
MO_001_VIEW_PV
  6
C_SOLID_M
100
AcDbLine
 10
102.450012
 20
-41.001469
 30
0.0
 11
102.450012
 21
-62.850006
 31
0.0
  0
LINE
  5
CE
330
1E
100
AcDbEntity
  8
MO_001_VIEW_PV
  6
C_SOLID_M
100
AcDbLine
 10
102.450012
 20
-62.850006
 30
0.0
 11
106.149994
 21
-62.850006
 31
0.0
  0
LINE
  5
CF
330
1E
100
AcDbEntity
  8
MO_001_VIEW_PV
  6
C_SOLID_M
100
AcDbLine
 10
105.335022
 20
-62.850006
 30
0.0
 11
105.335022
 21
-67.850014
 31
0.0
  0
LINE
  5
D0
330
1E
100
AcDbEntity
  8
MO_001_VIEW_PV
  6
C_SOLID_M
100
AcDbLine
 10
103.264999
 20
-62.850006
 30
0.0
 11
103.264999
 21
-67.850014
 31
0.0
  0
ARC
  5
D1
330
1E
100
AcDbEntity
  8
MO_001_VIEW_PV
  6
C_SOLID_M
100
AcDbCircle
 10
104.817505
 20
-68.26061999999999
 30
0.0
 40
0.660612
100
AcDbArc
 50
38.430596
 51
141.569399
  0
ARC
  5
D2
330
1E
100
AcDbEntity
  8
MO_001_VIEW_PV
  6
C_SOLID_M
100
AcDbCircle
 10
103.7825009999999
 20
-67.43939199999999
 30
0.0
 40
0.660612
100
AcDbArc
 50
218.4306009999999
 51
321.569404
  0
ARC
  5
D3
330
1E
100
AcDbEntity
  8
MO_001_VIEW_PV
  6
C_SOLID_M
100
AcDbCircle
 10
104.817505
 20
-67.43939199999999
 30
0.0
 40
0.660612
100
AcDbArc
 50
218.4306009999999
 51
321.569404
  0
ARC
  5
D4
330
1E
100
AcDbEntity
  8
MO_001_VIEW_PV
  6
C_SOLID_M
100
AcDbCircle
 10
103.7825009999999
 20
-69.26061999999999
 30
0.0
 40
0.660612
100
AcDbArc
 50
38.430596
 51
141.569399
  0
ARC
  5
D5
330
1E
100
AcDbEntity
  8
MO_001_VIEW_PV
  6
C_SOLID_M
100
AcDbCircle
 10
103.7825009999999
 20
-68.439392
 30
0.0
 40
0.660612
100
AcDbArc
 50
218.4306009999999
 51
321.569404
  0
ARC
  5
D6
330
1E
100
AcDbEntity
  8
MO_001_VIEW_PV
  6
C_SOLID_M
100
AcDbCircle
 10
104.817505
 20
-69.26061999999999
 30
0.0
 40
0.660612
100
AcDbArc
 50
38.430596
 51
141.569399
  0
LINE
  5
D7
330
1E
100
AcDbEntity
  8
MO_001_VIEW_PV
  6
C_SOLID_M
100
AcDbLine
 10
103.265015
 20
-68.85000600000001
 30
0.0
 11
103.265015
 21
-73.350006
 31
0.0
  0
LINE
  5
D8
330
1E
100
AcDbEntity
  8
MO_001_VIEW_PV
  6
C_SOLID_M
100
AcDbLine
 10
105.3349909999999
 20
-68.85000600000001
 30
0.0
 11
105.3349909999999
 21
-73.350006
 31
0.0
  0
LINE
  5
D9
330
1E
100
AcDbEntity
  8
MO_001_VIEW_PV
  6
C_SOLID_M
100
AcDbLine
 10
103.265015
 20
-73.350006
 30
0.0
 11
105.3349909999999
 21
-73.350006
 31
0.0
  0
LINE
  5
DA
330
1E
100
AcDbEntity
  8
MO_001_VIEW_PV
  6
C_SOLID_M
100
AcDbLine
 10
104.799988
 20
-73.350006
 30
0.0
 11
104.799988
 21
-78.350006
 31
0.0
  0
LINE
  5
DB
330
1E
100
AcDbEntity
  8
MO_001_VIEW_PV
  6
C_SOLID_M
100
AcDbLine
 10
103.800003
 20
-73.350006
 30
0.0
 11
103.800003
 21
-78.350006
 31
0.0
  0
LINE
  5
DC
330
1E
100
AcDbEntity
  8
MO_001_VIEW_PV
  6
C_SOLID_M
100
AcDbLine
 10
103.800003
 20
-78.350006
 30
0.0
 11
104.799988
 21
-78.350006
 31
0.0
  0
LINE
  5
DD
330
1E
100
AcDbEntity
  8
MO_001_VIEW_PV
  6
C_SOLID_M
100
AcDbLine
 10
77.549988
 20
-41.001465
 30
0.0
 11
77.549988
 21
-62.850006
 31
0.0
  0
LINE
  5
DE
330
1E
100
AcDbEntity
  8
MO_001_VIEW_PV
  6
C_SOLID_M
100
AcDbLine
 10
73.85000600000001
 20
-39.69005999999999
 30
0.0
 11
73.85000600000001
 21
-62.850006
 31
0.0
  0
LINE
  5
DF
330
1E
100
AcDbEntity
  8
MO_001_VIEW_PV
  6
C_SOLID_M
100
AcDbLine
 10
73.85000600000001
 20
-62.850006
 30
0.0
 11
77.549988
 21
-62.850006
 31
0.0
  0
LINE
  5
E0
330
1E
100
AcDbEntity
  8
MO_001_VIEW_PV
  6
C_SOLID_M
100
AcDbLine
 10
76.735001
 20
-62.850006
 30
0.0
 11
76.735001
 21
-67.850014
 31
0.0
  0
LINE
  5
E1
330
1E
100
AcDbEntity
  8
MO_001_VIEW_PV
  6
C_SOLID_M
100
AcDbLine
 10
74.66499300000001
 20
-62.850006
 30
0.0
 11
74.66499300000001
 21
-67.850014
 31
0.0
  0
ARC
  5
E2
330
1E
100
AcDbEntity
  8
MO_001_VIEW_PV
  6
C_SOLID_M
100
AcDbCircle
 10
76.21749900000001
 20
-68.26061999999999
 30
0.0
 40
0.660612
100
AcDbArc
 50
38.430596
 51
141.569399
  0
ARC
  5
E3
330
1E
100
AcDbEntity
  8
MO_001_VIEW_PV
  6
C_SOLID_M
100
AcDbCircle
 10
75.18249499999999
 20
-67.43939199999999
 30
0.0
 40
0.660612
100
AcDbArc
 50
218.4306009999999
 51
321.569404
  0
ARC
  5
E4
330
1E
100
AcDbEntity
  8
MO_001_VIEW_PV
  6
C_SOLID_M
100
AcDbCircle
 10
76.21749900000001
 20
-67.43939199999999
 30
0.0
 40
0.660612
100
AcDbArc
 50
218.4306009999999
 51
321.569404
  0
ARC
  5
E5
330
1E
100
AcDbEntity
  8
MO_001_VIEW_PV
  6
C_SOLID_M
100
AcDbCircle
 10
75.18249499999999
 20
-69.26061999999999
 30
0.0
 40
0.660612
100
AcDbArc
 50
38.430596
 51
141.569399
  0
ARC
  5
E6
330
1E
100
AcDbEntity
  8
MO_001_VIEW_PV
  6
C_SOLID_M
100
AcDbCircle
 10
75.18249499999999
 20
-68.439392
 30
0.0
 40
0.660612
100
AcDbArc
 50
218.4306009999999
 51
321.569404
  0
ARC
  5
E7
330
1E
100
AcDbEntity
  8
MO_001_VIEW_PV
  6
C_SOLID_M
100
AcDbCircle
 10
76.21749900000001
 20
-69.26061999999999
 30
0.0
 40
0.660612
100
AcDbArc
 50
38.430596
 51
141.569399
  0
LINE
  5
E8
330
1E
100
AcDbEntity
  8
MO_001_VIEW_PV
  6
C_SOLID_M
100
AcDbLine
 10
74.66500899999999
 20
-68.85000600000001
 30
0.0
 11
74.66500899999999
 21
-73.350006
 31
0.0
  0
LINE
  5
E9
330
1E
100
AcDbEntity
  8
MO_001_VIEW_PV
  6
C_SOLID_M
100
AcDbLine
 10
76.73498499999999
 20
-68.85000600000001
 30
0.0
 11
76.73498499999999
 21
-73.350006
 31
0.0
  0
LINE
  5
EA
330
1E
100
AcDbEntity
  8
MO_001_VIEW_PV
  6
C_SOLID_M
100
AcDbLine
 10
74.66500899999999
 20
-73.350006
 30
0.0
 11
76.73498499999999
 21
-73.350006
 31
0.0
  0
LINE
  5
EB
330
1E
100
AcDbEntity
  8
MO_001_VIEW_PV
  6
C_SOLID_M
100
AcDbLine
 10
76.199997
 20
-73.350006
 30
0.0
 11
76.199997
 21
-78.350006
 31
0.0
  0
LINE
  5
EC
330
1E
100
AcDbEntity
  8
MO_001_VIEW_PV
  6
C_SOLID_M
100
AcDbLine
 10
75.19999699999999
 20
-73.350006
 30
0.0
 11
75.19999699999999
 21
-78.350006
 31
0.0
  0
LINE
  5
ED
330
1E
100
AcDbEntity
  8
MO_001_VIEW_PV
  6
C_SOLID_M
100
AcDbLine
 10
75.19999699999999
 20
-78.350006
 30
0.0
 11
76.199997
 21
-78.350006
 31
0.0
  0
LINE
  5
EE
330
1E
100
AcDbEntity
  8
MO_001_VIEW_PV
  6
C_CENTER_L
100
AcDbLine
 10
-78.66983799999999
 20
0.0
 30
0.0
 11
31.274921
 21
0.0
 31
0.0
  0
LINE
  5
EF
330
1E
100
AcDbEntity
  8
MO_001_VIEW_PV
  6
C_SOLID_M
100
AcDbLine
 10
-1.0
 20
37.850006
 30
0.0
 11
-1.0
 21
-37.850006
 31
0.0
  0
LINE
  5
F0
330
1E
100
AcDbEntity
  8
MO_001_VIEW_PV
  6
C_SOLID_M
100
AcDbLine
 10
-1.449997999999999
 20
38.25
 30
0.0
 11
-1.399999999999999
 21
38.25
 31
0.0
  0
LINE
  5
F1
330
1E
100
AcDbEntity
  8
MO_001_VIEW_PV
  6
C_SOLID_M
100
AcDbLine
 10
-1.449997999999999
 20
-38.25
 30
0.0
 11
-1.399997999999999
 21
-38.25
 31
0.0
  0
LINE
  5
F2
330
1E
100
AcDbEntity
  8
MO_001_VIEW_PV
  6
C_CENTER_L
100
AcDbLine
 10
-6.540769999999999
 20
27.0
 30
0.0
 11
23.89458499999999
 21
27.0
 31
0.0
  0
LINE
  5
F3
330
1E
100
AcDbEntity
  8
MO_001_VIEW_PV
  6
C_SOLID_M
100
AcDbLine
 10
-1.39999
 20
38.249975
 30
0.0
 11
-0.9999979999999998
 21
37.849983
 31
0.0
  0
LINE
  5
F4
330
1E
100
AcDbEntity
  8
MO_001_VIEW_PV
  6
C_SOLID_M
100
AcDbLine
 10
-0.9999979999999998
 20
-37.85
 30
0.0
 11
-1.399999999999999
 21
-38.250003
 31
0.0
  0
LINE
  5
F5
330
1E
100
AcDbEntity
  8
MO_001_VIEW_PV
  6
C_SOLID_M
100
AcDbLine
 10
-1.399999999999999
 20
38.25
 30
0.0
 11
-1.399999999999999
 21
-38.25
 31
0.0
  0
LINE
  5
F6
330
1E
100
AcDbEntity
  8
MO_001_VIEW_PV
  6
C_SOLID_M
100
AcDbLine
 10
-47.34999799999999
 20
28.426147
 30
0.0
 11
-47.34999799999999
 21
-40.600006
 31
0.0
  0
LINE
  5
F7
330
1E
100
AcDbEntity
  8
MO_001_VIEW_PV
  6
C_SOLID_M
100
AcDbLine
 10
-1.449997999999999
 20
42.050003
 30
0.0
 11
-1.449997999999999
 21
-42.050003
 31
0.0
  0
LINE
  5
F8
330
1E
100
AcDbEntity
  8
MO_001_VIEW_PV
  6
C_SOLID_M
100
AcDbLine
 10
-46.14999799999999
 20
41.800003
 30
0.0
 11
-39.34999799999999
 21
41.800003
 31
0.0
  0
LINE
  5
F9
330
1E
100
AcDbEntity
  8
MO_001_VIEW_PV
  6
C_SOLID_M
100
AcDbLine
 10
-46.14999799999999
 20
-41.800003
 30
0.0
 11
-39.34999799999999
 21
-41.800003
 31
0.0
  0
LINE
  5
FA
330
1E
100
AcDbEntity
  8
MO_001_VIEW_PV
  6
C_SOLID_M
100
AcDbLine
 10
-46.54999899999999
 20
38.14999399999999
 30
0.0
 11
-35.731033
 21
38.14999399999999
 31
0.0
  0
LINE
  5
FB
330
1E
100
AcDbEntity
  8
MO_001_VIEW_PV
  6
C_SOLID_M
100
AcDbLine
 10
-39.149998
 20
30.668076
 30
0.0
 11
-39.149998
 21
-42.850006
 31
0.0
  0
LINE
  5
FC
330
1E
100
AcDbEntity
  8
MO_001_VIEW_PV
  6
C_SOLID_M
100
AcDbLine
 10
-2.249999
 20
42.850006
 30
0.0
 11
-2.249999
 21
-42.850006
 31
0.0
  0
LINE
  5
FD
330
1E
100
AcDbEntity
  8
MO_001_VIEW_PV
  6
C_SOLID_M
100
AcDbLine
 10
-39.149998
 20
42.850006
 30
0.0
 11
-2.249999
 21
42.850006
 31
0.0
  0
LINE
  5
FE
330
1E
100
AcDbEntity
  8
MO_001_VIEW_PV
  6
C_SOLID_M
100
AcDbLine
 10
-33.500011
 20
-42.850006
 30
0.0
 11
-2.249999
 21
-42.850006
 31
0.0
  0
LINE
  5
FF
330
1E
100
AcDbEntity
  8
MO_001_VIEW_PV
  6
C_SOLID_M
100
AcDbLine
 10
-2.250005999999999
 20
42.849969
 30
0.0
 11
-1.45
 21
42.049964
 31
0.0
  0
ARC
  5
100
330
1E
100
AcDbEntity
  8
MO_001_VIEW_PV
  6
C_SOLID_M
100
AcDbCircle
 10
-46.14999799999999
 20
40.600006
 30
0.0
 40
1.199999999999999
100
AcDbArc
 50
90.000002
 51
180.000005
  0
ARC
  5
101
330
1E
100
AcDbEntity
  8
MO_001_VIEW_PV
  6
C_SOLID_M
100
AcDbCircle
 10
-46.14999799999999
 20
-40.600006
 30
0.0
 40
1.199999999999999
100
AcDbArc
 50
180.000009
 51
269.999998
  0
LINE
  5
102
330
1E
100
AcDbEntity
  8
MO_001_VIEW_PV
  6
C_SOLID_M
100
AcDbLine
 10
-2.249997
 20
-42.850004
 30
0.0
 11
-1.449997999999999
 21
-42.050004
 31
0.0
  0
ARC
  5
103
330
1E
100
AcDbEntity
  8
MO_001_VIEW_PV
  6
C_SOLID_M
100
AcDbCircle
 10
-39.34999799999999
 20
-42.0
 30
0.0
 40
0.2
100
AcDbArc
 50
0.0
 51
89.99998900000001
  0
ARC
  5
104
330
1E
100
AcDbEntity
  8
MO_001_VIEW_PV
  6
C_SOLID_M
100
AcDbCircle
 10
-39.34999799999999
 20
42.0
 30
0.0
 40
0.2
100
AcDbArc
 50
269.999998
 51
0.0
  0
LINE
  5
105
330
1E
100
AcDbEntity
  8
MO_001_VIEW_PV
  6
C_SOLID_M
100
AcDbLine
 10
-39.149998
 20
42.850006
 30
0.0
 11
-39.149998
 21
42.0
 31
0.0
  0
LINE
  5
106
330
1E
100
AcDbEntity
  8
MO_001_VIEW_PV
  6
C_SOLID_M
100
AcDbLine
 10
-46.54999899999999
 20
38.14999399999999
 30
0.0
 11
-46.54999899999999
 21
37.75
 31
0.0
  0
LINE
  5
107
330
1E
100
AcDbEntity
  8
MO_001_VIEW_PV
  6
C_SOLID_M
100
AcDbLine
 10
-46.54999799999999
 20
38.15002299999999
 30
0.0
 11
-47.34999699999999
 21
38.44119899999999
 31
0.0
  0
LINE
  5
108
330
1E
100
AcDbEntity
  8
MO_001_VIEW_PV
  6
C_SOLID_M
100
AcDbLine
 10
21.20000099999999
 20
29.0
 30
0.0
 11
21.20000099999999
 21
25.0
 31
0.0
  0
LINE
  5
109
330
1E
100
AcDbEntity
  8
MO_001_VIEW_PV
  6
C_SOLID_M
100
AcDbLine
 10
0.0
 20
30.0
 30
0.0
 11
20.200001
 21
30.0
 31
0.0
  0
LINE
  5
10A
330
1E
100
AcDbEntity
  8
MO_001_VIEW_PV
  6
C_SOLID_M
100
AcDbLine
 10
0.0
 20
24.0
 30
0.0
 11
20.200001
 21
24.0
 31
0.0
  0
LINE
  5
10B
330
1E
100
AcDbEntity
  8
MO_001_VIEW_PV
  6
C_SOLID_L
100
AcDbLine
 10
0.0
 20
29.0
 30
0.0
 11
21.20000099999999
 21
29.0
 31
0.0
  0
LINE
  5
10C
330
1E
100
AcDbEntity
  8
MO_001_VIEW_PV
  6
C_SOLID_L
100
AcDbLine
 10
0.0
 20
25.0
 30
0.0
 11
21.20000099999999
 21
25.0
 31
0.0
  0
LINE
  5
10D
330
1E
100
AcDbEntity
  8
MO_001_VIEW_PV
  6
C_SOLID_M
100
AcDbLine
 10
20.200001
 20
30.0
 30
0.0
 11
20.200001
 21
24.0
 31
0.0
  0
LINE
  5
10E
330
1E
100
AcDbEntity
  8
MO_001_VIEW_PV
  6
C_SOLID_M
100
AcDbLine
 10
20.199995
 20
29.999984
 30
0.0
 11
21.19999599999999
 21
28.999983
 31
0.0
  0
LINE
  5
10F
330
1E
100
AcDbEntity
  8
MO_001_VIEW_PV
  6
C_SOLID_M
100
AcDbLine
 10
21.200006
 20
24.99999
 30
0.0
 11
20.20000499999999
 21
23.999989
 31
0.0
  0
LINE
  5
110
330
1E
100
AcDbEntity
  8
MO_001_VIEW_PV
  6
C_CENTER_L
100
AcDbLine
 10
-6.540769999999999
 20
-27.0
 30
0.0
 11
23.89458499999999
 21
-27.0
 31
0.0
  0
LINE
  5
111
330
1E
100
AcDbEntity
  8
MO_001_VIEW_PV
  6
C_SOLID_M
100
AcDbLine
 10
21.20000099999999
 20
-29.0
 30
0.0
 11
21.20000099999999
 21
-25.0
 31
0.0
  0
LINE
  5
112
330
1E
100
AcDbEntity
  8
MO_001_VIEW_PV
  6
C_SOLID_M
100
AcDbLine
 10
0.0
 20
-30.0
 30
0.0
 11
20.200001
 21
-30.0
 31
0.0
  0
LINE
  5
113
330
1E
100
AcDbEntity
  8
MO_001_VIEW_PV
  6
C_SOLID_M
100
AcDbLine
 10
0.0
 20
-24.0
 30
0.0
 11
20.200001
 21
-24.0
 31
0.0
  0
LINE
  5
114
330
1E
100
AcDbEntity
  8
MO_001_VIEW_PV
  6
C_SOLID_L
100
AcDbLine
 10
0.0
 20
-29.0
 30
0.0
 11
21.20000099999999
 21
-29.0
 31
0.0
  0
LINE
  5
115
330
1E
100
AcDbEntity
  8
MO_001_VIEW_PV
  6
C_SOLID_L
100
AcDbLine
 10
0.0
 20
-25.0
 30
0.0
 11
21.20000099999999
 21
-25.0
 31
0.0
  0
LINE
  5
116
330
1E
100
AcDbEntity
  8
MO_001_VIEW_PV
  6
C_SOLID_M
100
AcDbLine
 10
20.200001
 20
-30.0
 30
0.0
 11
20.200001
 21
-24.0
 31
0.0
  0
LINE
  5
117
330
1E
100
AcDbEntity
  8
MO_001_VIEW_PV
  6
C_SOLID_M
100
AcDbLine
 10
20.199988
 20
-30.000007
 30
0.0
 11
21.19998999999999
 21
-29.00000499999999
 31
0.0
  0
LINE
  5
118
330
1E
100
AcDbEntity
  8
MO_001_VIEW_PV
  6
C_SOLID_M
100
AcDbLine
 10
21.199995
 20
-25.000007
 30
0.0
 11
20.199995
 21
-24.000007
 31
0.0
  0
LINE
  5
119
330
1E
100
AcDbEntity
  8
MO_001_VIEW_PV
  6
C_SOLID_M
100
AcDbLine
 10
-45.917999
 20
29.171453
 30
0.0
 11
-45.917999
 21
37.75
 31
0.0
  0
LINE
  5
11A
330
1E
100
AcDbEntity
  8
MO_001_VIEW_PV
  6
C_SOLID_M
100
AcDbLine
 10
-49.917999
 20
-37.75
 30
0.0
 11
-49.917999
 21
37.75
 31
0.0
  0
LINE
  5
11B
330
1E
100
AcDbEntity
  8
MO_001_VIEW_PV
  6
C_SOLID_M
100
AcDbLine
 10
-49.917999
 20
37.75
 30
0.0
 11
-45.917999
 21
37.75
 31
0.0
  0
ARC
  5
11C
330
1E
100
AcDbEntity
  8
MO_001_VIEW_PV
  6
C_SOLID_M
100
AcDbCircle
 10
-50.517998
 20
20.831345
 30
0.0
 40
3.0
100
AcDbArc
 50
90.000002
 51
186.066224
  0
ARC
  5
11D
330
1E
100
AcDbEntity
  8
MO_001_VIEW_PV
  6
C_SOLID_M
100
AcDbCircle
 10
-50.0401
 20
6.871749999999999
 30
0.0
 40
2.0
100
AcDbArc
 50
186.0662279999999
 51
269.999998
  0
ARC
  5
11E
330
1E
100
AcDbEntity
  8
MO_001_VIEW_PV
  6
C_SOLID_M
100
AcDbCircle
 10
-49.54900399999999
 20
-28.699905
 30
0.0
 40
3.968994
100
AcDbArc
 50
95.33446899999999
 51
180.0000189999999
  0
ARC
  5
11F
330
1E
100
AcDbEntity
  8
MO_001_VIEW_PV
  6
C_SOLID_M
100
AcDbCircle
 10
-49.54900399999999
 20
-29.39999399999999
 30
0.0
 40
3.968994
100
AcDbArc
 50
179.999978
 51
264.665541
  0
LINE
  5
120
330
1E
100
AcDbEntity
  8
MO_001_VIEW_PV
  6
C_SOLID_M
100
AcDbLine
 10
-53.517998
 20
-28.699905
 30
0.0
 11
-53.517998
 21
-29.39999399999999
 31
0.0
  0
LINE
  5
121
330
1E
100
AcDbEntity
  8
MO_001_VIEW_PV
  6
C_SOLID_M
100
AcDbLine
 10
-42.849998
 20
38.14999399999999
 30
0.0
 11
-42.849998
 21
29.825958
 31
0.0
  0
LINE
  5
122
330
1E
100
AcDbEntity
  8
MO_001_VIEW_PV
  6
C_SOLID_M
100
AcDbLine
 10
-37.849998
 20
37.88205
 30
0.0
 11
-37.849998
 21
31.38737499999999
 31
0.0
  0
LINE
  5
123
330
1E
100
AcDbEntity
  8
MO_001_VIEW_PV
  6
C_SOLID_M
100
AcDbLine
 10
-38.85
 20
38.149983
 30
0.0
 11
-37.85000499999999
 21
37.882036
 31
0.0
  0
POLYLINE
  5
124
330
1E
100
AcDbEntity
  8
MO_001_VIEW_PV
  6
C_SOLID_M
100
AcDb2dPolyline
 66
     1
 10
0.0
 20
0.0
 30
0.0
  0
VERTEX
  5
444
330
124
100
AcDbEntity
  8
MO_001_VIEW_PV
  6
C_SOLID_M
100
AcDbVertex
100
AcDb2dVertex
 10
-32.86796999999999
 20
44.491791
 30
0.0
  0
VERTEX
  5
445
330
124
100
AcDbEntity
  8
MO_001_VIEW_PV
  6
C_SOLID_M
100
AcDbVertex
100
AcDb2dVertex
 10
-33.34715999999999
 20
43.857421
 30
0.0
  0
VERTEX
  5
446
330
124
100
AcDbEntity
  8
MO_001_VIEW_PV
  6
C_SOLID_M
100
AcDbVertex
100
AcDb2dVertex
 10
-33.69838099999999
 20
43.368963
 30
0.0
  0
VERTEX
  5
447
330
124
100
AcDbEntity
  8
MO_001_VIEW_PV
  6
C_SOLID_M
100
AcDbVertex
100
AcDb2dVertex
 10
-33.95391
 20
42.995301
 30
0.0
  0
VERTEX
  5
448
330
124
100
AcDbEntity
  8
MO_001_VIEW_PV
  6
C_SOLID_M
100
AcDbVertex
100
AcDb2dVertex
 10
-34.319595
 20
42.422771
 30
0.0
  0
VERTEX
  5
449
330
124
100
AcDbEntity
  8
MO_001_VIEW_PV
  6
C_SOLID_M
100
AcDbVertex
100
AcDb2dVertex
 10
-34.657975
 20
41.83545099999999
 30
0.0
  0
VERTEX
  5
44A
330
124
100
AcDbEntity
  8
MO_001_VIEW_PV
  6
C_SOLID_M
100
AcDbVertex
100
AcDb2dVertex
 10
-34.842778
 20
41.480272
 30
0.0
  0
VERTEX
  5
44B
330
124
100
AcDbEntity
  8
MO_001_VIEW_PV
  6
C_SOLID_M
100
AcDbVertex
100
AcDb2dVertex
 10
-34.993478
 20
41.165053
 30
0.0
  0
VERTEX
  5
44C
330
124
100
AcDbEntity
  8
MO_001_VIEW_PV
  6
C_SOLID_M
100
AcDbVertex
100
AcDb2dVertex
 10
-35.229464
 20
40.603287
 30
0.0
  0
VERTEX
  5
44D
330
124
100
AcDbEntity
  8
MO_001_VIEW_PV
  6
C_SOLID_M
100
AcDbVertex
100
AcDb2dVertex
 10
-35.380651
 20
40.173352
 30
0.0
  0
VERTEX
  5
44E
330
124
100
AcDbEntity
  8
MO_001_VIEW_PV
  6
C_SOLID_M
100
AcDbVertex
100
AcDb2dVertex
 10
-35.478051
 20
39.845974
 30
0.0
  0
VERTEX
  5
44F
330
124
100
AcDbEntity
  8
MO_001_VIEW_PV
  6
C_SOLID_M
100
AcDbVertex
100
AcDb2dVertex
 10
-35.596236
 20
39.346865
 30
0.0
  0
VERTEX
  5
450
330
124
100
AcDbEntity
  8
MO_001_VIEW_PV
  6
C_SOLID_M
100
AcDbVertex
100
AcDb2dVertex
 10
-35.678154
 20
38.837952
 30
0.0
  0
VERTEX
  5
451
330
124
100
AcDbEntity
  8
MO_001_VIEW_PV
  6
C_SOLID_M
100
AcDbVertex
100
AcDb2dVertex
 10
-35.711521
 20
38.495818
 30
0.0
  0
VERTEX
  5
452
330
124
100
AcDbEntity
  8
MO_001_VIEW_PV
  6
C_SOLID_M
100
AcDbVertex
100
AcDb2dVertex
 10
-35.736825
 20
37.889274
 30
0.0
  0
VERTEX
  5
453
330
124
100
AcDbEntity
  8
MO_001_VIEW_PV
  6
C_SOLID_M
100
AcDbVertex
100
AcDb2dVertex
 10
-35.73578799999999
 20
37.430295
 30
0.0
  0
VERTEX
  5
454
330
124
100
AcDbEntity
  8
MO_001_VIEW_PV
  6
C_SOLID_M
100
AcDbVertex
100
AcDb2dVertex
 10
-35.697284
 20
36.054145
 30
0.0
  0
VERTEX
  5
455
330
124
100
AcDbEntity
  8
MO_001_VIEW_PV
  6
C_SOLID_M
100
AcDbVertex
100
AcDb2dVertex
 10
-35.697578
 20
35.368526
 30
0.0
  0
VERTEX
  5
456
330
124
100
AcDbEntity
  8
MO_001_VIEW_PV
  6
C_SOLID_M
100
AcDbVertex
100
AcDb2dVertex
 10
-35.724802
 20
34.86608799999999
 30
0.0
  0
VERTEX
  5
457
330
124
100
AcDbEntity
  8
MO_001_VIEW_PV
  6
C_SOLID_M
100
AcDbVertex
100
AcDb2dVertex
 10
-35.766783
 20
34.497934
 30
0.0
  0
VERTEX
  5
458
330
124
100
AcDbEntity
  8
MO_001_VIEW_PV
  6
C_SOLID_M
100
AcDbVertex
100
AcDb2dVertex
 10
-35.813088
 20
34.227564
 30
0.0
  0
VERTEX
  5
459
330
124
100
AcDbEntity
  8
MO_001_VIEW_PV
  6
C_SOLID_M
100
AcDbVertex
100
AcDb2dVertex
 10
-35.91039099999999
 20
33.83253599999999
 30
0.0
  0
VERTEX
  5
45A
330
124
100
AcDbEntity
  8
MO_001_VIEW_PV
  6
C_SOLID_M
100
AcDbVertex
100
AcDb2dVertex
 10
-35.973112
 20
33.64025499999999
 30
0.0
  0
VERTEX
  5
45B
330
124
100
AcDbEntity
  8
MO_001_VIEW_PV
  6
C_SOLID_M
100
AcDbVertex
100
AcDb2dVertex
 10
-36.04615799999999
 20
33.45176699999999
 30
0.0
  0
VERTEX
  5
45C
330
124
100
AcDbEntity
  8
MO_001_VIEW_PV
  6
C_SOLID_M
100
AcDbVertex
100
AcDb2dVertex
 10
-36.189471
 20
33.15107499999999
 30
0.0
  0
VERTEX
  5
45D
330
124
100
AcDbEntity
  8
MO_001_VIEW_PV
  6
C_SOLID_M
100
AcDbVertex
100
AcDb2dVertex
 10
-36.33774499999999
 20
32.897126
 30
0.0
  0
VERTEX
  5
45E
330
124
100
AcDbEntity
  8
MO_001_VIEW_PV
  6
C_SOLID_M
100
AcDbVertex
100
AcDb2dVertex
 10
-36.483933
 20
32.68212
 30
0.0
  0
VERTEX
  5
45F
330
124
100
AcDbEntity
  8
MO_001_VIEW_PV
  6
C_SOLID_M
100
AcDbVertex
100
AcDb2dVertex
 10
-36.623727
 20
32.499628
 30
0.0
  0
VERTEX
  5
460
330
124
100
AcDbEntity
  8
MO_001_VIEW_PV
  6
C_SOLID_M
100
AcDbVertex
100
AcDb2dVertex
 10
-36.893232
 20
32.193251
 30
0.0
  0
VERTEX
  5
461
330
124
100
AcDbEntity
  8
MO_001_VIEW_PV
  6
C_SOLID_M
100
AcDbVertex
100
AcDb2dVertex
 10
-37.114553
 20
31.97459199999999
 30
0.0
  0
VERTEX
  5
462
330
124
100
AcDbEntity
  8
MO_001_VIEW_PV
  6
C_SOLID_M
100
AcDbVertex
100
AcDb2dVertex
 10
-37.474239
 20
31.665039
 30
0.0
  0
VERTEX
  5
463
330
124
100
AcDbEntity
  8
MO_001_VIEW_PV
  6
C_SOLID_M
100
AcDbVertex
100
AcDb2dVertex
 10
-37.863236
 20
31.37830499999999
 30
0.0
  0
VERTEX
  5
464
330
124
100
AcDbEntity
  8
MO_001_VIEW_PV
  6
C_SOLID_M
100
AcDbVertex
100
AcDb2dVertex
 10
-38.17500199999999
 20
31.176591
 30
0.0
  0
VERTEX
  5
465
330
124
100
AcDbEntity
  8
MO_001_VIEW_PV
  6
C_SOLID_M
100
AcDbVertex
100
AcDb2dVertex
 10
-38.45801699999999
 20
31.01149099999999
 30
0.0
  0
VERTEX
  5
466
330
124
100
AcDbEntity
  8
MO_001_VIEW_PV
  6
C_SOLID_M
100
AcDbVertex
100
AcDb2dVertex
 10
-38.712414
 20
30.875945
 30
0.0
  0
VERTEX
  5
467
330
124
100
AcDbEntity
  8
MO_001_VIEW_PV
  6
C_SOLID_M
100
AcDbVertex
100
AcDb2dVertex
 10
-39.170087
 20
30.65924199999999
 30
0.0
  0
VERTEX
  5
468
330
124
100
AcDbEntity
  8
MO_001_VIEW_PV
  6
C_SOLID_M
100
AcDbVertex
100
AcDb2dVertex
 10
-39.521408
 20
30.514257
 30
0.0
  0
VERTEX
  5
469
330
124
100
AcDbEntity
  8
MO_001_VIEW_PV
  6
C_SOLID_M
100
AcDbVertex
100
AcDb2dVertex
 10
-40.056664
 20
30.325803
 30
0.0
  0
VERTEX
  5
46A
330
124
100
AcDbEntity
  8
MO_001_VIEW_PV
  6
C_SOLID_M
100
AcDbVertex
100
AcDb2dVertex
 10
-40.59598199999999
 20
30.17321799999999
 30
0.0
  0
VERTEX
  5
46B
330
124
100
AcDbEntity
  8
MO_001_VIEW_PV
  6
C_SOLID_M
100
AcDbVertex
100
AcDb2dVertex
 10
-41.169043
 20
30.049395
 30
0.0
  0
VERTEX
  5
46C
330
124
100
AcDbEntity
  8
MO_001_VIEW_PV
  6
C_SOLID_M
100
AcDbVertex
100
AcDb2dVertex
 10
-41.596555
 20
29.977764
 30
0.0
  0
VERTEX
  5
46D
330
124
100
AcDbEntity
  8
MO_001_VIEW_PV
  6
C_SOLID_M
100
AcDbVertex
100
AcDb2dVertex
 10
-42.233502
 20
29.893739
 30
0.0
  0
VERTEX
  5
46E
330
124
100
AcDbEntity
  8
MO_001_VIEW_PV
  6
C_SOLID_M
100
AcDbVertex
100
AcDb2dVertex
 10
-42.86444699999999
 20
29.82440999999999
 30
0.0
  0
VERTEX
  5
46F
330
124
100
AcDbEntity
  8
MO_001_VIEW_PV
  6
C_SOLID_M
100
AcDbVertex
100
AcDb2dVertex
 10
-43.419507
 20
29.76292499999999
 30
0.0
  0
VERTEX
  5
470
330
124
100
AcDbEntity
  8
MO_001_VIEW_PV
  6
C_SOLID_M
100
AcDbVertex
100
AcDb2dVertex
 10
-43.831827
 20
29.710236
 30
0.0
  0
VERTEX
  5
471
330
124
100
AcDbEntity
  8
MO_001_VIEW_PV
  6
C_SOLID_M
100
AcDbVertex
100
AcDb2dVertex
 10
-44.44326599999999
 20
29.609925
 30
0.0
  0
VERTEX
  5
472
330
124
100
AcDbEntity
  8
MO_001_VIEW_PV
  6
C_SOLID_M
100
AcDbVertex
100
AcDb2dVertex
 10
-44.745569
 20
29.54610999999999
 30
0.0
  0
VERTEX
  5
473
330
124
100
AcDbEntity
  8
MO_001_VIEW_PV
  6
C_SOLID_M
100
AcDbVertex
100
AcDb2dVertex
 10
-45.04544099999999
 20
29.470673
 30
0.0
  0
VERTEX
  5
474
330
124
100
AcDbEntity
  8
MO_001_VIEW_PV
  6
C_SOLID_M
100
AcDbVertex
100
AcDb2dVertex
 10
-45.432095
 20
29.352812
 30
0.0
  0
VERTEX
  5
475
330
124
100
AcDbEntity
  8
MO_001_VIEW_PV
  6
C_SOLID_M
100
AcDbVertex
100
AcDb2dVertex
 10
-45.766593
 20
29.231903
 30
0.0
  0
VERTEX
  5
476
330
124
100
AcDbEntity
  8
MO_001_VIEW_PV
  6
C_SOLID_M
100
AcDbVertex
100
AcDb2dVertex
 10
-46.05615
 20
29.11320599999999
 30
0.0
  0
VERTEX
  5
477
330
124
100
AcDbEntity
  8
MO_001_VIEW_PV
  6
C_SOLID_M
100
AcDbVertex
100
AcDb2dVertex
 10
-46.55534199999999
 20
28.878309
 30
0.0
  0
VERTEX
  5
478
330
124
100
AcDbEntity
  8
MO_001_VIEW_PV
  6
C_SOLID_M
100
AcDbVertex
100
AcDb2dVertex
 10
-46.92300399999999
 20
28.681006
 30
0.0
  0
VERTEX
  5
479
330
124
100
AcDbEntity
  8
MO_001_VIEW_PV
  6
C_SOLID_M
100
AcDbVertex
100
AcDb2dVertex
 10
-47.46279699999999
 20
28.354215
 30
0.0
  0
VERTEX
  5
47A
330
124
100
AcDbEntity
  8
MO_001_VIEW_PV
  6
C_SOLID_M
100
AcDbVertex
100
AcDb2dVertex
 10
-47.987452
 20
27.99433099999999
 30
0.0
  0
VERTEX
  5
47B
330
124
100
AcDbEntity
  8
MO_001_VIEW_PV
  6
C_SOLID_M
100
AcDbVertex
100
AcDb2dVertex
 10
-48.326563
 20
27.739468
 30
0.0
  0
VERTEX
  5
47C
330
124
100
AcDbEntity
  8
MO_001_VIEW_PV
  6
C_SOLID_M
100
AcDbVertex
100
AcDb2dVertex
 10
-48.901576
 20
27.266932
 30
0.0
  0
VERTEX
  5
47D
330
124
100
AcDbEntity
  8
MO_001_VIEW_PV
  6
C_SOLID_M
100
AcDbVertex
100
AcDb2dVertex
 10
-49.316459
 20
26.893871
 30
0.0
  0
VERTEX
  5
47E
330
124
100
AcDbEntity
  8
MO_001_VIEW_PV
  6
C_SOLID_M
100
AcDbVertex
100
AcDb2dVertex
 10
-49.617857
 20
26.605538
 30
0.0
  0
VERTEX
  5
47F
330
124
100
AcDbEntity
  8
MO_001_VIEW_PV
  6
C_SOLID_M
100
AcDbVertex
100
AcDb2dVertex
 10
-50.053437
 20
26.16225299999999
 30
0.0
  0
VERTEX
  5
480
330
124
100
AcDbEntity
  8
MO_001_VIEW_PV
  6
C_SOLID_M
100
AcDbVertex
100
AcDb2dVertex
 10
-50.46816299999999
 20
25.709702
 30
0.0
  0
SEQEND
  5
481
330
124
100
AcDbEntity
  8
MO_001_VIEW_PV
  6
C_SOLID_M
  0
LINE
  5
163
330
1E
100
AcDbEntity
  8
MO_001_VIEW_PV
  6
C_SOLID_M
100
AcDbLine
 10
26.582001
 20
-5.255005
 30
0.0
 11
26.582001
 21
5.255005
 31
0.0
  0
LINE
  5
164
330
1E
100
AcDbEntity
  8
MO_001_VIEW_PV
  6
C_SOLID_M
100
AcDbLine
 10
-73.51799799999999
 20
-5.409408999999999
 30
0.0
 11
-73.51799799999999
 21
5.409408999999999
 31
0.0
  0
LINE
  5
165
330
1E
100
AcDbEntity
  8
MO_001_VIEW_PV
  6
C_SOLID_M
100
AcDbLine
 10
8.782002
 20
5.554992999999999
 30
0.0
 11
26.282001
 21
5.554992999999999
 31
0.0
  0
LINE
  5
166
330
1E
100
AcDbEntity
  8
MO_001_VIEW_PV
  6
C_SOLID_M
100
AcDbLine
 10
26.58201299999999
 20
-5.254976999999999
 30
0.0
 11
26.28202
 21
-5.554971
 31
0.0
  0
LINE
  5
167
330
1E
100
AcDbEntity
  8
MO_001_VIEW_PV
  6
C_SOLID_M
100
AcDbLine
 10
26.58201699999999
 20
5.255041
 30
0.0
 11
26.282018
 21
5.555041
 31
0.0
  0
LINE
  5
168
330
1E
100
AcDbEntity
  8
MO_001_VIEW_PV
  6
C_SOLID_M
100
AcDbLine
 10
-73.118004
 20
-5.554992999999999
 30
0.0
 11
-73.518007
 21
-5.409403
 31
0.0
  0
LINE
  5
169
330
1E
100
AcDbEntity
  8
MO_001_VIEW_PV
  6
C_SOLID_M
100
AcDbLine
 10
-73.11802
 20
5.555037999999999
 30
0.0
 11
-73.518016
 21
5.409450999999999
 31
0.0
  0
LINE
  5
16A
330
1E
100
AcDbEntity
  8
MO_001_VIEW_PV
  6
C_SOLID_M
100
AcDbLine
 10
-73.11799599999999
 20
-5.554992999999999
 30
0.0
 11
-73.11799599999999
 21
5.554992999999999
 31
0.0
  0
LINE
  5
16B
330
1E
100
AcDbEntity
  8
MO_001_VIEW_PV
  6
C_SOLID_M
100
AcDbLine
 10
26.282001
 20
-5.554992999999999
 30
0.0
 11
26.282001
 21
5.554992999999999
 31
0.0
  0
LINE
  5
16C
330
1E
100
AcDbEntity
  8
MO_001_VIEW_PV
  6
C_SOLID_M
100
AcDbLine
 10
-73.11799599999999
 20
5.554992999999999
 30
0.0
 11
-51.545483
 21
5.554992999999999
 31
0.0
  0
LINE
  5
16D
330
1E
100
AcDbEntity
  8
MO_001_VIEW_PV
  6
C_SOLID_M
100
AcDbLine
 10
-73.11799599999999
 20
-5.554992999999999
 30
0.0
 11
-51.417999
 21
-5.554992999999999
 31
0.0
  0
LINE
  5
16E
330
1E
100
AcDbEntity
  8
MO_001_VIEW_PV
  6
C_SOLID_M
100
AcDbLine
 10
8.482001999999999
 20
4.154999
 30
0.0
 11
8.782002
 21
4.154999
 31
0.0
  0
LINE
  5
16F
330
1E
100
AcDbEntity
  8
MO_001_VIEW_PV
  6
C_SOLID_M
100
AcDbLine
 10
-1.0
 20
37.69999699999999
 30
0.0
 11
-1.0
 21
-37.69999699999999
 31
0.0
  0
LINE
  5
170
330
1E
100
AcDbEntity
  8
MO_001_VIEW_PV
  6
C_SOLID_M
100
AcDbLine
 10
0.0
 20
37.69999699999999
 30
0.0
 11
0.0
 21
-37.69999699999999
 31
0.0
  0
LINE
  5
171
330
1E
100
AcDbEntity
  8
MO_001_VIEW_PV
  6
C_SOLID_M
100
AcDbLine
 10
-1.0
 20
37.69999699999999
 30
0.0
 11
0.0
 21
37.69999699999999
 31
0.0
  0
LINE
  5
172
330
1E
100
AcDbEntity
  8
MO_001_VIEW_PV
  6
C_SOLID_M
100
AcDbLine
 10
-1.0
 20
-37.69999699999999
 30
0.0
 11
0.0
 21
-37.69999699999999
 31
0.0
  0
LINE
  5
173
330
1E
100
AcDbEntity
  8
MO_001_VIEW_PV
  6
C_SOLID_M
100
AcDbLine
 10
5.300003
 20
15.082169
 30
0.0
 11
5.300003
 21
14.132462
 31
0.0
  0
LINE
  5
174
330
1E
100
AcDbEntity
  8
MO_001_VIEW_PV
  6
C_SOLID_M
100
AcDbLine
 10
0.7999990000000001
 20
-16.899994
 30
0.0
 11
5.300003
 21
-16.899994
 31
0.0
  0
LINE
  5
175
330
1E
100
AcDbEntity
  8
MO_001_VIEW_PV
  6
C_SOLID_M
100
AcDbLine
 10
0.7999990000000001
 20
-16.73236099999999
 30
0.0
 11
5.300003
 21
-16.73236099999999
 31
0.0
  0
LINE
  5
176
330
1E
100
AcDbEntity
  8
MO_001_VIEW_PV
  6
C_SOLID_M
100
AcDbLine
 10
0.7999990000000001
 20
-15.72170999999999
 30
0.0
 11
5.300003
 21
-15.72170999999999
 31
0.0
  0
POLYLINE
  5
177
330
1E
100
AcDbEntity
  8
MO_001_VIEW_PV
  6
C_SOLID_M
100
AcDb2dPolyline
 66
     1
 10
0.0
 20
0.0
 30
0.0
  0
VERTEX
  5
482
330
177
100
AcDbEntity
  8
MO_001_VIEW_PV
  6
C_SOLID_M
100
AcDbVertex
100
AcDb2dVertex
 10
-0.000005
 20
-10.889761
 30
0.0
  0
VERTEX
  5
483
330
177
100
AcDbEntity
  8
MO_001_VIEW_PV
  6
C_SOLID_M
100
AcDbVertex
100
AcDb2dVertex
 10
0.202396
 20
-11.045271
 30
0.0
  0
VERTEX
  5
484
330
177
100
AcDbEntity
  8
MO_001_VIEW_PV
  6
C_SOLID_M
100
AcDbVertex
100
AcDb2dVertex
 10
0.397754
 20
-11.17061499999999
 30
0.0
  0
VERTEX
  5
485
330
177
100
AcDbEntity
  8
MO_001_VIEW_PV
  6
C_SOLID_M
100
AcDbVertex
100
AcDb2dVertex
 10
0.581549
 20
-11.271352
 30
0.0
  0
VERTEX
  5
486
330
177
100
AcDbEntity
  8
MO_001_VIEW_PV
  6
C_SOLID_M
100
AcDbVertex
100
AcDb2dVertex
 10
0.751404
 20
-11.352203
 30
0.0
  0
VERTEX
  5
487
330
177
100
AcDbEntity
  8
MO_001_VIEW_PV
  6
C_SOLID_M
100
AcDbVertex
100
AcDb2dVertex
 10
1.06675
 20
-11.47629299999999
 30
0.0
  0
VERTEX
  5
488
330
177
100
AcDbEntity
  8
MO_001_VIEW_PV
  6
C_SOLID_M
100
AcDbVertex
100
AcDb2dVertex
 10
1.316359
 20
-11.554043
 30
0.0
  0
VERTEX
  5
489
330
177
100
AcDbEntity
  8
MO_001_VIEW_PV
  6
C_SOLID_M
100
AcDbVertex
100
AcDb2dVertex
 10
1.707594999999999
 20
-11.644744
 30
0.0
  0
VERTEX
  5
48A
330
177
100
AcDbEntity
  8
MO_001_VIEW_PV
  6
C_SOLID_M
100
AcDbVertex
100
AcDb2dVertex
 10
2.113472999999999
 20
-11.70309299999999
 30
0.0
  0
VERTEX
  5
48B
330
177
100
AcDbEntity
  8
MO_001_VIEW_PV
  6
C_SOLID_M
100
AcDbVertex
100
AcDb2dVertex
 10
2.427024
 20
-11.725181
 30
0.0
  0
VERTEX
  5
48C
330
177
100
AcDbEntity
  8
MO_001_VIEW_PV
  6
C_SOLID_M
100
AcDbVertex
100
AcDb2dVertex
 10
2.702995999999999
 20
-11.728643
 30
0.0
  0
VERTEX
  5
48D
330
177
100
AcDbEntity
  8
MO_001_VIEW_PV
  6
C_SOLID_M
100
AcDbVertex
100
AcDb2dVertex
 10
2.944115
 20
-11.7195
 30
0.0
  0
VERTEX
  5
48E
330
177
100
AcDbEntity
  8
MO_001_VIEW_PV
  6
C_SOLID_M
100
AcDbVertex
100
AcDb2dVertex
 10
3.361244
 20
-11.676344
 30
0.0
  0
VERTEX
  5
48F
330
177
100
AcDbEntity
  8
MO_001_VIEW_PV
  6
C_SOLID_M
100
AcDbVertex
100
AcDb2dVertex
 10
3.666584999999999
 20
-11.62166699999999
 30
0.0
  0
VERTEX
  5
490
330
177
100
AcDbEntity
  8
MO_001_VIEW_PV
  6
C_SOLID_M
100
AcDbVertex
100
AcDb2dVertex
 10
3.889462
 20
-11.568433
 30
0.0
  0
VERTEX
  5
491
330
177
100
AcDbEntity
  8
MO_001_VIEW_PV
  6
C_SOLID_M
100
AcDbVertex
100
AcDb2dVertex
 10
4.211158999999999
 20
-11.469602
 30
0.0
  0
VERTEX
  5
492
330
177
100
AcDbEntity
  8
MO_001_VIEW_PV
  6
C_SOLID_M
100
AcDbVertex
100
AcDb2dVertex
 10
4.514391
 20
-11.34903699999999
 30
0.0
  0
SEQEND
  5
493
330
177
100
AcDbEntity
  8
MO_001_VIEW_PV
  6
C_SOLID_M
  0
POLYLINE
  5
18A
330
1E
100
AcDbEntity
  8
MO_001_VIEW_PV
  6
C_SOLID_M
100
AcDb2dPolyline
 66
     1
 10
0.0
 20
0.0
 30
0.0
  0
VERTEX
  5
494
330
18A
100
AcDbEntity
  8
MO_001_VIEW_PV
  6
C_SOLID_M
100
AcDbVertex
100
AcDb2dVertex
 10
4.514383999999999
 20
-14.286427
 30
0.0
  0
VERTEX
  5
495
330
18A
100
AcDbEntity
  8
MO_001_VIEW_PV
  6
C_SOLID_M
100
AcDbVertex
100
AcDb2dVertex
 10
4.247167
 20
-14.178695
 30
0.0
  0
VERTEX
  5
496
330
18A
100
AcDbEntity
  8
MO_001_VIEW_PV
  6
C_SOLID_M
100
AcDbVertex
100
AcDb2dVertex
 10
4.00114
 20
-14.098256
 30
0.0
  0
VERTEX
  5
497
330
18A
100
AcDbEntity
  8
MO_001_VIEW_PV
  6
C_SOLID_M
100
AcDbVertex
100
AcDb2dVertex
 10
3.777933999999999
 20
-14.038927
 30
0.0
  0
VERTEX
  5
498
330
18A
100
AcDbEntity
  8
MO_001_VIEW_PV
  6
C_SOLID_M
100
AcDbVertex
100
AcDb2dVertex
 10
3.373254
 20
-13.960895
 30
0.0
  0
VERTEX
  5
499
330
18A
100
AcDbEntity
  8
MO_001_VIEW_PV
  6
C_SOLID_M
100
AcDbVertex
100
AcDb2dVertex
 10
3.06137
 20
-13.92455199999999
 30
0.0
  0
VERTEX
  5
49A
330
18A
100
AcDbEntity
  8
MO_001_VIEW_PV
  6
C_SOLID_M
100
AcDbVertex
100
AcDb2dVertex
 10
2.824683
 20
-13.91001499999999
 30
0.0
  0
VERTEX
  5
49B
330
18A
100
AcDbEntity
  8
MO_001_VIEW_PV
  6
C_SOLID_M
100
AcDbVertex
100
AcDb2dVertex
 10
2.468137
 20
-13.90882799999999
 30
0.0
  0
VERTEX
  5
49C
330
18A
100
AcDbEntity
  8
MO_001_VIEW_PV
  6
C_SOLID_M
100
AcDbVertex
100
AcDb2dVertex
 10
2.113472
 20
-13.932375
 30
0.0
  0
VERTEX
  5
49D
330
18A
100
AcDbEntity
  8
MO_001_VIEW_PV
  6
C_SOLID_M
100
AcDbVertex
100
AcDb2dVertex
 10
1.804634999999999
 20
-13.973606
 30
0.0
  0
VERTEX
  5
49E
330
18A
100
AcDbEntity
  8
MO_001_VIEW_PV
  6
C_SOLID_M
100
AcDbVertex
100
AcDb2dVertex
 10
1.540488999999999
 20
-14.025093
 30
0.0
  0
VERTEX
  5
49F
330
18A
100
AcDbEntity
  8
MO_001_VIEW_PV
  6
C_SOLID_M
100
AcDbVertex
100
AcDb2dVertex
 10
1.315547999999999
 20
-14.081651
 30
0.0
  0
VERTEX
  5
4A0
330
18A
100
AcDbEntity
  8
MO_001_VIEW_PV
  6
C_SOLID_M
100
AcDbVertex
100
AcDb2dVertex
 10
0.939541
 20
-14.205497
 30
0.0
  0
VERTEX
  5
4A1
330
18A
100
AcDbEntity
  8
MO_001_VIEW_PV
  6
C_SOLID_M
100
AcDbVertex
100
AcDb2dVertex
 10
0.675392
 20
-14.318111
 30
0.0
  0
VERTEX
  5
4A2
330
18A
100
AcDbEntity
  8
MO_001_VIEW_PV
  6
C_SOLID_M
100
AcDbVertex
100
AcDb2dVertex
 10
0.488983
 20
-14.41298299999999
 30
0.0
  0
VERTEX
  5
4A3
330
18A
100
AcDbEntity
  8
MO_001_VIEW_PV
  6
C_SOLID_M
100
AcDbVertex
100
AcDb2dVertex
 10
0.230489
 20
-14.57084
 30
0.0
  0
VERTEX
  5
4A4
330
18A
100
AcDbEntity
  8
MO_001_VIEW_PV
  6
C_SOLID_M
100
AcDbVertex
100
AcDb2dVertex
 10
0.0
 20
-14.745702
 30
0.0
  0
SEQEND
  5
4A5
330
18A
100
AcDbEntity
  8
MO_001_VIEW_PV
  6
C_SOLID_M
  0
POLYLINE
  5
19D
330
1E
100
AcDbEntity
  8
MO_001_VIEW_PV
  6
C_SOLID_M
100
AcDb2dPolyline
 66
     1
 10
0.0
 20
0.0
 30
0.0
  0
VERTEX
  5
4A6
330
19D
100
AcDbEntity
  8
MO_001_VIEW_PV
  6
C_SOLID_M
100
AcDbVertex
100
AcDb2dVertex
 10
5.293537
 20
-11.664333
 30
0.0
  0
VERTEX
  5
4A7
330
19D
100
AcDbEntity
  8
MO_001_VIEW_PV
  6
C_SOLID_M
100
AcDbVertex
100
AcDb2dVertex
 10
5.230319999999999
 20
-11.951047
 30
0.0
  0
VERTEX
  5
4A8
330
19D
100
AcDbEntity
  8
MO_001_VIEW_PV
  6
C_SOLID_M
100
AcDbVertex
100
AcDb2dVertex
 10
5.194708
 20
-12.167028
 30
0.0
  0
VERTEX
  5
4A9
330
19D
100
AcDbEntity
  8
MO_001_VIEW_PV
  6
C_SOLID_M
100
AcDbVertex
100
AcDb2dVertex
 10
5.160330999999999
 20
-12.492048
 30
0.0
  0
VERTEX
  5
4AA
330
19D
100
AcDbEntity
  8
MO_001_VIEW_PV
  6
C_SOLID_M
100
AcDbVertex
100
AcDb2dVertex
 10
5.148864999999999
 20
-12.817736
 30
0.0
  0
VERTEX
  5
4AB
330
19D
100
AcDbEntity
  8
MO_001_VIEW_PV
  6
C_SOLID_M
100
AcDbVertex
100
AcDb2dVertex
 10
5.157924999999999
 20
-13.107256
 30
0.0
  0
VERTEX
  5
4AC
330
19D
100
AcDbEntity
  8
MO_001_VIEW_PV
  6
C_SOLID_M
100
AcDbVertex
100
AcDb2dVertex
 10
5.176605
 20
-13.324115
 30
0.0
  0
VERTEX
  5
4AD
330
19D
100
AcDbEntity
  8
MO_001_VIEW_PV
  6
C_SOLID_M
100
AcDbVertex
100
AcDb2dVertex
 10
5.223682
 20
-13.64847799999999
 30
0.0
  0
VERTEX
  5
4AE
330
19D
100
AcDbEntity
  8
MO_001_VIEW_PV
  6
C_SOLID_M
100
AcDbVertex
100
AcDb2dVertex
 10
5.293537999999999
 20
-13.971139
 30
0.0
  0
SEQEND
  5
4AF
330
19D
100
AcDbEntity
  8
MO_001_VIEW_PV
  6
C_SOLID_M
  0
POLYLINE
  5
1A8
330
1E
100
AcDbEntity
  8
MO_001_VIEW_PV
  6
C_SOLID_M
100
AcDb2dPolyline
 66
     1
 10
0.0
 20
0.0
 30
0.0
  0
VERTEX
  5
4B0
330
1A8
100
AcDbEntity
  8
MO_001_VIEW_PV
  6
C_SOLID_M
100
AcDbVertex
100
AcDb2dVertex
 10
4.514408999999999
 20
-14.28640899999999
 30
0.0
  0
VERTEX
  5
4B1
330
1A8
100
AcDbEntity
  8
MO_001_VIEW_PV
  6
C_SOLID_M
100
AcDbVertex
100
AcDb2dVertex
 10
4.644859999999999
 20
-14.328132
 30
0.0
  0
VERTEX
  5
4B2
330
1A8
100
AcDbEntity
  8
MO_001_VIEW_PV
  6
C_SOLID_M
100
AcDbVertex
100
AcDb2dVertex
 10
4.752000999999999
 20
-14.34251
 30
0.0
  0
VERTEX
  5
4B3
330
1A8
100
AcDbEntity
  8
MO_001_VIEW_PV
  6
C_SOLID_M
100
AcDbVertex
100
AcDb2dVertex
 10
4.915384999999999
 20
-14.33532
 30
0.0
  0
VERTEX
  5
4B4
330
1A8
100
AcDbEntity
  8
MO_001_VIEW_PV
  6
C_SOLID_M
100
AcDbVertex
100
AcDb2dVertex
 10
5.066391
 20
-14.294584
 30
0.0
  0
VERTEX
  5
4B5
330
1A8
100
AcDbEntity
  8
MO_001_VIEW_PV
  6
C_SOLID_M
100
AcDbVertex
100
AcDb2dVertex
 10
5.177069999999999
 20
-14.233671
 30
0.0
  0
VERTEX
  5
4B6
330
1A8
100
AcDbEntity
  8
MO_001_VIEW_PV
  6
C_SOLID_M
100
AcDbVertex
100
AcDb2dVertex
 10
5.239482999999999
 20
-14.17587799999999
 30
0.0
  0
VERTEX
  5
4B7
330
1A8
100
AcDbEntity
  8
MO_001_VIEW_PV
  6
C_SOLID_M
100
AcDbVertex
100
AcDb2dVertex
 10
5.272599999999999
 20
-14.127548
 30
0.0
  0
VERTEX
  5
4B8
330
1A8
100
AcDbEntity
  8
MO_001_VIEW_PV
  6
C_SOLID_M
100
AcDbVertex
100
AcDb2dVertex
 10
5.298162
 20
-14.05017
 30
0.0
  0
VERTEX
  5
4B9
330
1A8
100
AcDbEntity
  8
MO_001_VIEW_PV
  6
C_SOLID_M
100
AcDbVertex
100
AcDb2dVertex
 10
5.293543999999999
 20
-13.971123
 30
0.0
  0
SEQEND
  5
4BA
330
1A8
100
AcDbEntity
  8
MO_001_VIEW_PV
  6
C_SOLID_M
  0
POLYLINE
  5
1B4
330
1E
100
AcDbEntity
  8
MO_001_VIEW_PV
  6
C_SOLID_M
100
AcDb2dPolyline
 66
     1
 10
0.0
 20
0.0
 30
0.0
  0
VERTEX
  5
4BB
330
1B4
100
AcDbEntity
  8
MO_001_VIEW_PV
  6
C_SOLID_M
100
AcDbVertex
100
AcDb2dVertex
 10
5.293543999999999
 20
-11.66433
 30
0.0
  0
VERTEX
  5
4BC
330
1B4
100
AcDbEntity
  8
MO_001_VIEW_PV
  6
C_SOLID_M
100
AcDbVertex
100
AcDb2dVertex
 10
5.299948999999999
 20
-11.61755499999999
 30
0.0
  0
VERTEX
  5
4BD
330
1B4
100
AcDbEntity
  8
MO_001_VIEW_PV
  6
C_SOLID_M
100
AcDbVertex
100
AcDb2dVertex
 10
5.285524999999999
 20
-11.536058
 30
0.0
  0
VERTEX
  5
4BE
330
1B4
100
AcDbEntity
  8
MO_001_VIEW_PV
  6
C_SOLID_M
100
AcDbVertex
100
AcDb2dVertex
 10
5.253824999999999
 20
-11.47793599999999
 30
0.0
  0
VERTEX
  5
4BF
330
1B4
100
AcDbEntity
  8
MO_001_VIEW_PV
  6
C_SOLID_M
100
AcDbVertex
100
AcDb2dVertex
 10
5.175558999999999
 20
-11.400661
 30
0.0
  0
VERTEX
  5
4C0
330
1B4
100
AcDbEntity
  8
MO_001_VIEW_PV
  6
C_SOLID_M
100
AcDbVertex
100
AcDb2dVertex
 10
5.066380999999999
 20
-11.34085099999999
 30
0.0
  0
VERTEX
  5
4C1
330
1B4
100
AcDbEntity
  8
MO_001_VIEW_PV
  6
C_SOLID_M
100
AcDbVertex
100
AcDb2dVertex
 10
4.933074999999999
 20
-11.303035
 30
0.0
  0
VERTEX
  5
4C2
330
1B4
100
AcDbEntity
  8
MO_001_VIEW_PV
  6
C_SOLID_M
100
AcDbVertex
100
AcDb2dVertex
 10
4.825015
 20
-11.291845
 30
0.0
  0
VERTEX
  5
4C3
330
1B4
100
AcDbEntity
  8
MO_001_VIEW_PV
  6
C_SOLID_M
100
AcDbVertex
100
AcDb2dVertex
 10
4.662317999999999
 20
-11.303869
 30
0.0
  0
VERTEX
  5
4C4
330
1B4
100
AcDbEntity
  8
MO_001_VIEW_PV
  6
C_SOLID_M
100
AcDbVertex
100
AcDb2dVertex
 10
4.514391999999999
 20
-11.349039
 30
0.0
  0
SEQEND
  5
4C5
330
1B4
100
AcDbEntity
  8
MO_001_VIEW_PV
  6
C_SOLID_M
  0
POLYLINE
  5
1C0
330
1E
100
AcDbEntity
  8
MO_001_VIEW_PV
  6
C_SOLID_M
100
AcDb2dPolyline
 66
     1
 10
0.0
 20
0.0
 30
0.0
  0
VERTEX
  5
4C6
330
1C0
100
AcDbEntity
  8
MO_001_VIEW_PV
  6
C_SOLID_M
100
AcDbVertex
100
AcDb2dVertex
 10
0.0
 20
0.048277
 30
0.0
  0
VERTEX
  5
4C7
330
1C0
100
AcDbEntity
  8
MO_001_VIEW_PV
  6
C_SOLID_M
100
AcDbVertex
100
AcDb2dVertex
 10
0.2024
 20
-0.189975
 30
0.0
  0
VERTEX
  5
4C8
330
1C0
100
AcDbEntity
  8
MO_001_VIEW_PV
  6
C_SOLID_M
100
AcDbVertex
100
AcDb2dVertex
 10
0.397758
 20
-0.382012
 30
0.0
  0
VERTEX
  5
4C9
330
1C0
100
AcDbEntity
  8
MO_001_VIEW_PV
  6
C_SOLID_M
100
AcDbVertex
100
AcDb2dVertex
 10
0.581553
 20
-0.5363470000000001
 30
0.0
  0
VERTEX
  5
4CA
330
1C0
100
AcDbEntity
  8
MO_001_VIEW_PV
  6
C_SOLID_M
100
AcDbVertex
100
AcDb2dVertex
 10
0.751407
 20
-0.6602180000000001
 30
0.0
  0
VERTEX
  5
4CB
330
1C0
100
AcDbEntity
  8
MO_001_VIEW_PV
  6
C_SOLID_M
100
AcDbVertex
100
AcDb2dVertex
 10
0.9063739999999999
 20
-0.7596280000000001
 30
0.0
  0
VERTEX
  5
4CC
330
1C0
100
AcDbEntity
  8
MO_001_VIEW_PV
  6
C_SOLID_M
100
AcDbVertex
100
AcDb2dVertex
 10
1.190285
 20
-0.912476
 30
0.0
  0
VERTEX
  5
4CD
330
1C0
100
AcDbEntity
  8
MO_001_VIEW_PV
  6
C_SOLID_M
100
AcDbVertex
100
AcDb2dVertex
 10
1.412452
 20
-1.008731
 30
0.0
  0
VERTEX
  5
4CE
330
1C0
100
AcDbEntity
  8
MO_001_VIEW_PV
  6
C_SOLID_M
100
AcDbVertex
100
AcDb2dVertex
 10
1.757659999999999
 20
-1.122333999999999
 30
0.0
  0
VERTEX
  5
4CF
330
1C0
100
AcDbEntity
  8
MO_001_VIEW_PV
  6
C_SOLID_M
100
AcDbVertex
100
AcDb2dVertex
 10
2.113472
 20
-1.197807
 30
0.0
  0
VERTEX
  5
4D0
330
1C0
100
AcDbEntity
  8
MO_001_VIEW_PV
  6
C_SOLID_M
100
AcDbVertex
100
AcDb2dVertex
 10
2.427022
 20
-1.231647999999999
 30
0.0
  0
VERTEX
  5
4D1
330
1C0
100
AcDbEntity
  8
MO_001_VIEW_PV
  6
C_SOLID_M
100
AcDbVertex
100
AcDb2dVertex
 10
2.702993999999999
 20
-1.236952999999999
 30
0.0
  0
VERTEX
  5
4D2
330
1C0
100
AcDbEntity
  8
MO_001_VIEW_PV
  6
C_SOLID_M
100
AcDbVertex
100
AcDb2dVertex
 10
2.944112
 20
-1.222945
 30
0.0
  0
VERTEX
  5
4D3
330
1C0
100
AcDbEntity
  8
MO_001_VIEW_PV
  6
C_SOLID_M
100
AcDbVertex
100
AcDb2dVertex
 10
3.153750999999999
 20
-1.196466999999999
 30
0.0
  0
VERTEX
  5
4D4
330
1C0
100
AcDbEntity
  8
MO_001_VIEW_PV
  6
C_SOLID_M
100
AcDbVertex
100
AcDb2dVertex
 10
3.335449999999999
 20
-1.162495999999999
 30
0.0
  0
VERTEX
  5
4D5
330
1C0
100
AcDbEntity
  8
MO_001_VIEW_PV
  6
C_SOLID_M
100
AcDbVertex
100
AcDb2dVertex
 10
3.647747
 20
-1.079137
 30
0.0
  0
VERTEX
  5
4D6
330
1C0
100
AcDbEntity
  8
MO_001_VIEW_PV
  6
C_SOLID_M
100
AcDbVertex
100
AcDb2dVertex
 10
3.875705
 20
-0.9970600000000001
 30
0.0
  0
VERTEX
  5
4D7
330
1C0
100
AcDbEntity
  8
MO_001_VIEW_PV
  6
C_SOLID_M
100
AcDbVertex
100
AcDb2dVertex
 10
4.204625
 20
-0.843585
 30
0.0
  0
VERTEX
  5
4D8
330
1C0
100
AcDbEntity
  8
MO_001_VIEW_PV
  6
C_SOLID_M
100
AcDbVertex
100
AcDb2dVertex
 10
4.514383
 20
-0.65537
 30
0.0
  0
SEQEND
  5
4D9
330
1C0
100
AcDbEntity
  8
MO_001_VIEW_PV
  6
C_SOLID_M
  0
POLYLINE
  5
1D5
330
1E
100
AcDbEntity
  8
MO_001_VIEW_PV
  6
C_SOLID_M
100
AcDb2dPolyline
 66
     1
 10
0.0
 20
0.0
 30
0.0
  0
VERTEX
  5
4DA
330
1D5
100
AcDbEntity
  8
MO_001_VIEW_PV
  6
C_SOLID_M
100
AcDbVertex
100
AcDb2dVertex
 10
4.514383999999999
 20
-5.155711
 30
0.0
  0
VERTEX
  5
4DB
330
1D5
100
AcDbEntity
  8
MO_001_VIEW_PV
  6
C_SOLID_M
100
AcDbVertex
100
AcDb2dVertex
 10
4.247167
 20
-4.990656999999999
 30
0.0
  0
VERTEX
  5
4DC
330
1D5
100
AcDbEntity
  8
MO_001_VIEW_PV
  6
C_SOLID_M
100
AcDbVertex
100
AcDb2dVertex
 10
4.00114
 20
-4.867417999999999
 30
0.0
  0
VERTEX
  5
4DD
330
1D5
100
AcDbEntity
  8
MO_001_VIEW_PV
  6
C_SOLID_M
100
AcDbVertex
100
AcDb2dVertex
 10
3.777932999999999
 20
-4.776520999999999
 30
0.0
  0
VERTEX
  5
4DE
330
1D5
100
AcDbEntity
  8
MO_001_VIEW_PV
  6
C_SOLID_M
100
AcDbVertex
100
AcDb2dVertex
 10
3.577537999999999
 20
-4.710359999999999
 30
0.0
  0
VERTEX
  5
4DF
330
1D5
100
AcDbEntity
  8
MO_001_VIEW_PV
  6
C_SOLID_M
100
AcDbVertex
100
AcDb2dVertex
 10
3.398973
 20
-4.662937
 30
0.0
  0
VERTEX
  5
4E0
330
1D5
100
AcDbEntity
  8
MO_001_VIEW_PV
  6
C_SOLID_M
100
AcDbVertex
100
AcDb2dVertex
 10
3.081008999999999
 20
-4.603901999999999
 30
0.0
  0
VERTEX
  5
4E1
330
1D5
100
AcDbEntity
  8
MO_001_VIEW_PV
  6
C_SOLID_M
100
AcDbVertex
100
AcDb2dVertex
 10
2.839517999999999
 20
-4.579916
 30
0.0
  0
VERTEX
  5
4E2
330
1D5
100
AcDbEntity
  8
MO_001_VIEW_PV
  6
C_SOLID_M
100
AcDbVertex
100
AcDb2dVertex
 10
2.475559999999999
 20
-4.576849
 30
0.0
  0
VERTEX
  5
4E3
330
1D5
100
AcDbEntity
  8
MO_001_VIEW_PV
  6
C_SOLID_M
100
AcDbVertex
100
AcDb2dVertex
 10
2.113472
 20
-4.613273999999999
 30
0.0
  0
VERTEX
  5
4E4
330
1D5
100
AcDbEntity
  8
MO_001_VIEW_PV
  6
C_SOLID_M
100
AcDbVertex
100
AcDb2dVertex
 10
1.804634999999999
 20
-4.676442999999999
 30
0.0
  0
VERTEX
  5
4E5
330
1D5
100
AcDbEntity
  8
MO_001_VIEW_PV
  6
C_SOLID_M
100
AcDbVertex
100
AcDb2dVertex
 10
1.540488999999999
 20
-4.755325
 30
0.0
  0
VERTEX
  5
4E6
330
1D5
100
AcDbEntity
  8
MO_001_VIEW_PV
  6
C_SOLID_M
100
AcDbVertex
100
AcDb2dVertex
 10
1.315547999999999
 20
-4.841976999999999
 30
0.0
  0
VERTEX
  5
4E7
330
1D5
100
AcDbEntity
  8
MO_001_VIEW_PV
  6
C_SOLID_M
100
AcDbVertex
100
AcDb2dVertex
 10
1.124457999999999
 20
-4.930916
 30
0.0
  0
VERTEX
  5
4E8
330
1D5
100
AcDbEntity
  8
MO_001_VIEW_PV
  6
C_SOLID_M
100
AcDbVertex
100
AcDb2dVertex
 10
0.962292
 20
-5.018483999999999
 30
0.0
  0
VERTEX
  5
4E9
330
1D5
100
AcDbEntity
  8
MO_001_VIEW_PV
  6
C_SOLID_M
100
AcDbVertex
100
AcDb2dVertex
 10
0.6913970000000001
 20
-5.192744999999999
 30
0.0
  0
VERTEX
  5
4EA
330
1D5
100
AcDbEntity
  8
MO_001_VIEW_PV
  6
C_SOLID_M
100
AcDbVertex
100
AcDb2dVertex
 10
0.5003180000000001
 20
-5.340136
 30
0.0
  0
VERTEX
  5
4EB
330
1D5
100
AcDbEntity
  8
MO_001_VIEW_PV
  6
C_SOLID_M
100
AcDbVertex
100
AcDb2dVertex
 10
0.235599
 20
-5.586141
 30
0.0
  0
VERTEX
  5
4EC
330
1D5
100
AcDbEntity
  8
MO_001_VIEW_PV
  6
C_SOLID_M
100
AcDbVertex
100
AcDb2dVertex
 10
0.0
 20
-5.859358999999999
 30
0.0
  0
SEQEND
  5
4ED
330
1D5
100
AcDbEntity
  8
MO_001_VIEW_PV
  6
C_SOLID_M
  0
POLYLINE
  5
1EA
330
1E
100
AcDbEntity
  8
MO_001_VIEW_PV
  6
C_SOLID_M
100
AcDb2dPolyline
 66
     1
 10
0.0
 20
0.0
 30
0.0
  0
VERTEX
  5
4EE
330
1EA
100
AcDbEntity
  8
MO_001_VIEW_PV
  6
C_SOLID_M
100
AcDbVertex
100
AcDb2dVertex
 10
5.293537
 20
-1.138437999999999
 30
0.0
  0
VERTEX
  5
4EF
330
1EA
100
AcDbEntity
  8
MO_001_VIEW_PV
  6
C_SOLID_M
100
AcDbVertex
100
AcDb2dVertex
 10
5.230319999999999
 20
-1.577709
 30
0.0
  0
VERTEX
  5
4F0
330
1EA
100
AcDbEntity
  8
MO_001_VIEW_PV
  6
C_SOLID_M
100
AcDbVertex
100
AcDb2dVertex
 10
5.194708
 20
-1.908609999999999
 30
0.0
  0
VERTEX
  5
4F1
330
1EA
100
AcDbEntity
  8
MO_001_VIEW_PV
  6
C_SOLID_M
100
AcDbVertex
100
AcDb2dVertex
 10
5.160330999999999
 20
-2.406569999999999
 30
0.0
  0
VERTEX
  5
4F2
330
1EA
100
AcDbEntity
  8
MO_001_VIEW_PV
  6
C_SOLID_M
100
AcDbVertex
100
AcDb2dVertex
 10
5.148864999999999
 20
-2.905550999999999
 30
0.0
  0
VERTEX
  5
4F3
330
1EA
100
AcDbEntity
  8
MO_001_VIEW_PV
  6
C_SOLID_M
100
AcDbVertex
100
AcDb2dVertex
 10
5.157924999999999
 20
-3.349121999999999
 30
0.0
  0
VERTEX
  5
4F4
330
1EA
100
AcDbEntity
  8
MO_001_VIEW_PV
  6
C_SOLID_M
100
AcDbVertex
100
AcDb2dVertex
 10
5.176605
 20
-3.681367999999999
 30
0.0
  0
VERTEX
  5
4F5
330
1EA
100
AcDbEntity
  8
MO_001_VIEW_PV
  6
C_SOLID_M
100
AcDbVertex
100
AcDb2dVertex
 10
5.223681
 20
-4.178319
 30
0.0
  0
VERTEX
  5
4F6
330
1EA
100
AcDbEntity
  8
MO_001_VIEW_PV
  6
C_SOLID_M
100
AcDbVertex
100
AcDb2dVertex
 10
5.293537999999999
 20
-4.672664
 30
0.0
  0
SEQEND
  5
4F7
330
1EA
100
AcDbEntity
  8
MO_001_VIEW_PV
  6
C_SOLID_M
  0
POLYLINE
  5
1F5
330
1E
100
AcDbEntity
  8
MO_001_VIEW_PV
  6
C_SOLID_M
100
AcDb2dPolyline
 66
     1
 10
0.0
 20
0.0
 30
0.0
  0
VERTEX
  5
4F8
330
1F5
100
AcDbEntity
  8
MO_001_VIEW_PV
  6
C_SOLID_M
100
AcDbVertex
100
AcDb2dVertex
 10
4.514387
 20
-5.155711
 30
0.0
  0
VERTEX
  5
4F9
330
1F5
100
AcDbEntity
  8
MO_001_VIEW_PV
  6
C_SOLID_M
100
AcDbVertex
100
AcDb2dVertex
 10
4.577233999999999
 20
-5.192383
 30
0.0
  0
VERTEX
  5
4FA
330
1F5
100
AcDbEntity
  8
MO_001_VIEW_PV
  6
C_SOLID_M
100
AcDbVertex
100
AcDb2dVertex
 10
4.697794
 20
-5.233558999999999
 30
0.0
  0
VERTEX
  5
4FB
330
1F5
100
AcDbEntity
  8
MO_001_VIEW_PV
  6
C_SOLID_M
100
AcDbVertex
100
AcDb2dVertex
 10
4.793033
 20
-5.243909999999999
 30
0.0
  0
VERTEX
  5
4FC
330
1F5
100
AcDbEntity
  8
MO_001_VIEW_PV
  6
C_SOLID_M
100
AcDbVertex
100
AcDb2dVertex
 10
4.864823
 20
-5.239802
 30
0.0
  0
VERTEX
  5
4FD
330
1F5
100
AcDbEntity
  8
MO_001_VIEW_PV
  6
C_SOLID_M
100
AcDbVertex
100
AcDb2dVertex
 10
4.969536999999999
 20
-5.214787999999999
 30
0.0
  0
VERTEX
  5
4FE
330
1F5
100
AcDbEntity
  8
MO_001_VIEW_PV
  6
C_SOLID_M
100
AcDbVertex
100
AcDb2dVertex
 10
5.066378
 20
-5.16826
 30
0.0
  0
VERTEX
  5
4FF
330
1F5
100
AcDbEntity
  8
MO_001_VIEW_PV
  6
C_SOLID_M
100
AcDbVertex
100
AcDb2dVertex
 10
5.125189999999999
 20
-5.125587
 30
0.0
  0
VERTEX
  5
500
330
1F5
100
AcDbEntity
  8
MO_001_VIEW_PV
  6
C_SOLID_M
100
AcDbVertex
100
AcDb2dVertex
 10
5.210738
 20
-5.032343
 30
0.0
  0
VERTEX
  5
501
330
1F5
100
AcDbEntity
  8
MO_001_VIEW_PV
  6
C_SOLID_M
100
AcDbVertex
100
AcDb2dVertex
 10
5.257583999999999
 20
-4.950026999999999
 30
0.0
  0
VERTEX
  5
502
330
1F5
100
AcDbEntity
  8
MO_001_VIEW_PV
  6
C_SOLID_M
100
AcDbVertex
100
AcDb2dVertex
 10
5.281762999999999
 20
-4.883328999999999
 30
0.0
  0
VERTEX
  5
503
330
1F5
100
AcDbEntity
  8
MO_001_VIEW_PV
  6
C_SOLID_M
100
AcDbVertex
100
AcDb2dVertex
 10
5.299246
 20
-4.778618999999999
 30
0.0
  0
VERTEX
  5
504
330
1F5
100
AcDbEntity
  8
MO_001_VIEW_PV
  6
C_SOLID_M
100
AcDbVertex
100
AcDb2dVertex
 10
5.293544999999999
 20
-4.672651999999999
 30
0.0
  0
SEQEND
  5
505
330
1F5
100
AcDbEntity
  8
MO_001_VIEW_PV
  6
C_SOLID_M
  0
POLYLINE
  5
204
330
1E
100
AcDbEntity
  8
MO_001_VIEW_PV
  6
C_SOLID_M
100
AcDb2dPolyline
 66
     1
 10
0.0
 20
0.0
 30
0.0
  0
VERTEX
  5
506
330
204
100
AcDbEntity
  8
MO_001_VIEW_PV
  6
C_SOLID_M
100
AcDbVertex
100
AcDb2dVertex
 10
5.293543999999999
 20
-1.138429
 30
0.0
  0
VERTEX
  5
507
330
204
100
AcDbEntity
  8
MO_001_VIEW_PV
  6
C_SOLID_M
100
AcDbVertex
100
AcDb2dVertex
 10
5.299948999999999
 20
-1.066765999999999
 30
0.0
  0
VERTEX
  5
508
330
204
100
AcDbEntity
  8
MO_001_VIEW_PV
  6
C_SOLID_M
100
AcDbVertex
100
AcDb2dVertex
 10
5.285525999999999
 20
-0.9419069999999999
 30
0.0
  0
VERTEX
  5
509
330
204
100
AcDbEntity
  8
MO_001_VIEW_PV
  6
C_SOLID_M
100
AcDbVertex
100
AcDb2dVertex
 10
5.253826
 20
-0.85286
 30
0.0
  0
VERTEX
  5
50A
330
204
100
AcDbEntity
  8
MO_001_VIEW_PV
  6
C_SOLID_M
100
AcDbVertex
100
AcDb2dVertex
 10
5.219026
 20
-0.790886
 30
0.0
  0
VERTEX
  5
50B
330
204
100
AcDbEntity
  8
MO_001_VIEW_PV
  6
C_SOLID_M
100
AcDbVertex
100
AcDb2dVertex
 10
5.150851
 20
-0.708715
 30
0.0
  0
VERTEX
  5
50C
330
204
100
AcDbEntity
  8
MO_001_VIEW_PV
  6
C_SOLID_M
100
AcDbVertex
100
AcDb2dVertex
 10
5.066380999999999
 20
-0.642836
 30
0.0
  0
VERTEX
  5
50D
330
204
100
AcDbEntity
  8
MO_001_VIEW_PV
  6
C_SOLID_M
100
AcDbVertex
100
AcDb2dVertex
 10
5.001883
 20
-0.6090590000000001
 30
0.0
  0
VERTEX
  5
50E
330
204
100
AcDbEntity
  8
MO_001_VIEW_PV
  6
C_SOLID_M
100
AcDbVertex
100
AcDb2dVertex
 10
4.879523999999999
 20
-0.5734060000000002
 30
0.0
  0
VERTEX
  5
50F
330
204
100
AcDbEntity
  8
MO_001_VIEW_PV
  6
C_SOLID_M
100
AcDbVertex
100
AcDb2dVertex
 10
4.783901
 20
-0.567394
 30
0.0
  0
VERTEX
  5
510
330
204
100
AcDbEntity
  8
MO_001_VIEW_PV
  6
C_SOLID_M
100
AcDbVertex
100
AcDb2dVertex
 10
4.71238
 20
-0.5747590000000001
 30
0.0
  0
VERTEX
  5
511
330
204
100
AcDbEntity
  8
MO_001_VIEW_PV
  6
C_SOLID_M
100
AcDbVertex
100
AcDb2dVertex
 10
4.60895
 20
-0.6045030000000001
 30
0.0
  0
VERTEX
  5
512
330
204
100
AcDbEntity
  8
MO_001_VIEW_PV
  6
C_SOLID_M
100
AcDbVertex
100
AcDb2dVertex
 10
4.514391999999999
 20
-0.6553790000000001
 30
0.0
  0
SEQEND
  5
513
330
204
100
AcDbEntity
  8
MO_001_VIEW_PV
  6
C_SOLID_M
  0
POLYLINE
  5
213
330
1E
100
AcDbEntity
  8
MO_001_VIEW_PV
  6
C_SOLID_M
100
AcDb2dPolyline
 66
     1
 10
0.0
 20
0.0
 30
0.0
  0
VERTEX
  5
514
330
213
100
AcDbEntity
  8
MO_001_VIEW_PV
  6
C_SOLID_M
100
AcDbVertex
100
AcDb2dVertex
 10
0.000008
 20
10.963734
 30
0.0
  0
VERTEX
  5
515
330
213
100
AcDbEntity
  8
MO_001_VIEW_PV
  6
C_SOLID_M
100
AcDbVertex
100
AcDb2dVertex
 10
0.202408
 20
10.75422199999999
 30
0.0
  0
VERTEX
  5
516
330
213
100
AcDbEntity
  8
MO_001_VIEW_PV
  6
C_SOLID_M
100
AcDbVertex
100
AcDb2dVertex
 10
0.397765
 20
10.58535
 30
0.0
  0
VERTEX
  5
517
330
213
100
AcDbEntity
  8
MO_001_VIEW_PV
  6
C_SOLID_M
100
AcDbVertex
100
AcDb2dVertex
 10
0.5815590000000001
 20
10.449631
 30
0.0
  0
VERTEX
  5
518
330
213
100
AcDbEntity
  8
MO_001_VIEW_PV
  6
C_SOLID_M
100
AcDbVertex
100
AcDb2dVertex
 10
0.751413
 20
10.34070299999999
 30
0.0
  0
VERTEX
  5
519
330
213
100
AcDbEntity
  8
MO_001_VIEW_PV
  6
C_SOLID_M
100
AcDbVertex
100
AcDb2dVertex
 10
1.066756999999999
 20
10.173521
 30
0.0
  0
VERTEX
  5
51A
330
213
100
AcDbEntity
  8
MO_001_VIEW_PV
  6
C_SOLID_M
100
AcDbVertex
100
AcDb2dVertex
 10
1.316363999999999
 20
10.068771
 30
0.0
  0
VERTEX
  5
51B
330
213
100
AcDbEntity
  8
MO_001_VIEW_PV
  6
C_SOLID_M
100
AcDbVertex
100
AcDb2dVertex
 10
1.509755
 20
10.002329
 30
0.0
  0
VERTEX
  5
51C
330
213
100
AcDbEntity
  8
MO_001_VIEW_PV
  6
C_SOLID_M
100
AcDbVertex
100
AcDb2dVertex
 10
1.807940999999999
 20
9.922772999999999
 30
0.0
  0
VERTEX
  5
51D
330
213
100
AcDbEntity
  8
MO_001_VIEW_PV
  6
C_SOLID_M
100
AcDbVertex
100
AcDb2dVertex
 10
2.113471
 20
9.867960999999999
 30
0.0
  0
VERTEX
  5
51E
330
213
100
AcDbEntity
  8
MO_001_VIEW_PV
  6
C_SOLID_M
100
AcDbVertex
100
AcDb2dVertex
 10
2.427019
 20
9.838200999999999
 30
0.0
  0
VERTEX
  5
51F
330
213
100
AcDbEntity
  8
MO_001_VIEW_PV
  6
C_SOLID_M
100
AcDbVertex
100
AcDb2dVertex
 10
2.702989
 20
9.833536
 30
0.0
  0
VERTEX
  5
520
330
213
100
AcDbEntity
  8
MO_001_VIEW_PV
  6
C_SOLID_M
100
AcDbVertex
100
AcDb2dVertex
 10
2.944106
 20
9.845853999999999
 30
0.0
  0
VERTEX
  5
521
330
213
100
AcDbEntity
  8
MO_001_VIEW_PV
  6
C_SOLID_M
100
AcDbVertex
100
AcDb2dVertex
 10
3.153743999999999
 20
9.869138000000001
 30
0.0
  0
VERTEX
  5
522
330
213
100
AcDbEntity
  8
MO_001_VIEW_PV
  6
C_SOLID_M
100
AcDbVertex
100
AcDb2dVertex
 10
3.514922
 20
9.937651999999999
 30
0.0
  0
VERTEX
  5
523
330
213
100
AcDbEntity
  8
MO_001_VIEW_PV
  6
C_SOLID_M
100
AcDbVertex
100
AcDb2dVertex
 10
3.778753
 20
10.01178099999999
 30
0.0
  0
VERTEX
  5
524
330
213
100
AcDbEntity
  8
MO_001_VIEW_PV
  6
C_SOLID_M
100
AcDbVertex
100
AcDb2dVertex
 10
3.971398
 20
10.079831
 30
0.0
  0
VERTEX
  5
525
330
213
100
AcDbEntity
  8
MO_001_VIEW_PV
  6
C_SOLID_M
100
AcDbVertex
100
AcDb2dVertex
 10
4.250129
 20
10.20126899999999
 30
0.0
  0
VERTEX
  5
526
330
213
100
AcDbEntity
  8
MO_001_VIEW_PV
  6
C_SOLID_M
100
AcDbVertex
100
AcDb2dVertex
 10
4.514370999999999
 20
10.34496199999999
 30
0.0
  0
SEQEND
  5
527
330
213
100
AcDbEntity
  8
MO_001_VIEW_PV
  6
C_SOLID_M
  0
POLYLINE
  5
228
330
1E
100
AcDbEntity
  8
MO_001_VIEW_PV
  6
C_SOLID_M
100
AcDb2dPolyline
 66
     1
 10
0.0
 20
0.0
 30
0.0
  0
VERTEX
  5
528
330
228
100
AcDbEntity
  8
MO_001_VIEW_PV
  6
C_SOLID_M
100
AcDbVertex
100
AcDb2dVertex
 10
4.514384999999999
 20
6.387415999999999
 30
0.0
  0
VERTEX
  5
529
330
228
100
AcDbEntity
  8
MO_001_VIEW_PV
  6
C_SOLID_M
100
AcDbVertex
100
AcDb2dVertex
 10
4.247168
 20
6.532562999999999
 30
0.0
  0
VERTEX
  5
52A
330
228
100
AcDbEntity
  8
MO_001_VIEW_PV
  6
C_SOLID_M
100
AcDbVertex
100
AcDb2dVertex
 10
4.001141
 20
6.640938
 30
0.0
  0
VERTEX
  5
52B
330
228
100
AcDbEntity
  8
MO_001_VIEW_PV
  6
C_SOLID_M
100
AcDbVertex
100
AcDb2dVertex
 10
3.777933999999999
 20
6.720871999999999
 30
0.0
  0
VERTEX
  5
52C
330
228
100
AcDbEntity
  8
MO_001_VIEW_PV
  6
C_SOLID_M
100
AcDbVertex
100
AcDb2dVertex
 10
3.577538999999999
 20
6.779053
 30
0.0
  0
VERTEX
  5
52D
330
228
100
AcDbEntity
  8
MO_001_VIEW_PV
  6
C_SOLID_M
100
AcDbVertex
100
AcDb2dVertex
 10
3.217991
 20
6.853732
 30
0.0
  0
VERTEX
  5
52E
330
228
100
AcDbEntity
  8
MO_001_VIEW_PV
  6
C_SOLID_M
100
AcDbVertex
100
AcDb2dVertex
 10
2.943229999999999
 20
6.886610000000001
 30
0.0
  0
VERTEX
  5
52F
330
228
100
AcDbEntity
  8
MO_001_VIEW_PV
  6
C_SOLID_M
100
AcDbVertex
100
AcDb2dVertex
 10
2.735597999999999
 20
6.898085
 30
0.0
  0
VERTEX
  5
530
330
228
100
AcDbEntity
  8
MO_001_VIEW_PV
  6
C_SOLID_M
100
AcDbVertex
100
AcDb2dVertex
 10
2.423615
 20
6.894007000000001
 30
0.0
  0
VERTEX
  5
531
330
228
100
AcDbEntity
  8
MO_001_VIEW_PV
  6
C_SOLID_M
100
AcDbVertex
100
AcDb2dVertex
 10
2.113472
 20
6.86443
 30
0.0
  0
VERTEX
  5
532
330
228
100
AcDbEntity
  8
MO_001_VIEW_PV
  6
C_SOLID_M
100
AcDbVertex
100
AcDb2dVertex
 10
1.804634
 20
6.80888
 30
0.0
  0
VERTEX
  5
533
330
228
100
AcDbEntity
  8
MO_001_VIEW_PV
  6
C_SOLID_M
100
AcDbVertex
100
AcDb2dVertex
 10
1.540487999999999
 20
6.739511999999999
 30
0.0
  0
VERTEX
  5
534
330
228
100
AcDbEntity
  8
MO_001_VIEW_PV
  6
C_SOLID_M
100
AcDbVertex
100
AcDb2dVertex
 10
1.315547
 20
6.663311
 30
0.0
  0
VERTEX
  5
535
330
228
100
AcDbEntity
  8
MO_001_VIEW_PV
  6
C_SOLID_M
100
AcDbVertex
100
AcDb2dVertex
 10
1.124457
 20
6.585097999999999
 30
0.0
  0
VERTEX
  5
536
330
228
100
AcDbEntity
  8
MO_001_VIEW_PV
  6
C_SOLID_M
100
AcDbVertex
100
AcDb2dVertex
 10
0.8053600000000001
 20
6.423337999999999
 30
0.0
  0
VERTEX
  5
537
330
228
100
AcDbEntity
  8
MO_001_VIEW_PV
  6
C_SOLID_M
100
AcDbVertex
100
AcDb2dVertex
 10
0.580856
 20
6.282271999999999
 30
0.0
  0
VERTEX
  5
538
330
228
100
AcDbEntity
  8
MO_001_VIEW_PV
  6
C_SOLID_M
100
AcDbVertex
100
AcDb2dVertex
 10
0.421892
 20
6.166025
 30
0.0
  0
VERTEX
  5
539
330
228
100
AcDbEntity
  8
MO_001_VIEW_PV
  6
C_SOLID_M
100
AcDbVertex
100
AcDb2dVertex
 10
0.200087
 20
5.975976
 30
0.0
  0
VERTEX
  5
53A
330
228
100
AcDbEntity
  8
MO_001_VIEW_PV
  6
C_SOLID_M
100
AcDbVertex
100
AcDb2dVertex
 10
-0.000002
 20
5.768633999999999
 30
0.0
  0
SEQEND
  5
53B
330
228
100
AcDbEntity
  8
MO_001_VIEW_PV
  6
C_SOLID_M
  0
POLYLINE
  5
23D
330
1E
100
AcDbEntity
  8
MO_001_VIEW_PV
  6
C_SOLID_M
100
AcDb2dPolyline
 66
     1
 10
0.0
 20
0.0
 30
0.0
  0
VERTEX
  5
53C
330
23D
100
AcDbEntity
  8
MO_001_VIEW_PV
  6
C_SOLID_M
100
AcDbVertex
100
AcDb2dVertex
 10
5.293537999999999
 20
9.920150999999998
 30
0.0
  0
VERTEX
  5
53D
330
23D
100
AcDbEntity
  8
MO_001_VIEW_PV
  6
C_SOLID_M
100
AcDbVertex
100
AcDb2dVertex
 10
5.230319999999999
 20
9.533863
 30
0.0
  0
VERTEX
  5
53E
330
23D
100
AcDbEntity
  8
MO_001_VIEW_PV
  6
C_SOLID_M
100
AcDbVertex
100
AcDb2dVertex
 10
5.194708
 20
9.242872999999999
 30
0.0
  0
VERTEX
  5
53F
330
23D
100
AcDbEntity
  8
MO_001_VIEW_PV
  6
C_SOLID_M
100
AcDbVertex
100
AcDb2dVertex
 10
5.160330999999999
 20
8.804975
 30
0.0
  0
VERTEX
  5
540
330
23D
100
AcDbEntity
  8
MO_001_VIEW_PV
  6
C_SOLID_M
100
AcDbVertex
100
AcDb2dVertex
 10
5.148864999999999
 20
8.366177999999999
 30
0.0
  0
VERTEX
  5
541
330
23D
100
AcDbEntity
  8
MO_001_VIEW_PV
  6
C_SOLID_M
100
AcDbVertex
100
AcDb2dVertex
 10
5.157924999999999
 20
7.976107999999999
 30
0.0
  0
VERTEX
  5
542
330
23D
100
AcDbEntity
  8
MO_001_VIEW_PV
  6
C_SOLID_M
100
AcDbVertex
100
AcDb2dVertex
 10
5.176605
 20
7.683936
 30
0.0
  0
VERTEX
  5
543
330
23D
100
AcDbEntity
  8
MO_001_VIEW_PV
  6
C_SOLID_M
100
AcDbVertex
100
AcDb2dVertex
 10
5.223682
 20
7.246924
 30
0.0
  0
VERTEX
  5
544
330
23D
100
AcDbEntity
  8
MO_001_VIEW_PV
  6
C_SOLID_M
100
AcDbVertex
100
AcDb2dVertex
 10
5.293538999999999
 20
6.812203999999999
 30
0.0
  0
SEQEND
  5
545
330
23D
100
AcDbEntity
  8
MO_001_VIEW_PV
  6
C_SOLID_M
  0
POLYLINE
  5
248
330
1E
100
AcDbEntity
  8
MO_001_VIEW_PV
  6
C_SOLID_M
100
AcDb2dPolyline
 66
     1
 10
0.0
 20
0.0
 30
0.0
  0
VERTEX
  5
546
330
248
100
AcDbEntity
  8
MO_001_VIEW_PV
  6
C_SOLID_M
100
AcDbVertex
100
AcDb2dVertex
 10
4.514393
 20
6.387412
 30
0.0
  0
VERTEX
  5
547
330
248
100
AcDbEntity
  8
MO_001_VIEW_PV
  6
C_SOLID_M
100
AcDbVertex
100
AcDb2dVertex
 10
4.644842999999999
 20
6.331191999999999
 30
0.0
  0
VERTEX
  5
548
330
248
100
AcDbEntity
  8
MO_001_VIEW_PV
  6
C_SOLID_M
100
AcDbVertex
100
AcDb2dVertex
 10
4.751984999999999
 20
6.311816
 30
0.0
  0
VERTEX
  5
549
330
248
100
AcDbEntity
  8
MO_001_VIEW_PV
  6
C_SOLID_M
100
AcDbVertex
100
AcDb2dVertex
 10
4.834138999999999
 20
6.310825
 30
0.0
  0
VERTEX
  5
54A
330
248
100
AcDbEntity
  8
MO_001_VIEW_PV
  6
C_SOLID_M
100
AcDbVertex
100
AcDb2dVertex
 10
4.954953999999999
 20
6.331132
 30
0.0
  0
VERTEX
  5
54B
330
248
100
AcDbEntity
  8
MO_001_VIEW_PV
  6
C_SOLID_M
100
AcDbVertex
100
AcDb2dVertex
 10
5.066380999999999
 20
6.376381999999999
 30
0.0
  0
VERTEX
  5
54C
330
248
100
AcDbEntity
  8
MO_001_VIEW_PV
  6
C_SOLID_M
100
AcDbVertex
100
AcDb2dVertex
 10
5.177063999999999
 20
6.458452999999999
 30
0.0
  0
VERTEX
  5
54D
330
248
100
AcDbEntity
  8
MO_001_VIEW_PV
  6
C_SOLID_M
100
AcDbVertex
100
AcDb2dVertex
 10
5.23948
 20
6.536319999999999
 30
0.0
  0
VERTEX
  5
54E
330
248
100
AcDbEntity
  8
MO_001_VIEW_PV
  6
C_SOLID_M
100
AcDbVertex
100
AcDb2dVertex
 10
5.272597
 20
6.601439
 30
0.0
  0
VERTEX
  5
54F
330
248
100
AcDbEntity
  8
MO_001_VIEW_PV
  6
C_SOLID_M
100
AcDbVertex
100
AcDb2dVertex
 10
5.298161
 20
6.705696
 30
0.0
  0
VERTEX
  5
550
330
248
100
AcDbEntity
  8
MO_001_VIEW_PV
  6
C_SOLID_M
100
AcDbVertex
100
AcDb2dVertex
 10
5.293543999999999
 20
6.812202
 30
0.0
  0
SEQEND
  5
551
330
248
100
AcDbEntity
  8
MO_001_VIEW_PV
  6
C_SOLID_M
  0
POLYLINE
  5
255
330
1E
100
AcDbEntity
  8
MO_001_VIEW_PV
  6
C_SOLID_M
100
AcDb2dPolyline
 66
     1
 10
0.0
 20
0.0
 30
0.0
  0
VERTEX
  5
552
330
255
100
AcDbEntity
  8
MO_001_VIEW_PV
  6
C_SOLID_M
100
AcDbVertex
100
AcDb2dVertex
 10
5.293543999999999
 20
9.920158
 30
0.0
  0
VERTEX
  5
553
330
255
100
AcDbEntity
  8
MO_001_VIEW_PV
  6
C_SOLID_M
100
AcDbVertex
100
AcDb2dVertex
 10
5.299948999999999
 20
9.983178
 30
0.0
  0
VERTEX
  5
554
330
255
100
AcDbEntity
  8
MO_001_VIEW_PV
  6
C_SOLID_M
100
AcDbVertex
100
AcDb2dVertex
 10
5.285525999999999
 20
10.092978
 30
0.0
  0
VERTEX
  5
555
330
255
100
AcDbEntity
  8
MO_001_VIEW_PV
  6
C_SOLID_M
100
AcDbVertex
100
AcDb2dVertex
 10
5.253824999999999
 20
10.171285
 30
0.0
  0
VERTEX
  5
556
330
255
100
AcDbEntity
  8
MO_001_VIEW_PV
  6
C_SOLID_M
100
AcDbVertex
100
AcDb2dVertex
 10
5.175558999999999
 20
10.27539699999999
 30
0.0
  0
VERTEX
  5
557
330
255
100
AcDbEntity
  8
MO_001_VIEW_PV
  6
C_SOLID_M
100
AcDbVertex
100
AcDb2dVertex
 10
5.066380999999999
 20
10.35597899999999
 30
0.0
  0
VERTEX
  5
558
330
255
100
AcDbEntity
  8
MO_001_VIEW_PV
  6
C_SOLID_M
100
AcDbVertex
100
AcDb2dVertex
 10
4.933075999999999
 20
10.406929
 30
0.0
  0
VERTEX
  5
559
330
255
100
AcDbEntity
  8
MO_001_VIEW_PV
  6
C_SOLID_M
100
AcDbVertex
100
AcDb2dVertex
 10
4.825015
 20
10.422004
 30
0.0
  0
VERTEX
  5
55A
330
255
100
AcDbEntity
  8
MO_001_VIEW_PV
  6
C_SOLID_M
100
AcDbVertex
100
AcDb2dVertex
 10
4.742896
 20
10.41971299999999
 30
0.0
  0
VERTEX
  5
55B
330
255
100
AcDbEntity
  8
MO_001_VIEW_PV
  6
C_SOLID_M
100
AcDbVertex
100
AcDb2dVertex
 10
4.623291
 20
10.394601
 30
0.0
  0
VERTEX
  5
55C
330
255
100
AcDbEntity
  8
MO_001_VIEW_PV
  6
C_SOLID_M
100
AcDbVertex
100
AcDb2dVertex
 10
4.514391999999999
 20
10.344948
 30
0.0
  0
SEQEND
  5
55D
330
255
100
AcDbEntity
  8
MO_001_VIEW_PV
  6
C_SOLID_M
  0
POLYLINE
  5
262
330
1E
100
AcDbEntity
  8
MO_001_VIEW_PV
  6
C_SOLID_M
100
AcDb2dPolyline
 66
     1
 10
0.0
 20
0.0
 30
0.0
  0
VERTEX
  5
55E
330
262
100
AcDbEntity
  8
MO_001_VIEW_PV
  6
C_SOLID_M
100
AcDbVertex
100
AcDb2dVertex
 10
-0.000023
 20
16.749116
 30
0.0
  0
VERTEX
  5
55F
330
262
100
AcDbEntity
  8
MO_001_VIEW_PV
  6
C_SOLID_M
100
AcDbVertex
100
AcDb2dVertex
 10
0.202377
 20
16.666368
 30
0.0
  0
VERTEX
  5
560
330
262
100
AcDbEntity
  8
MO_001_VIEW_PV
  6
C_SOLID_M
100
AcDbVertex
100
AcDb2dVertex
 10
0.397736
 20
16.599671
 30
0.0
  0
VERTEX
  5
561
330
262
100
AcDbEntity
  8
MO_001_VIEW_PV
  6
C_SOLID_M
100
AcDbVertex
100
AcDb2dVertex
 10
0.581532
 20
16.546069
 30
0.0
  0
VERTEX
  5
562
330
262
100
AcDbEntity
  8
MO_001_VIEW_PV
  6
C_SOLID_M
100
AcDbVertex
100
AcDb2dVertex
 10
0.928949
 20
16.46383299999999
 30
0.0
  0
VERTEX
  5
563
330
262
100
AcDbEntity
  8
MO_001_VIEW_PV
  6
C_SOLID_M
100
AcDbVertex
100
AcDb2dVertex
 10
1.208131999999999
 20
16.412497
 30
0.0
  0
VERTEX
  5
564
330
262
100
AcDbEntity
  8
MO_001_VIEW_PV
  6
C_SOLID_M
100
AcDbVertex
100
AcDb2dVertex
 10
1.650654
 20
16.35323999999999
 30
0.0
  0
VERTEX
  5
565
330
262
100
AcDbEntity
  8
MO_001_VIEW_PV
  6
C_SOLID_M
100
AcDbVertex
100
AcDb2dVertex
 10
2.113472
 20
16.31633599999999
 30
0.0
  0
VERTEX
  5
566
330
262
100
AcDbEntity
  8
MO_001_VIEW_PV
  6
C_SOLID_M
100
AcDbVertex
100
AcDb2dVertex
 10
2.427026999999999
 20
16.30458299999999
 30
0.0
  0
VERTEX
  5
567
330
262
100
AcDbEntity
  8
MO_001_VIEW_PV
  6
C_SOLID_M
100
AcDbVertex
100
AcDb2dVertex
 10
2.978462999999999
 20
16.30879399999999
 30
0.0
  0
VERTEX
  5
568
330
262
100
AcDbEntity
  8
MO_001_VIEW_PV
  6
C_SOLID_M
100
AcDbVertex
100
AcDb2dVertex
 10
3.386474999999999
 20
16.33256799999999
 30
0.0
  0
VERTEX
  5
569
330
262
100
AcDbEntity
  8
MO_001_VIEW_PV
  6
C_SOLID_M
100
AcDbVertex
100
AcDb2dVertex
 10
3.685012999999999
 20
16.36176999999999
 30
0.0
  0
VERTEX
  5
56A
330
262
100
AcDbEntity
  8
MO_001_VIEW_PV
  6
C_SOLID_M
100
AcDbVertex
100
AcDb2dVertex
 10
4.114493
 20
16.42322199999999
 30
0.0
  0
VERTEX
  5
56B
330
262
100
AcDbEntity
  8
MO_001_VIEW_PV
  6
C_SOLID_M
100
AcDbVertex
100
AcDb2dVertex
 10
4.514414
 20
16.504734
 30
0.0
  0
SEQEND
  5
56C
330
262
100
AcDbEntity
  8
MO_001_VIEW_PV
  6
C_SOLID_M
  0
POLYLINE
  5
272
330
1E
100
AcDbEntity
  8
MO_001_VIEW_PV
  6
C_SOLID_M
100
AcDb2dPolyline
 66
     1
 10
0.0
 20
0.0
 30
0.0
  0
VERTEX
  5
56D
330
272
100
AcDbEntity
  8
MO_001_VIEW_PV
  6
C_SOLID_M
100
AcDbVertex
100
AcDb2dVertex
 10
4.514383999999999
 20
14.941794
 30
0.0
  0
VERTEX
  5
56E
330
272
100
AcDbEntity
  8
MO_001_VIEW_PV
  6
C_SOLID_M
100
AcDbVertex
100
AcDb2dVertex
 10
4.247167
 20
14.999117
 30
0.0
  0
VERTEX
  5
56F
330
272
100
AcDbEntity
  8
MO_001_VIEW_PV
  6
C_SOLID_M
100
AcDbVertex
100
AcDb2dVertex
 10
4.00114
 20
15.041918
 30
0.0
  0
VERTEX
  5
570
330
272
100
AcDbEntity
  8
MO_001_VIEW_PV
  6
C_SOLID_M
100
AcDbVertex
100
AcDb2dVertex
 10
3.548573
 20
15.09938599999999
 30
0.0
  0
VERTEX
  5
571
330
272
100
AcDbEntity
  8
MO_001_VIEW_PV
  6
C_SOLID_M
100
AcDbVertex
100
AcDb2dVertex
 10
3.195691
 20
15.127313
 30
0.0
  0
VERTEX
  5
572
330
272
100
AcDbEntity
  8
MO_001_VIEW_PV
  6
C_SOLID_M
100
AcDbVertex
100
AcDb2dVertex
 10
2.654927
 20
15.14402399999999
 30
0.0
  0
VERTEX
  5
573
330
272
100
AcDbEntity
  8
MO_001_VIEW_PV
  6
C_SOLID_M
100
AcDbVertex
100
AcDb2dVertex
 10
2.113471
 20
15.130182
 30
0.0
  0
VERTEX
  5
574
330
272
100
AcDbEntity
  8
MO_001_VIEW_PV
  6
C_SOLID_M
100
AcDbVertex
100
AcDb2dVertex
 10
1.804634
 20
15.108243
 30
0.0
  0
VERTEX
  5
575
330
272
100
AcDbEntity
  8
MO_001_VIEW_PV
  6
C_SOLID_M
100
AcDbVertex
100
AcDb2dVertex
 10
1.540487
 20
15.080847
 30
0.0
  0
VERTEX
  5
576
330
272
100
AcDbEntity
  8
MO_001_VIEW_PV
  6
C_SOLID_M
100
AcDbVertex
100
AcDb2dVertex
 10
1.097642999999999
 20
15.015113
 30
0.0
  0
VERTEX
  5
577
330
272
100
AcDbEntity
  8
MO_001_VIEW_PV
  6
C_SOLID_M
100
AcDbVertex
100
AcDb2dVertex
 10
0.7865280000000001
 20
14.95167699999999
 30
0.0
  0
VERTEX
  5
578
330
272
100
AcDbEntity
  8
MO_001_VIEW_PV
  6
C_SOLID_M
100
AcDbVertex
100
AcDb2dVertex
 10
0.567565
 20
14.896651
 30
0.0
  0
VERTEX
  5
579
330
272
100
AcDbEntity
  8
MO_001_VIEW_PV
  6
C_SOLID_M
100
AcDbVertex
100
AcDb2dVertex
 10
0.265767
 20
14.803037
 30
0.0
  0
VERTEX
  5
57A
330
272
100
AcDbEntity
  8
MO_001_VIEW_PV
  6
C_SOLID_M
100
AcDbVertex
100
AcDb2dVertex
 10
-0.000002
 20
14.69741799999999
 30
0.0
  0
SEQEND
  5
57B
330
272
100
AcDbEntity
  8
MO_001_VIEW_PV
  6
C_SOLID_M
  0
POLYLINE
  5
282
330
1E
100
AcDbEntity
  8
MO_001_VIEW_PV
  6
C_SOLID_M
100
AcDb2dPolyline
 66
     1
 10
0.0
 20
0.0
 30
0.0
  0
VERTEX
  5
57C
330
282
100
AcDbEntity
  8
MO_001_VIEW_PV
  6
C_SOLID_M
100
AcDbVertex
100
AcDb2dVertex
 10
5.295194
 20
16.34046099999999
 30
0.0
  0
VERTEX
  5
57D
330
282
100
AcDbEntity
  8
MO_001_VIEW_PV
  6
C_SOLID_M
100
AcDbVertex
100
AcDb2dVertex
 10
5.231409999999999
 20
16.18748599999999
 30
0.0
  0
VERTEX
  5
57E
330
282
100
AcDbEntity
  8
MO_001_VIEW_PV
  6
C_SOLID_M
100
AcDbVertex
100
AcDb2dVertex
 10
5.195439
 20
16.072245
 30
0.0
  0
VERTEX
  5
57F
330
282
100
AcDbEntity
  8
MO_001_VIEW_PV
  6
C_SOLID_M
100
AcDbVertex
100
AcDb2dVertex
 10
5.160631999999999
 20
15.89881799999999
 30
0.0
  0
VERTEX
  5
580
330
282
100
AcDbEntity
  8
MO_001_VIEW_PV
  6
C_SOLID_M
100
AcDbVertex
100
AcDb2dVertex
 10
5.148865999999999
 20
15.72503
 30
0.0
  0
VERTEX
  5
581
330
282
100
AcDbEntity
  8
MO_001_VIEW_PV
  6
C_SOLID_M
100
AcDbVertex
100
AcDb2dVertex
 10
5.157769999999999
 20
15.57053699999999
 30
0.0
  0
VERTEX
  5
582
330
282
100
AcDbEntity
  8
MO_001_VIEW_PV
  6
C_SOLID_M
100
AcDbVertex
100
AcDb2dVertex
 10
5.176401
 20
15.454816
 30
0.0
  0
VERTEX
  5
583
330
282
100
AcDbEntity
  8
MO_001_VIEW_PV
  6
C_SOLID_M
100
AcDbVertex
100
AcDb2dVertex
 10
5.223513999999999
 20
15.28172999999999
 30
0.0
  0
VERTEX
  5
584
330
282
100
AcDbEntity
  8
MO_001_VIEW_PV
  6
C_SOLID_M
100
AcDbVertex
100
AcDb2dVertex
 10
5.293537999999999
 20
15.10955199999999
 30
0.0
  0
SEQEND
  5
585
330
282
100
AcDbEntity
  8
MO_001_VIEW_PV
  6
C_SOLID_M
  0
POLYLINE
  5
28D
330
1E
100
AcDbEntity
  8
MO_001_VIEW_PV
  6
C_SOLID_M
100
AcDb2dPolyline
 66
     1
 10
0.0
 20
0.0
 30
0.0
  0
VERTEX
  5
586
330
28D
100
AcDbEntity
  8
MO_001_VIEW_PV
  6
C_SOLID_M
100
AcDbVertex
100
AcDb2dVertex
 10
4.514394
 20
14.94180799999999
 30
0.0
  0
VERTEX
  5
587
330
28D
100
AcDbEntity
  8
MO_001_VIEW_PV
  6
C_SOLID_M
100
AcDbVertex
100
AcDb2dVertex
 10
4.644843999999999
 20
14.919605
 30
0.0
  0
VERTEX
  5
588
330
28D
100
AcDbEntity
  8
MO_001_VIEW_PV
  6
C_SOLID_M
100
AcDbVertex
100
AcDb2dVertex
 10
4.86143
 20
14.912459
 30
0.0
  0
VERTEX
  5
589
330
28D
100
AcDbEntity
  8
MO_001_VIEW_PV
  6
C_SOLID_M
100
AcDbVertex
100
AcDb2dVertex
 10
4.967929999999999
 20
14.921096
 30
0.0
  0
VERTEX
  5
58A
330
28D
100
AcDbEntity
  8
MO_001_VIEW_PV
  6
C_SOLID_M
100
AcDbVertex
100
AcDb2dVertex
 10
5.066383
 20
14.937453
 30
0.0
  0
VERTEX
  5
58B
330
28D
100
AcDbEntity
  8
MO_001_VIEW_PV
  6
C_SOLID_M
100
AcDbVertex
100
AcDb2dVertex
 10
5.177064999999999
 20
14.969864
 30
0.0
  0
VERTEX
  5
58C
330
28D
100
AcDbEntity
  8
MO_001_VIEW_PV
  6
C_SOLID_M
100
AcDbVertex
100
AcDb2dVertex
 10
5.23948
 20
15.000615
 30
0.0
  0
VERTEX
  5
58D
330
28D
100
AcDbEntity
  8
MO_001_VIEW_PV
  6
C_SOLID_M
100
AcDbVertex
100
AcDb2dVertex
 10
5.272598
 20
15.026332
 30
0.0
  0
VERTEX
  5
58E
330
28D
100
AcDbEntity
  8
MO_001_VIEW_PV
  6
C_SOLID_M
100
AcDbVertex
100
AcDb2dVertex
 10
5.298161
 20
15.06750499999999
 30
0.0
  0
VERTEX
  5
58F
330
28D
100
AcDbEntity
  8
MO_001_VIEW_PV
  6
C_SOLID_M
100
AcDbVertex
100
AcDb2dVertex
 10
5.293543999999999
 20
15.109566
 30
0.0
  0
SEQEND
  5
590
330
28D
100
AcDbEntity
  8
MO_001_VIEW_PV
  6
C_SOLID_M
  0
POLYLINE
  5
299
330
1E
100
AcDbEntity
  8
MO_001_VIEW_PV
  6
C_SOLID_M
100
AcDb2dPolyline
 66
     1
 10
0.0
 20
0.0
 30
0.0
  0
VERTEX
  5
591
330
299
100
AcDbEntity
  8
MO_001_VIEW_PV
  6
C_SOLID_M
100
AcDbVertex
100
AcDb2dVertex
 10
5.293544999999999
 20
16.33698199999999
 30
0.0
  0
VERTEX
  5
592
330
299
100
AcDbEntity
  8
MO_001_VIEW_PV
  6
C_SOLID_M
100
AcDbVertex
100
AcDb2dVertex
 10
5.299948999999999
 20
16.361872
 30
0.0
  0
VERTEX
  5
593
330
299
100
AcDbEntity
  8
MO_001_VIEW_PV
  6
C_SOLID_M
100
AcDbVertex
100
AcDb2dVertex
 10
5.285523999999999
 20
16.405238
 30
0.0
  0
VERTEX
  5
594
330
299
100
AcDbEntity
  8
MO_001_VIEW_PV
  6
C_SOLID_M
100
AcDbVertex
100
AcDb2dVertex
 10
5.253823
 20
16.436165
 30
0.0
  0
VERTEX
  5
595
330
299
100
AcDbEntity
  8
MO_001_VIEW_PV
  6
C_SOLID_M
100
AcDbVertex
100
AcDb2dVertex
 10
5.175557
 20
16.477284
 30
0.0
  0
VERTEX
  5
596
330
299
100
AcDbEntity
  8
MO_001_VIEW_PV
  6
C_SOLID_M
100
AcDbVertex
100
AcDb2dVertex
 10
5.066378
 20
16.50910999999999
 30
0.0
  0
VERTEX
  5
597
330
299
100
AcDbEntity
  8
MO_001_VIEW_PV
  6
C_SOLID_M
100
AcDbVertex
100
AcDb2dVertex
 10
4.933072
 20
16.52923299999999
 30
0.0
  0
VERTEX
  5
598
330
299
100
AcDbEntity
  8
MO_001_VIEW_PV
  6
C_SOLID_M
100
AcDbVertex
100
AcDb2dVertex
 10
4.715753
 20
16.53295499999999
 30
0.0
  0
VERTEX
  5
599
330
299
100
AcDbEntity
  8
MO_001_VIEW_PV
  6
C_SOLID_M
100
AcDbVertex
100
AcDb2dVertex
 10
4.610532
 20
16.52264599999999
 30
0.0
  0
VERTEX
  5
59A
330
299
100
AcDbEntity
  8
MO_001_VIEW_PV
  6
C_SOLID_M
100
AcDbVertex
100
AcDb2dVertex
 10
4.51439
 20
16.50475199999999
 30
0.0
  0
SEQEND
  5
59B
330
299
100
AcDbEntity
  8
MO_001_VIEW_PV
  6
C_SOLID_M
  0
LINE
  5
2A5
330
1E
100
AcDbEntity
  8
MO_001_VIEW_PV
  6
C_SOLID_M
100
AcDbLine
 10
5.300003
 20
-16.899994
 30
0.0
 11
5.300003
 21
-15.72170999999999
 31
0.0
  0
ARC
  5
2A6
330
1E
100
AcDbEntity
  8
MO_001_VIEW_PV
  6
C_SOLID_M
100
AcDbCircle
 10
0.7999990000000001
 20
-17.699997
 30
0.0
 40
0.8
100
AcDbArc
 50
90.000002
 51
180.000005
  0
ARC
  5
2A7
330
1E
100
AcDbEntity
  8
MO_001_VIEW_PV
  6
C_SOLID_M
100
AcDbCircle
 10
0.7999990000000001
 20
-17.53234899999999
 30
0.0
 40
0.8
100
AcDbArc
 50
90.000002
 51
180.000005
  0
ARC
  5
2A8
330
1E
100
AcDbEntity
  8
MO_001_VIEW_PV
  6
C_SOLID_M
100
AcDbCircle
 10
0.7999990000000001
 20
-17.53234899999999
 30
0.0
 40
1.810658
100
AcDbArc
 50
90.000002
 51
116.220559
  0
POLYLINE
  5
2A9
330
1E
100
AcDbEntity
  8
MO_001_VIEW_PV
  6
C_SOLID_M
100
AcDb2dPolyline
 66
     1
 10
0.0
 20
0.0
 30
0.0
  0
VERTEX
  5
59C
330
2A9
100
AcDbEntity
  8
MO_001_VIEW_PV
  6
C_SOLID_M
100
AcDbVertex
100
AcDb2dVertex
 10
5.300003
 20
-10.838623
 30
0.0
  0
VERTEX
  5
59D
330
2A9
100
AcDbEntity
  8
MO_001_VIEW_PV
  6
C_SOLID_M
100
AcDbVertex
100
AcDb2dVertex
 10
5.281573999999999
 20
-10.752174
 30
0.0
  0
VERTEX
  5
59E
330
2A9
100
AcDbEntity
  8
MO_001_VIEW_PV
  6
C_SOLID_M
100
AcDbVertex
100
AcDb2dVertex
 10
5.244280999999999
 20
-10.691184
 30
0.0
  0
VERTEX
  5
59F
330
2A9
100
AcDbEntity
  8
MO_001_VIEW_PV
  6
C_SOLID_M
100
AcDbVertex
100
AcDb2dVertex
 10
5.204073999999999
 20
-10.64933399999999
 30
0.0
  0
VERTEX
  5
5A0
330
2A9
100
AcDbEntity
  8
MO_001_VIEW_PV
  6
C_SOLID_M
100
AcDbVertex
100
AcDb2dVertex
 10
5.126374
 20
-10.595151
 30
0.0
  0
VERTEX
  5
5A1
330
2A9
100
AcDbEntity
  8
MO_001_VIEW_PV
  6
C_SOLID_M
100
AcDbVertex
100
AcDb2dVertex
 10
5.031514999999999
 20
-10.553769
 30
0.0
  0
VERTEX
  5
5A2
330
2A9
100
AcDbEntity
  8
MO_001_VIEW_PV
  6
C_SOLID_M
100
AcDbVertex
100
AcDb2dVertex
 10
4.903770999999999
 20
-10.52424
 30
0.0
  0
VERTEX
  5
5A3
330
2A9
100
AcDbEntity
  8
MO_001_VIEW_PV
  6
C_SOLID_M
100
AcDbVertex
100
AcDb2dVertex
 10
4.802399999999999
 20
-10.517246
 30
0.0
  0
VERTEX
  5
5A4
330
2A9
100
AcDbEntity
  8
MO_001_VIEW_PV
  6
C_SOLID_M
100
AcDbVertex
100
AcDb2dVertex
 10
4.65148
 20
-10.531749
 30
0.0
  0
VERTEX
  5
5A5
330
2A9
100
AcDbEntity
  8
MO_001_VIEW_PV
  6
C_SOLID_M
100
AcDbVertex
100
AcDb2dVertex
 10
4.514394
 20
-10.574835
 30
0.0
  0
SEQEND
  5
5A6
330
2A9
100
AcDbEntity
  8
MO_001_VIEW_PV
  6
C_SOLID_M
  0
POLYLINE
  5
2B5
330
1E
100
AcDbEntity
  8
MO_001_VIEW_PV
  6
C_SOLID_M
100
AcDb2dPolyline
 66
     1
 10
0.0
 20
0.0
 30
0.0
  0
VERTEX
  5
5A7
330
2B5
100
AcDbEntity
  8
MO_001_VIEW_PV
  6
C_SOLID_M
100
AcDbVertex
100
AcDb2dVertex
 10
-0.000001
 20
-10.11554899999999
 30
0.0
  0
VERTEX
  5
5A8
330
2B5
100
AcDbEntity
  8
MO_001_VIEW_PV
  6
C_SOLID_M
100
AcDbVertex
100
AcDb2dVertex
 10
0.2024
 20
-10.27105799999999
 30
0.0
  0
VERTEX
  5
5A9
330
2B5
100
AcDbEntity
  8
MO_001_VIEW_PV
  6
C_SOLID_M
100
AcDbVertex
100
AcDb2dVertex
 10
0.397757
 20
-10.396402
 30
0.0
  0
VERTEX
  5
5AA
330
2B5
100
AcDbEntity
  8
MO_001_VIEW_PV
  6
C_SOLID_M
100
AcDbVertex
100
AcDb2dVertex
 10
0.5815520000000002
 20
-10.49713799999999
 30
0.0
  0
VERTEX
  5
5AB
330
2B5
100
AcDbEntity
  8
MO_001_VIEW_PV
  6
C_SOLID_M
100
AcDbVertex
100
AcDb2dVertex
 10
0.751407
 20
-10.577989
 30
0.0
  0
VERTEX
  5
5AC
330
2B5
100
AcDbEntity
  8
MO_001_VIEW_PV
  6
C_SOLID_M
100
AcDbVertex
100
AcDb2dVertex
 10
1.066752
 20
-10.702078
 30
0.0
  0
VERTEX
  5
5AD
330
2B5
100
AcDbEntity
  8
MO_001_VIEW_PV
  6
C_SOLID_M
100
AcDbVertex
100
AcDb2dVertex
 10
1.316359999999999
 20
-10.779828
 30
0.0
  0
VERTEX
  5
5AE
330
2B5
100
AcDbEntity
  8
MO_001_VIEW_PV
  6
C_SOLID_M
100
AcDbVertex
100
AcDb2dVertex
 10
1.707595999999999
 20
-10.870528
 30
0.0
  0
VERTEX
  5
5AF
330
2B5
100
AcDbEntity
  8
MO_001_VIEW_PV
  6
C_SOLID_M
100
AcDbVertex
100
AcDb2dVertex
 10
2.113472
 20
-10.928877
 30
0.0
  0
VERTEX
  5
5B0
330
2B5
100
AcDbEntity
  8
MO_001_VIEW_PV
  6
C_SOLID_M
100
AcDbVertex
100
AcDb2dVertex
 10
2.427022
 20
-10.950965
 30
0.0
  0
VERTEX
  5
5B1
330
2B5
100
AcDbEntity
  8
MO_001_VIEW_PV
  6
C_SOLID_M
100
AcDbVertex
100
AcDb2dVertex
 10
2.702993999999999
 20
-10.954428
 30
0.0
  0
VERTEX
  5
5B2
330
2B5
100
AcDbEntity
  8
MO_001_VIEW_PV
  6
C_SOLID_M
100
AcDbVertex
100
AcDb2dVertex
 10
2.944112
 20
-10.945285
 30
0.0
  0
VERTEX
  5
5B3
330
2B5
100
AcDbEntity
  8
MO_001_VIEW_PV
  6
C_SOLID_M
100
AcDbVertex
100
AcDb2dVertex
 10
3.361238999999999
 20
-10.90212899999999
 30
0.0
  0
VERTEX
  5
5B4
330
2B5
100
AcDbEntity
  8
MO_001_VIEW_PV
  6
C_SOLID_M
100
AcDbVertex
100
AcDb2dVertex
 10
3.666579
 20
-10.847452
 30
0.0
  0
VERTEX
  5
5B5
330
2B5
100
AcDbEntity
  8
MO_001_VIEW_PV
  6
C_SOLID_M
100
AcDbVertex
100
AcDb2dVertex
 10
3.889455999999999
 20
-10.794219
 30
0.0
  0
VERTEX
  5
5B6
330
2B5
100
AcDbEntity
  8
MO_001_VIEW_PV
  6
C_SOLID_M
100
AcDbVertex
100
AcDb2dVertex
 10
4.211151999999999
 20
-10.695388
 30
0.0
  0
VERTEX
  5
5B7
330
2B5
100
AcDbEntity
  8
MO_001_VIEW_PV
  6
C_SOLID_M
100
AcDbVertex
100
AcDb2dVertex
 10
4.514383
 20
-10.574825
 30
0.0
  0
SEQEND
  5
5B8
330
2B5
100
AcDbEntity
  8
MO_001_VIEW_PV
  6
C_SOLID_M
  0
LINE
  5
2C8
330
1E
100
AcDbEntity
  8
MO_001_VIEW_PV
  6
C_SOLID_M
100
AcDbLine
 10
5.300003
 20
-10.838623
 30
0.0
 11
5.300003
 21
-11.61283899999999
 31
0.0
  0
POLYLINE
  5
2C9
330
1E
100
AcDbEntity
  8
MO_001_VIEW_PV
  6
C_SOLID_M
100
AcDb2dPolyline
 66
     1
 10
0.0
 20
0.0
 30
0.0
  0
VERTEX
  5
5B9
330
2C9
100
AcDbEntity
  8
MO_001_VIEW_PV
  6
C_SOLID_M
100
AcDbVertex
100
AcDb2dVertex
 10
0.000005
 20
0.223787
 30
0.0
  0
VERTEX
  5
5BA
330
2C9
100
AcDbEntity
  8
MO_001_VIEW_PV
  6
C_SOLID_M
100
AcDbVertex
100
AcDb2dVertex
 10
0.202405
 20
-0.014463
 30
0.0
  0
VERTEX
  5
5BB
330
2C9
100
AcDbEntity
  8
MO_001_VIEW_PV
  6
C_SOLID_M
100
AcDbVertex
100
AcDb2dVertex
 10
0.397762
 20
-0.206498
 30
0.0
  0
VERTEX
  5
5BC
330
2C9
100
AcDbEntity
  8
MO_001_VIEW_PV
  6
C_SOLID_M
100
AcDbVertex
100
AcDb2dVertex
 10
0.5815570000000001
 20
-0.360832
 30
0.0
  0
VERTEX
  5
5BD
330
2C9
100
AcDbEntity
  8
MO_001_VIEW_PV
  6
C_SOLID_M
100
AcDbVertex
100
AcDb2dVertex
 10
0.751411
 20
-0.4847010000000001
 30
0.0
  0
VERTEX
  5
5BE
330
2C9
100
AcDbEntity
  8
MO_001_VIEW_PV
  6
C_SOLID_M
100
AcDbVertex
100
AcDb2dVertex
 10
0.9063769999999999
 20
-0.584111
 30
0.0
  0
VERTEX
  5
5BF
330
2C9
100
AcDbEntity
  8
MO_001_VIEW_PV
  6
C_SOLID_M
100
AcDbVertex
100
AcDb2dVertex
 10
1.190288
 20
-0.736957
 30
0.0
  0
VERTEX
  5
5C0
330
2C9
100
AcDbEntity
  8
MO_001_VIEW_PV
  6
C_SOLID_M
100
AcDbVertex
100
AcDb2dVertex
 10
1.412454
 20
-0.833211
 30
0.0
  0
VERTEX
  5
5C1
330
2C9
100
AcDbEntity
  8
MO_001_VIEW_PV
  6
C_SOLID_M
100
AcDbVertex
100
AcDb2dVertex
 10
1.757661
 20
-0.9468129999999998
 30
0.0
  0
VERTEX
  5
5C2
330
2C9
100
AcDbEntity
  8
MO_001_VIEW_PV
  6
C_SOLID_M
100
AcDbVertex
100
AcDb2dVertex
 10
2.113472
 20
-1.022285
 30
0.0
  0
VERTEX
  5
5C3
330
2C9
100
AcDbEntity
  8
MO_001_VIEW_PV
  6
C_SOLID_M
100
AcDbVertex
100
AcDb2dVertex
 10
2.427020999999999
 20
-1.056127
 30
0.0
  0
VERTEX
  5
5C4
330
2C9
100
AcDbEntity
  8
MO_001_VIEW_PV
  6
C_SOLID_M
100
AcDbVertex
100
AcDb2dVertex
 10
2.702991999999999
 20
-1.061431
 30
0.0
  0
VERTEX
  5
5C5
330
2C9
100
AcDbEntity
  8
MO_001_VIEW_PV
  6
C_SOLID_M
100
AcDbVertex
100
AcDb2dVertex
 10
2.944109
 20
-1.047423999999999
 30
0.0
  0
VERTEX
  5
5C6
330
2C9
100
AcDbEntity
  8
MO_001_VIEW_PV
  6
C_SOLID_M
100
AcDbVertex
100
AcDb2dVertex
 10
3.153747999999999
 20
-1.020945999999999
 30
0.0
  0
VERTEX
  5
5C7
330
2C9
100
AcDbEntity
  8
MO_001_VIEW_PV
  6
C_SOLID_M
100
AcDbVertex
100
AcDb2dVertex
 10
3.335446
 20
-0.9869749999999999
 30
0.0
  0
VERTEX
  5
5C8
330
2C9
100
AcDbEntity
  8
MO_001_VIEW_PV
  6
C_SOLID_M
100
AcDbVertex
100
AcDb2dVertex
 10
3.647742
 20
-0.903617
 30
0.0
  0
VERTEX
  5
5C9
330
2C9
100
AcDbEntity
  8
MO_001_VIEW_PV
  6
C_SOLID_M
100
AcDbVertex
100
AcDb2dVertex
 10
3.8757
 20
-0.821541
 30
0.0
  0
VERTEX
  5
5CA
330
2C9
100
AcDbEntity
  8
MO_001_VIEW_PV
  6
C_SOLID_M
100
AcDbVertex
100
AcDb2dVertex
 10
4.204619999999999
 20
-0.668067
 30
0.0
  0
VERTEX
  5
5CB
330
2C9
100
AcDbEntity
  8
MO_001_VIEW_PV
  6
C_SOLID_M
100
AcDbVertex
100
AcDb2dVertex
 10
4.514376999999999
 20
-0.4798550000000001
 30
0.0
  0
SEQEND
  5
5CC
330
2C9
100
AcDbEntity
  8
MO_001_VIEW_PV
  6
C_SOLID_M
  0
POLYLINE
  5
2DE
330
1E
100
AcDbEntity
  8
MO_001_VIEW_PV
  6
C_SOLID_M
100
AcDb2dPolyline
 66
     1
 10
0.0
 20
0.0
 30
0.0
  0
VERTEX
  5
5CD
330
2DE
100
AcDbEntity
  8
MO_001_VIEW_PV
  6
C_SOLID_M
100
AcDbVertex
100
AcDb2dVertex
 10
5.300003
 20
-0.8840479999999999
 30
0.0
  0
VERTEX
  5
5CE
330
2DE
100
AcDbEntity
  8
MO_001_VIEW_PV
  6
C_SOLID_M
100
AcDbVertex
100
AcDb2dVertex
 10
5.281573999999999
 20
-0.751591
 30
0.0
  0
VERTEX
  5
5CF
330
2DE
100
AcDbEntity
  8
MO_001_VIEW_PV
  6
C_SOLID_M
100
AcDbVertex
100
AcDb2dVertex
 10
5.24428
 20
-0.658142
 30
0.0
  0
VERTEX
  5
5D0
330
2DE
100
AcDbEntity
  8
MO_001_VIEW_PV
  6
C_SOLID_M
100
AcDbVertex
100
AcDb2dVertex
 10
5.204073999999999
 20
-0.5940210000000001
 30
0.0
  0
VERTEX
  5
5D1
330
2DE
100
AcDbEntity
  8
MO_001_VIEW_PV
  6
C_SOLID_M
100
AcDbVertex
100
AcDb2dVertex
 10
5.126373
 20
-0.5110020000000001
 30
0.0
  0
VERTEX
  5
5D2
330
2DE
100
AcDbEntity
  8
MO_001_VIEW_PV
  6
C_SOLID_M
100
AcDbVertex
100
AcDb2dVertex
 10
5.031512999999999
 20
-0.447596
 30
0.0
  0
VERTEX
  5
5D3
330
2DE
100
AcDbEntity
  8
MO_001_VIEW_PV
  6
C_SOLID_M
100
AcDbVertex
100
AcDb2dVertex
 10
4.903769
 20
-0.402353
 30
0.0
  0
VERTEX
  5
5D4
330
2DE
100
AcDbEntity
  8
MO_001_VIEW_PV
  6
C_SOLID_M
100
AcDbVertex
100
AcDb2dVertex
 10
4.802398
 20
-0.391638
 30
0.0
  0
VERTEX
  5
5D5
330
2DE
100
AcDbEntity
  8
MO_001_VIEW_PV
  6
C_SOLID_M
100
AcDbVertex
100
AcDb2dVertex
 10
4.726072
 20
-0.3970449999999999
 30
0.0
  0
VERTEX
  5
5D6
330
2DE
100
AcDbEntity
  8
MO_001_VIEW_PV
  6
C_SOLID_M
100
AcDbVertex
100
AcDb2dVertex
 10
4.615377999999999
 20
-0.4264310000000001
 30
0.0
  0
VERTEX
  5
5D7
330
2DE
100
AcDbEntity
  8
MO_001_VIEW_PV
  6
C_SOLID_M
100
AcDbVertex
100
AcDb2dVertex
 10
4.514391
 20
-0.4798760000000001
 30
0.0
  0
SEQEND
  5
5D8
330
2DE
100
AcDbEntity
  8
MO_001_VIEW_PV
  6
C_SOLID_M
  0
LINE
  5
2EB
330
1E
100
AcDbEntity
  8
MO_001_VIEW_PV
  6
C_SOLID_M
100
AcDbLine
 10
5.300003
 20
-0.8840479999999999
 30
0.0
 11
5.300003
 21
-1.059539999999999
 31
0.0
  0
POLYLINE
  5
2EC
330
1E
100
AcDbEntity
  8
MO_001_VIEW_PV
  6
C_SOLID_M
100
AcDb2dPolyline
 66
     1
 10
0.0
 20
0.0
 30
0.0
  0
VERTEX
  5
5D9
330
2EC
100
AcDbEntity
  8
MO_001_VIEW_PV
  6
C_SOLID_M
100
AcDbVertex
100
AcDb2dVertex
 10
4.514382
 20
5.882081999999999
 30
0.0
  0
VERTEX
  5
5DA
330
2EC
100
AcDbEntity
  8
MO_001_VIEW_PV
  6
C_SOLID_M
100
AcDbVertex
100
AcDb2dVertex
 10
4.247164999999999
 20
6.027226999999999
 30
0.0
  0
VERTEX
  5
5DB
330
2EC
100
AcDbEntity
  8
MO_001_VIEW_PV
  6
C_SOLID_M
100
AcDbVertex
100
AcDb2dVertex
 10
4.001139
 20
6.135601
 30
0.0
  0
VERTEX
  5
5DC
330
2EC
100
AcDbEntity
  8
MO_001_VIEW_PV
  6
C_SOLID_M
100
AcDbVertex
100
AcDb2dVertex
 10
3.777932999999999
 20
6.215533999999999
 30
0.0
  0
VERTEX
  5
5DD
330
2EC
100
AcDbEntity
  8
MO_001_VIEW_PV
  6
C_SOLID_M
100
AcDbVertex
100
AcDb2dVertex
 10
3.577537999999999
 20
6.273714
 30
0.0
  0
VERTEX
  5
5DE
330
2EC
100
AcDbEntity
  8
MO_001_VIEW_PV
  6
C_SOLID_M
100
AcDbVertex
100
AcDb2dVertex
 10
3.217991
 20
6.348391999999999
 30
0.0
  0
VERTEX
  5
5DF
330
2EC
100
AcDbEntity
  8
MO_001_VIEW_PV
  6
C_SOLID_M
100
AcDbVertex
100
AcDb2dVertex
 10
2.943230999999999
 20
6.381269
 30
0.0
  0
VERTEX
  5
5E0
330
2EC
100
AcDbEntity
  8
MO_001_VIEW_PV
  6
C_SOLID_M
100
AcDbVertex
100
AcDb2dVertex
 10
2.735597999999999
 20
6.392744
 30
0.0
  0
VERTEX
  5
5E1
330
2EC
100
AcDbEntity
  8
MO_001_VIEW_PV
  6
C_SOLID_M
100
AcDbVertex
100
AcDb2dVertex
 10
2.423615999999999
 20
6.388666999999999
 30
0.0
  0
VERTEX
  5
5E2
330
2EC
100
AcDbEntity
  8
MO_001_VIEW_PV
  6
C_SOLID_M
100
AcDbVertex
100
AcDb2dVertex
 10
2.113472999999999
 20
6.35909
 30
0.0
  0
VERTEX
  5
5E3
330
2EC
100
AcDbEntity
  8
MO_001_VIEW_PV
  6
C_SOLID_M
100
AcDbVertex
100
AcDb2dVertex
 10
1.804636999999999
 20
6.303541
 30
0.0
  0
VERTEX
  5
5E4
330
2EC
100
AcDbEntity
  8
MO_001_VIEW_PV
  6
C_SOLID_M
100
AcDbVertex
100
AcDb2dVertex
 10
1.540491
 20
6.234173999999999
 30
0.0
  0
VERTEX
  5
5E5
330
2EC
100
AcDbEntity
  8
MO_001_VIEW_PV
  6
C_SOLID_M
100
AcDbVertex
100
AcDb2dVertex
 10
1.315549999999999
 20
6.157973999999999
 30
0.0
  0
VERTEX
  5
5E6
330
2EC
100
AcDbEntity
  8
MO_001_VIEW_PV
  6
C_SOLID_M
100
AcDbVertex
100
AcDb2dVertex
 10
1.12446
 20
6.079762999999999
 30
0.0
  0
VERTEX
  5
5E7
330
2EC
100
AcDbEntity
  8
MO_001_VIEW_PV
  6
C_SOLID_M
100
AcDbVertex
100
AcDb2dVertex
 10
0.8053640000000001
 20
5.918004999999999
 30
0.0
  0
VERTEX
  5
5E8
330
2EC
100
AcDbEntity
  8
MO_001_VIEW_PV
  6
C_SOLID_M
100
AcDbVertex
100
AcDb2dVertex
 10
0.5808600000000001
 20
5.776941
 30
0.0
  0
VERTEX
  5
5E9
330
2EC
100
AcDbEntity
  8
MO_001_VIEW_PV
  6
C_SOLID_M
100
AcDbVertex
100
AcDb2dVertex
 10
0.421896
 20
5.660695999999999
 30
0.0
  0
VERTEX
  5
5EA
330
2EC
100
AcDbEntity
  8
MO_001_VIEW_PV
  6
C_SOLID_M
100
AcDbVertex
100
AcDb2dVertex
 10
0.200091
 20
5.470648999999999
 30
0.0
  0
VERTEX
  5
5EB
330
2EC
100
AcDbEntity
  8
MO_001_VIEW_PV
  6
C_SOLID_M
100
AcDbVertex
100
AcDb2dVertex
 10
0.000002
 20
5.263309999999999
 30
0.0
  0
SEQEND
  5
5EC
330
2EC
100
AcDbEntity
  8
MO_001_VIEW_PV
  6
C_SOLID_M
  0
POLYLINE
  5
301
330
1E
100
AcDbEntity
  8
MO_001_VIEW_PV
  6
C_SOLID_M
100
AcDb2dPolyline
 66
     1
 10
0.0
 20
0.0
 30
0.0
  0
VERTEX
  5
5ED
330
301
100
AcDbEntity
  8
MO_001_VIEW_PV
  6
C_SOLID_M
100
AcDbVertex
100
AcDb2dVertex
 10
4.514393
 20
5.882101999999999
 30
0.0
  0
VERTEX
  5
5EE
330
301
100
AcDbEntity
  8
MO_001_VIEW_PV
  6
C_SOLID_M
100
AcDbVertex
100
AcDb2dVertex
 10
4.635315
 20
5.828667
 30
0.0
  0
VERTEX
  5
5EF
330
301
100
AcDbEntity
  8
MO_001_VIEW_PV
  6
C_SOLID_M
100
AcDbVertex
100
AcDb2dVertex
 10
4.734500999999999
 20
5.808235999999999
 30
0.0
  0
VERTEX
  5
5F0
330
301
100
AcDbEntity
  8
MO_001_VIEW_PV
  6
C_SOLID_M
100
AcDbVertex
100
AcDb2dVertex
 10
4.810908999999999
 20
5.804606999999999
 30
0.0
  0
VERTEX
  5
5F1
330
301
100
AcDbEntity
  8
MO_001_VIEW_PV
  6
C_SOLID_M
100
AcDbVertex
100
AcDb2dVertex
 10
4.924483999999999
 20
5.818138999999999
 30
0.0
  0
VERTEX
  5
5F2
330
301
100
AcDbEntity
  8
MO_001_VIEW_PV
  6
C_SOLID_M
100
AcDbVertex
100
AcDb2dVertex
 10
5.031513999999999
 20
5.853717999999999
 30
0.0
  0
VERTEX
  5
5F3
330
301
100
AcDbEntity
  8
MO_001_VIEW_PV
  6
C_SOLID_M
100
AcDbVertex
100
AcDb2dVertex
 10
5.142191999999999
 20
5.921795999999999
 30
0.0
  0
VERTEX
  5
5F4
330
301
100
AcDbEntity
  8
MO_001_VIEW_PV
  6
C_SOLID_M
100
AcDbVertex
100
AcDb2dVertex
 10
5.209027999999999
 20
5.988470999999999
 30
0.0
  0
VERTEX
  5
5F5
330
301
100
AcDbEntity
  8
MO_001_VIEW_PV
  6
C_SOLID_M
100
AcDbVertex
100
AcDb2dVertex
 10
5.248121
 20
6.045441999999999
 30
0.0
  0
VERTEX
  5
5F6
330
301
100
AcDbEntity
  8
MO_001_VIEW_PV
  6
C_SOLID_M
100
AcDbVertex
100
AcDb2dVertex
 10
5.286859999999999
 20
6.138887999999999
 30
0.0
  0
VERTEX
  5
5F7
330
301
100
AcDbEntity
  8
MO_001_VIEW_PV
  6
C_SOLID_M
100
AcDbVertex
100
AcDb2dVertex
 10
5.300003
 20
6.237517999999999
 30
0.0
  0
SEQEND
  5
5F8
330
301
100
AcDbEntity
  8
MO_001_VIEW_PV
  6
C_SOLID_M
  0
LINE
  5
30E
330
1E
100
AcDbEntity
  8
MO_001_VIEW_PV
  6
C_SOLID_M
100
AcDbLine
 10
5.300003
 20
6.742828
 30
0.0
 11
5.300003
 21
6.237517999999999
 31
0.0
  0
POLYLINE
  5
30F
330
1E
100
AcDbEntity
  8
MO_001_VIEW_PV
  6
C_SOLID_M
100
AcDb2dPolyline
 66
     1
 10
0.0
 20
0.0
 30
0.0
  0
VERTEX
  5
5F9
330
30F
100
AcDbEntity
  8
MO_001_VIEW_PV
  6
C_SOLID_M
100
AcDbVertex
100
AcDb2dVertex
 10
4.514383999999999
 20
13.99208699999999
 30
0.0
  0
VERTEX
  5
5FA
330
30F
100
AcDbEntity
  8
MO_001_VIEW_PV
  6
C_SOLID_M
100
AcDbVertex
100
AcDb2dVertex
 10
4.247167
 20
14.04940999999999
 30
0.0
  0
VERTEX
  5
5FB
330
30F
100
AcDbEntity
  8
MO_001_VIEW_PV
  6
C_SOLID_M
100
AcDbVertex
100
AcDb2dVertex
 10
4.00114
 20
14.09221099999999
 30
0.0
  0
VERTEX
  5
5FC
330
30F
100
AcDbEntity
  8
MO_001_VIEW_PV
  6
C_SOLID_M
100
AcDbVertex
100
AcDb2dVertex
 10
3.548573
 20
14.149679
 30
0.0
  0
VERTEX
  5
5FD
330
30F
100
AcDbEntity
  8
MO_001_VIEW_PV
  6
C_SOLID_M
100
AcDbVertex
100
AcDb2dVertex
 10
3.195691
 20
14.177606
 30
0.0
  0
VERTEX
  5
5FE
330
30F
100
AcDbEntity
  8
MO_001_VIEW_PV
  6
C_SOLID_M
100
AcDbVertex
100
AcDb2dVertex
 10
2.654927
 20
14.194317
 30
0.0
  0
VERTEX
  5
5FF
330
30F
100
AcDbEntity
  8
MO_001_VIEW_PV
  6
C_SOLID_M
100
AcDbVertex
100
AcDb2dVertex
 10
2.113471
 20
14.180475
 30
0.0
  0
VERTEX
  5
600
330
30F
100
AcDbEntity
  8
MO_001_VIEW_PV
  6
C_SOLID_M
100
AcDbVertex
100
AcDb2dVertex
 10
1.804634
 20
14.15853599999999
 30
0.0
  0
VERTEX
  5
601
330
30F
100
AcDbEntity
  8
MO_001_VIEW_PV
  6
C_SOLID_M
100
AcDbVertex
100
AcDb2dVertex
 10
1.540487
 20
14.13114
 30
0.0
  0
VERTEX
  5
602
330
30F
100
AcDbEntity
  8
MO_001_VIEW_PV
  6
C_SOLID_M
100
AcDbVertex
100
AcDb2dVertex
 10
1.097642999999999
 20
14.065406
 30
0.0
  0
VERTEX
  5
603
330
30F
100
AcDbEntity
  8
MO_001_VIEW_PV
  6
C_SOLID_M
100
AcDbVertex
100
AcDb2dVertex
 10
0.7865280000000001
 20
14.00197
 30
0.0
  0
VERTEX
  5
604
330
30F
100
AcDbEntity
  8
MO_001_VIEW_PV
  6
C_SOLID_M
100
AcDbVertex
100
AcDb2dVertex
 10
0.567565
 20
13.946944
 30
0.0
  0
VERTEX
  5
605
330
30F
100
AcDbEntity
  8
MO_001_VIEW_PV
  6
C_SOLID_M
100
AcDbVertex
100
AcDb2dVertex
 10
0.265767
 20
13.85333
 30
0.0
  0
VERTEX
  5
606
330
30F
100
AcDbEntity
  8
MO_001_VIEW_PV
  6
C_SOLID_M
100
AcDbVertex
100
AcDb2dVertex
 10
-0.000002
 20
13.747711
 30
0.0
  0
SEQEND
  5
607
330
30F
100
AcDbEntity
  8
MO_001_VIEW_PV
  6
C_SOLID_M
  0
POLYLINE
  5
31F
330
1E
100
AcDbEntity
  8
MO_001_VIEW_PV
  6
C_SOLID_M
100
AcDb2dPolyline
 66
     1
 10
0.0
 20
0.0
 30
0.0
  0
VERTEX
  5
608
330
31F
100
AcDbEntity
  8
MO_001_VIEW_PV
  6
C_SOLID_M
100
AcDbVertex
100
AcDb2dVertex
 10
4.514394
 20
13.992101
 30
0.0
  0
VERTEX
  5
609
330
31F
100
AcDbEntity
  8
MO_001_VIEW_PV
  6
C_SOLID_M
100
AcDbVertex
100
AcDb2dVertex
 10
4.635316
 20
13.97099899999999
 30
0.0
  0
VERTEX
  5
60A
330
31F
100
AcDbEntity
  8
MO_001_VIEW_PV
  6
C_SOLID_M
100
AcDbVertex
100
AcDb2dVertex
 10
4.836411
 20
13.96191
 30
0.0
  0
VERTEX
  5
60B
330
31F
100
AcDbEntity
  8
MO_001_VIEW_PV
  6
C_SOLID_M
100
AcDbVertex
100
AcDb2dVertex
 10
5.031514999999999
 20
13.980892
 30
0.0
  0
VERTEX
  5
60C
330
31F
100
AcDbEntity
  8
MO_001_VIEW_PV
  6
C_SOLID_M
100
AcDbVertex
100
AcDb2dVertex
 10
5.142192999999999
 20
14.00777699999999
 30
0.0
  0
VERTEX
  5
60D
330
31F
100
AcDbEntity
  8
MO_001_VIEW_PV
  6
C_SOLID_M
100
AcDbVertex
100
AcDb2dVertex
 10
5.209027999999999
 20
14.03410799999999
 30
0.0
  0
VERTEX
  5
60E
330
31F
100
AcDbEntity
  8
MO_001_VIEW_PV
  6
C_SOLID_M
100
AcDbVertex
100
AcDb2dVertex
 10
5.248121
 20
14.056607
 30
0.0
  0
VERTEX
  5
60F
330
31F
100
AcDbEntity
  8
MO_001_VIEW_PV
  6
C_SOLID_M
100
AcDbVertex
100
AcDb2dVertex
 10
5.286859999999999
 20
14.093511
 30
0.0
  0
VERTEX
  5
610
330
31F
100
AcDbEntity
  8
MO_001_VIEW_PV
  6
C_SOLID_M
100
AcDbVertex
100
AcDb2dVertex
 10
5.300003
 20
14.132462
 30
0.0
  0
SEQEND
  5
611
330
31F
100
AcDbEntity
  8
MO_001_VIEW_PV
  6
C_SOLID_M
  0
LINE
  5
32A
330
1E
100
AcDbEntity
  8
MO_001_VIEW_PV
  6
C_SOLID_M
100
AcDbLine
 10
5.4
 20
15.89999399999999
 30
0.0
 11
5.4
 21
-15.89999399999999
 31
0.0
  0
LINE
  5
32B
330
1E
100
AcDbEntity
  8
MO_001_VIEW_PV
  6
C_SOLID_M
100
AcDbLine
 10
8.482001
 20
-7.054992999999999
 30
0.0
 11
8.482001
 21
6.554992999999999
 31
0.0
  0
LINE
  5
32C
330
1E
100
AcDbEntity
  8
MO_001_VIEW_PV
  6
C_SOLID_M
100
AcDbLine
 10
5.16079
 20
15.89999399999999
 30
0.0
 11
5.4
 21
15.89999399999999
 31
0.0
  0
LINE
  5
32D
330
1E
100
AcDbEntity
  8
MO_001_VIEW_PV
  6
C_SOLID_M
100
AcDbLine
 10
5.300003
 20
-15.89999399999999
 30
0.0
 11
5.4
 21
-15.89999399999999
 31
0.0
  0
LINE
  5
32E
330
1E
100
AcDbEntity
  8
MO_001_VIEW_PV
  6
C_SOLID_M
100
AcDbLine
 10
5.4
 20
13.231003
 30
0.0
 11
5.708199999999999
 21
13.231003
 31
0.0
  0
LINE
  5
32F
330
1E
100
AcDbEntity
  8
MO_001_VIEW_PV
  6
C_SOLID_M
100
AcDbLine
 10
5.989905999999999
 20
-12.938751
 30
0.0
 11
6.632800999999999
 21
-12.938751
 31
0.0
  0
LINE
  5
330
330
1E
100
AcDbEntity
  8
MO_001_VIEW_PV
  6
C_SOLID_M
100
AcDbLine
 10
6.60813
 20
-10.977509
 30
0.0
 11
7.249200999999999
 21
-10.977509
 31
0.0
  0
LINE
  5
331
330
1E
100
AcDbEntity
  8
MO_001_VIEW_PV
  6
C_SOLID_M
100
AcDbLine
 10
7.220239
 20
-9.016250999999998
 30
0.0
 11
7.906500999999999
 21
-9.016250999999998
 31
0.0
  0
LINE
  5
332
330
1E
100
AcDbEntity
  8
MO_001_VIEW_PV
  6
C_SOLID_M
100
AcDbLine
 10
7.829492999999999
 20
-7.054992999999999
 30
0.0
 11
7.865601999999999
 21
-7.054992999999999
 31
0.0
  0
LINE
  5
333
330
1E
100
AcDbEntity
  8
MO_001_VIEW_PV
  6
C_SOLID_M
100
AcDbLine
 10
5.727856
 20
11.561996
 30
0.0
 11
6.324601
 21
11.561996
 31
0.0
  0
LINE
  5
334
330
1E
100
AcDbEntity
  8
MO_001_VIEW_PV
  6
C_SOLID_M
100
AcDbLine
 10
6.345594999999999
 20
9.893005
 30
0.0
 11
6.941000999999999
 21
9.893005
 31
0.0
  0
LINE
  5
335
330
1E
100
AcDbEntity
  8
MO_001_VIEW_PV
  6
C_SOLID_M
100
AcDbLine
 10
6.973030999999999
 20
7.723999
 30
0.0
 11
7.557400999999999
 21
7.723999
 31
0.0
  0
LINE
  5
336
330
1E
100
AcDbEntity
  8
MO_001_VIEW_PV
  6
C_SOLID_M
100
AcDbLine
 10
7.569716999999999
 20
7.054992999999999
 30
0.0
 11
8.173799999999999
 21
7.054992999999999
 31
0.0
  0
LINE
  5
337
330
1E
100
AcDbEntity
  8
MO_001_VIEW_PV
  6
C_SOLID_M
100
AcDbLine
 10
8.184722
 20
6.554992999999999
 30
0.0
 11
8.482001
 21
6.554992999999999
 31
0.0
  0
LINE
  5
338
330
1E
100
AcDbEntity
  8
MO_001_VIEW_PV
  6
C_SOLID_M
100
AcDbLine
 10
26.282001
 20
-5.554992999999999
 30
0.0
 11
8.482001999999999
 21
-5.554992999999999
 31
0.0
  0
LINE
  5
339
330
1E
100
AcDbEntity
  8
MO_001_VIEW_PV
  6
C_SOLID_M
100
AcDbLine
 10
7.865601999999999
 20
-7.054992999999999
 30
0.0
 11
8.482001
 21
-7.054992999999999
 31
0.0
  0
LINE
  5
33A
330
1E
100
AcDbEntity
  8
MO_001_VIEW_PV
  6
C_SOLID_M
100
AcDbLine
 10
5.4
 20
-15.399994
 30
0.0
 11
6.016399999999999
 21
-15.399994
 31
0.0
  0
LINE
  5
33B
330
1E
100
AcDbEntity
  8
MO_001_VIEW_PV
  6
C_SOLID_M
100
AcDbLine
 10
6.016401999999999
 20
-15.40000299999999
 30
0.0
 11
5.708200999999999
 21
13.231007
 31
0.0
  0
LINE
  5
33C
330
1E
100
AcDbEntity
  8
MO_001_VIEW_PV
  6
C_SOLID_M
100
AcDbLine
 10
6.324601999999999
 20
11.56197
 30
0.0
 11
6.632802
 21
-12.938761
 31
0.0
  0
LINE
  5
33D
330
1E
100
AcDbEntity
  8
MO_001_VIEW_PV
  6
C_SOLID_M
100
AcDbLine
 10
7.2492
 20
-10.97749199999999
 30
0.0
 11
6.940999999999999
 21
9.893005
 31
0.0
  0
LINE
  5
33E
330
1E
100
AcDbEntity
  8
MO_001_VIEW_PV
  6
C_SOLID_M
100
AcDbLine
 10
7.557403999999999
 20
7.724000999999999
 30
0.0
 11
7.865603999999999
 21
-9.016237
 31
0.0
  0
LINE
  5
33F
330
1E
100
AcDbEntity
  8
MO_001_VIEW_PV
  6
C_SOLID_M
100
AcDbLine
 10
8.173799
 20
7.054975999999999
 30
0.0
 11
8.481997999999999
 21
-7.055007
 31
0.0
  0
LINE
  5
340
330
1E
100
AcDbEntity
  8
MO_001_VIEW_PV
  6
C_SOLID_M
100
AcDbLine
 10
-49.917999
 20
-37.75
 30
0.0
 11
-47.549999
 21
-37.75
 31
0.0
  0
LINE
  5
341
330
1E
100
AcDbEntity
  8
MO_001_VIEW_PV
  6
C_SOLID_M
100
AcDbLine
 10
-47.34999799999999
 20
40.600006
 30
0.0
 11
-47.34999799999999
 21
37.75
 31
0.0
  0
LINE
  5
342
330
1E
100
AcDbEntity
  8
MO_001_VIEW_PV
  6
C_SOLID_M
100
AcDbLine
 10
8.782002
 20
4.154999
 30
0.0
 11
8.782002
 21
5.554992999999999
 31
0.0
  0
LINE
  5
343
330
1E
100
AcDbEntity
  8
MO_001_VIEW_PV
  6
C_SOLID_M
100
AcDbLine
 10
-51.417999
 20
-16.21842999999999
 30
0.0
 11
-50.417999
 21
-16.21842999999999
 31
0.0
  0
LINE
  5
344
330
1E
100
AcDbEntity
  8
MO_001_VIEW_PV
  6
C_SOLID_M
100
AcDbLine
 10
-51.417999
 20
-16.949997
 30
0.0
 11
-49.917999
 21
-16.949997
 31
0.0
  0
LINE
  5
345
330
1E
100
AcDbEntity
  8
MO_001_VIEW_PV
  6
C_SOLID_M
100
AcDbLine
 10
-51.417999
 20
-16.949997
 30
0.0
 11
-51.417999
 21
5.422119
 31
0.0
  0
LINE
  5
346
330
1E
100
AcDbEntity
  8
MO_001_VIEW_PV
  6
C_SOLID_M
100
AcDbLine
 10
-50.417999
 20
-16.097565
 30
0.0
 11
-49.917999
 21
-16.097565
 31
0.0
  0
LINE
  5
347
330
1E
100
AcDbEntity
  8
MO_001_VIEW_PV
  6
C_SOLID_M
100
AcDbLine
 10
-50.417999
 20
-13.04193099999999
 30
0.0
 11
-49.917999
 21
-13.04193099999999
 31
0.0
  0
LINE
  5
348
330
1E
100
AcDbEntity
  8
MO_001_VIEW_PV
  6
C_SOLID_M
100
AcDbLine
 10
-51.417999
 20
-12.375214
 30
0.0
 11
-50.417999
 21
-12.375214
 31
0.0
  0
LINE
  5
349
330
1E
100
AcDbEntity
  8
MO_001_VIEW_PV
  6
C_SOLID_M
100
AcDbLine
 10
-51.417999
 20
-3.843230999999999
 30
0.0
 11
-50.417999
 21
-3.843230999999999
 31
0.0
  0
LINE
  5
34A
330
1E
100
AcDbEntity
  8
MO_001_VIEW_PV
  6
C_SOLID_M
100
AcDbLine
 10
-50.417999
 20
-2.85495
 30
0.0
 11
-49.917999
 21
-2.85495
 31
0.0
  0
LINE
  5
34B
330
1E
100
AcDbEntity
  8
MO_001_VIEW_PV
  6
C_SOLID_M
100
AcDbLine
 10
-50.417999
 20
2.85495
 30
0.0
 11
-49.917999
 21
2.85495
 31
0.0
  0
LINE
  5
34C
330
1E
100
AcDbEntity
  8
MO_001_VIEW_PV
  6
C_SOLID_M
100
AcDbLine
 10
-51.417999
 20
3.843201
 30
0.0
 11
-50.417999
 21
3.843201
 31
0.0
  0
LINE
  5
34D
330
1E
100
AcDbEntity
  8
MO_001_VIEW_PV
  6
C_SOLID_M
100
AcDbLine
 10
-50.417999
 20
-3.843230999999999
 30
0.0
 11
-50.417999
 21
3.843201
 31
0.0
  0
LINE
  5
34E
330
1E
100
AcDbEntity
  8
MO_001_VIEW_PV
  6
C_SOLID_M
100
AcDbLine
 10
-50.417999
 20
-16.21842999999999
 30
0.0
 11
-50.417999
 21
-12.375214
 31
0.0
  0
LINE
  5
34F
330
1E
100
AcDbEntity
  8
MO_001_VIEW_PV
  6
C_SOLID_M
100
AcDbLine
 10
-50.0401
 20
4.871749999999999
 30
0.0
 11
-49.917999
 21
4.871749999999999
 31
0.0
  0
LINE
  5
350
330
1E
100
AcDbEntity
  8
MO_001_VIEW_PV
  6
C_SOLID_M
100
AcDbLine
 10
-33.500011
 20
-39.548035
 30
0.0
 11
-33.500011
 21
-62.850006
 31
0.0
  0
LINE
  5
351
330
1E
100
AcDbEntity
  8
MO_001_VIEW_PV
  6
C_SOLID_M
100
AcDbLine
 10
-37.200008
 20
-39.548035
 30
0.0
 11
-37.200008
 21
-62.850006
 31
0.0
  0
LINE
  5
352
330
1E
100
AcDbEntity
  8
MO_001_VIEW_PV
  6
C_SOLID_M
100
AcDbLine
 10
-37.200008
 20
-62.850006
 30
0.0
 11
-33.500011
 21
-62.850006
 31
0.0
  0
LINE
  5
353
330
1E
100
AcDbEntity
  8
MO_001_VIEW_PV
  6
C_SOLID_M
100
AcDbLine
 10
-34.31501
 20
-62.850006
 30
0.0
 11
-34.31501
 21
-67.850014
 31
0.0
  0
LINE
  5
354
330
1E
100
AcDbEntity
  8
MO_001_VIEW_PV
  6
C_SOLID_M
100
AcDbLine
 10
-36.38501
 20
-62.850006
 30
0.0
 11
-36.38501
 21
-67.850014
 31
0.0
  0
ARC
  5
355
330
1E
100
AcDbEntity
  8
MO_001_VIEW_PV
  6
C_SOLID_M
100
AcDbCircle
 10
-34.832512
 20
-68.26061999999999
 30
0.0
 40
0.660612
100
AcDbArc
 50
38.430596
 51
141.569399
  0
ARC
  5
356
330
1E
100
AcDbEntity
  8
MO_001_VIEW_PV
  6
C_SOLID_M
100
AcDbCircle
 10
-35.867508
 20
-67.43939199999999
 30
0.0
 40
0.660612
100
AcDbArc
 50
218.4306009999999
 51
321.569404
  0
ARC
  5
357
330
1E
100
AcDbEntity
  8
MO_001_VIEW_PV
  6
C_SOLID_M
100
AcDbCircle
 10
-34.832512
 20
-67.43939199999999
 30
0.0
 40
0.660612
100
AcDbArc
 50
218.4306009999999
 51
321.569404
  0
ARC
  5
358
330
1E
100
AcDbEntity
  8
MO_001_VIEW_PV
  6
C_SOLID_M
100
AcDbCircle
 10
-35.867508
 20
-69.26061999999999
 30
0.0
 40
0.660612
100
AcDbArc
 50
38.430596
 51
141.569399
  0
ARC
  5
359
330
1E
100
AcDbEntity
  8
MO_001_VIEW_PV
  6
C_SOLID_M
100
AcDbCircle
 10
-35.867508
 20
-68.439392
 30
0.0
 40
0.660612
100
AcDbArc
 50
218.4306009999999
 51
321.569404
  0
ARC
  5
35A
330
1E
100
AcDbEntity
  8
MO_001_VIEW_PV
  6
C_SOLID_M
100
AcDbCircle
 10
-34.832512
 20
-69.26061999999999
 30
0.0
 40
0.660612
100
AcDbArc
 50
38.430596
 51
141.569399
  0
LINE
  5
35B
330
1E
100
AcDbEntity
  8
MO_001_VIEW_PV
  6
C_SOLID_M
100
AcDbLine
 10
-36.38500599999999
 20
-68.85000600000001
 30
0.0
 11
-36.38500599999999
 21
-73.350006
 31
0.0
  0
LINE
  5
35C
330
1E
100
AcDbEntity
  8
MO_001_VIEW_PV
  6
C_SOLID_M
100
AcDbLine
 10
-34.315014
 20
-68.85000600000001
 30
0.0
 11
-34.315014
 21
-73.350006
 31
0.0
  0
LINE
  5
35D
330
1E
100
AcDbEntity
  8
MO_001_VIEW_PV
  6
C_SOLID_M
100
AcDbLine
 10
-36.38500599999999
 20
-73.350006
 30
0.0
 11
-34.315014
 21
-73.350006
 31
0.0
  0
LINE
  5
35E
330
1E
100
AcDbEntity
  8
MO_001_VIEW_PV
  6
C_SOLID_M
100
AcDbLine
 10
-34.85001
 20
-73.350006
 30
0.0
 11
-34.85001
 21
-78.350006
 31
0.0
  0
LINE
  5
35F
330
1E
100
AcDbEntity
  8
MO_001_VIEW_PV
  6
C_SOLID_M
100
AcDbLine
 10
-35.85001
 20
-73.350006
 30
0.0
 11
-35.85001
 21
-78.350006
 31
0.0
  0
LINE
  5
360
330
1E
100
AcDbEntity
  8
MO_001_VIEW_PV
  6
C_SOLID_M
100
AcDbLine
 10
-35.85001
 20
-78.350006
 30
0.0
 11
-34.85001
 21
-78.350006
 31
0.0
  0
POLYLINE
  5
361
330
1E
100
AcDbEntity
  8
MO_001_VIEW_PV
  6
C_SOLID_M
100
AcDb2dPolyline
 66
     1
 10
0.0
 20
0.0
 30
0.0
  0
VERTEX
  5
612
330
361
100
AcDbEntity
  8
MO_001_VIEW_PV
  6
C_SOLID_M
100
AcDbVertex
100
AcDb2dVertex
 10
-33.50001199999999
 20
-41.027824
 30
0.0
  0
VERTEX
  5
613
330
361
100
AcDbEntity
  8
MO_001_VIEW_PV
  6
C_SOLID_M
100
AcDbVertex
100
AcDb2dVertex
 10
-33.352534
 20
-40.975253
 30
0.0
  0
VERTEX
  5
614
330
361
100
AcDbEntity
  8
MO_001_VIEW_PV
  6
C_SOLID_M
100
AcDbVertex
100
AcDb2dVertex
 10
-33.22039999999999
 20
-40.92062499999999
 30
0.0
  0
VERTEX
  5
615
330
361
100
AcDbEntity
  8
MO_001_VIEW_PV
  6
C_SOLID_M
100
AcDbVertex
100
AcDb2dVertex
 10
-33.103137
 20
-40.864508
 30
0.0
  0
VERTEX
  5
616
330
361
100
AcDbEntity
  8
MO_001_VIEW_PV
  6
C_SOLID_M
100
AcDbVertex
100
AcDb2dVertex
 10
-33.000177
 20
-40.80740999999999
 30
0.0
  0
VERTEX
  5
617
330
361
100
AcDbEntity
  8
MO_001_VIEW_PV
  6
C_SOLID_M
100
AcDbVertex
100
AcDb2dVertex
 10
-32.910877
 20
-40.749784
 30
0.0
  0
VERTEX
  5
618
330
361
100
AcDbEntity
  8
MO_001_VIEW_PV
  6
C_SOLID_M
100
AcDbVertex
100
AcDb2dVertex
 10
-32.83454
 20
-40.69202999999999
 30
0.0
  0
VERTEX
  5
619
330
361
100
AcDbEntity
  8
MO_001_VIEW_PV
  6
C_SOLID_M
100
AcDbVertex
100
AcDb2dVertex
 10
-32.77043599999999
 20
-40.634496
 30
0.0
  0
VERTEX
  5
61A
330
361
100
AcDbEntity
  8
MO_001_VIEW_PV
  6
C_SOLID_M
100
AcDbVertex
100
AcDb2dVertex
 10
-32.674708
 20
-40.519425
 30
0.0
  0
VERTEX
  5
61B
330
361
100
AcDbEntity
  8
MO_001_VIEW_PV
  6
C_SOLID_M
100
AcDbVertex
100
AcDb2dVertex
 10
-32.620062
 20
-40.40847399999999
 30
0.0
  0
VERTEX
  5
61C
330
361
100
AcDbEntity
  8
MO_001_VIEW_PV
  6
C_SOLID_M
100
AcDbVertex
100
AcDb2dVertex
 10
-32.600324
 20
-40.303041
 30
0.0
  0
VERTEX
  5
61D
330
361
100
AcDbEntity
  8
MO_001_VIEW_PV
  6
C_SOLID_M
100
AcDbVertex
100
AcDb2dVertex
 10
-32.609709
 20
-40.204021
 30
0.0
  0
VERTEX
  5
61E
330
361
100
AcDbEntity
  8
MO_001_VIEW_PV
  6
C_SOLID_M
100
AcDbVertex
100
AcDb2dVertex
 10
-32.642944
 20
-40.11192
 30
0.0
  0
VERTEX
  5
61F
330
361
100
AcDbEntity
  8
MO_001_VIEW_PV
  6
C_SOLID_M
100
AcDbVertex
100
AcDb2dVertex
 10
-32.695324
 20
-40.02694
 30
0.0
  0
VERTEX
  5
620
330
361
100
AcDbEntity
  8
MO_001_VIEW_PV
  6
C_SOLID_M
100
AcDbVertex
100
AcDb2dVertex
 10
-32.762726
 20
-39.949056
 30
0.0
  0
VERTEX
  5
621
330
361
100
AcDbEntity
  8
MO_001_VIEW_PV
  6
C_SOLID_M
100
AcDbVertex
100
AcDb2dVertex
 10
-32.84159
 20
-39.878083
 30
0.0
  0
VERTEX
  5
622
330
361
100
AcDbEntity
  8
MO_001_VIEW_PV
  6
C_SOLID_M
100
AcDbVertex
100
AcDb2dVertex
 10
-32.928884
 20
-39.813719
 30
0.0
  0
VERTEX
  5
623
330
361
100
AcDbEntity
  8
MO_001_VIEW_PV
  6
C_SOLID_M
100
AcDbVertex
100
AcDb2dVertex
 10
-33.022058
 20
-39.755589
 30
0.0
  0
VERTEX
  5
624
330
361
100
AcDbEntity
  8
MO_001_VIEW_PV
  6
C_SOLID_M
100
AcDbVertex
100
AcDb2dVertex
 10
-33.224794
 20
-39.65329099999999
 30
0.0
  0
VERTEX
  5
625
330
361
100
AcDbEntity
  8
MO_001_VIEW_PV
  6
C_SOLID_M
100
AcDbVertex
100
AcDb2dVertex
 10
-33.43003
 20
-39.572006
 30
0.0
  0
VERTEX
  5
626
330
361
100
AcDbEntity
  8
MO_001_VIEW_PV
  6
C_SOLID_M
100
AcDbVertex
100
AcDb2dVertex
 10
-33.628884
 20
-39.508001
 30
0.0
  0
VERTEX
  5
627
330
361
100
AcDbEntity
  8
MO_001_VIEW_PV
  6
C_SOLID_M
100
AcDbVertex
100
AcDb2dVertex
 10
-33.816114
 20
-39.457945
 30
0.0
  0
VERTEX
  5
628
330
361
100
AcDbEntity
  8
MO_001_VIEW_PV
  6
C_SOLID_M
100
AcDbVertex
100
AcDb2dVertex
 10
-34.169276
 20
-39.384799
 30
0.0
  0
VERTEX
  5
629
330
361
100
AcDbEntity
  8
MO_001_VIEW_PV
  6
C_SOLID_M
100
AcDbVertex
100
AcDb2dVertex
 10
-34.45151599999999
 20
-39.342814
 30
0.0
  0
VERTEX
  5
62A
330
361
100
AcDbEntity
  8
MO_001_VIEW_PV
  6
C_SOLID_M
100
AcDbVertex
100
AcDb2dVertex
 10
-34.89447
 20
-39.301749
 30
0.0
  0
VERTEX
  5
62B
330
361
100
AcDbEntity
  8
MO_001_VIEW_PV
  6
C_SOLID_M
100
AcDbVertex
100
AcDb2dVertex
 10
-35.35000999999999
 20
-39.287933
 30
0.0
  0
VERTEX
  5
62C
330
361
100
AcDbEntity
  8
MO_001_VIEW_PV
  6
C_SOLID_M
100
AcDbVertex
100
AcDb2dVertex
 10
-35.761595
 20
-39.299197
 30
0.0
  0
VERTEX
  5
62D
330
361
100
AcDbEntity
  8
MO_001_VIEW_PV
  6
C_SOLID_M
100
AcDbVertex
100
AcDb2dVertex
 10
-36.13920699999999
 20
-39.32999699999999
 30
0.0
  0
VERTEX
  5
62E
330
361
100
AcDbEntity
  8
MO_001_VIEW_PV
  6
C_SOLID_M
100
AcDbVertex
100
AcDb2dVertex
 10
-36.479163
 20
-39.37611799999999
 30
0.0
  0
VERTEX
  5
62F
330
361
100
AcDbEntity
  8
MO_001_VIEW_PV
  6
C_SOLID_M
100
AcDbVertex
100
AcDb2dVertex
 10
-36.78012499999999
 20
-39.433793
 30
0.0
  0
VERTEX
  5
630
330
361
100
AcDbEntity
  8
MO_001_VIEW_PV
  6
C_SOLID_M
100
AcDbVertex
100
AcDb2dVertex
 10
-37.042484
 20
-39.499753
 30
0.0
  0
VERTEX
  5
631
330
361
100
AcDbEntity
  8
MO_001_VIEW_PV
  6
C_SOLID_M
100
AcDbVertex
100
AcDb2dVertex
 10
-37.26782899999999
 20
-39.57124
 30
0.0
  0
VERTEX
  5
632
330
361
100
AcDbEntity
  8
MO_001_VIEW_PV
  6
C_SOLID_M
100
AcDbVertex
100
AcDb2dVertex
 10
-37.45854
 20
-39.645974
 30
0.0
  0
VERTEX
  5
633
330
361
100
AcDbEntity
  8
MO_001_VIEW_PV
  6
C_SOLID_M
100
AcDbVertex
100
AcDb2dVertex
 10
-37.61746199999999
 20
-39.722112
 30
0.0
  0
VERTEX
  5
634
330
361
100
AcDbEntity
  8
MO_001_VIEW_PV
  6
C_SOLID_M
100
AcDbVertex
100
AcDb2dVertex
 10
-37.74765999999999
 20
-39.79820099999999
 30
0.0
  0
VERTEX
  5
635
330
361
100
AcDbEntity
  8
MO_001_VIEW_PV
  6
C_SOLID_M
100
AcDbVertex
100
AcDb2dVertex
 10
-37.852251
 20
-39.873118
 30
0.0
  0
VERTEX
  5
636
330
361
100
AcDbEntity
  8
MO_001_VIEW_PV
  6
C_SOLID_M
100
AcDbVertex
100
AcDb2dVertex
 10
-37.934274
 20
-39.946023
 30
0.0
  0
VERTEX
  5
637
330
361
100
AcDbEntity
  8
MO_001_VIEW_PV
  6
C_SOLID_M
100
AcDbVertex
100
AcDb2dVertex
 10
-37.996617
 20
-40.01630699999999
 30
0.0
  0
VERTEX
  5
638
330
361
100
AcDbEntity
  8
MO_001_VIEW_PV
  6
C_SOLID_M
100
AcDbVertex
100
AcDb2dVertex
 10
-38.04195999999999
 20
-40.08355
 30
0.0
  0
VERTEX
  5
639
330
361
100
AcDbEntity
  8
MO_001_VIEW_PV
  6
C_SOLID_M
100
AcDbVertex
100
AcDb2dVertex
 10
-38.072753
 20
-40.147487
 30
0.0
  0
VERTEX
  5
63A
330
361
100
AcDbEntity
  8
MO_001_VIEW_PV
  6
C_SOLID_M
100
AcDbVertex
100
AcDb2dVertex
 10
-38.09120399999999
 20
-40.20797
 30
0.0
  0
VERTEX
  5
63B
330
361
100
AcDbEntity
  8
MO_001_VIEW_PV
  6
C_SOLID_M
100
AcDbVertex
100
AcDb2dVertex
 10
-38.09841399999999
 20
-40.32199799999999
 30
0.0
  0
VERTEX
  5
63C
330
361
100
AcDbEntity
  8
MO_001_VIEW_PV
  6
C_SOLID_M
100
AcDbVertex
100
AcDb2dVertex
 10
-38.07538499999999
 20
-40.421459
 30
0.0
  0
VERTEX
  5
63D
330
361
100
AcDbEntity
  8
MO_001_VIEW_PV
  6
C_SOLID_M
100
AcDbVertex
100
AcDb2dVertex
 10
-38.032946
 20
-40.50742999999999
 30
0.0
  0
VERTEX
  5
63E
330
361
100
AcDbEntity
  8
MO_001_VIEW_PV
  6
C_SOLID_M
100
AcDbVertex
100
AcDb2dVertex
 10
-37.979007
 20
-40.58130300000001
 30
0.0
  0
VERTEX
  5
63F
330
361
100
AcDbEntity
  8
MO_001_VIEW_PV
  6
C_SOLID_M
100
AcDbVertex
100
AcDb2dVertex
 10
-37.91919899999999
 20
-40.64455099999999
 30
0.0
  0
VERTEX
  5
640
330
361
100
AcDbEntity
  8
MO_001_VIEW_PV
  6
C_SOLID_M
100
AcDbVertex
100
AcDb2dVertex
 10
-37.78707
 20
-40.75122899999999
 30
0.0
  0
VERTEX
  5
641
330
361
100
AcDbEntity
  8
MO_001_VIEW_PV
  6
C_SOLID_M
100
AcDbVertex
100
AcDb2dVertex
 10
-37.665964
 20
-40.827153
 30
0.0
  0
VERTEX
  5
642
330
361
100
AcDbEntity
  8
MO_001_VIEW_PV
  6
C_SOLID_M
100
AcDbVertex
100
AcDb2dVertex
 10
-37.451182
 20
-40.933076
 30
0.0
  0
VERTEX
  5
643
330
361
100
AcDbEntity
  8
MO_001_VIEW_PV
  6
C_SOLID_M
100
AcDbVertex
100
AcDb2dVertex
 10
-37.200008
 20
-41.027824
 30
0.0
  0
SEQEND
  5
644
330
361
100
AcDbEntity
  8
MO_001_VIEW_PV
  6
C_SOLID_M
  0
LINE
  5
395
330
1E
100
AcDbEntity
  8
MO_001_VIEW_PV
  6
C_SOLID_M
100
AcDbLine
 10
-39.149998
 20
-42.850006
 30
0.0
 11
-37.200008
 21
-42.850006
 31
0.0
  0
LINE
  5
396
330
1E
100
AcDbEntity
  8
MO_001_VIEW_PV
  6
C_SOLID_L
100
AcDbLine
 10
-4.010273
 20
-64.0
 30
0.0
 11
26.50319899999999
 21
-64.0
 31
0.0
  0
LINE
  5
397
330
1E
100
AcDbEntity
  8
MO_001_VIEW_PV
  6
C_SOLID_M
100
AcDbLine
 10
-50.517998
 20
23.831345
 30
0.0
 11
-49.917999
 21
23.831345
 31
0.0
  0
LINE
  5
398
330
1E
100
AcDbEntity
  8
MO_001_VIEW_PV
  6
C_SOLID_M
100
AcDbLine
 10
-53.501197
 20
20.51431
 30
0.0
 11
-52.02889899999999
 21
6.660392999999999
 31
0.0
  0
TEXT
  5
399
330
1E
100
AcDbEntity
  8
MO_001_VIEW_PV
  6
C_SOLID_L
100
AcDbText
 10
145.5
 20
-39.07142899999999
 30
0.0
 40
3.0
  1
(UL1430 AWG18)
 50
90.0
100
AcDbText
  0
TEXT
  5
39A
330
1E
100
AcDbEntity
  8
MO_001_VIEW_PV
  6
C_SOLID_L
100
AcDbText
 10
-1.588648
 20
-63.040863
 30
0.0
 40
3.0
  1
2-M6 P1.0
100
AcDbText
  0
TEXT
  5
39B
330
1E
100
AcDbEntity
  8
MO_001_VIEW_PV
  6
C_SOLID_L
100
AcDbText
 10
-16.488281
 20
-89.083594
 30
0.0
 40
4.167187
  1
8S X3・X4・X9付
100
AcDbText
  0
TEXT
  5
39C
330
1E
100
AcDbEntity
  8
MO_001_VIEW_PV
  6
C_SOLID_L
100
AcDbText
 10
115.511719
 20
-95.08359399999999
 30
0.0
 40
4.167187
  1
単位：mm
100
AcDbText
  0
TEXT
  5
39D
330
1E
100
AcDbEntity
  8
MO_001_VIEW_PV
  6
C_SOLID_L
100
AcDbText
 10
115.511719
 20
-101.3343749999999
 30
0.0
 40
4.167187
  1
無励磁時
100
AcDbText
  0
DIMENSION
  5
39F
330
1E
100
AcDbEntity
  8
MO_001_VIEW_PV
  6
C_SOLID_M
100
AcDbDimension
  2
*D0
 10
90.0
 20
54.0
 30
0.0
 11
90.0
 21
54.0
 31
0.0
  1
%%C37以下
  3
STANDARD
100
AcDbAlignedDimension
 13
106.8999939999999
 23
0.0
 33
0.0
 14
73.09999799999999
 24
0.0
 34
0.0
100
AcDbRotatedDimension
  0
DIMENSION
  5
3A1
330
1E
100
AcDbEntity
  8
MO_001_VIEW_PV
  6
C_SOLID_M
100
AcDbDimension
  2
*D1
 10
90.0
 20
60.0
 30
0.0
 11
90.0
 21
60.0
 31
0.0
  1
%%C87以下
  3
STANDARD
100
AcDbAlignedDimension
 13
132.850006
 23
0.0
 33
0.0
 14
47.150002
 24
0.0
 34
0.0
100
AcDbRotatedDimension
  0
DIMENSION
  5
3A3
330
1E
100
AcDbEntity
  8
MO_001_VIEW_PV
  6
C_SOLID_M
100
AcDbDimension
  2
*D2
 10
42.0
 20
0.0
 30
0.0
 11
42.0
 21
0.0
 31
0.0
  3
STANDARD
100
AcDbAlignedDimension
 13
84.0
 23
27.0
 33
0.0
 14
84.0
 24
-27.0
 34
0.0
 50
89.999523
100
AcDbRotatedDimension
  0
DIMENSION
  5
3A5
330
1E
100
AcDbEntity
  8
MO_001_VIEW_PV
  6
C_SOLID_M
100
AcDbDimension
  2
*D3
 10
141.0
 20
-9.833937999999999
 30
0.0
 11
141.0
 21
-9.833937999999999
 31
0.0
  1
長さ250以上
  3
STANDARD
100
AcDbAlignedDimension
 13
106.149994
 23
-39.690056
 33
0.0
 14
104.799988
 24
-78.350006
 34
0.0
 50
89.999523
100
AcDbRotatedDimension
  0
POLYLINE
  5
3A6
330
1E
100
AcDbEntity
  8
MO_001_NOSHOW
  6
C_SOLID_M
100
AcDb2dPolyline
 66
     1
 10
0.0
 20
0.0
 30
0.0
 70
     4
 75
     6
  0
VERTEX
  5
3A7
330
3A6
100
AcDbEntity
  8
MO_001_NOSHOW
  6
C_SOLID_M
100
AcDbVertex
100
AcDb2dVertex
 10
-32.86796999999999
 20
44.491791
 30
0.0
 50
232.1710779999999
  0
VERTEX
  5
3A8
330
3A6
100
AcDbEntity
  8
MO_001_NOSHOW
  6
C_SOLID_M
100
AcDbVertex
100
AcDb2dVertex
 10
-35.678154
 20
38.837952
 30
0.0
 50
262.8560779999999
  0
VERTEX
  5
3A9
330
3A6
100
AcDbEntity
  8
MO_001_NOSHOW
  6
C_SOLID_M
100
AcDbVertex
100
AcDb2dVertex
 10
-36.04615799999999
 20
33.45176699999999
 30
0.0
 50
247.0068089999999
  0
VERTEX
  5
3AA
330
3A6
100
AcDbEntity
  8
MO_001_NOSHOW
  6
C_SOLID_M
100
AcDbVertex
100
AcDb2dVertex
 10
-40.59598199999999
 20
30.17321799999999
 30
0.0
 50
193.8011449999999
  0
VERTEX
  5
3AB
330
3A6
100
AcDbEntity
  8
MO_001_NOSHOW
  6
C_SOLID_M
100
AcDbVertex
100
AcDb2dVertex
 10
-45.04544099999999
 20
29.470673
 30
0.0
 50
195.150225
  0
VERTEX
  5
3AC
330
3A6
100
AcDbEntity
  8
MO_001_NOSHOW
  6
C_SOLID_M
100
AcDbVertex
100
AcDb2dVertex
 10
-50.46816299999999
 20
25.709702
 30
0.0
 50
228.2719209999999
  0
SEQEND
  5
3AD
330
3A6
100
AcDbEntity
  8
0
  0
DIMENSION
  5
3AF
330
1E
100
AcDbEntity
  8
MO_001_VIEW_PV
  6
C_SOLID_M
100
AcDbDimension
  2
*D4
 10
-62.53752900000001
 20
48.0
 30
0.0
 11
-62.53752900000001
 21
48.0
 31
0.0
  3
STANDARD
100
AcDbAlignedDimension
 13
-49.917999
 23
37.75
 33
0.0
 14
-53.517998
 24
20.831345
 34
0.0
100
AcDbRotatedDimension
  0
DIMENSION
  5
3B1
330
1E
100
AcDbEntity
  8
MO_001_VIEW_PV
  6
C_SOLID_M
100
AcDbDimension
  2
*D5
 10
-34.009956
 20
48.0
 30
0.0
 11
-34.009956
 21
48.0
 31
0.0
  3
STANDARD
100
AcDbAlignedDimension
 13
-45.917999
 23
37.75
 33
0.0
 14
-49.917999
 24
37.75
 34
0.0
100
AcDbRotatedDimension
  0
DIMENSION
  5
3B3
330
1E
100
AcDbEntity
  8
MO_001_VIEW_PV
  6
C_SOLID_M
100
AcDbDimension
  2
*D6
 10
13.29099999999999
 20
60.0
 30
0.0
 11
13.29099999999999
 21
60.0
 31
0.0
  3
STANDARD
100
AcDbAlignedDimension
 13
0.0
 23
37.69999699999999
 33
0.0
 14
26.582001
 24
5.255005
 34
0.0
100
AcDbRotatedDimension
  0
DIMENSION
  5
3B5
330
1E
100
AcDbEntity
  8
MO_001_VIEW_PV
  6
C_SOLID_M
100
AcDbDimension
  2
*D7
 10
10.6
 20
54.0
 30
0.0
 11
10.6
 21
54.0
 31
0.0
  3
STANDARD
100
AcDbAlignedDimension
 13
21.20000099999999
 23
29.0
 33
0.0
 14
0.0
 24
37.69999699999999
 34
0.0
100
AcDbRotatedDimension
  0
DIMENSION
  5
3B7
330
1E
100
AcDbEntity
  8
MO_001_VIEW_PV
  6
C_SOLID_M
100
AcDbDimension
  2
*D8
 10
33.0
 20
24.0
 30
0.0
 11
33.0
 21
24.0
 31
0.0
  3
STANDARD
100
AcDbAlignedDimension
 13
26.282001
 23
5.554992999999999
 33
0.0
 14
26.282001
 24
-5.554992999999999
 34
0.0
 50
89.999523
100
AcDbRotatedDimension
  0
LINE
  5
3B8
330
1E
100
AcDbEntity
  8
MO_001_VIEW_PV
  6
C_SOLID_L
100
AcDbLine
 10
5.099995999999999
 20
-30.000008
 30
0.0
 11
-4.010276999999999
 21
-64.000004
 31
0.0
  0
POLYLINE
  5
3B9
330
1E
100
AcDbEntity
  8
MO_001_VIEW_PV
  6
C_SOLID_L
100
AcDb2dPolyline
 66
     1
 10
0.0
 20
0.0
 30
0.0
 70
     1
  0
VERTEX
  5
645
330
3B9
100
AcDbEntity
  8
MO_001_VIEW_PV
  6
C_SOLID_L
100
AcDbVertex
100
AcDb2dVertex
 10
4.804795999999999
 20
-33.356225
 30
0.0
  0
VERTEX
  5
646
330
3B9
100
AcDbEntity
  8
MO_001_VIEW_PV
  6
C_SOLID_L
100
AcDbVertex
100
AcDb2dVertex
 10
4.968516
 20
-30.49069799999999
 30
0.0
  0
VERTEX
  5
647
330
3B9
100
AcDbEntity
  8
MO_001_VIEW_PV
  6
C_SOLID_L
100
AcDbVertex
100
AcDb2dVertex
 10
3.677537999999999
 20
-33.054177
 30
0.0
  0
SEQEND
  5
648
330
3B9
100
AcDbEntity
  8
MO_001_VIEW_PV
  6
C_SOLID_L
  0
DIMENSION
  5
3BF
330
1E
100
AcDbEntity
  8
MO_001_VIEW_PV
  6
C_SOLID_M
100
AcDbDimension
  2
*D9
 10
36.455605
 20
-48.0
 30
0.0
 11
36.455605
 21
-48.0
 31
0.0
  1
17.8以上
  3
STANDARD
100
AcDbAlignedDimension
 13
8.782002
 23
4.154999
 33
0.0
 14
26.582001
 24
-5.255005
 34
0.0
100
AcDbRotatedDimension
  0
DIMENSION
  5
3C1
330
1E
100
AcDbEntity
  8
MO_001_VIEW_PV
  6
C_SOLID_M
100
AcDbDimension
  2
*D10
 10
-26.758999
 20
54.0
 30
0.0
 11
-26.758999
 21
54.0
 31
0.0
  1
55以下
  3
STANDARD
100
AcDbAlignedDimension
 13
0.0
 23
37.69999699999999
 33
0.0
 14
-53.517998
 24
20.831345
 34
0.0
100
AcDbRotatedDimension
  0
DIMENSION
  5
3C3
330
1E
100
AcDbEntity
  8
MO_001_VIEW_PV
  6
C_SOLID_M
100
AcDbDimension
  2
*D11
 10
-36.75899899999999
 20
60.0
 30
0.0
 11
-36.75899899999999
 21
60.0
 31
0.0
  3
STANDARD
100
AcDbAlignedDimension
 13
-73.51799799999999
 23
5.409408999999999
 33
0.0
 14
0.0
 24
37.69999699999999
 34
0.0
100
AcDbRotatedDimension
  0
ENDSEC
  0
SECTION
  2
OBJECTS
  0
DICTIONARY
  5
1A
330
0
100
AcDbDictionary
  3
ACAD_GROUP
350
1B
  3
ACAD_MLINESTYLE
350
1C
  3
ACAD_LAYOUT
350
43A
  3
ACAD_PLOTSETTINGS
350
43B
1001
ACAD
1000
TREAT_AS_HARD
1070
     0
  0
DICTIONARY
  5
440
330
1E
100
AcDbDictionary
  3
ACAD_LAYOUTSELFREF
350
441
  0
DICTIONARY
  5
442
330
1F
100
AcDbDictionary
  3
ACAD_LAYOUTSELFREF
350
443
  0
DICTIONARY
  5
1B
102
{ACAD_REACTORS
330
1A
102
}
330
1A
100
AcDbDictionary
1001
ACAD
1000
TREAT_AS_HARD
1070
     0
  0
DICTIONARY
  5
1C
102
{ACAD_REACTORS
330
1A
102
}
330
1A
100
AcDbDictionary
  3
STANDARD
350
1D
1001
ACAD
1000
TREAT_AS_HARD
1070
     0
  0
DICTIONARY
  5
43A
102
{ACAD_REACTORS
330
1A
102
}
330
1A
100
AcDbDictionary
1001
ACAD
1000
TREAT_AS_HARD
1070
     0
  0
DICTIONARY
  5
43B
102
{ACAD_REACTORS
330
1A
102
}
330
1A
100
AcDbDictionary
1001
ACAD
1000
TREAT_AS_HARD
1070
     0
  0
XRECORD
  5
441
102
{ACAD_REACTORS
330
440
102
}
330
440
100
AcDbXrecord
340
1E
  0
XRECORD
  5
443
102
{ACAD_REACTORS
330
442
102
}
330
442
100
AcDbXrecord
340
1F
  0
MLINESTYLE
  5
1D
102
{ACAD_REACTORS
330
1C
102
}
330
1C
100
AcDbMlineStyle
  2
STANDARD
 70
     0
  3

 62
     0
 51
90.0
 52
90.0
 71
     2
 49
0.5
 62
   256
  6
BYLAYER
 49
-0.5
 62
   256
  6
BYLAYER
  0
ENDSEC
  0
EOF
