  0
SECTION
  2
HEADER
  9
$ACADVER
  1
AC1012
  9
$DWGCODEPAGE
  3
dos932
  9
$INSBASE
 10
0.0
 20
0.0
 30
0.0
  9
$EXTMIN
 10
-95.17732463136963
 20
-92.08972714375482
 30
-0.0015258207003583
  9
$EXTMAX
 10
74.13838953986953
 20
34.13205013742657
 30
0.0000000349246037
  9
$LIMMIN
 10
-95.160215
 20
-95.208984
  9
$LIMMAX
 10
65.02853399999999
 20
36.0
  9
$ORTHOMODE
 70
     0
  9
$REGENMODE
 70
     1
  9
$FILLMODE
 70
     1
  9
$QTEXTMODE
 70
     0
  9
$MIRRTEXT
 70
     1
  9
$DRAGMODE
 70
     2
  9
$LTSCALE
 40
1.0
  9
$OSMODE
 70
    37
  9
$ATTMODE
 70
     1
  9
$TEXTSIZE
 40
4.1672
  9
$TRACEWID
 40
0.05
  9
$TEXTSTYLE
  7
STANDARD
  9
$CLAYER
  8
0
  9
$CELTYPE
  6
CONTINUOUS
  9
$CECOLOR
 62
   256
  9
$CELTSCALE
 40
1.0
  9
$DELOBJ
 70
     1
  9
$DISPSILH
 70
     0
  9
$DIMSCALE
 40
1.0
  9
$DIMASZ
 40
0.18
  9
$DIMEXO
 40
0.0625
  9
$DIMDLI
 40
0.38
  9
$DIMRND
 40
0.0
  9
$DIMDLE
 40
0.0
  9
$DIMEXE
 40
0.18
  9
$DIMTP
 40
0.0
  9
$DIMTM
 40
0.0
  9
$DIMTXT
 40
0.18
  9
$DIMCEN
 40
0.09
  9
$DIMTSZ
 40
0.0
  9
$DIMTOL
 70
     0
  9
$DIMLIM
 70
     0
  9
$DIMTIH
 70
     1
  9
$DIMTOH
 70
     1
  9
$DIMSE1
 70
     0
  9
$DIMSE2
 70
     0
  9
$DIMTAD
 70
     0
  9
$DIMZIN
 70
     0
  9
$DIMBLK
  1

  9
$DIMASO
 70
     1
  9
$DIMSHO
 70
     1
  9
$DIMPOST
  1

  9
$DIMAPOST
  1

  9
$DIMALT
 70
     0
  9
$DIMALTD
 70
     2
  9
$DIMALTF
 40
25.4
  9
$DIMLFAC
 40
1.0
  9
$DIMTOFL
 70
     0
  9
$DIMTVP
 40
0.0
  9
$DIMTIX
 70
     0
  9
$DIMSOXD
 70
     0
  9
$DIMSAH
 70
     0
  9
$DIMBLK1
  1

  9
$DIMBLK2
  1

  9
$DIMSTYLE
  2
STANDARD
  9
$DIMCLRD
 70
     0
  9
$DIMCLRE
 70
     0
  9
$DIMCLRT
 70
     0
  9
$DIMTFAC
 40
1.0
  9
$DIMGAP
 40
0.09
  9
$DIMJUST
 70
     0
  9
$DIMSD1
 70
     0
  9
$DIMSD2
 70
     0
  9
$DIMTOLJ
 70
     1
  9
$DIMTZIN
 70
     0
  9
$DIMALTZ
 70
     0
  9
$DIMALTTZ
 70
     0
  9
$DIMFIT
 70
     3
  9
$DIMUPT
 70
     0
  9
$DIMUNIT
 70
     2
  9
$DIMDEC
 70
     4
  9
$DIMTDEC
 70
     4
  9
$DIMALTU
 70
     2
  9
$DIMALTTD
 70
     2
  9
$DIMTXSTY
  7
STANDARD
  9
$DIMAUNIT
 70
     0
  9
$LUNITS
 70
     2
  9
$LUPREC
 70
     6
  9
$SKETCHINC
 40
0.1
  9
$FILLETRAD
 40
0.0
  9
$AUNITS
 70
     0
  9
$AUPREC
 70
     4
  9
$MENU
  1
acad
  9
$ELEVATION
 40
0.0
  9
$PELEVATION
 40
0.0
  9
$THICKNESS
 40
0.0
  9
$LIMCHECK
 70
     0
  9
$BLIPMODE
 70
     0
  9
$CHAMFERA
 40
0.0
  9
$CHAMFERB
 40
0.0
  9
$CHAMFERC
 40
0.0
  9
$CHAMFERD
 40
0.0
  9
$SKPOLY
 70
     0
  9
$TDCREATE
 40
2376122.594796458
  9
$TDUPDATE
 40
2451663.752371180
  9
$TDINDWG
 40
0.0009555556
  9
$TDUSRTIMER
 40
0.0009548611
  9
$USRTIMER
 70
     1
  9
$ANGBASE
 50
0.0
  9
$ANGDIR
 70
     0
  9
$PDMODE
 70
     0
  9
$PDSIZE
 40
0.0
  9
$PLINEWID
 40
0.0
  9
$COORDS
 70
     1
  9
$SPLFRAME
 70
     0
  9
$SPLINETYPE
 70
     6
  9
$SPLINESEGS
 70
     8
  9
$ATTDIA
 70
     0
  9
$ATTREQ
 70
     1
  9
$HANDLING
 70
 10241
  9
$HANDSEED
  5
214
  9
$SURFTAB1
 70
     6
  9
$SURFTAB2
 70
     6
  9
$SURFTYPE
 70
     6
  9
$SURFU
 70
     6
  9
$SURFV
 70
     6
  9
$UCSNAME
  2
MO_001_VIEW_PV_P
  9
$UCSORG
 10
0.0
 20
0.0
 30
0.0
  9
$UCSXDIR
 10
1.0
 20
0.0
 30
0.0
  9
$UCSYDIR
 10
-0.0000000002051034
 20
1.0
 30
0.0
  9
$PUCSNAME
  2

  9
$PUCSORG
 10
0.0
 20
0.0
 30
0.0
  9
$PUCSXDIR
 10
1.0
 20
0.0
 30
0.0
  9
$PUCSYDIR
 10
0.0
 20
1.0
 30
0.0
  9
$USERI1
 70
     0
  9
$USERI2
 70
     0
  9
$USERI3
 70
     0
  9
$USERI4
 70
     0
  9
$USERI5
 70
     0
  9
$USERR1
 40
0.0
  9
$USERR2
 40
0.0
  9
$USERR3
 40
0.0
  9
$USERR4
 40
0.0
  9
$USERR5
 40
0.0
  9
$WORLDVIEW
 70
     1
  9
$SHADEDGE
 70
     3
  9
$SHADEDIF
 70
    70
  9
$TILEMODE
 70
     1
  9
$MAXACTVP
 70
    16
  9
$PINSBASE
 10
0.0
 20
0.0
 30
0.0
  9
$PLIMCHECK
 70
     0
  9
$PEXTMIN
 10
-95.160215
 20
-95.208984
 30
1.000000000000000E+20
  9
$PEXTMAX
 10
65.02853399999999
 20
36.0
 30
-1.000000000000000E+20
  9
$PLIMMIN
 10
0.0
 20
0.0
  9
$PLIMMAX
 10
12.0
 20
9.0
  9
$UNITMODE
 70
     0
  9
$VISRETAIN
 70
     0
  9
$PLINEGEN
 70
     0
  9
$PSLTSCALE
 70
     1
  9
$TREEDEPTH
 70
  3020
  9
$PICKSTYLE
 70
     1
  9
$CMLSTYLE
  2
STANDARD
  9
$CMLJUST
 70
     0
  9
$CMLSCALE
 40
1.0
  9
$SAVEIMAGES
 70
     1
  0
ENDSEC
  0
SECTION
  2
CLASSES
  0
CLASS
  1
ACDBDICTIONARYWDFLT
  2
AcDbDictionaryWithDefault
  3
AutoCAD 2000
 90
    32768
280
     0
281
     0
  0
CLASS
  1
ACDBPLACEHOLDER
  2
AcDbPlaceHolder
  3
AutoCAD 2000
 90
    32768
280
     0
281
     0
  0
CLASS
  1
LAYOUT
  2
AcDbLayout
  3
AutoCAD 2000
 90
    32768
280
     0
281
     0
  0
CLASS
  1
LONG_TRANSACTION
  2
AcDbLongTransaction
  3
AutoCAD 2000
 90
    32768
280
     0
281
     0
  0
CLASS
  1
LWPOLYLINE
  2
AcDbPolyline
  3
AutoCAD 2000
 90
    32768
280
     0
281
     1
  0
CLASS
  1
HATCH
  2
AcDbHatch
  3
AutoCAD 2000
 90
    32768
280
     0
281
     1
  0
CLASS
  1
XRECORD
  2
AcDbXrecord
  3
AutoCAD 2000
 90
    32768
280
     0
281
     0
  0
ENDSEC
  0
SECTION
  2
TABLES
  0
TABLE
  2
VPORT
  5
7
330
0
100
AcDbSymbolTable
 70
     2
  0
VPORT
  5
203
330
7
100
AcDbSymbolTableRecord
100
AcDbViewportTableRecord
  2
*ACTIVE
 70
     0
 10
0.0
 20
0.0
 11
1.0
 21
1.0
 12
-5.809220334119032
 22
-24.61961087768534
 13
0.0
 23
0.0
 14
6.349999999999999
 24
6.349999999999999
 15
6.349999999999999
 25
6.349999999999999
 16
0.0
 26
0.0
 36
1.0
 17
0.0
 27
0.0
 37
0.0
 40
169.451166473126
 41
1.691964285714285
 42
50.0
 43
0.0
 44
0.0
 50
0.0
 51
0.0
 71
     0
 72
   100
 73
     1
 74
     1
 75
     0
 76
     0
 77
     0
 78
     0
  0
ENDTAB
  0
TABLE
  2
LTYPE
  5
4
330
0
100
AcDbSymbolTable
 70
    37
  0
LTYPE
  5
12
330
4
100
AcDbSymbolTableRecord
100
AcDbLinetypeTableRecord
  2
BYBLOCK
 70
     0
  3

 72
    65
 73
     0
 40
0.0
  0
LTYPE
  5
13
330
4
100
AcDbSymbolTableRecord
100
AcDbLinetypeTableRecord
  2
BYLAYER
 70
     0
  3

 72
    65
 73
     0
 40
0.0
  0
LTYPE
  5
14
330
4
100
AcDbSymbolTableRecord
100
AcDbLinetypeTableRecord
  2
CONTINUOUS
 70
     0
  3
DXF Default line type
 72
    65
 73
     0
 40
0.0
  0
LTYPE
  5
20
330
4
100
AcDbSymbolTableRecord
100
AcDbLinetypeTableRecord
  2
DASHED
 70
     0
  3
DXF Dashed
 72
    65
 73
     2
 40
0.75
 49
0.5
 74
     0
 49
-0.25
 74
     0
  0
LTYPE
  5
21
330
4
100
AcDbSymbolTableRecord
100
AcDbLinetypeTableRecord
  2
HIDDEN
 70
     0
  3
DXF Hidden
 72
    65
 73
     2
 40
0.375
 49
0.25
 74
     0
 49
-0.125
 74
     0
  0
LTYPE
  5
22
330
4
100
AcDbSymbolTableRecord
100
AcDbLinetypeTableRecord
  2
CENTER
 70
     0
  3
DXF Center
 72
    65
 73
     4
 40
2.0
 49
1.25
 74
     0
 49
-0.25
 74
     0
 49
0.25
 74
     0
 49
-0.25
 74
     0
  0
LTYPE
  5
23
330
4
100
AcDbSymbolTableRecord
100
AcDbLinetypeTableRecord
  2
PHANTOM
 70
     0
  3
DXF Phantom
 72
    65
 73
     6
 40
2.5
 49
1.25
 74
     0
 49
-0.25
 74
     0
 49
0.25
 74
     0
 49
-0.25
 74
     0
 49
0.25
 74
     0
 49
-0.25
 74
     0
  0
LTYPE
  5
24
330
4
100
AcDbSymbolTableRecord
100
AcDbLinetypeTableRecord
  2
DOT
 70
     0
  3
DXF DOT
 72
    65
 73
     2
 40
0.25
 49
0.0
 74
     0
 49
-0.25
 74
     0
  0
LTYPE
  5
25
330
4
100
AcDbSymbolTableRecord
100
AcDbLinetypeTableRecord
  2
DASHDOT
 70
     0
  3
DXF Dash Dot
 72
    65
 73
     4
 40
1.0
 49
0.5
 74
     0
 49
-0.25
 74
     0
 49
0.0
 74
     0
 49
-0.25
 74
     0
  0
LTYPE
  5
26
330
4
100
AcDbSymbolTableRecord
100
AcDbLinetypeTableRecord
  2
BORDER
 70
     0
  3
DXF Border
 72
    65
 73
     6
 40
1.75
 49
0.5
 74
     0
 49
-0.25
 74
     0
 49
0.5
 74
     0
 49
-0.25
 74
     0
 49
0.0
 74
     0
 49
-0.25
 74
     0
  0
LTYPE
  5
27
330
4
100
AcDbSymbolTableRecord
100
AcDbLinetypeTableRecord
  2
DIVIDE
 70
     0
  3
DXF Divide
 72
    65
 73
     6
 40
1.25
 49
0.5
 74
     0
 49
-0.25
 74
     0
 49
0.0
 74
     0
 49
-0.25
 74
     0
 49
0.0
 74
     0
 49
-0.25
 74
     0
  0
LTYPE
  5
28
330
4
100
AcDbSymbolTableRecord
100
AcDbLinetypeTableRecord
  2
C_SOLID_L
 70
     0
  3
CADAM Solid Light
 72
    65
 73
     0
 40
0.0
  0
LTYPE
  5
29
330
4
100
AcDbSymbolTableRecord
100
AcDbLinetypeTableRecord
  2
C_SOLID_M
 70
     0
  3
CADAM Solid Medium
 72
    65
 73
     0
 40
0.0
  0
LTYPE
  5
2A
330
4
100
AcDbSymbolTableRecord
100
AcDbLinetypeTableRecord
  2
C_SOLID_H
 70
     0
  3
CADAM Solid Heavy
 72
    65
 73
     0
 40
0.0
  0
LTYPE
  5
2B
330
4
100
AcDbSymbolTableRecord
100
AcDbLinetypeTableRecord
  2
C_DASHED_L
 70
     0
  3
CADAM Dashed Light
 72
    65
 73
     2
 40
0.375
 49
0.25
 74
     0
 49
-0.125
 74
     0
  0
LTYPE
  5
2C
330
4
100
AcDbSymbolTableRecord
100
AcDbLinetypeTableRecord
  2
C_DASHED_M
 70
     0
  3
CADAM Dashed Medium
 72
    65
 73
     2
 40
0.5
 49
0.375
 74
     0
 49
-0.125
 74
     0
  0
LTYPE
  5
2D
330
4
100
AcDbSymbolTableRecord
100
AcDbLinetypeTableRecord
  2
C_CENTER_L
 70
     0
  3
CADAM Center Light
 72
    65
 73
     4
 40
2.0
 49
1.25
 74
     0
 49
-0.25
 74
     0
 49
0.25
 74
     0
 49
-0.25
 74
     0
  0
LTYPE
  5
2E
330
4
100
AcDbSymbolTableRecord
100
AcDbLinetypeTableRecord
  2
C_PHANTOM_L
 70
     0
  3
CADAM Phantom Light
 72
    65
 73
     6
 40
2.5
 49
1.25
 74
     0
 49
-0.25
 74
     0
 49
0.25
 74
     0
 49
-0.25
 74
     0
 49
0.25
 74
     0
 49
-0.25
 74
     0
  0
LTYPE
  5
2F
330
4
100
AcDbSymbolTableRecord
100
AcDbLinetypeTableRecord
  2
C_BREAK_M
 70
     0
  3
CADAM Break Medium
 72
    65
 73
     4
 40
1.0
 49
0.5
 74
     0
 49
-0.25
 74
     0
 49
0.0
 74
     0
 49
-0.25
 74
     0
  0
LTYPE
  5
30
330
4
100
AcDbSymbolTableRecord
100
AcDbLinetypeTableRecord
  2
C_NC
 70
     0
  3
CADAM NC
 72
    65
 73
     0
 40
0.0
  0
LTYPE
  5
31
330
4
100
AcDbSymbolTableRecord
100
AcDbLinetypeTableRecord
  2
DSH1
 70
     0
  3
CADAM Style2 Type 1 Dashed Line
 72
    65
 73
     2
 40
0.075
 49
0.04
 74
     0
 49
-0.035
 74
     0
  0
LTYPE
  5
32
330
4
100
AcDbSymbolTableRecord
100
AcDbLinetypeTableRecord
  2
DSH2
 70
     0
  3
CADAM Style2 Type 2 Dashed Line
 72
    65
 73
     2
 40
0.15
 49
0.11
 74
     0
 49
-0.04
 74
     0
  0
LTYPE
  5
33
330
4
100
AcDbSymbolTableRecord
100
AcDbLinetypeTableRecord
  2
DSH3
 70
     0
  3
CADAM Style2 Type 3 Dashed Line
 72
    65
 73
     2
 40
0.2
 49
0.15
 74
     0
 49
-0.05
 74
     0
  0
LTYPE
  5
34
330
4
100
AcDbSymbolTableRecord
100
AcDbLinetypeTableRecord
  2
DSH4
 70
     0
  3
CADAM Style2 Type 4 Dashed Line
 72
    65
 73
     2
 40
0.36
 49
0.28
 74
     0
 49
-0.08
 74
     0
  0
LTYPE
  5
35
330
4
100
AcDbSymbolTableRecord
100
AcDbLinetypeTableRecord
  2
DSH5
 70
     0
  3
CADAM Style2 Type 5 Dashed Line
 72
    65
 73
     2
 40
0.47
 49
0.39
 74
     0
 49
-0.08
 74
     0
  0
LTYPE
  5
36
330
4
100
AcDbSymbolTableRecord
100
AcDbLinetypeTableRecord
  2
DSH6
 70
     0
  3
CADAM Style2 Type 6 Dashed Line
 72
    65
 73
     2
 40
0.9
 49
0.8100000000000001
 74
     0
 49
-0.09
 74
     0
  0
LTYPE
  5
37
330
4
100
AcDbSymbolTableRecord
100
AcDbLinetypeTableRecord
  2
PL1
 70
     0
  3
Style 2 Type 1 Phantom Line
 72
    65
 73
     6
 40
1.0
 49
0.6
 74
     0
 49
-0.08
 74
     0
 49
0.08
 74
     0
 49
-0.08
 74
     0
 49
0.08
 74
     0
 49
-0.08
 74
     0
  0
LTYPE
  5
38
330
4
100
AcDbSymbolTableRecord
100
AcDbLinetypeTableRecord
  2
PL2
 70
     0
  3
Style 2 Type 2 Phantom Line
 72
    65
 73
     6
 40
1.08
 49
0.6
 74
     0
 49
-0.08
 74
     0
 49
0.12
 74
     0
 49
-0.08
 74
     0
 49
0.12
 74
     0
 49
-0.08
 74
     0
  0
LTYPE
  5
39
330
4
100
AcDbSymbolTableRecord
100
AcDbLinetypeTableRecord
  2
PL3
 70
     0
  3
Style 2 Type 3 Phantom Line
 72
    65
 73
     6
 40
2.0
 49
1.439999999999999
 74
     0
 49
-0.08
 74
     0
 49
0.16
 74
     0
 49
-0.08
 74
     0
 49
0.16
 74
     0
 49
-0.08
 74
     0
  0
LTYPE
  5
3A
330
4
100
AcDbSymbolTableRecord
100
AcDbLinetypeTableRecord
  2
CL1
 70
     0
  3
CADAM Style 2 Type 1 Center Line
 72
    65
 73
     4
 40
0.7
 49
0.45
 74
     0
 49
-0.06
 74
     0
 49
0.13
 74
     0
 49
-0.06
 74
     0
  0
LTYPE
  5
3B
330
4
100
AcDbSymbolTableRecord
100
AcDbLinetypeTableRecord
  2
CL2
 70
     0
  3
CADAM Style 2 Type 2 Center Line
 72
    65
 73
     4
 40
1.199999999999999
 49
1.01
 74
     0
 49
-0.06
 74
     0
 49
0.11
 74
     0
 49
-0.06
 74
     0
  0
LTYPE
  5
3C
330
4
100
AcDbSymbolTableRecord
100
AcDbLinetypeTableRecord
  2
CL3
 70
     0
  3
CADAM Style 2 Type 3 Center Line
 72
    65
 73
     4
 40
1.199999999999999
 49
0.98
 74
     0
 49
-0.06
 74
     0
 49
0.1
 74
     0
 49
-0.06
 74
     0
  0
LTYPE
  5
3D
330
4
100
AcDbSymbolTableRecord
100
AcDbLinetypeTableRecord
  2
CL4
 70
     0
  3
CADAM Style 2 Type 4 Center Line
 72
    65
 73
     4
 40
2.2
 49
1.929999999999999
 74
     0
 49
-0.07
 74
     0
 49
0.13
 74
     0
 49
-0.07
 74
     0
  0
LTYPE
  5
3E
330
4
100
AcDbSymbolTableRecord
100
AcDbLinetypeTableRecord
  2
CL5
 70
     0
  3
CADAM Style 2 Type 5 Center Line
 72
    65
 73
     4
 40
2.2
 49
1.879999999999999
 74
     0
 49
-0.07
 74
     0
 49
0.18
 74
     0
 49
-0.07
 74
     0
  0
LTYPE
  5
3F
330
4
100
AcDbSymbolTableRecord
100
AcDbLinetypeTableRecord
  2
SBK1
 70
     0
  3
CADAM Style 2 Type 1 SetBack Line
 72
    65
 73
     8
 40
2.7
 49
0.1
 74
     0
 49
-0.08
 74
     0
 49
0.1
 74
     0
 49
-0.8
 74
     0
 49
0.0
 74
     0
 49
0.0
 74
     0
 49
0.0
 74
     0
 49
0.0
 74
     0
  0
LTYPE
  5
40
330
4
100
AcDbSymbolTableRecord
100
AcDbLinetypeTableRecord
  2
SBK2
 70
     0
  3
CADAM Style 2 Type 2 SetBack Line
 72
    65
 73
     8
 40
3.709999999999999
 49
0.13
 74
     0
 49
-0.08
 74
     0
 49
0.13
 74
     0
 49
-0.8
 74
     0
 49
0.0
 74
     0
 49
0.0
 74
     0
 49
0.0
 74
     0
 49
0.0
 74
     0
  0
LTYPE
  5
41
330
4
100
AcDbSymbolTableRecord
100
AcDbLinetypeTableRecord
  2
STCH
 70
     0
  3
CADAM Style2 Stitch Line
 72
    65
 73
     2
 40
0.25
 49
0.0
 74
     0
 49
-0.25
 74
     0
  0
LTYPE
  5
42
330
4
100
AcDbSymbolTableRecord
100
AcDbLinetypeTableRecord
  2
MTCH
 70
     0
  3
CADAM Style2 Match Line
 72
    65
 73
     6
 40
2.0
 49
1.439999999999999
 74
     0
 49
-0.8
 74
     0
 49
0.16
 74
     0
 49
-0.08
 74
     0
 49
0.16
 74
     0
 49
-0.08
 74
     0
  0
LTYPE
  5
43
330
4
100
AcDbSymbolTableRecord
100
AcDbLinetypeTableRecord
  2
SLD
 70
     0
  3
CADAM Solid_EXT2
 72
    65
 73
     0
 40
0.0
  0
ENDTAB
  0
TABLE
  2
LAYER
  5
2
330
0
100
AcDbSymbolTable
 70
     7
  0
LAYER
  5
15
330
2
100
AcDbSymbolTableRecord
100
AcDbLayerTableRecord
  2
0
 70
     0
 62
     7
  6
CONTINUOUS
  0
LAYER
  5
44
330
2
100
AcDbSymbolTableRecord
100
AcDbLayerTableRecord
  2
MO_001_NOSHOW
 70
     1
 62
     7
  6
CONTINUOUS
  0
LAYER
  5
45
330
2
100
AcDbSymbolTableRecord
100
AcDbLayerTableRecord
  2
MO_001_VIEW_PV
 70
     0
 62
     7
  6
CONTINUOUS
  0
LAYER
  5
46
330
2
100
AcDbSymbolTableRecord
100
AcDbLayerTableRecord
  2
OVERLAY_MAP
 70
     1
 62
     7
  6
CONTINUOUS
  0
LAYER
  5
47
330
2
100
AcDbSymbolTableRecord
100
AcDbLayerTableRecord
  2
DITTOS
 70
     0
 62
     7
  6
CONTINUOUS
  0
LAYER
  5
48
330
2
100
AcDbSymbolTableRecord
100
AcDbLayerTableRecord
  2
SYMBOLS
 70
     0
 62
     7
  6
CONTINUOUS
  0
LAYER
  5
49
330
2
100
AcDbSymbolTableRecord
100
AcDbLayerTableRecord
  2
SETS
 70
     0
 62
     7
  6
CONTINUOUS
  0
ENDTAB
  0
TABLE
  2
STYLE
  5
3
330
0
100
AcDbSymbolTable
 70
     1
  0
STYLE
  5
18
330
3
100
AcDbSymbolTableRecord
100
AcDbTextStyleTableRecord
  2
STANDARD
 70
     0
 40
4.1672
 41
1.0
 50
0.0
 71
     0
 42
4.1672
  3
monotxt
  4
BIGFONT
  0
ENDTAB
  0
TABLE
  2
VIEW
  5
5
330
0
100
AcDbSymbolTable
 70
     0
  0
ENDTAB
  0
TABLE
  2
UCS
  5
6
330
0
100
AcDbSymbolTable
 70
     1
  0
UCS
  5
4A
330
6
100
AcDbSymbolTableRecord
100
AcDbUCSTableRecord
  2
MO_001_VIEW_PV_P
 70
     0
 10
0.0
 20
0.0
 30
0.0
 11
1.0
 21
0.0
 31
0.0
 12
-0.0000000002051034
 22
1.0
 32
0.0
  0
ENDTAB
  0
TABLE
  2
APPID
  5
8
330
0
100
AcDbSymbolTable
 70
     1
  0
APPID
  5
17
330
8
100
AcDbSymbolTableRecord
100
AcDbRegAppTableRecord
  2
ACAD
 70
     0
  0
ENDTAB
  0
TABLE
  2
DIMSTYLE
  5
9
330
0
100
AcDbSymbolTable
 70
     1
  0
DIMSTYLE
105
19
102
{ACAD_REACTORS
330
124
330
126
330
128
330
12A
330
12C
330
12E
330
130
330
132
330
134
330
136
330
138
330
13A
330
13C
330
13E
330
140
102
}
330
9
100
AcDbSymbolTableRecord
100
AcDbDimStyleTableRecord
  2
STANDARD
 70
     0
  3

  4

  5

  6

  7

 40
1.0
 41
0.18
 42
0.0625
 43
0.38
 44
0.18
 45
0.0
 46
0.0
 47
0.0
 48
0.0
140
0.18
141
0.09
142
0.0
143
25.4
144
1.0
145
0.0
146
1.0
147
0.09
 71
     0
 72
     0
 73
     1
 74
     1
 75
     0
 76
     0
 77
     0
 78
     0
170
     0
171
     2
172
     0
173
     0
174
     0
175
     0
176
     0
177
     0
178
     0
270
     2
271
     4
272
     4
273
     2
274
     2
340
18
275
     0
280
     0
281
     0
282
     0
283
     1
284
     0
285
     0
286
     0
287
     3
288
     0
  0
ENDTAB
  0
TABLE
  2
BLOCK_RECORD
  5
C
330
0
100
AcDbSymbolTable
 70
    15
  0
BLOCK_RECORD
  5
1E
102
{ACAD_XDICTIONARY
360
204
102
}
330
C
100
AcDbSymbolTableRecord
100
AcDbBlockTableRecord
  2
*MODEL_SPACE
  0
BLOCK_RECORD
  5
1F
102
{ACAD_XDICTIONARY
360
206
102
}
330
C
100
AcDbSymbolTableRecord
100
AcDbBlockTableRecord
  2
*PAPER_SPACE
  0
BLOCK_RECORD
  5
123
330
C
100
AcDbSymbolTableRecord
100
AcDbBlockTableRecord
  2
*D0
  0
BLOCK_RECORD
  5
125
330
C
100
AcDbSymbolTableRecord
100
AcDbBlockTableRecord
  2
*D1
  0
BLOCK_RECORD
  5
127
330
C
100
AcDbSymbolTableRecord
100
AcDbBlockTableRecord
  2
*D2
  0
BLOCK_RECORD
  5
129
330
C
100
AcDbSymbolTableRecord
100
AcDbBlockTableRecord
  2
*D3
  0
BLOCK_RECORD
  5
12B
330
C
100
AcDbSymbolTableRecord
100
AcDbBlockTableRecord
  2
*D4
  0
BLOCK_RECORD
  5
12D
330
C
100
AcDbSymbolTableRecord
100
AcDbBlockTableRecord
  2
*D5
  0
BLOCK_RECORD
  5
12F
330
C
100
AcDbSymbolTableRecord
100
AcDbBlockTableRecord
  2
*D6
  0
BLOCK_RECORD
  5
131
330
C
100
AcDbSymbolTableRecord
100
AcDbBlockTableRecord
  2
*D7
  0
BLOCK_RECORD
  5
133
330
C
100
AcDbSymbolTableRecord
100
AcDbBlockTableRecord
  2
*D8
  0
BLOCK_RECORD
  5
135
330
C
100
AcDbSymbolTableRecord
100
AcDbBlockTableRecord
  2
*D9
  0
BLOCK_RECORD
  5
137
330
C
100
AcDbSymbolTableRecord
100
AcDbBlockTableRecord
  2
*D10
  0
BLOCK_RECORD
  5
139
330
C
100
AcDbSymbolTableRecord
100
AcDbBlockTableRecord
  2
*D11
  0
BLOCK_RECORD
  5
13B
330
C
100
AcDbSymbolTableRecord
100
AcDbBlockTableRecord
  2
*D12
  0
BLOCK_RECORD
  5
13D
330
C
100
AcDbSymbolTableRecord
100
AcDbBlockTableRecord
  2
*D13
  0
BLOCK_RECORD
  5
13F
330
C
100
AcDbSymbolTableRecord
100
AcDbBlockTableRecord
  2
*D14
  0
ENDTAB
  0
ENDSEC
  0
SECTION
  2
BLOCKS
  0
BLOCK
  5
E
330
1E
100
AcDbEntity
  8
0
100
AcDbBlockBegin
  2
*MODEL_SPACE
 70
     0
 10
0.0
 20
0.0
 30
0.0
  3
*MODEL_SPACE
  1

  0
ENDBLK
  5
F
330
1E
100
AcDbEntity
  8
0
100
AcDbBlockEnd
  0
BLOCK
  5
10
330
1F
100
AcDbEntity
 67
     1
  8
0
100
AcDbBlockBegin
  2
*PAPER_SPACE
 70
     0
 10
0.0
 20
0.0
 30
0.0
  3
*PAPER_SPACE
  1

  0
ENDBLK
  5
11
330
1F
100
AcDbEntity
 67
     1
  8
0
100
AcDbBlockEnd
  0
BLOCK
  5
153
330
123
100
AcDbEntity
  8
0
100
AcDbBlockBegin
  2
*D0
 70
     1
 10
0.0
 20
0.0
 30
0.0
  3
*D0
  1

  0
LINE
  5
154
330
123
100
AcDbEntity
  8
MO_001_VIEW_PV
  6
BYBLOCK
100
AcDbLine
 10
-85.5
 20
-18.0
 30
0.0
 11
-70.5
 21
-18.0
 31
0.0
  0
LINE
  5
155
330
123
100
AcDbEntity
  8
MO_001_VIEW_PV
  6
BYBLOCK
100
AcDbLine
 10
-85.5
 20
-18.0
 30
0.0
 11
-91.85
 21
-18.0
 31
0.0
  0
LINE
  5
156
330
123
100
AcDbEntity
  8
MO_001_VIEW_PV
  6
BYBLOCK
100
AcDbLine
 10
-70.5
 20
-18.0
 30
0.0
 11
-64.15
 21
-18.0
 31
0.0
  0
SOLID
  5
157
330
123
100
AcDbEntity
  8
MO_001_VIEW_PV
  6
BYBLOCK
100
AcDbTrace
 10
-88.81826
 20
-18.58351199999999
 30
0.0
 11
-86.00799999999999
 21
-18.0
 31
0.0
 12
-88.81826
 22
-17.416488
 32
0.0
 13
-88.81826
 23
-17.416488
 33
0.0
  0
SOLID
  5
158
330
123
100
AcDbEntity
  8
MO_001_VIEW_PV
  6
BYBLOCK
100
AcDbTrace
 10
-67.18174000000001
 20
-17.416488
 30
0.0
 11
-69.992
 21
-18.0
 31
0.0
 12
-67.18174000000001
 22
-18.58351199999999
 32
0.0
 13
-67.18174000000001
 23
-18.58351199999999
 33
0.0
  0
LINE
  5
159
330
123
100
AcDbEntity
  8
MO_001_VIEW_PV
  6
BYBLOCK
100
AcDbLine
 10
-85.5
 20
-8.5
 30
0.0
 11
-85.5
 21
-20.285999
 31
0.0
  0
LINE
  5
15A
330
123
100
AcDbEntity
  8
MO_001_VIEW_PV
  6
BYBLOCK
100
AcDbLine
 10
-70.5
 20
-8.5
 30
0.0
 11
-70.5
 21
-20.285999
 31
0.0
  0
TEXT
  5
15B
330
123
100
AcDbEntity
  8
MO_001_VIEW_PV
  6
BYBLOCK
100
AcDbText
 10
-77.785714
 20
-15.375
 30
0.0
 40
1.5
  1
%%P0.5
100
AcDbText
  0
TEXT
  5
15C
330
123
100
AcDbEntity
  8
MO_001_VIEW_PV
  6
BYBLOCK
100
AcDbText
 10
-83.57142900000001
 20
-17.25
 30
0.0
 40
3.0
  1
15
100
AcDbText
  0
ENDBLK
  5
15D
330
123
100
AcDbEntity
  8
0
100
AcDbBlockEnd
  0
BLOCK
  5
15E
330
125
100
AcDbEntity
  8
0
100
AcDbBlockBegin
  2
*D1
 70
     1
 10
0.0
 20
0.0
 30
0.0
  3
*D1
  1

  0
LINE
  5
15F
330
125
100
AcDbEntity
  8
MO_001_VIEW_PV
  6
BYBLOCK
100
AcDbLine
 10
-60.0
 20
-8.5
 30
0.0
 11
-60.0
 21
8.5
 31
0.0
  0
LINE
  5
160
330
125
100
AcDbEntity
  8
MO_001_VIEW_PV
  6
BYBLOCK
100
AcDbLine
 10
-60.0
 20
-8.5
 30
0.0
 11
-60.0
 21
-14.85
 31
0.0
  0
LINE
  5
161
330
125
100
AcDbEntity
  8
MO_001_VIEW_PV
  6
BYBLOCK
100
AcDbLine
 10
-60.0
 20
8.5
 30
0.0
 11
-60.0
 21
14.85
 31
0.0
  0
SOLID
  5
162
330
125
100
AcDbEntity
  8
MO_001_VIEW_PV
  6
BYBLOCK
100
AcDbTrace
 10
-59.416488
 20
-11.81826
 30
0.0
 11
-60.0
 21
-9.007999999999999
 31
0.0
 12
-60.583512
 22
-11.81826
 32
0.0
 13
-60.583512
 23
-11.81826
 33
0.0
  0
SOLID
  5
163
330
125
100
AcDbEntity
  8
MO_001_VIEW_PV
  6
BYBLOCK
100
AcDbTrace
 10
-60.583512
 20
11.81826
 30
0.0
 11
-60.0
 21
9.007999999999999
 31
0.0
 12
-59.416488
 22
11.81826
 32
0.0
 13
-59.416488
 23
11.81826
 33
0.0
  0
LINE
  5
164
330
125
100
AcDbEntity
  8
MO_001_VIEW_PV
  6
BYBLOCK
100
AcDbLine
 10
-70.5
 20
-8.5
 30
0.0
 11
-57.71399699999999
 21
-8.5
 31
0.0
  0
LINE
  5
165
330
125
100
AcDbEntity
  8
MO_001_VIEW_PV
  6
BYBLOCK
100
AcDbLine
 10
-70.5
 20
8.5
 30
0.0
 11
-57.71399699999999
 21
8.5
 31
0.0
  0
TEXT
  5
166
330
125
100
AcDbEntity
  8
MO_001_VIEW_PV
  6
BYBLOCK
100
AcDbText
 10
-62.625
 20
0.214286
 30
0.0
 40
1.5
  1
%%P0.5
 50
90.0
100
AcDbText
  0
TEXT
  5
167
330
125
100
AcDbEntity
  8
MO_001_VIEW_PV
  6
BYBLOCK
100
AcDbText
 10
-60.75
 20
-5.571429
 30
0.0
 40
3.0
  1
17
 50
90.0
100
AcDbText
  0
ENDBLK
  5
168
330
125
100
AcDbEntity
  8
0
100
AcDbBlockEnd
  0
BLOCK
  5
169
330
127
100
AcDbEntity
  8
0
100
AcDbBlockBegin
  2
*D2
 70
     1
 10
0.0
 20
0.0
 30
0.0
  3
*D2
  1

  0
TEXT
  5
16A
330
127
100
AcDbEntity
  8
MO_001_VIEW_PV
  6
BYBLOCK
100
AcDbText
 10
-14.785714
 20
32.625
 30
0.0
 40
1.5
  1
%%P0.5
100
AcDbText
  0
TEXT
  5
16B
330
127
100
AcDbEntity
  8
MO_001_VIEW_PV
  6
BYBLOCK
100
AcDbText
 10
-20.571429
 20
30.75
 30
0.0
 40
3.0
  1
30
100
AcDbText
  0
LINE
  5
16C
330
127
100
AcDbEntity
  8
MO_001_VIEW_PV
  6
BYBLOCK
100
AcDbLine
 10
-30.0
 20
30.0
 30
0.0
 11
0.0
 21
30.0
 31
0.0
  0
SOLID
  5
16D
330
127
100
AcDbEntity
  8
MO_001_VIEW_PV
  6
BYBLOCK
100
AcDbTrace
 10
-26.68174
 20
30.583512
 30
0.0
 11
-29.49199999999999
 21
30.0
 31
0.0
 12
-26.68174
 22
29.416488
 32
0.0
 13
-26.68174
 23
29.416488
 33
0.0
  0
SOLID
  5
16E
330
127
100
AcDbEntity
  8
MO_001_VIEW_PV
  6
BYBLOCK
100
AcDbTrace
 10
-3.318259999999999
 20
29.416488
 30
0.0
 11
-0.508
 21
30.0
 31
0.0
 12
-3.318259999999999
 22
30.583512
 32
0.0
 13
-3.318259999999999
 23
30.583512
 33
0.0
  0
LINE
  5
16F
330
127
100
AcDbEntity
  8
MO_001_VIEW_PV
  6
BYBLOCK
100
AcDbLine
 10
-30.0
 20
8.5
 30
0.0
 11
-30.0
 21
32.28599899999999
 31
0.0
  0
LINE
  5
170
330
127
100
AcDbEntity
  8
MO_001_VIEW_PV
  6
BYBLOCK
100
AcDbLine
 10
0.0
 20
7.5
 30
0.0
 11
0.0
 21
32.28599899999999
 31
0.0
  0
ENDBLK
  5
171
330
127
100
AcDbEntity
  8
0
100
AcDbBlockEnd
  0
BLOCK
  5
172
330
129
100
AcDbEntity
  8
0
100
AcDbBlockBegin
  2
*D3
 70
     1
 10
0.0
 20
0.0
 30
0.0
  3
*D3
  1

  0
TEXT
  5
173
330
129
100
AcDbEntity
  8
MO_001_VIEW_PV
  6
BYBLOCK
100
AcDbText
 10
4.928570999999999
 20
30.75
 30
0.0
 40
3.0
  1
(0.6)
100
AcDbText
  0
LINE
  5
174
330
129
100
AcDbEntity
  8
MO_001_VIEW_PV
  6
BYBLOCK
100
AcDbLine
 10
0.0
 20
30.0
 30
0.0
 11
0.6
 21
30.0
 31
0.0
  0
LINE
  5
175
330
129
100
AcDbEntity
  8
MO_001_VIEW_PV
  6
BYBLOCK
100
AcDbLine
 10
0.0
 20
30.0
 30
0.0
 11
-6.349999999999999
 21
30.0
 31
0.0
  0
LINE
  5
176
330
129
100
AcDbEntity
  8
MO_001_VIEW_PV
  6
BYBLOCK
100
AcDbLine
 10
0.6
 20
30.0
 30
0.0
 11
6.95
 21
30.0
 31
0.0
  0
SOLID
  5
177
330
129
100
AcDbEntity
  8
MO_001_VIEW_PV
  6
BYBLOCK
100
AcDbTrace
 10
-3.318259999999999
 20
29.416488
 30
0.0
 11
-0.508
 21
30.0
 31
0.0
 12
-3.318259999999999
 22
30.583512
 32
0.0
 13
-3.318259999999999
 23
30.583512
 33
0.0
  0
SOLID
  5
178
330
129
100
AcDbEntity
  8
MO_001_VIEW_PV
  6
BYBLOCK
100
AcDbTrace
 10
3.918261
 20
30.583512
 30
0.0
 11
1.107999999999999
 21
30.0
 31
0.0
 12
3.918261
 22
29.416488
 32
0.0
 13
3.918261
 23
29.416488
 33
0.0
  0
LINE
  5
179
330
129
100
AcDbEntity
  8
MO_001_VIEW_PV
  6
BYBLOCK
100
AcDbLine
 10
0.0
 20
7.5
 30
0.0
 11
0.0
 21
32.28599899999999
 31
0.0
  0
LINE
  5
17A
330
129
100
AcDbEntity
  8
MO_001_VIEW_PV
  6
BYBLOCK
100
AcDbLine
 10
0.6
 20
2.5
 30
0.0
 11
0.6
 21
32.28599899999999
 31
0.0
  0
LINE
  5
17B
330
129
100
AcDbEntity
  8
MO_001_VIEW_PV
  6
BYBLOCK
100
AcDbLine
 10
0.6
 20
30.0
 30
0.0
 11
20.035715
 21
30.0
 31
0.0
  0
ENDBLK
  5
17C
330
129
100
AcDbEntity
  8
0
100
AcDbBlockEnd
  0
BLOCK
  5
17D
330
12B
100
AcDbEntity
  8
0
100
AcDbBlockBegin
  2
*D4
 70
     1
 10
0.0
 20
0.0
 30
0.0
  3
*D4
  1

  0
TEXT
  5
17E
330
12B
100
AcDbEntity
  8
MO_001_VIEW_PV
  6
BYBLOCK
100
AcDbText
 10
-47.78571399999999
 20
32.625
 30
0.0
 40
1.5
  1
%%P0.3
100
AcDbText
  0
TEXT
  5
17F
330
12B
100
AcDbEntity
  8
MO_001_VIEW_PV
  6
BYBLOCK
100
AcDbText
 10
-53.571429
 20
30.75
 30
0.0
 40
3.0
  1
10
100
AcDbText
  0
LINE
  5
180
330
12B
100
AcDbEntity
  8
MO_001_VIEW_PV
  6
BYBLOCK
100
AcDbLine
 10
-40.0
 20
30.0
 30
0.0
 11
-30.0
 21
30.0
 31
0.0
  0
SOLID
  5
181
330
12B
100
AcDbEntity
  8
MO_001_VIEW_PV
  6
BYBLOCK
100
AcDbTrace
 10
-36.68174
 20
30.583512
 30
0.0
 11
-39.49199999999999
 21
30.0
 31
0.0
 12
-36.68174
 22
29.416488
 32
0.0
 13
-36.68174
 23
29.416488
 33
0.0
  0
SOLID
  5
182
330
12B
100
AcDbEntity
  8
MO_001_VIEW_PV
  6
BYBLOCK
100
AcDbTrace
 10
-33.31825999999999
 20
29.416488
 30
0.0
 11
-30.508
 21
30.0
 31
0.0
 12
-33.31825999999999
 22
30.583512
 32
0.0
 13
-33.31825999999999
 23
30.583512
 33
0.0
  0
LINE
  5
183
330
12B
100
AcDbEntity
  8
MO_001_VIEW_PV
  6
BYBLOCK
100
AcDbLine
 10
-40.0
 20
3.300001
 30
0.0
 11
-40.0
 21
32.28599899999999
 31
0.0
  0
LINE
  5
184
330
12B
100
AcDbEntity
  8
MO_001_VIEW_PV
  6
BYBLOCK
100
AcDbLine
 10
-30.0
 20
8.5
 30
0.0
 11
-30.0
 21
32.28599899999999
 31
0.0
  0
LINE
  5
185
330
12B
100
AcDbEntity
  8
MO_001_VIEW_PV
  6
BYBLOCK
100
AcDbLine
 10
-54.535713
 20
30.0
 30
0.0
 11
-40.0
 21
30.0
 31
0.0
  0
ENDBLK
  5
186
330
12B
100
AcDbEntity
  8
0
100
AcDbBlockEnd
  0
BLOCK
  5
187
330
12D
100
AcDbEntity
  8
0
100
AcDbBlockBegin
  2
*D5
 70
     1
 10
0.0
 20
0.0
 30
0.0
  3
*D5
  1

  0
LINE
  5
188
330
12D
100
AcDbEntity
  8
MO_001_VIEW_PV
  6
BYBLOCK
100
AcDbLine
 10
-12.0
 20
-33.0
 30
0.0
 11
-8.535897999999999
 21
-26.99999899999999
 31
0.0
  0
SOLID
  5
189
330
12D
100
AcDbEntity
  8
MO_001_VIEW_PV
  6
BYBLOCK
100
AcDbTrace
 10
-10.846206
 20
-29.834546
 30
0.0
 11
-11.74599999999999
 21
-32.560059
 31
0.0
 12
-9.835533999999999
 22
-30.418058
 32
0.0
 13
-9.835533999999999
 23
-30.418058
 33
0.0
  0
LINE
  5
18A
330
12D
100
AcDbEntity
  8
MO_001_VIEW_PV
  6
BYBLOCK
100
AcDbLine
 10
-8.535897999999999
 20
-27.0
 30
0.0
 11
5.835153
 21
-27.0
 31
0.0
  0
LINE
  5
18B
330
12D
100
AcDbEntity
  8
MO_001_VIEW_PV
  6
BYBLOCK
100
AcDbLine
 10
-18.0
 20
-33.0
 30
0.0
 11
-6.0
 21
-33.0
 31
0.0
  0
SOLID
  5
18C
330
12D
100
AcDbEntity
  8
MO_001_VIEW_PV
  6
BYBLOCK
100
AcDbTrace
 10
-14.68174
 20
-32.416488
 30
0.0
 11
-17.492
 21
-33.0
 31
0.0
 12
-14.68174
 22
-33.58351199999999
 32
0.0
 13
-14.68174
 23
-33.58351199999999
 33
0.0
  0
SOLID
  5
18D
330
12D
100
AcDbEntity
  8
MO_001_VIEW_PV
  6
BYBLOCK
100
AcDbTrace
 10
-9.31826
 20
-33.58351199999999
 30
0.0
 11
-6.507999999999999
 21
-33.0
 31
0.0
 12
-9.31826
 22
-32.416488
 32
0.0
 13
-9.31826
 23
-32.416488
 33
0.0
  0
LINE
  5
18E
330
12D
100
AcDbEntity
  8
MO_001_VIEW_PV
  6
BYBLOCK
100
AcDbLine
 10
-18.0
 20
-52.5
 30
0.0
 11
-18.0
 21
-30.71400099999999
 31
0.0
  0
LINE
  5
18F
330
12D
100
AcDbEntity
  8
MO_001_VIEW_PV
  6
BYBLOCK
100
AcDbLine
 10
-6.0
 20
-44.5
 30
0.0
 11
-6.0
 21
-30.71400099999999
 31
0.0
  0
TEXT
  5
190
330
12D
100
AcDbEntity
  8
MO_001_VIEW_PV
  6
BYBLOCK
100
AcDbText
 10
-0.4862760000000001
 20
-24.375
 30
0.0
 40
1.5
  1
%%P0.2
100
AcDbText
  0
TEXT
  5
191
330
12D
100
AcDbEntity
  8
MO_001_VIEW_PV
  6
BYBLOCK
100
AcDbText
 10
-6.271989999999999
 20
-26.25
 30
0.0
 40
3.0
  1
12
100
AcDbText
  0
ENDBLK
  5
192
330
12D
100
AcDbEntity
  8
0
100
AcDbBlockEnd
  0
BLOCK
  5
193
330
12F
100
AcDbEntity
  8
0
100
AcDbBlockBegin
  2
*D6
 70
     1
 10
0.0
 20
0.0
 30
0.0
  3
*D6
  1

  0
LINE
  5
194
330
12F
100
AcDbEntity
  8
MO_001_VIEW_PV
  6
BYBLOCK
100
AcDbLine
 10
-37.0
 20
-33.0
 30
0.0
 11
-18.0
 21
-33.0
 31
0.0
  0
SOLID
  5
195
330
12F
100
AcDbEntity
  8
MO_001_VIEW_PV
  6
BYBLOCK
100
AcDbTrace
 10
-33.68174
 20
-32.416488
 30
0.0
 11
-36.49199999999999
 21
-33.0
 31
0.0
 12
-33.68174
 22
-33.58351199999999
 32
0.0
 13
-33.68174
 23
-33.58351199999999
 33
0.0
  0
SOLID
  5
196
330
12F
100
AcDbEntity
  8
MO_001_VIEW_PV
  6
BYBLOCK
100
AcDbTrace
 10
-21.31826
 20
-33.58351199999999
 30
0.0
 11
-18.50799999999999
 21
-33.0
 31
0.0
 12
-21.31826
 22
-32.416488
 32
0.0
 13
-21.31826
 23
-32.416488
 33
0.0
  0
LINE
  5
197
330
12F
100
AcDbEntity
  8
MO_001_VIEW_PV
  6
BYBLOCK
100
AcDbLine
 10
-37.0
 20
-48.671417
 30
0.0
 11
-37.0
 21
-30.71400099999999
 31
0.0
  0
LINE
  5
198
330
12F
100
AcDbEntity
  8
MO_001_VIEW_PV
  6
BYBLOCK
100
AcDbLine
 10
-18.0
 20
-52.5
 30
0.0
 11
-18.0
 21
-30.71400099999999
 31
0.0
  0
TEXT
  5
199
330
12F
100
AcDbEntity
  8
MO_001_VIEW_PV
  6
BYBLOCK
100
AcDbText
 10
-27.285714
 20
-30.375
 30
0.0
 40
1.5
  1
%%P0.5
100
AcDbText
  0
TEXT
  5
19A
330
12F
100
AcDbEntity
  8
MO_001_VIEW_PV
  6
BYBLOCK
100
AcDbText
 10
-33.07142899999999
 20
-32.25
 30
0.0
 40
3.0
  1
19
100
AcDbText
  0
ENDBLK
  5
19B
330
12F
100
AcDbEntity
  8
0
100
AcDbBlockEnd
  0
BLOCK
  5
19C
330
131
100
AcDbEntity
  8
0
100
AcDbBlockBegin
  2
*D7
 70
     1
 10
0.0
 20
0.0
 30
0.0
  3
*D7
  1

  0
LINE
  5
19D
330
131
100
AcDbEntity
  8
MO_001_VIEW_PV
  6
BYBLOCK
100
AcDbLine
 10
-6.0
 20
-33.0
 30
0.0
 11
0.0
 21
-33.0
 31
0.0
  0
LINE
  5
19E
330
131
100
AcDbEntity
  8
MO_001_VIEW_PV
  6
BYBLOCK
100
AcDbLine
 10
-6.0
 20
-33.0
 30
0.0
 11
-12.35
 21
-33.0
 31
0.0
  0
LINE
  5
19F
330
131
100
AcDbEntity
  8
MO_001_VIEW_PV
  6
BYBLOCK
100
AcDbLine
 10
0.0
 20
-33.0
 30
0.0
 11
6.349999999999999
 21
-33.0
 31
0.0
  0
SOLID
  5
1A0
330
131
100
AcDbEntity
  8
MO_001_VIEW_PV
  6
BYBLOCK
100
AcDbTrace
 10
-9.31826
 20
-33.58351199999999
 30
0.0
 11
-6.507999999999999
 21
-33.0
 31
0.0
 12
-9.31826
 22
-32.416488
 32
0.0
 13
-9.31826
 23
-32.416488
 33
0.0
  0
SOLID
  5
1A1
330
131
100
AcDbEntity
  8
MO_001_VIEW_PV
  6
BYBLOCK
100
AcDbTrace
 10
3.318259999999999
 20
-32.416488
 30
0.0
 11
0.508
 21
-33.0
 31
0.0
 12
3.318259999999999
 22
-33.58351199999999
 32
0.0
 13
3.318259999999999
 23
-33.58351199999999
 33
0.0
  0
LINE
  5
1A2
330
131
100
AcDbEntity
  8
MO_001_VIEW_PV
  6
BYBLOCK
100
AcDbLine
 10
-6.0
 20
-44.5
 30
0.0
 11
-6.0
 21
-30.71400099999999
 31
0.0
  0
LINE
  5
1A3
330
131
100
AcDbEntity
  8
MO_001_VIEW_PV
  6
BYBLOCK
100
AcDbLine
 10
0.0
 20
-43.5
 30
0.0
 11
0.0
 21
-30.71400099999999
 31
0.0
  0
TEXT
  5
1A4
330
131
100
AcDbEntity
  8
MO_001_VIEW_PV
  6
BYBLOCK
100
AcDbText
 10
7.714286
 20
-30.375
 30
0.0
 40
1.5
  1
%%P0.2
100
AcDbText
  0
TEXT
  5
1A5
330
131
100
AcDbEntity
  8
MO_001_VIEW_PV
  6
BYBLOCK
100
AcDbText
 10
4.928570999999999
 20
-32.25
 30
0.0
 40
3.0
  1
6
100
AcDbText
  0
LINE
  5
1A6
330
131
100
AcDbEntity
  8
MO_001_VIEW_PV
  6
BYBLOCK
100
AcDbLine
 10
0.0
 20
-33.0
 30
0.0
 11
14.035714
 21
-33.0
 31
0.0
  0
ENDBLK
  5
1A7
330
131
100
AcDbEntity
  8
0
100
AcDbBlockEnd
  0
BLOCK
  5
1A8
330
133
100
AcDbEntity
  8
0
100
AcDbBlockBegin
  2
*D8
 70
     1
 10
0.0
 20
0.0
 30
0.0
  3
*D8
  1

  0
LINE
  5
1A9
330
133
100
AcDbEntity
  8
MO_001_VIEW_PV
  6
BYBLOCK
100
AcDbLine
 10
12.0
 20
-47.0
 30
0.0
 11
12.0
 21
-55.0
 31
0.0
  0
LINE
  5
1AA
330
133
100
AcDbEntity
  8
MO_001_VIEW_PV
  6
BYBLOCK
100
AcDbLine
 10
12.0
 20
-47.0
 30
0.0
 11
12.0
 21
-40.65
 31
0.0
  0
LINE
  5
1AB
330
133
100
AcDbEntity
  8
MO_001_VIEW_PV
  6
BYBLOCK
100
AcDbLine
 10
12.0
 20
-55.0
 30
0.0
 11
12.0
 21
-61.35
 31
0.0
  0
SOLID
  5
1AC
330
133
100
AcDbEntity
  8
MO_001_VIEW_PV
  6
BYBLOCK
100
AcDbTrace
 10
11.416488
 20
-43.68174
 30
0.0
 11
12.0
 21
-46.49199999999999
 31
0.0
 12
12.58351199999999
 22
-43.68174
 32
0.0
 13
12.58351199999999
 23
-43.68174
 33
0.0
  0
SOLID
  5
1AD
330
133
100
AcDbEntity
  8
MO_001_VIEW_PV
  6
BYBLOCK
100
AcDbTrace
 10
12.58351199999999
 20
-58.31825999999999
 30
0.0
 11
12.0
 21
-55.508
 31
0.0
 12
11.416488
 22
-58.31825999999999
 32
0.0
 13
11.416488
 23
-58.31825999999999
 33
0.0
  0
LINE
  5
1AE
330
133
100
AcDbEntity
  8
MO_001_VIEW_PV
  6
BYBLOCK
100
AcDbLine
 10
-3.5
 20
-47.0
 30
0.0
 11
14.286
 21
-47.0
 31
0.0
  0
LINE
  5
1AF
330
133
100
AcDbEntity
  8
MO_001_VIEW_PV
  6
BYBLOCK
100
AcDbLine
 10
-15.5
 20
-55.0
 30
0.0
 11
14.286
 21
-55.0
 31
0.0
  0
TEXT
  5
1B0
330
133
100
AcDbEntity
  8
MO_001_VIEW_PV
  6
BYBLOCK
100
AcDbText
 10
5.999998999999999
 20
-42.16728699999999
 30
0.0
 40
1.5
  1
%%P0.2
 50
90.0
100
AcDbText
  0
TEXT
  5
1B1
330
133
100
AcDbEntity
  8
MO_001_VIEW_PV
  6
BYBLOCK
100
AcDbText
 10
9.0
 20
-44.953001
 30
0.0
 40
3.0
  1
8
 50
90.0
100
AcDbText
  0
LINE
  5
1B2
330
133
100
AcDbEntity
  8
MO_001_VIEW_PV
  6
BYBLOCK
100
AcDbLine
 10
12.0
 20
-35.845856
 30
0.0
 11
12.0
 21
-47.0
 31
0.0
  0
ENDBLK
  5
1B3
330
133
100
AcDbEntity
  8
0
100
AcDbBlockEnd
  0
BLOCK
  5
1B4
330
135
100
AcDbEntity
  8
0
100
AcDbBlockBegin
  2
*D9
 70
     1
 10
0.0
 20
0.0
 30
0.0
  3
*D9
  1

  0
TEXT
  5
1B5
330
135
100
AcDbEntity
  8
MO_001_VIEW_PV
  6
BYBLOCK
100
AcDbText
 10
23.25
 20
-24.59065799999999
 30
0.0
 40
3.0
  1
t1.2
 50
90.0
100
AcDbText
  0
LINE
  5
1B6
330
135
100
AcDbEntity
  8
MO_001_VIEW_PV
  6
BYBLOCK
100
AcDbLine
 10
24.0
 20
-8.5
 30
0.0
 11
24.0
 21
-7.300003
 31
0.0
  0
LINE
  5
1B7
330
135
100
AcDbEntity
  8
MO_001_VIEW_PV
  6
BYBLOCK
100
AcDbLine
 10
24.0
 20
-8.5
 30
0.0
 11
24.0
 21
-14.85
 31
0.0
  0
LINE
  5
1B8
330
135
100
AcDbEntity
  8
MO_001_VIEW_PV
  6
BYBLOCK
100
AcDbLine
 10
24.0
 20
-7.300003
 30
0.0
 11
24.0
 21
-0.950003
 31
0.0
  0
SOLID
  5
1B9
330
135
100
AcDbEntity
  8
MO_001_VIEW_PV
  6
BYBLOCK
100
AcDbTrace
 10
24.583512
 20
-11.81826
 30
0.0
 11
24.0
 21
-9.007999999999999
 31
0.0
 12
23.416488
 22
-11.81826
 32
0.0
 13
23.416488
 23
-11.81826
 33
0.0
  0
SOLID
  5
1BA
330
135
100
AcDbEntity
  8
MO_001_VIEW_PV
  6
BYBLOCK
100
AcDbTrace
 10
23.416488
 20
-3.981742999999999
 30
0.0
 11
24.0
 21
-6.792003
 31
0.0
 12
24.583512
 22
-3.981742999999999
 32
0.0
 13
24.583512
 23
-3.981742999999999
 33
0.0
  0
LINE
  5
1BB
330
135
100
AcDbEntity
  8
MO_001_VIEW_PV
  6
BYBLOCK
100
AcDbLine
 10
-1.0
 20
-8.5
 30
0.0
 11
26.285999
 21
-8.5
 31
0.0
  0
LINE
  5
1BC
330
135
100
AcDbEntity
  8
MO_001_VIEW_PV
  6
BYBLOCK
100
AcDbLine
 10
-1.5
 20
-7.300003
 30
0.0
 11
26.285999
 21
-7.300003
 31
0.0
  0
LINE
  5
1BD
330
135
100
AcDbEntity
  8
MO_001_VIEW_PV
  6
BYBLOCK
100
AcDbLine
 10
24.0
 20
-25.554945
 30
0.0
 11
24.0
 21
-8.5
 31
0.0
  0
ENDBLK
  5
1BE
330
135
100
AcDbEntity
  8
0
100
AcDbBlockEnd
  0
BLOCK
  5
1BF
330
137
100
AcDbEntity
  8
0
100
AcDbBlockBegin
  2
*D10
 70
     1
 10
0.0
 20
0.0
 30
0.0
  3
*D10
  1

  0
TEXT
  5
1C0
330
137
100
AcDbEntity
  8
MO_001_VIEW_PV
  6
BYBLOCK
100
AcDbText
 10
-25.285714
 20
-15.375
 30
0.0
 40
1.5
  1
%%P0.2
100
AcDbText
  0
TEXT
  5
1C1
330
137
100
AcDbEntity
  8
MO_001_VIEW_PV
  6
BYBLOCK
100
AcDbText
 10
-28.071429
 20
-17.25
 30
0.0
 40
3.0
  1
7
100
AcDbText
  0
LINE
  5
1C2
330
137
100
AcDbEntity
  8
MO_001_VIEW_PV
  6
BYBLOCK
100
AcDbLine
 10
-33.0
 20
-18.0
 30
0.0
 11
-40.0
 21
-18.0
 31
0.0
  0
LINE
  5
1C3
330
137
100
AcDbEntity
  8
MO_001_VIEW_PV
  6
BYBLOCK
100
AcDbLine
 10
-33.0
 20
-18.0
 30
0.0
 11
-26.65
 21
-18.0
 31
0.0
  0
LINE
  5
1C4
330
137
100
AcDbEntity
  8
MO_001_VIEW_PV
  6
BYBLOCK
100
AcDbLine
 10
-40.0
 20
-18.0
 30
0.0
 11
-46.35
 21
-18.0
 31
0.0
  0
SOLID
  5
1C5
330
137
100
AcDbEntity
  8
MO_001_VIEW_PV
  6
BYBLOCK
100
AcDbTrace
 10
-29.68174
 20
-17.416488
 30
0.0
 11
-32.492
 21
-18.0
 31
0.0
 12
-29.68174
 22
-18.58351199999999
 32
0.0
 13
-29.68174
 23
-18.58351199999999
 33
0.0
  0
SOLID
  5
1C6
330
137
100
AcDbEntity
  8
MO_001_VIEW_PV
  6
BYBLOCK
100
AcDbTrace
 10
-43.31825999999999
 20
-18.58351199999999
 30
0.0
 11
-40.508
 21
-18.0
 31
0.0
 12
-43.31825999999999
 22
-17.416488
 32
0.0
 13
-43.31825999999999
 23
-17.416488
 33
0.0
  0
LINE
  5
1C7
330
137
100
AcDbEntity
  8
MO_001_VIEW_PV
  6
BYBLOCK
100
AcDbLine
 10
-33.0
 20
-1.0
 30
0.0
 11
-33.0
 21
-20.285999
 31
0.0
  0
LINE
  5
1C8
330
137
100
AcDbEntity
  8
MO_001_VIEW_PV
  6
BYBLOCK
100
AcDbLine
 10
-40.0
 20
-3.300001
 30
0.0
 11
-40.0
 21
-20.285999
 31
0.0
  0
LINE
  5
1C9
330
137
100
AcDbEntity
  8
MO_001_VIEW_PV
  6
BYBLOCK
100
AcDbLine
 10
-18.964285
 20
-18.0
 30
0.0
 11
-33.0
 21
-18.0
 31
0.0
  0
ENDBLK
  5
1CA
330
137
100
AcDbEntity
  8
0
100
AcDbBlockEnd
  0
BLOCK
  5
1CB
330
139
100
AcDbEntity
  8
0
100
AcDbBlockBegin
  2
*D11
 70
     1
 10
0.0
 20
0.0
 30
0.0
  3
*D11
  1

  0
TEXT
  5
1CC
330
139
100
AcDbEntity
  8
MO_001_VIEW_PV
  6
BYBLOCK
100
AcDbText
 10
4.102707999999999
 20
-74.25
 30
0.0
 40
3.0
  1
長さ250以上
100
AcDbText
  0
LINE
  5
1CD
330
139
100
AcDbEntity
  8
MO_001_VIEW_PV
  6
BYBLOCK
100
AcDbLine
 10
-3.651727999999999
 20
-75.0
 30
0.0
 11
32.0
 21
-75.0
 31
0.0
  0
SOLID
  5
1CE
330
139
100
AcDbEntity
  8
MO_001_VIEW_PV
  6
BYBLOCK
100
AcDbTrace
 10
-0.333468
 20
-74.416488
 30
0.0
 11
-3.143727999999999
 21
-75.0
 31
0.0
 12
-0.333468
 22
-75.583512
 32
0.0
 13
-0.333468
 23
-75.583512
 33
0.0
  0
SOLID
  5
1CF
330
139
100
AcDbEntity
  8
MO_001_VIEW_PV
  6
BYBLOCK
100
AcDbTrace
 10
28.68174
 20
-75.583512
 30
0.0
 11
31.49199999999999
 21
-75.0
 31
0.0
 12
28.68174
 22
-74.416488
 32
0.0
 13
28.68174
 23
-74.416488
 33
0.0
  0
LINE
  5
1D0
330
139
100
AcDbEntity
  8
MO_001_VIEW_PV
  6
BYBLOCK
100
AcDbLine
 10
-3.651727999999999
 20
-58.942635
 30
0.0
 11
-3.651727999999999
 21
-77.286003
 31
0.0
  0
LINE
  5
1D1
330
139
100
AcDbEntity
  8
MO_001_VIEW_PV
  6
BYBLOCK
100
AcDbLine
 10
32.0
 20
-65.74000500000001
 30
0.0
 11
32.0
 21
-77.286003
 31
0.0
  0
ENDBLK
  5
1D2
330
139
100
AcDbEntity
  8
0
100
AcDbBlockEnd
  0
BLOCK
  5
1D3
330
13B
100
AcDbEntity
  8
0
100
AcDbBlockBegin
  2
*D12
 70
     1
 10
0.0
 20
0.0
 30
0.0
  3
*D12
  1

  0
TEXT
  5
1D4
330
13B
100
AcDbEntity
  8
MO_001_VIEW_PV
  6
BYBLOCK
100
AcDbText
 10
-50.08024699999999
 20
26.625
 30
0.0
 40
1.5
  1
%%P0.2
100
AcDbText
  0
TEXT
  5
1D5
330
13B
100
AcDbEntity
  8
MO_001_VIEW_PV
  6
BYBLOCK
100
AcDbText
 10
-52.865961
 20
24.75
 30
0.0
 40
3.0
  1
3
100
AcDbText
  0
LINE
  5
1D6
330
13B
100
AcDbEntity
  8
MO_001_VIEW_PV
  6
BYBLOCK
100
AcDbLine
 10
-37.0
 20
24.0
 30
0.0
 11
-40.0
 21
24.0
 31
0.0
  0
LINE
  5
1D7
330
13B
100
AcDbEntity
  8
MO_001_VIEW_PV
  6
BYBLOCK
100
AcDbLine
 10
-37.0
 20
24.0
 30
0.0
 11
-30.64999999999999
 21
24.0
 31
0.0
  0
LINE
  5
1D8
330
13B
100
AcDbEntity
  8
MO_001_VIEW_PV
  6
BYBLOCK
100
AcDbLine
 10
-40.0
 20
24.0
 30
0.0
 11
-46.35
 21
24.0
 31
0.0
  0
SOLID
  5
1D9
330
13B
100
AcDbEntity
  8
MO_001_VIEW_PV
  6
BYBLOCK
100
AcDbTrace
 10
-33.68174
 20
24.583512
 30
0.0
 11
-36.49199999999999
 21
24.0
 31
0.0
 12
-33.68174
 22
23.416488
 32
0.0
 13
-33.68174
 23
23.416488
 33
0.0
  0
SOLID
  5
1DA
330
13B
100
AcDbEntity
  8
MO_001_VIEW_PV
  6
BYBLOCK
100
AcDbTrace
 10
-43.31825999999999
 20
23.416488
 30
0.0
 11
-40.508
 21
24.0
 31
0.0
 12
-43.31825999999999
 22
24.583512
 32
0.0
 13
-43.31825999999999
 23
24.583512
 33
0.0
  0
LINE
  5
1DB
330
13B
100
AcDbEntity
  8
MO_001_VIEW_PV
  6
BYBLOCK
100
AcDbLine
 10
-37.0
 20
5.5
 30
0.0
 11
-37.0
 21
26.285999
 31
0.0
  0
LINE
  5
1DC
330
13B
100
AcDbEntity
  8
MO_001_VIEW_PV
  6
BYBLOCK
100
AcDbLine
 10
-40.0
 20
3.300001
 30
0.0
 11
-40.0
 21
26.285999
 31
0.0
  0
LINE
  5
1DD
330
13B
100
AcDbEntity
  8
MO_001_VIEW_PV
  6
BYBLOCK
100
AcDbLine
 10
-40.0
 20
24.0
 30
0.0
 11
-53.83024599999999
 21
24.0
 31
0.0
  0
ENDBLK
  5
1DE
330
13B
100
AcDbEntity
  8
0
100
AcDbBlockEnd
  0
BLOCK
  5
1DF
330
13D
100
AcDbEntity
  8
0
100
AcDbBlockBegin
  2
*D13
 70
     1
 10
0.0
 20
0.0
 30
0.0
  3
*D13
  1

  0
TEXT
  5
1E0
330
13D
100
AcDbEntity
  8
MO_001_VIEW_PV
  6
BYBLOCK
100
AcDbText
 10
-47.625
 20
-10.91803499999999
 30
0.0
 40
1.5
  1
%%P0.1
 50
90.0
100
AcDbText
  0
TEXT
  5
1E1
330
13D
100
AcDbEntity
  8
MO_001_VIEW_PV
  6
BYBLOCK
100
AcDbText
 10
-45.75
 20
-13.70374899999999
 30
0.0
 40
3.0
  1
2
 50
90.0
100
AcDbText
  0
LINE
  5
1E2
330
13D
100
AcDbEntity
  8
MO_001_VIEW_PV
  6
BYBLOCK
100
AcDbLine
 10
-45.0
 20
-1.0
 30
0.0
 11
-45.0
 21
1.0
 31
0.0
  0
LINE
  5
1E3
330
13D
100
AcDbEntity
  8
MO_001_VIEW_PV
  6
BYBLOCK
100
AcDbLine
 10
-45.0
 20
-1.0
 30
0.0
 11
-45.0
 21
-7.349999999999999
 31
0.0
  0
LINE
  5
1E4
330
13D
100
AcDbEntity
  8
MO_001_VIEW_PV
  6
BYBLOCK
100
AcDbLine
 10
-45.0
 20
1.0
 30
0.0
 11
-45.0
 21
7.349999999999999
 31
0.0
  0
SOLID
  5
1E5
330
13D
100
AcDbEntity
  8
MO_001_VIEW_PV
  6
BYBLOCK
100
AcDbTrace
 10
-44.416488
 20
-4.318259999999999
 30
0.0
 11
-45.0
 21
-1.508
 31
0.0
 12
-45.58351199999999
 22
-4.318259999999999
 32
0.0
 13
-45.58351199999999
 23
-4.318259999999999
 33
0.0
  0
SOLID
  5
1E6
330
13D
100
AcDbEntity
  8
MO_001_VIEW_PV
  6
BYBLOCK
100
AcDbTrace
 10
-45.58351199999999
 20
4.318259999999999
 30
0.0
 11
-45.0
 21
1.508
 31
0.0
 12
-44.416488
 22
4.318259999999999
 32
0.0
 13
-44.416488
 23
4.318259999999999
 33
0.0
  0
LINE
  5
1E7
330
13D
100
AcDbEntity
  8
MO_001_VIEW_PV
  6
BYBLOCK
100
AcDbLine
 10
-40.0
 20
-1.0
 30
0.0
 11
-47.28599899999999
 21
-1.0
 31
0.0
  0
LINE
  5
1E8
330
13D
100
AcDbEntity
  8
MO_001_VIEW_PV
  6
BYBLOCK
100
AcDbLine
 10
-40.0
 20
1.0
 30
0.0
 11
-47.28599899999999
 21
1.0
 31
0.0
  0
LINE
  5
1E9
330
13D
100
AcDbEntity
  8
MO_001_VIEW_PV
  6
BYBLOCK
100
AcDbLine
 10
-45.0
 20
-14.668034
 30
0.0
 11
-45.0
 21
-1.0
 31
0.0
  0
ENDBLK
  5
1EA
330
13D
100
AcDbEntity
  8
0
100
AcDbBlockEnd
  0
BLOCK
  5
1EB
330
13F
100
AcDbEntity
  8
0
100
AcDbBlockBegin
  2
*D14
 70
     1
 10
0.0
 20
0.0
 30
0.0
  3
*D14
  1

  0
TEXT
  5
1EC
330
13F
100
AcDbEntity
  8
MO_001_VIEW_PV
  6
BYBLOCK
100
AcDbText
 10
-53.625
 20
-11.785714
 30
0.0
 40
1.5
  1
%%P0.1
 50
90.0
100
AcDbText
  0
TEXT
  5
1ED
330
13F
100
AcDbEntity
  8
MO_001_VIEW_PV
  6
BYBLOCK
100
AcDbText
 10
-51.75
 20
-17.571429
 30
0.0
 40
3.0
  1
%%C7
 50
90.0
100
AcDbText
  0
LINE
  5
1EE
330
13F
100
AcDbEntity
  8
MO_001_VIEW_PV
  6
BYBLOCK
100
AcDbLine
 10
-51.0
 20
-3.5
 30
0.0
 11
-51.0
 21
3.5
 31
0.0
  0
LINE
  5
1EF
330
13F
100
AcDbEntity
  8
MO_001_VIEW_PV
  6
BYBLOCK
100
AcDbLine
 10
-51.0
 20
-3.5
 30
0.0
 11
-51.0
 21
-9.849999999999999
 31
0.0
  0
LINE
  5
1F0
330
13F
100
AcDbEntity
  8
MO_001_VIEW_PV
  6
BYBLOCK
100
AcDbLine
 10
-51.0
 20
3.5
 30
0.0
 11
-51.0
 21
9.849999999999999
 31
0.0
  0
SOLID
  5
1F1
330
13F
100
AcDbEntity
  8
MO_001_VIEW_PV
  6
BYBLOCK
100
AcDbTrace
 10
-50.416488
 20
-6.81826
 30
0.0
 11
-51.0
 21
-4.008
 31
0.0
 12
-51.583512
 22
-6.81826
 32
0.0
 13
-51.583512
 23
-6.81826
 33
0.0
  0
SOLID
  5
1F2
330
13F
100
AcDbEntity
  8
MO_001_VIEW_PV
  6
BYBLOCK
100
AcDbTrace
 10
-51.583512
 20
6.81826
 30
0.0
 11
-51.0
 21
4.008
 31
0.0
 12
-50.416488
 22
6.81826
 32
0.0
 13
-50.416488
 23
6.81826
 33
0.0
  0
LINE
  5
1F3
330
13F
100
AcDbEntity
  8
MO_001_VIEW_PV
  6
BYBLOCK
100
AcDbLine
 10
-39.799999
 20
-3.5
 30
0.0
 11
-53.285999
 21
-3.5
 31
0.0
  0
LINE
  5
1F4
330
13F
100
AcDbEntity
  8
MO_001_VIEW_PV
  6
BYBLOCK
100
AcDbLine
 10
-39.799999
 20
3.5
 30
0.0
 11
-53.285999
 21
3.5
 31
0.0
  0
LINE
  5
1F5
330
13F
100
AcDbEntity
  8
MO_001_VIEW_PV
  6
BYBLOCK
100
AcDbLine
 10
-51.0
 20
-18.535713
 30
0.0
 11
-51.0
 21
-3.5
 31
0.0
  0
ENDBLK
  5
1F6
330
13F
100
AcDbEntity
  8
0
100
AcDbBlockEnd
  0
ENDSEC
  0
SECTION
  2
ENTITIES
  0
TEXT
  5
4B
330
1E
100
AcDbEntity
  8
OVERLAY_MAP
  6
C_SOLID_L
100
AcDbText
 10
0.0
 20
6.349999999999999
 30
0.0
 40
4.1672
  1
Model Overlay Name
100
AcDbText
  0
TEXT
  5
4C
330
1E
100
AcDbEntity
  8
OVERLAY_MAP
  6
C_SOLID_L
100
AcDbText
 10
126.999998
 20
0.0
 30
0.0
 40
4.1672
  1
Number
100
AcDbText
  0
TEXT
  5
4D
330
1E
100
AcDbEntity
  8
OVERLAY_MAP
  6
C_SOLID_L
100
AcDbText
 10
177.7999969999999
 20
0.0
 30
0.0
 40
4.1672
  1
File Text
100
AcDbText
  0
TEXT
  5
4E
330
1E
100
AcDbEntity
  8
OVERLAY_MAP
  6
C_SOLID_L
100
AcDbText
 10
0.0
 20
-6.349999999999999
 30
0.0
 40
4.1672
  1
sh1l-0730 
100
AcDbText
  0
TEXT
  5
4F
330
1E
100
AcDbEntity
  8
OVERLAY_MAP
  6
C_SOLID_L
100
AcDbText
 10
126.999998
 20
-6.349999999999999
 30
0.0
 40
4.1672
  1
001
100
AcDbText
  0
TEXT
  5
50
330
1E
100
AcDbEntity
  8
OVERLAY_MAP
  6
C_SOLID_L
100
AcDbText
 10
177.7999969999999
 20
-6.349999999999999
 30
0.0
 40
4.1672
  1
                                                                   00118
100
AcDbText
  0
POINT
  5
51
330
1E
100
AcDbEntity
  8
MO_001_VIEW_PV
  6
C_SOLID_M
100
AcDbPoint
 10
-18.0
 20
-55.0
 30
0.0
  0
LINE
  5
52
330
1E
100
AcDbEntity
  8
MO_001_VIEW_PV
  6
C_CENTER_L
100
AcDbLine
 10
-41.457211
 20
0.0
 30
0.0
 11
2.853591999999999
 21
0.0
 31
0.0
  0
LINE
  5
53
330
1E
100
AcDbEntity
  8
MO_001_VIEW_PV
  6
C_SOLID_M
100
AcDbLine
 10
0.0
 20
7.5
 30
0.0
 11
0.0
 21
-7.5
 31
0.0
  0
LINE
  5
54
330
1E
100
AcDbEntity
  8
MO_001_VIEW_PV
  6
C_SOLID_M
100
AcDbLine
 10
-30.0
 20
8.5
 30
0.0
 11
-30.0
 21
7.300003
 31
0.0
  0
LINE
  5
55
330
1E
100
AcDbEntity
  8
MO_001_VIEW_PV
  6
C_SOLID_M
100
AcDbLine
 10
-30.0
 20
7.300003
 30
0.0
 11
-1.5
 21
7.300003
 31
0.0
  0
LINE
  5
56
330
1E
100
AcDbEntity
  8
MO_001_VIEW_PV
  6
C_SOLID_M
100
AcDbLine
 10
-30.0
 20
8.5
 30
0.0
 11
-1.0
 21
8.5
 31
0.0
  0
ARC
  5
57
330
1E
100
AcDbEntity
  8
MO_001_VIEW_PV
  6
C_SOLID_M
100
AcDbCircle
 10
-1.0
 20
7.5
 30
0.0
 40
1.0
100
AcDbArc
 50
0.0
 51
89.99998900000001
  0
LINE
  5
58
330
1E
100
AcDbEntity
  8
MO_001_VIEW_PV
  6
C_SOLID_M
100
AcDbLine
 10
-2.0
 20
8.5
 30
0.0
 11
-2.0
 21
7.300003
 31
0.0
  0
LINE
  5
59
330
1E
100
AcDbEntity
  8
MO_001_VIEW_PV
  6
C_SOLID_M
100
AcDbLine
 10
0.0
 20
6.5
 30
0.0
 11
-1.199999999999999
 21
6.5
 31
0.0
  0
LINE
  5
5A
330
1E
100
AcDbEntity
  8
MO_001_VIEW_PV
  6
C_SOLID_M
100
AcDbLine
 10
-30.0
 20
-8.5
 30
0.0
 11
-30.0
 21
-7.300003
 31
0.0
  0
LINE
  5
5B
330
1E
100
AcDbEntity
  8
MO_001_VIEW_PV
  6
C_SOLID_M
100
AcDbLine
 10
-30.0
 20
-7.300003
 30
0.0
 11
-1.5
 21
-7.300003
 31
0.0
  0
LINE
  5
5C
330
1E
100
AcDbEntity
  8
MO_001_VIEW_PV
  6
C_SOLID_M
100
AcDbLine
 10
-30.0
 20
-8.5
 30
0.0
 11
-1.0
 21
-8.5
 31
0.0
  0
ARC
  5
5D
330
1E
100
AcDbEntity
  8
MO_001_VIEW_PV
  6
C_SOLID_M
100
AcDbCircle
 10
-1.0
 20
-7.5
 30
0.0
 40
1.0
100
AcDbArc
 50
270.0000109999999
 51
359.999996
  0
LINE
  5
5E
330
1E
100
AcDbEntity
  8
MO_001_VIEW_PV
  6
C_SOLID_M
100
AcDbLine
 10
-2.0
 20
-8.5
 30
0.0
 11
-2.0
 21
-7.300003
 31
0.0
  0
LINE
  5
5F
330
1E
100
AcDbEntity
  8
MO_001_VIEW_PV
  6
C_SOLID_M
100
AcDbLine
 10
0.0
 20
-6.5
 30
0.0
 11
-1.199999999999999
 21
-6.5
 31
0.0
  0
LINE
  5
60
330
1E
100
AcDbEntity
  8
MO_001_VIEW_PV
  6
C_CENTER_L
100
AcDbLine
 10
-6.0
 20
-8.975425999999998
 30
0.0
 11
-6.0
 21
-6.832519999999999
 31
0.0
  0
LINE
  5
61
330
1E
100
AcDbEntity
  8
MO_001_VIEW_PV
  6
C_CENTER_L
100
AcDbLine
 10
-18.0
 20
-9.221717999999999
 30
0.0
 11
-18.0
 21
-6.528617999999999
 31
0.0
  0
LINE
  5
62
330
1E
100
AcDbEntity
  8
MO_001_VIEW_PV
  6
C_SOLID_M
100
AcDbLine
 10
-19.5
 20
-7.741836999999999
 30
0.0
 11
-19.5
 21
-7.492569
 31
0.0
  0
LINE
  5
63
330
1E
100
AcDbEntity
  8
MO_001_VIEW_PV
  6
C_SOLID_M
100
AcDbLine
 10
-19.5
 20
-8.261146999999999
 30
0.0
 11
-19.5
 21
-8.011878999999998
 31
0.0
  0
LINE
  5
64
330
1E
100
AcDbEntity
  8
MO_001_VIEW_PV
  6
C_CENTER_L
100
AcDbLine
 10
-41.440125
 20
-51.0
 30
0.0
 11
1.707924
 21
-51.0
 31
0.0
  0
LINE
  5
65
330
1E
100
AcDbEntity
  8
MO_001_VIEW_PV
  6
C_SOLID_M
100
AcDbLine
 10
-1.199999999999999
 20
-58.5
 30
0.0
 11
0.0
 21
-58.5
 31
0.0
  0
LINE
  5
66
330
1E
100
AcDbEntity
  8
MO_001_VIEW_PV
  6
C_SOLID_M
100
AcDbLine
 10
-30.0
 20
-58.5
 30
0.0
 11
-30.0
 21
-54.529999
 31
0.0
  0
LINE
  5
67
330
1E
100
AcDbEntity
  8
MO_001_VIEW_PV
  6
C_SOLID_M
100
AcDbLine
 10
-30.0
 20
-54.529999
 30
0.0
 11
-27.700005
 21
-54.529999
 31
0.0
  0
LINE
  5
68
330
1E
100
AcDbEntity
  8
MO_001_VIEW_PV
  6
C_SOLID_M
100
AcDbLine
 10
-27.700007
 20
-54.530012
 30
0.0
 11
-28.000006
 21
-53.73001600000001
 31
0.0
  0
LINE
  5
69
330
1E
100
AcDbEntity
  8
MO_001_VIEW_PV
  6
C_SOLID_M
100
AcDbLine
 10
-1.199999999999999
 20
-58.5
 30
0.0
 11
-1.199999999999999
 21
-58.199997
 31
0.0
  0
LINE
  5
6A
330
1E
100
AcDbEntity
  8
MO_001_VIEW_PV
  6
C_SOLID_M
100
AcDbLine
 10
-2.0
 20
-58.199997
 30
0.0
 11
0.0
 21
-58.199997
 31
0.0
  0
LINE
  5
6B
330
1E
100
AcDbEntity
  8
MO_001_VIEW_PV
  6
C_SOLID_M
100
AcDbLine
 10
-2.0
 20
-58.5
 30
0.0
 11
-2.0
 21
-58.199997
 31
0.0
  0
LINE
  5
6C
330
1E
100
AcDbEntity
  8
MO_001_VIEW_PV
  6
C_SOLID_M
100
AcDbLine
 10
-30.0
 20
-58.5
 30
0.0
 11
-2.0
 21
-58.5
 31
0.0
  0
LINE
  5
6D
330
1E
100
AcDbEntity
  8
MO_001_VIEW_PV
  6
C_SOLID_M
100
AcDbLine
 10
0.0
 20
-43.5
 30
0.0
 11
0.0
 21
-58.5
 31
0.0
  0
LINE
  5
6E
330
1E
100
AcDbEntity
  8
MO_001_VIEW_PV
  6
C_SOLID_M
100
AcDbLine
 10
-1.199999999999999
 20
-43.5
 30
0.0
 11
0.0
 21
-43.5
 31
0.0
  0
LINE
  5
6F
330
1E
100
AcDbEntity
  8
MO_001_VIEW_PV
  6
C_SOLID_M
100
AcDbLine
 10
-30.0
 20
-43.5
 30
0.0
 11
-30.0
 21
-47.470001
 31
0.0
  0
LINE
  5
70
330
1E
100
AcDbEntity
  8
MO_001_VIEW_PV
  6
C_SOLID_M
100
AcDbLine
 10
-30.0
 20
-47.470001
 30
0.0
 11
-27.700001
 21
-47.470001
 31
0.0
  0
LINE
  5
71
330
1E
100
AcDbEntity
  8
MO_001_VIEW_PV
  6
C_SOLID_M
100
AcDbLine
 10
-28.0
 20
-47.470001
 30
0.0
 11
-28.0
 21
-54.529999
 31
0.0
  0
LINE
  5
72
330
1E
100
AcDbEntity
  8
MO_001_VIEW_PV
  6
C_SOLID_M
100
AcDbLine
 10
-27.69999799999999
 20
-47.469993
 30
0.0
 11
-27.99999699999999
 21
-48.269993
 31
0.0
  0
LINE
  5
73
330
1E
100
AcDbEntity
  8
MO_001_VIEW_PV
  6
C_SOLID_M
100
AcDbLine
 10
-1.199999999999999
 20
-43.5
 30
0.0
 11
-1.199999999999999
 21
-43.800003
 31
0.0
  0
LINE
  5
74
330
1E
100
AcDbEntity
  8
MO_001_VIEW_PV
  6
C_SOLID_M
100
AcDbLine
 10
-2.0
 20
-43.800003
 30
0.0
 11
0.0
 21
-43.800003
 31
0.0
  0
LINE
  5
75
330
1E
100
AcDbEntity
  8
MO_001_VIEW_PV
  6
C_SOLID_M
100
AcDbLine
 10
-2.0
 20
-43.5
 30
0.0
 11
-2.0
 21
-43.800003
 31
0.0
  0
LINE
  5
76
330
1E
100
AcDbEntity
  8
MO_001_VIEW_PV
  6
C_SOLID_M
100
AcDbLine
 10
-30.0
 20
-43.5
 30
0.0
 11
-2.0
 21
-43.5
 31
0.0
  0
LINE
  5
77
330
1E
100
AcDbEntity
  8
MO_001_VIEW_PV
  6
C_SOLID_M
100
AcDbLine
 10
-78.0
 20
-8.5
 30
0.0
 11
-70.5
 21
-8.5
 31
0.0
  0
LINE
  5
78
330
1E
100
AcDbEntity
  8
MO_001_VIEW_PV
  6
C_SOLID_M
100
AcDbLine
 10
-78.0
 20
-8.5
 30
0.0
 11
-85.5
 21
-8.5
 31
0.0
  0
LINE
  5
79
330
1E
100
AcDbEntity
  8
MO_001_VIEW_PV
  6
C_CENTER_L
100
AcDbLine
 10
-78.0
 20
10.0
 30
0.0
 11
-78.0
 21
-10.0
 31
0.0
  0
LINE
  5
7A
330
1E
100
AcDbEntity
  8
MO_001_VIEW_PV
  6
C_CENTER_L
100
AcDbLine
 10
-88.0
 20
0.0
 30
0.0
 11
-68.0
 21
0.0
 31
0.0
  0
LINE
  5
7B
330
1E
100
AcDbEntity
  8
MO_001_VIEW_PV
  6
C_SOLID_M
100
AcDbLine
 10
-85.5
 20
8.5
 30
0.0
 11
-70.5
 21
8.5
 31
0.0
  0
ARC
  5
7C
330
1E
100
AcDbEntity
  8
MO_001_VIEW_PV
  6
C_SOLID_M
100
AcDbCircle
 10
-1.5
 20
7.0
 30
0.0
 40
0.3
100
AcDbArc
 50
0.0
 51
89.99998900000001
  0
ARC
  5
7D
330
1E
100
AcDbEntity
  8
MO_001_VIEW_PV
  6
C_SOLID_M
100
AcDbCircle
 10
-1.5
 20
-7.0
 30
0.0
 40
0.3
100
AcDbArc
 50
269.999998
 51
0.000003
  0
CIRCLE
  5
7E
330
1E
100
AcDbEntity
  8
MO_001_VIEW_PV
  6
C_SOLID_L
100
AcDbCircle
 10
-6.0
 20
-47.0
 30
0.0
 40
1.5
  0
CIRCLE
  5
7F
330
1E
100
AcDbEntity
  8
MO_001_VIEW_PV
  6
C_SOLID_L
100
AcDbCircle
 10
-18.0
 20
-55.0
 30
0.0
 40
1.5
  0
CIRCLE
  5
80
330
1E
100
AcDbEntity
  8
MO_001_VIEW_PV
  6
C_SOLID_M
100
AcDbCircle
 10
-6.0
 20
-47.0
 30
0.0
 40
1.2295
  0
CIRCLE
  5
81
330
1E
100
AcDbEntity
  8
MO_001_VIEW_PV
  6
C_SOLID_M
100
AcDbCircle
 10
-18.0
 20
-55.0
 30
0.0
 40
1.2295
  0
LINE
  5
82
330
1E
100
AcDbEntity
  8
MO_001_VIEW_PV
  6
C_CENTER_L
100
AcDbLine
 10
-8.5
 20
-47.0
 30
0.0
 11
-3.5
 21
-47.0
 31
0.0
  0
LINE
  5
83
330
1E
100
AcDbEntity
  8
MO_001_VIEW_PV
  6
C_CENTER_L
100
AcDbLine
 10
-20.5
 20
-55.0
 30
0.0
 11
-15.5
 21
-55.0
 31
0.0
  0
LINE
  5
84
330
1E
100
AcDbEntity
  8
MO_001_VIEW_PV
  6
C_CENTER_L
100
AcDbLine
 10
-18.0
 20
-57.5
 30
0.0
 11
-18.0
 21
-52.5
 31
0.0
  0
LINE
  5
85
330
1E
100
AcDbEntity
  8
MO_001_VIEW_PV
  6
C_CENTER_L
100
AcDbLine
 10
-6.0
 20
-49.5
 30
0.0
 11
-6.0
 21
-44.5
 31
0.0
  0
LINE
  5
86
330
1E
100
AcDbEntity
  8
MO_001_VIEW_PV
  6
C_SOLID_M
100
AcDbLine
 10
-19.5
 20
-7.741836999999999
 30
0.0
 11
-19.5
 21
-7.492569
 31
0.0
  0
LINE
  5
87
330
1E
100
AcDbEntity
  8
MO_001_VIEW_PV
  6
C_SOLID_M
100
AcDbLine
 10
-19.5
 20
-8.261146999999999
 30
0.0
 11
-19.5
 21
-8.011878999999998
 31
0.0
  0
LINE
  5
88
330
1E
100
AcDbEntity
  8
MO_001_VIEW_PV
  6
C_SOLID_M
100
AcDbLine
 10
-19.2295
 20
-7.741836999999999
 30
0.0
 11
-19.2295
 21
-7.492569
 31
0.0
  0
LINE
  5
89
330
1E
100
AcDbEntity
  8
MO_001_VIEW_PV
  6
C_SOLID_M
100
AcDbLine
 10
-19.2295
 20
-8.261146999999999
 30
0.0
 11
-19.2295
 21
-8.011878999999998
 31
0.0
  0
LINE
  5
8A
330
1E
100
AcDbEntity
  8
MO_001_VIEW_PV
  6
C_SOLID_M
100
AcDbLine
 10
-16.77049999999999
 20
-7.741836999999999
 30
0.0
 11
-16.77049999999999
 21
-7.492569
 31
0.0
  0
LINE
  5
8B
330
1E
100
AcDbEntity
  8
MO_001_VIEW_PV
  6
C_SOLID_M
100
AcDbLine
 10
-16.77049999999999
 20
-8.261146999999999
 30
0.0
 11
-16.77049999999999
 21
-8.011878999999998
 31
0.0
  0
LINE
  5
8C
330
1E
100
AcDbEntity
  8
MO_001_VIEW_PV
  6
C_SOLID_M
100
AcDbLine
 10
-16.5
 20
-7.741836999999999
 30
0.0
 11
-16.5
 21
-7.492569
 31
0.0
  0
LINE
  5
8D
330
1E
100
AcDbEntity
  8
MO_001_VIEW_PV
  6
C_SOLID_M
100
AcDbLine
 10
-16.5
 20
-8.261146999999999
 30
0.0
 11
-16.5
 21
-8.011878999999998
 31
0.0
  0
LINE
  5
8E
330
1E
100
AcDbEntity
  8
MO_001_VIEW_PV
  6
C_SOLID_M
100
AcDbLine
 10
-7.5
 20
-7.741836999999999
 30
0.0
 11
-7.5
 21
-7.492569
 31
0.0
  0
LINE
  5
8F
330
1E
100
AcDbEntity
  8
MO_001_VIEW_PV
  6
C_SOLID_M
100
AcDbLine
 10
-7.5
 20
-8.261146999999999
 30
0.0
 11
-7.5
 21
-8.011878999999998
 31
0.0
  0
LINE
  5
90
330
1E
100
AcDbEntity
  8
MO_001_VIEW_PV
  6
C_SOLID_M
100
AcDbLine
 10
-7.229499999999999
 20
-8.261146999999999
 30
0.0
 11
-7.229499999999999
 21
-8.011878999999998
 31
0.0
  0
LINE
  5
91
330
1E
100
AcDbEntity
  8
MO_001_VIEW_PV
  6
C_SOLID_M
100
AcDbLine
 10
-7.229499999999999
 20
-7.741836999999999
 30
0.0
 11
-7.229499999999999
 21
-7.492569
 31
0.0
  0
LINE
  5
92
330
1E
100
AcDbEntity
  8
MO_001_VIEW_PV
  6
C_SOLID_M
100
AcDbLine
 10
-4.7705
 20
-7.741836999999999
 30
0.0
 11
-4.7705
 21
-7.492569
 31
0.0
  0
LINE
  5
93
330
1E
100
AcDbEntity
  8
MO_001_VIEW_PV
  6
C_SOLID_M
100
AcDbLine
 10
-4.7705
 20
-8.261146999999999
 30
0.0
 11
-4.7705
 21
-8.011878999999998
 31
0.0
  0
LINE
  5
94
330
1E
100
AcDbEntity
  8
MO_001_VIEW_PV
  6
C_SOLID_M
100
AcDbLine
 10
-4.5
 20
-8.261146999999999
 30
0.0
 11
-4.5
 21
-8.011878999999998
 31
0.0
  0
LINE
  5
95
330
1E
100
AcDbEntity
  8
MO_001_VIEW_PV
  6
C_SOLID_M
100
AcDbLine
 10
-4.5
 20
-7.741836999999999
 30
0.0
 11
-4.5
 21
-7.492569
 31
0.0
  0
LINE
  5
96
330
1E
100
AcDbEntity
  8
MO_001_VIEW_PV
  6
C_SOLID_M
100
AcDbLine
 10
-81.52999900000001
 20
8.5
 30
0.0
 11
-81.52999900000001
 21
7.300003
 31
0.0
  0
LINE
  5
97
330
1E
100
AcDbEntity
  8
MO_001_VIEW_PV
  6
C_SOLID_M
100
AcDbLine
 10
-74.470001
 20
8.5
 30
0.0
 11
-74.470001
 21
7.300003
 31
0.0
  0
LINE
  5
98
330
1E
100
AcDbEntity
  8
MO_001_VIEW_PV
  6
C_SOLID_M
100
AcDbLine
 10
-81.52999900000001
 20
-8.5
 30
0.0
 11
-81.52999900000001
 21
-7.300003
 31
0.0
  0
LINE
  5
99
330
1E
100
AcDbEntity
  8
MO_001_VIEW_PV
  6
C_SOLID_M
100
AcDbLine
 10
-74.470001
 20
-8.5
 30
0.0
 11
-74.470001
 21
-7.300003
 31
0.0
  0
LINE
  5
9A
330
1E
100
AcDbEntity
  8
MO_001_VIEW_PV
  6
C_SOLID_M
100
AcDbLine
 10
-85.5
 20
-7.299999999999999
 30
0.0
 11
-81.35000600000001
 21
-7.299999999999999
 31
0.0
  0
LINE
  5
9B
330
1E
100
AcDbEntity
  8
MO_001_VIEW_PV
  6
C_SOLID_M
100
AcDbLine
 10
-81.5
 20
-8.4
 30
0.0
 11
-74.5
 21
-8.4
 31
0.0
  0
LINE
  5
9C
330
1E
100
AcDbEntity
  8
MO_001_VIEW_PV
  6
C_SOLID_M
100
AcDbLine
 10
-81.49994599999999
 20
-8.400002
 30
0.0
 11
-81.349946
 21
-7.300002
 31
0.0
  0
LINE
  5
9D
330
1E
100
AcDbEntity
  8
MO_001_VIEW_PV
  6
C_SOLID_M
100
AcDbLine
 10
-85.5
 20
-8.5
 30
0.0
 11
-85.5
 21
8.5
 31
0.0
  0
LINE
  5
9E
330
1E
100
AcDbEntity
  8
MO_001_VIEW_PV
  6
C_SOLID_M
100
AcDbLine
 10
-85.5
 20
7.299999999999999
 30
0.0
 11
-81.35000600000001
 21
7.299999999999999
 31
0.0
  0
LINE
  5
9F
330
1E
100
AcDbEntity
  8
MO_001_VIEW_PV
  6
C_SOLID_M
100
AcDbLine
 10
-81.5
 20
8.4
 30
0.0
 11
-74.5
 21
8.4
 31
0.0
  0
LINE
  5
A0
330
1E
100
AcDbEntity
  8
MO_001_VIEW_PV
  6
C_SOLID_M
100
AcDbLine
 10
-81.49994599999999
 20
8.400002
 30
0.0
 11
-81.349946
 21
7.300002
 31
0.0
  0
LINE
  5
A1
330
1E
100
AcDbEntity
  8
MO_001_VIEW_PV
  6
C_SOLID_M
100
AcDbLine
 10
-70.5
 20
-7.299999999999999
 30
0.0
 11
-74.65000899999999
 21
-7.299999999999999
 31
0.0
  0
LINE
  5
A2
330
1E
100
AcDbEntity
  8
MO_001_VIEW_PV
  6
C_SOLID_M
100
AcDbLine
 10
-74.49994499999999
 20
-8.399992999999998
 30
0.0
 11
-74.649945
 21
-7.299992999999999
 31
0.0
  0
LINE
  5
A3
330
1E
100
AcDbEntity
  8
MO_001_VIEW_PV
  6
C_SOLID_M
100
AcDbLine
 10
-70.5
 20
-8.5
 30
0.0
 11
-70.5
 21
8.5
 31
0.0
  0
LINE
  5
A4
330
1E
100
AcDbEntity
  8
MO_001_VIEW_PV
  6
C_SOLID_M
100
AcDbLine
 10
-70.5
 20
7.299999999999999
 30
0.0
 11
-74.65000899999999
 21
7.299999999999999
 31
0.0
  0
LINE
  5
A5
330
1E
100
AcDbEntity
  8
MO_001_VIEW_PV
  6
C_SOLID_M
100
AcDbLine
 10
-74.49994499999999
 20
8.399992999999998
 30
0.0
 11
-74.649945
 21
7.299992999999999
 31
0.0
  0
CIRCLE
  5
A6
330
1E
100
AcDbEntity
  8
MO_001_VIEW_PV
  6
C_SOLID_M
100
AcDbCircle
 10
-78.0
 20
0.0
 30
0.0
 40
3.85
  0
LINE
  5
A7
330
1E
100
AcDbEntity
  8
MO_001_VIEW_PV
  6
C_SOLID_M
100
AcDbLine
 10
-29.0
 20
-47.470001
 30
0.0
 11
-29.0
 21
-54.529999
 31
0.0
  0
LINE
  5
A8
330
1E
100
AcDbEntity
  8
MO_001_VIEW_PV
  6
C_SOLID_M
100
AcDbLine
 10
-28.0
 20
7.300003
 30
0.0
 11
-28.0
 21
-7.300003
 31
0.0
  0
LINE
  5
A9
330
1E
100
AcDbEntity
  8
MO_001_VIEW_PV
  6
C_SOLID_M
100
AcDbLine
 10
-29.0
 20
7.300003
 30
0.0
 11
-29.0
 21
-7.300003
 31
0.0
  0
LINE
  5
AA
330
1E
100
AcDbEntity
  8
MO_001_VIEW_PV
  6
C_SOLID_M
100
AcDbLine
 10
-19.799999
 20
-7.25
 30
0.0
 11
-27.900002
 21
-7.25
 31
0.0
  0
LINE
  5
AB
330
1E
100
AcDbEntity
  8
MO_001_VIEW_PV
  6
C_SOLID_M
100
AcDbLine
 10
-27.900002
 20
7.25
 30
0.0
 11
-27.900002
 21
-7.25
 31
0.0
  0
LINE
  5
AC
330
1E
100
AcDbEntity
  8
MO_001_VIEW_PV
  6
C_SOLID_M
100
AcDbLine
 10
-19.799999
 20
7.25
 30
0.0
 11
-19.799999
 21
-7.25
 31
0.0
  0
LINE
  5
AD
330
1E
100
AcDbEntity
  8
MO_001_VIEW_PV
  6
C_SOLID_M
100
AcDbLine
 10
-1.199999999999999
 20
7.0
 30
0.0
 11
-1.199999999999999
 21
-6.950000999999999
 31
0.0
  0
LINE
  5
AE
330
1E
100
AcDbEntity
  8
MO_001_VIEW_PV
  6
C_SOLID_M
100
AcDbLine
 10
-1.5
 20
-7.25
 30
0.0
 11
-2.1
 21
-7.25
 31
0.0
  0
LINE
  5
AF
330
1E
100
AcDbEntity
  8
MO_001_VIEW_PV
  6
C_SOLID_M
100
AcDbLine
 10
-19.799999
 20
-4.599998
 30
0.0
 11
-20.29999899999999
 21
-4.599998
 31
0.0
  0
LINE
  5
B0
330
1E
100
AcDbEntity
  8
MO_001_VIEW_PV
  6
C_SOLID_M
100
AcDbLine
 10
-20.29999899999999
 20
-4.599998
 30
0.0
 11
-20.29999899999999
 21
-5.399998
 31
0.0
  0
LINE
  5
B1
330
1E
100
AcDbEntity
  8
MO_001_VIEW_PV
  6
C_SOLID_M
100
AcDbLine
 10
-20.29999899999999
 20
-5.399998
 30
0.0
 11
-19.799999
 21
-5.399998
 31
0.0
  0
LINE
  5
B2
330
1E
100
AcDbEntity
  8
MO_001_VIEW_PV
  6
C_SOLID_M
100
AcDbLine
 10
-19.799999
 20
7.25
 30
0.0
 11
-27.900002
 21
7.25
 31
0.0
  0
LINE
  5
B3
330
1E
100
AcDbEntity
  8
MO_001_VIEW_PV
  6
C_SOLID_M
100
AcDbLine
 10
-2.299999999999999
 20
-7.049999
 30
0.0
 11
-2.299999999999999
 21
7.049999
 31
0.0
  0
LINE
  5
B4
330
1E
100
AcDbEntity
  8
MO_001_VIEW_PV
  6
C_SOLID_M
100
AcDbLine
 10
-1.5
 20
7.25
 30
0.0
 11
-2.1
 21
7.25
 31
0.0
  0
ARC
  5
B5
330
1E
100
AcDbEntity
  8
MO_001_VIEW_PV
  6
C_SOLID_M
100
AcDbCircle
 10
-2.1
 20
-7.049999
 30
0.0
 40
0.2
100
AcDbArc
 50
180.000009
 51
269.999998
  0
ARC
  5
B6
330
1E
100
AcDbEntity
  8
MO_001_VIEW_PV
  6
C_SOLID_M
100
AcDbCircle
 10
-2.1
 20
7.049999
 30
0.0
 40
0.2
100
AcDbArc
 50
89.999996
 51
180.000005
  0
ARC
  5
B7
330
1E
100
AcDbEntity
  8
MO_001_VIEW_PV
  6
C_SOLID_M
100
AcDbCircle
 10
-1.5
 20
-6.950000999999999
 30
0.0
 40
0.3
100
AcDbArc
 50
269.999998
 51
0.00001
  0
ARC
  5
B8
330
1E
100
AcDbEntity
  8
MO_001_VIEW_PV
  6
C_SOLID_M
100
AcDbCircle
 10
-1.5
 20
6.950000999999999
 30
0.0
 40
0.3
100
AcDbArc
 50
0.0
 51
89.999996
  0
LINE
  5
B9
330
1E
100
AcDbEntity
  8
MO_001_VIEW_PV
  6
C_SOLID_M
100
AcDbLine
 10
-2.299999999999999
 20
6.590908999999999
 30
0.0
 11
-19.799999
 21
6.590908999999999
 31
0.0
  0
LINE
  5
BA
330
1E
100
AcDbEntity
  8
MO_001_VIEW_PV
  6
C_SOLID_M
100
AcDbLine
 10
-2.299999999999999
 20
-6.590908999999999
 30
0.0
 11
-19.799999
 21
-6.590908999999999
 31
0.0
  0
LINE
  5
BB
330
1E
100
AcDbEntity
  8
MO_001_VIEW_PV
  6
C_SOLID_M
100
AcDbLine
 10
0.6
 20
-2.5
 30
0.0
 11
0.0
 21
-2.5
 31
0.0
  0
LINE
  5
BC
330
1E
100
AcDbEntity
  8
MO_001_VIEW_PV
  6
C_SOLID_M
100
AcDbLine
 10
0.6
 20
2.5
 30
0.0
 11
0.6
 21
-2.5
 31
0.0
  0
LINE
  5
BD
330
1E
100
AcDbEntity
  8
MO_001_VIEW_PV
  6
C_SOLID_M
100
AcDbLine
 10
0.6
 20
2.5
 30
0.0
 11
0.0
 21
2.5
 31
0.0
  0
LINE
  5
BE
330
1E
100
AcDbEntity
  8
MO_001_VIEW_PV
  6
C_SOLID_M
100
AcDbLine
 10
0.6
 20
-53.5
 30
0.0
 11
0.0
 21
-53.5
 31
0.0
  0
LINE
  5
BF
330
1E
100
AcDbEntity
  8
MO_001_VIEW_PV
  6
C_SOLID_M
100
AcDbLine
 10
0.6
 20
-48.5
 30
0.0
 11
0.6
 21
-53.5
 31
0.0
  0
LINE
  5
C0
330
1E
100
AcDbEntity
  8
MO_001_VIEW_PV
  6
C_SOLID_M
100
AcDbLine
 10
0.6
 20
-48.5
 30
0.0
 11
0.0
 21
-48.5
 31
0.0
  0
LINE
  5
C1
330
1E
100
AcDbEntity
  8
MO_001_VIEW_PV
  6
C_SOLID_M
100
AcDbLine
 10
-40.0
 20
3.300001
 30
0.0
 11
-40.0
 21
1.0
 31
0.0
  0
LINE
  5
C2
330
1E
100
AcDbEntity
  8
MO_001_VIEW_PV
  6
C_SOLID_M
100
AcDbLine
 10
-29.0
 20
3.5
 30
0.0
 11
-35.75
 21
3.5
 31
0.0
  0
LINE
  5
C3
330
1E
100
AcDbEntity
  8
MO_001_VIEW_PV
  6
C_SOLID_M
100
AcDbLine
 10
-39.800005
 20
3.500001999999999
 30
0.0
 11
-40.00000599999999
 21
3.300002999999999
 31
0.0
  0
LINE
  5
C4
330
1E
100
AcDbEntity
  8
MO_001_VIEW_PV
  6
C_SOLID_M
100
AcDbLine
 10
-39.799999
 20
3.5
 30
0.0
 11
-39.799999
 21
1.0
 31
0.0
  0
LINE
  5
C5
330
1E
100
AcDbEntity
  8
MO_001_VIEW_PV
  6
C_SOLID_M
100
AcDbLine
 10
-33.0
 20
1.0
 30
0.0
 11
-33.0
 21
-1.0
 31
0.0
  0
LINE
  5
C6
330
1E
100
AcDbEntity
  8
MO_001_VIEW_PV
  6
C_SOLID_M
100
AcDbLine
 10
-33.0
 20
1.0
 30
0.0
 11
-40.0
 21
1.0
 31
0.0
  0
LINE
  5
C7
330
1E
100
AcDbEntity
  8
MO_001_VIEW_PV
  6
C_CENTER_L
100
AcDbLine
 10
-37.0
 20
5.5
 30
0.0
 11
-37.0
 21
-5.5
 31
0.0
  0
LINE
  5
C8
330
1E
100
AcDbEntity
  8
MO_001_VIEW_PV
  6
C_DASHED_M
100
AcDbLine
 10
-38.25
 20
3.5
 30
0.0
 11
-38.25
 21
1.0
 31
0.0
  0
LINE
  5
C9
330
1E
100
AcDbEntity
  8
MO_001_VIEW_PV
  6
C_DASHED_M
100
AcDbLine
 10
-35.75
 20
3.5
 30
0.0
 11
-35.75
 21
1.0
 31
0.0
  0
LINE
  5
CA
330
1E
100
AcDbEntity
  8
MO_001_VIEW_PV
  6
C_SOLID_M
100
AcDbLine
 10
-40.0
 20
-3.300001
 30
0.0
 11
-40.0
 21
-1.0
 31
0.0
  0
LINE
  5
CB
330
1E
100
AcDbEntity
  8
MO_001_VIEW_PV
  6
C_SOLID_M
100
AcDbLine
 10
-39.800007
 20
-3.500001
 30
0.0
 11
-40.000007
 21
-3.300001999999999
 31
0.0
  0
LINE
  5
CC
330
1E
100
AcDbEntity
  8
MO_001_VIEW_PV
  6
C_SOLID_M
100
AcDbLine
 10
-39.799999
 20
-3.5
 30
0.0
 11
-39.799999
 21
-1.0
 31
0.0
  0
LINE
  5
CD
330
1E
100
AcDbEntity
  8
MO_001_VIEW_PV
  6
C_SOLID_M
100
AcDbLine
 10
-33.0
 20
-1.0
 30
0.0
 11
-40.0
 21
-1.0
 31
0.0
  0
LINE
  5
CE
330
1E
100
AcDbEntity
  8
MO_001_VIEW_PV
  6
C_DASHED_M
100
AcDbLine
 10
-38.25
 20
-3.5
 30
0.0
 11
-38.25
 21
-1.0
 31
0.0
  0
LINE
  5
CF
330
1E
100
AcDbEntity
  8
MO_001_VIEW_PV
  6
C_DASHED_M
100
AcDbLine
 10
-35.75
 20
-3.5
 30
0.0
 11
-35.75
 21
-1.0
 31
0.0
  0
ARC
  5
D0
330
1E
100
AcDbEntity
  8
MO_001_VIEW_PV
  6
C_SOLID_M
100
AcDbCircle
 10
-78.0
 20
0.0
 30
0.0
 40
3.300001
100
AcDbArc
 50
17.63971
 51
162.3602899999999
  0
CIRCLE
  5
D1
330
1E
100
AcDbEntity
  8
MO_001_VIEW_PV
  6
C_SOLID_M
100
AcDbCircle
 10
-78.0
 20
0.0
 30
0.0
 40
3.5
  0
LINE
  5
D2
330
1E
100
AcDbEntity
  8
MO_001_VIEW_PV
  6
C_DASHED_M
100
AcDbLine
 10
-79.25
 20
-1.0
 30
0.0
 11
-79.25
 21
-3.054097
 31
0.0
  0
LINE
  5
D3
330
1E
100
AcDbEntity
  8
MO_001_VIEW_PV
  6
C_DASHED_M
100
AcDbLine
 10
-76.75
 20
-1.0
 30
0.0
 11
-76.75
 21
-3.054097
 31
0.0
  0
LINE
  5
D4
330
1E
100
AcDbEntity
  8
MO_001_VIEW_PV
  6
C_SOLID_M
100
AcDbLine
 10
-74.64590499999999
 20
-1.0
 30
0.0
 11
-81.354111
 21
-1.0
 31
0.0
  0
ARC
  5
D5
330
1E
100
AcDbEntity
  8
MO_001_VIEW_PV
  6
C_SOLID_M
100
AcDbCircle
 10
-78.0
 20
0.0
 30
0.0
 40
3.300001
100
AcDbArc
 50
197.6397099999999
 51
342.3602899999999
  0
LINE
  5
D6
330
1E
100
AcDbEntity
  8
MO_001_VIEW_PV
  6
C_DASHED_M
100
AcDbLine
 10
-76.75
 20
3.054097
 30
0.0
 11
-76.75
 21
1.0
 31
0.0
  0
LINE
  5
D7
330
1E
100
AcDbEntity
  8
MO_001_VIEW_PV
  6
C_DASHED_M
100
AcDbLine
 10
-79.25
 20
3.054097
 30
0.0
 11
-79.25
 21
1.0
 31
0.0
  0
LINE
  5
D8
330
1E
100
AcDbEntity
  8
MO_001_VIEW_PV
  6
C_SOLID_M
100
AcDbLine
 10
-74.64590499999999
 20
1.0
 30
0.0
 11
-81.354111
 21
1.0
 31
0.0
  0
ARC
  5
D9
330
1E
100
AcDbEntity
  8
MO_001_VIEW_PV
  6
C_SOLID_M
100
AcDbCircle
 10
-37.0
 20
5.029112
 30
0.0
 40
1.975015
100
AcDbArc
 50
230.735091
 51
309.2649009999999
  0
LINE
  5
DA
330
1E
100
AcDbEntity
  8
MO_001_VIEW_PV
  6
C_SOLID_M
100
AcDbLine
 10
-38.25
 20
3.5
 30
0.0
 11
-39.799999
 21
3.5
 31
0.0
  0
LINE
  5
DB
330
1E
100
AcDbEntity
  8
MO_001_VIEW_PV
  6
C_SOLID_M
100
AcDbLine
 10
-38.25
 20
-3.5
 30
0.0
 11
-39.799999
 21
-3.5
 31
0.0
  0
ARC
  5
DC
330
1E
100
AcDbEntity
  8
MO_001_VIEW_PV
  6
C_SOLID_M
100
AcDbCircle
 10
-37.0
 20
-5.029112
 30
0.0
 40
1.975015
100
AcDbArc
 50
50.735099
 51
129.264909
  0
LINE
  5
DD
330
1E
100
AcDbEntity
  8
MO_001_VIEW_PV
  6
C_SOLID_M
100
AcDbLine
 10
-29.0
 20
-3.5
 30
0.0
 11
-35.75
 21
-3.5
 31
0.0
  0
LINE
  5
DE
330
1E
100
AcDbEntity
  8
MO_001_VIEW_PV
  6
C_SOLID_M
100
AcDbLine
 10
-40.0
 20
-47.855164
 30
0.0
 11
-40.0
 21
-54.144836
 31
0.0
  0
LINE
  5
DF
330
1E
100
AcDbEntity
  8
MO_001_VIEW_PV
  6
C_SOLID_M
100
AcDbLine
 10
-39.799999
 20
-47.645897
 30
0.0
 11
-39.799999
 21
-54.354103
 31
0.0
  0
LINE
  5
E0
330
1E
100
AcDbEntity
  8
MO_001_VIEW_PV
  6
C_SOLID_M
100
AcDbLine
 10
-33.0
 20
-54.354103
 30
0.0
 11
-33.0
 21
-54.5
 31
0.0
  0
LINE
  5
E1
330
1E
100
AcDbEntity
  8
MO_001_VIEW_PV
  6
C_CENTER_L
100
AcDbLine
 10
-37.0
 20
-48.671417
 30
0.0
 11
-37.0
 21
-53.15673799999999
 31
0.0
  0
LINE
  5
E2
330
1E
100
AcDbEntity
  8
MO_001_VIEW_PV
  6
C_SOLID_M
100
AcDbLine
 10
-33.0
 20
-47.645897
 30
0.0
 11
-39.799999
 21
-47.645897
 31
0.0
  0
LINE
  5
E3
330
1E
100
AcDbEntity
  8
MO_001_VIEW_PV
  6
C_SOLID_M
100
AcDbLine
 10
-33.0
 20
-47.5
 30
0.0
 11
-29.0
 21
-47.5
 31
0.0
  0
LINE
  5
E4
330
1E
100
AcDbEntity
  8
MO_001_VIEW_PV
  6
C_SOLID_M
100
AcDbLine
 10
-33.0
 20
-47.5
 30
0.0
 11
-33.0
 21
-47.645897
 31
0.0
  0
LINE
  5
E5
330
1E
100
AcDbEntity
  8
MO_001_VIEW_PV
  6
C_SOLID_M
100
AcDbLine
 10
-39.999997
 20
-47.855157
 30
0.0
 11
-39.79999799999999
 21
-47.64589199999999
 31
0.0
  0
CIRCLE
  5
E6
330
1E
100
AcDbEntity
  8
MO_001_VIEW_PV
  6
C_SOLID_M
100
AcDbCircle
 10
-37.0
 20
-51.0
 30
0.0
 40
1.25
  0
LINE
  5
E7
330
1E
100
AcDbEntity
  8
MO_001_VIEW_PV
  6
C_SOLID_M
100
AcDbLine
 10
-40.0
 20
-54.144838
 30
0.0
 11
-39.79999799999999
 21
-54.354106
 31
0.0
  0
LINE
  5
E8
330
1E
100
AcDbEntity
  8
MO_001_VIEW_PV
  6
C_SOLID_M
100
AcDbLine
 10
-33.0
 20
-54.354103
 30
0.0
 11
-39.799999
 21
-54.354103
 31
0.0
  0
LINE
  5
E9
330
1E
100
AcDbEntity
  8
MO_001_VIEW_PV
  6
C_SOLID_M
100
AcDbLine
 10
-33.0
 20
-54.5
 30
0.0
 11
-29.0
 21
-54.5
 31
0.0
  0
LINE
  5
EA
330
1E
100
AcDbEntity
  8
MO_001_VIEW_PV
  6
C_SOLID_M
100
AcDbLine
 10
32.0
 20
1.239999999999999
 30
0.0
 11
32.0
 21
0.76
 31
0.0
  0
LINE
  5
EB
330
1E
100
AcDbEntity
  8
MO_001_VIEW_PV
  6
C_SOLID_M
100
AcDbLine
 10
27.0
 20
1.659999999999999
 30
0.0
 11
27.0
 21
0.34
 31
0.0
  0
LINE
  5
EC
330
1E
100
AcDbEntity
  8
MO_001_VIEW_PV
  6
C_SOLID_M
100
AcDbLine
 10
0.6
 20
1.659999999999999
 30
0.0
 11
27.0
 21
1.659999999999999
 31
0.0
  0
LINE
  5
ED
330
1E
100
AcDbEntity
  8
MO_001_VIEW_PV
  6
C_SOLID_M
100
AcDbLine
 10
0.6
 20
0.34
 30
0.0
 11
27.0
 21
0.34
 31
0.0
  0
LINE
  5
EE
330
1E
100
AcDbEntity
  8
MO_001_VIEW_PV
  6
C_SOLID_M
100
AcDbLine
 10
27.0
 20
1.239999999999999
 30
0.0
 11
32.0
 21
1.239999999999999
 31
0.0
  0
LINE
  5
EF
330
1E
100
AcDbEntity
  8
MO_001_VIEW_PV
  6
C_SOLID_M
100
AcDbLine
 10
27.0
 20
0.76
 30
0.0
 11
32.0
 21
0.76
 31
0.0
  0
LINE
  5
F0
330
1E
100
AcDbEntity
  8
MO_001_VIEW_PV
  6
C_SOLID_M
100
AcDbLine
 10
32.0
 20
-0.76
 30
0.0
 11
32.0
 21
-1.239999999999999
 31
0.0
  0
LINE
  5
F1
330
1E
100
AcDbEntity
  8
MO_001_VIEW_PV
  6
C_SOLID_M
100
AcDbLine
 10
27.0
 20
-0.34
 30
0.0
 11
27.0
 21
-1.659999999999999
 31
0.0
  0
LINE
  5
F2
330
1E
100
AcDbEntity
  8
MO_001_VIEW_PV
  6
C_SOLID_M
100
AcDbLine
 10
0.6
 20
-0.34
 30
0.0
 11
27.0
 21
-0.34
 31
0.0
  0
LINE
  5
F3
330
1E
100
AcDbEntity
  8
MO_001_VIEW_PV
  6
C_SOLID_M
100
AcDbLine
 10
0.6
 20
-1.659999999999999
 30
0.0
 11
27.0
 21
-1.659999999999999
 31
0.0
  0
LINE
  5
F4
330
1E
100
AcDbEntity
  8
MO_001_VIEW_PV
  6
C_SOLID_M
100
AcDbLine
 10
27.0
 20
-0.76
 30
0.0
 11
32.0
 21
-0.76
 31
0.0
  0
LINE
  5
F5
330
1E
100
AcDbEntity
  8
MO_001_VIEW_PV
  6
C_SOLID_M
100
AcDbLine
 10
27.0
 20
-1.239999999999999
 30
0.0
 11
32.0
 21
-1.239999999999999
 31
0.0
  0
LINE
  5
F6
330
1E
100
AcDbEntity
  8
MO_001_VIEW_PV
  6
C_SOLID_M
100
AcDbLine
 10
32.0
 20
-65.25999499999999
 30
0.0
 11
32.0
 21
-65.74000500000001
 31
0.0
  0
LINE
  5
F7
330
1E
100
AcDbEntity
  8
MO_001_VIEW_PV
  6
C_SOLID_M
100
AcDbLine
 10
27.0
 20
-64.839996
 30
0.0
 11
27.0
 21
-66.160004
 31
0.0
  0
LINE
  5
F8
330
1E
100
AcDbEntity
  8
MO_001_VIEW_PV
  6
C_SOLID_M
100
AcDbLine
 10
6.750352999999999
 20
-64.839996
 30
0.0
 11
27.0
 21
-64.839996
 31
0.0
  0
LINE
  5
F9
330
1E
100
AcDbEntity
  8
MO_001_VIEW_PV
  6
C_SOLID_M
100
AcDbLine
 10
6.750352999999999
 20
-66.160004
 30
0.0
 11
27.0
 21
-66.160004
 31
0.0
  0
LINE
  5
FA
330
1E
100
AcDbEntity
  8
MO_001_VIEW_PV
  6
C_SOLID_M
100
AcDbLine
 10
27.0
 20
-65.25999499999999
 30
0.0
 11
32.0
 21
-65.25999499999999
 31
0.0
  0
LINE
  5
FB
330
1E
100
AcDbEntity
  8
MO_001_VIEW_PV
  6
C_SOLID_M
100
AcDbLine
 10
27.0
 20
-65.74000500000001
 30
0.0
 11
32.0
 21
-65.74000500000001
 31
0.0
  0
LINE
  5
FC
330
1E
100
AcDbEntity
  8
MO_001_VIEW_PV
  6
C_SOLID_M
100
AcDbLine
 10
-13.799999
 20
-59.090912
 30
0.0
 11
-3.799998999999999
 21
-59.090912
 31
0.0
  0
LINE
  5
FD
330
1E
100
AcDbEntity
  8
MO_001_VIEW_PV
  6
C_SOLID_M
100
AcDbLine
 10
-3.799999999999999
 20
-59.090876
 30
0.0
 11
-3.209091999999999
 21
-58.499968
 31
0.0
  0
ARC
  5
FE
330
1E
100
AcDbEntity
  8
MO_001_VIEW_PV
  6
C_SOLID_M
100
AcDbCircle
 10
-13.799999
 20
-57.590912
 30
0.0
 40
1.5
100
AcDbArc
 50
217.305245
 51
269.999998
  0
LINE
  5
FF
330
1E
100
AcDbEntity
  8
MO_001_VIEW_PV
  6
C_SOLID_M
100
AcDbLine
 10
-2.299999
 20
-58.499968
 30
0.0
 11
-0.303147
 21
-60.49681899999999
 31
0.0
  0
ARC
  5
100
330
1E
100
AcDbEntity
  8
MO_001_VIEW_PV
  6
C_SOLID_M
100
AcDbCircle
 10
5.353708999999999
 20
-54.839996
 30
0.0
 40
8.0
100
AcDbArc
 50
224.9999859999999
 51
269.999998
  0
ARC
  5
101
330
1E
100
AcDbEntity
  8
MO_001_VIEW_PV
  6
C_SOLID_M
100
AcDbCircle
 10
5.353708999999999
 20
-54.839996
 30
0.0
 40
9.32
100
AcDbArc
 50
254.2487139999999
 51
269.999998
  0
LINE
  5
102
330
1E
100
AcDbEntity
  8
MO_001_VIEW_PV
  6
C_SOLID_M
100
AcDbLine
 10
32.0
 20
-63.25999499999999
 30
0.0
 11
32.0
 21
-63.74000500000001
 31
0.0
  0
LINE
  5
103
330
1E
100
AcDbEntity
  8
MO_001_VIEW_PV
  6
C_SOLID_M
100
AcDbLine
 10
27.0
 20
-62.839996
 30
0.0
 11
27.0
 21
-64.160004
 31
0.0
  0
LINE
  5
104
330
1E
100
AcDbEntity
  8
MO_001_VIEW_PV
  6
C_SOLID_M
100
AcDbLine
 10
5.353708999999999
 20
-62.839996
 30
0.0
 11
27.0
 21
-62.839996
 31
0.0
  0
LINE
  5
105
330
1E
100
AcDbEntity
  8
MO_001_VIEW_PV
  6
C_SOLID_M
100
AcDbLine
 10
5.353708999999999
 20
-64.160004
 30
0.0
 11
27.0
 21
-64.160004
 31
0.0
  0
LINE
  5
106
330
1E
100
AcDbEntity
  8
MO_001_VIEW_PV
  6
C_SOLID_M
100
AcDbLine
 10
27.0
 20
-63.25999499999999
 30
0.0
 11
32.0
 21
-63.25999499999999
 31
0.0
  0
LINE
  5
107
330
1E
100
AcDbEntity
  8
MO_001_VIEW_PV
  6
C_SOLID_M
100
AcDbLine
 10
27.0
 20
-63.74000500000001
 30
0.0
 11
32.0
 21
-63.74000500000001
 31
0.0
  0
LINE
  5
108
330
1E
100
AcDbEntity
  8
MO_001_VIEW_PV
  6
C_SOLID_M
100
AcDbLine
 10
-2.299997999999999
 20
-58.499997
 30
0.0
 11
0.621997
 21
-61.982296
 31
0.0
  0
ARC
  5
109
330
1E
100
AcDbEntity
  8
MO_001_VIEW_PV
  6
C_SOLID_M
100
AcDbCircle
 10
6.750352999999999
 20
-56.83999599999999
 30
0.0
 40
8.0
100
AcDbArc
 50
220.0000009999999
 51
269.999998
  0
ARC
  5
10A
330
1E
100
AcDbEntity
  8
MO_001_VIEW_PV
  6
C_SOLID_M
100
AcDbCircle
 10
6.750352999999999
 20
-56.83999599999999
 30
0.0
 40
9.320003999999999
100
AcDbArc
 50
220.0000009999999
 51
269.999998
  0
LINE
  5
10B
330
1E
100
AcDbEntity
  8
MO_001_VIEW_PV
  6
C_SOLID_M
100
AcDbLine
 10
-3.651726
 20
-58.942632
 30
0.0
 11
-0.389184
 21
-62.830778
 31
0.0
  0
ARC
  5
10C
330
1E
100
AcDbEntity
  8
MO_001_VIEW_PV
  6
C_SOLID_M
100
AcDbCircle
 10
-78.0
 20
0.0
 30
0.0
 40
8.090911999999999
100
AcDbArc
 50
157.9667029999999
 51
202.033294
  0
LINE
  5
10D
330
1E
100
AcDbEntity
  8
MO_001_VIEW_PV
  6
C_SOLID_M
100
AcDbLine
 10
-94.90741099999999
 20
-0.384935
 30
0.0
 11
-86.090905
 21
0.000002
 31
0.0
  0
LINE
  5
10E
330
1E
100
AcDbEntity
  8
MO_001_VIEW_PV
  6
C_SOLID_M
100
AcDbLine
 10
-94.84983299999999
 20
-1.703688
 30
0.0
 11
-85.983067
 21
-1.316556
 31
0.0
  0
LINE
  5
10F
330
1E
100
AcDbEntity
  8
MO_001_VIEW_PV
  6
C_SOLID_M
100
AcDbLine
 10
-94.96674099999999
 20
1.708793999999999
 30
0.0
 11
-85.983067
 21
1.316557999999999
 31
0.0
  0
LINE
  5
110
330
1E
100
AcDbEntity
  8
MO_001_VIEW_PV
  6
C_SOLID_M
100
AcDbLine
 10
-95.02431899999999
 20
0.390041
 30
0.0
 11
-86.090905
 21
0.0
 31
0.0
  0
ARC
  5
111
330
1E
100
AcDbEntity
  8
MO_001_VIEW_PV
  6
C_SOLID_M
100
AcDbCircle
 10
-95.18075600000001
 20
-0.7271880000000001
 30
0.0
 40
0.4380010000000001
100
AcDbArc
 50
313.6121319999999
 51
51.388113
  0
ARC
  5
112
330
1E
100
AcDbEntity
  8
MO_001_VIEW_PV
  6
C_SOLID_M
100
AcDbCircle
 10
-94.57652299999999
 20
-1.361438999999999
 30
0.0
 40
0.4380010000000001
100
AcDbArc
 50
133.612311
 51
231.388122
  0
ARC
  5
113
330
1E
100
AcDbEntity
  8
MO_001_VIEW_PV
  6
C_SOLID_M
100
AcDbCircle
 10
-94.60531600000001
 20
-0.702063
 30
0.0
 40
0.4380010000000001
100
AcDbArc
 50
133.611887
 51
231.3878759999999
  0
ARC
  5
114
330
1E
100
AcDbEntity
  8
MO_001_VIEW_PV
  6
C_SOLID_M
100
AcDbCircle
 10
-95.26887499999999
 20
1.391666999999999
 30
0.0
 40
0.4380010000000001
100
AcDbArc
 50
308.6121289999999
 51
46.388114
  0
ARC
  5
115
330
1E
100
AcDbEntity
  8
MO_001_VIEW_PV
  6
C_SOLID_M
100
AcDbCircle
 10
-94.722214
 20
0.707166
 30
0.0
 40
0.4380010000000001
100
AcDbArc
 50
128.612298
 51
226.388095
  0
ARC
  5
116
330
1E
100
AcDbEntity
  8
MO_001_VIEW_PV
  6
C_SOLID_M
100
AcDbCircle
 10
-94.69341999999999
 20
1.366543
 30
0.0
 40
0.4380010000000001
100
AcDbArc
 50
128.6118879999999
 51
226.3878629999999
  0
LINE
  5
117
330
1E
100
AcDbEntity
  8
MO_001_VIEW_PV
  6
C_SOLID_L
100
AcDbLine
 10
23.59660299999999
 20
-47.14476799999999
 30
0.0
 11
65.02853399999999
 21
-47.14476799999999
 31
0.0
  0
LINE
  5
118
330
1E
100
AcDbEntity
  8
MO_001_VIEW_PV
  6
C_SOLID_L
100
AcDbLine
 10
-63.052372
 20
18.0
 30
0.0
 11
-43.96939099999999
 21
18.0
 31
0.0
  0
LINE
  5
119
330
1E
100
AcDbEntity
  8
MO_001_VIEW_PV
  6
C_SOLID_L
100
AcDbLine
 10
-53.420216
 20
-69.0
 30
0.0
 11
-25.8298
 21
-69.0
 31
0.0
  0
TEXT
  5
11A
330
1E
100
AcDbEntity
  8
MO_001_VIEW_PV
  6
C_SOLID_L
100
AcDbText
 10
10.51171899999999
 20
-86.08359399999999
 30
0.0
 40
4.167187
  1
単位：mm
100
AcDbText
  0
TEXT
  5
11B
330
1E
100
AcDbEntity
  8
MO_001_VIEW_PV
  6
C_SOLID_L
100
AcDbText
 10
10.51171899999999
 20
-92.08359399999999
 30
0.0
 40
4.167187
  1
図は励磁時（保持時）を示す
100
AcDbText
  0
TEXT
  5
11C
330
1E
100
AcDbEntity
  8
MO_001_VIEW_PV
  6
C_SOLID_L
100
AcDbText
 10
24.025175
 20
-41.894768
 30
0.0
 40
3.0
  1
リ－ド線
100
AcDbText
  0
TEXT
  5
11D
330
1E
100
AcDbEntity
  8
MO_001_VIEW_PV
  6
C_SOLID_L
100
AcDbText
 10
24.025175
 20
-46.39476799999999
 30
0.0
 40
3.0
  1
UL1007 AWG.26
100
AcDbText
  0
TEXT
  5
11E
330
1E
100
AcDbEntity
  8
MO_001_VIEW_PV
  6
C_SOLID_L
100
AcDbText
 10
24.025175
 20
-50.89476799999999
 30
0.0
 40
3.0
  1
（白、黒）
100
AcDbText
  0
TEXT
  5
11F
330
1E
100
AcDbEntity
  8
MO_001_VIEW_PV
  6
C_SOLID_L
100
AcDbText
 10
-79.488281
 20
-86.08359399999999
 30
0.0
 40
4.167187
  1
SH1L-0730
100
AcDbText
  0
TEXT
  5
120
330
1E
100
AcDbEntity
  8
MO_001_VIEW_PV
  6
C_SOLID_L
100
AcDbText
 10
-50.260038
 20
20.625
 30
0.0
 40
1.5
  1
%%P0.1
100
AcDbText
  0
TEXT
  5
121
330
1E
100
AcDbEntity
  8
MO_001_VIEW_PV
  6
C_SOLID_L
100
AcDbText
 10
-62.045752
 20
18.75
 30
0.0
 40
3.0
  1
%%C2.5
100
AcDbText
  0
TEXT
  5
122
330
1E
100
AcDbEntity
  8
MO_001_VIEW_PV
  6
C_SOLID_L
100
AcDbText
 10
-52.571425
 20
-68.25
 30
0.0
 40
3.0
  1
2-M3 P0.5
100
AcDbText
  0
DIMENSION
  5
124
330
1E
100
AcDbEntity
  8
MO_001_VIEW_PV
  6
C_SOLID_M
100
AcDbDimension
  2
*D0
 10
-78.0
 20
-18.0
 30
0.0
 11
-78.0
 21
-18.0
 31
0.0
  3
STANDARD
100
AcDbAlignedDimension
 13
-70.5
 23
-8.5
 33
0.0
 14
-85.5
 24
-8.5
 34
0.0
100
AcDbRotatedDimension
  0
DIMENSION
  5
126
330
1E
100
AcDbEntity
  8
MO_001_VIEW_PV
  6
C_SOLID_M
100
AcDbDimension
  2
*D1
 10
-60.0
 20
0.0
 30
0.0
 11
-60.0
 21
0.0
 31
0.0
  3
STANDARD
100
AcDbAlignedDimension
 13
-70.5
 23
8.5
 33
0.0
 14
-70.5
 24
-8.5
 34
0.0
 50
89.999523
100
AcDbRotatedDimension
  0
DIMENSION
  5
128
330
1E
100
AcDbEntity
  8
MO_001_VIEW_PV
  6
C_SOLID_M
100
AcDbDimension
  2
*D2
 10
-15.0
 20
30.0
 30
0.0
 11
-15.0
 21
30.0
 31
0.0
  3
STANDARD
100
AcDbAlignedDimension
 13
-30.0
 23
8.5
 33
0.0
 14
0.0
 24
7.5
 34
0.0
100
AcDbRotatedDimension
  0
DIMENSION
  5
12A
330
1E
100
AcDbEntity
  8
MO_001_VIEW_PV
  6
C_SOLID_M
100
AcDbDimension
  2
*D3
 10
12.0
 20
30.0
 30
0.0
 11
12.0
 21
30.0
 31
0.0
  1
(0.6)
  3
STANDARD
100
AcDbAlignedDimension
 13
0.0
 23
7.5
 33
0.0
 14
0.6
 24
2.5
 34
0.0
100
AcDbRotatedDimension
  0
DIMENSION
  5
12C
330
1E
100
AcDbEntity
  8
MO_001_VIEW_PV
  6
C_SOLID_M
100
AcDbDimension
  2
*D4
 10
-48.0
 20
30.0
 30
0.0
 11
-48.0
 21
30.0
 31
0.0
  3
STANDARD
100
AcDbAlignedDimension
 13
-40.0
 23
3.300001
 33
0.0
 14
-30.0
 24
8.5
 34
0.0
100
AcDbRotatedDimension
  0
DIMENSION
  5
12E
330
1E
100
AcDbEntity
  8
MO_001_VIEW_PV
  6
C_SOLID_M
100
AcDbDimension
  2
*D5
 10
-0.7005620000000001
 20
-27.0
 30
0.0
 11
-0.7005620000000001
 21
-27.0
 31
0.0
  3
STANDARD
100
AcDbAlignedDimension
 13
-6.0
 23
-44.5
 33
0.0
 14
-18.0
 24
-52.5
 34
0.0
100
AcDbRotatedDimension
  0
DIMENSION
  5
130
330
1E
100
AcDbEntity
  8
MO_001_VIEW_PV
  6
C_SOLID_M
100
AcDbDimension
  2
*D6
 10
-27.5
 20
-33.0
 30
0.0
 11
-27.5
 21
-33.0
 31
0.0
  3
STANDARD
100
AcDbAlignedDimension
 13
-18.0
 23
-52.5
 33
0.0
 14
-37.0
 24
-48.671417
 34
0.0
100
AcDbRotatedDimension
  0
DIMENSION
  5
132
330
1E
100
AcDbEntity
  8
MO_001_VIEW_PV
  6
C_SOLID_M
100
AcDbDimension
  2
*D7
 10
9.0
 20
-33.0
 30
0.0
 11
9.0
 21
-33.0
 31
0.0
  3
STANDARD
100
AcDbAlignedDimension
 13
0.0
 23
-43.5
 33
0.0
 14
-6.0
 24
-44.5
 34
0.0
100
AcDbRotatedDimension
  0
DIMENSION
  5
134
330
1E
100
AcDbEntity
  8
MO_001_VIEW_PV
  6
C_SOLID_M
100
AcDbDimension
  2
*D8
 10
12.0
 20
-40.88157299999999
 30
0.0
 11
12.0
 21
-40.88157299999999
 31
0.0
  3
STANDARD
100
AcDbAlignedDimension
 13
-15.5
 23
-55.0
 33
0.0
 14
-3.5
 24
-47.0
 34
0.0
 50
89.999523
100
AcDbRotatedDimension
  0
DIMENSION
  5
136
330
1E
100
AcDbEntity
  8
MO_001_VIEW_PV
  6
C_SOLID_M
100
AcDbDimension
  2
*D9
 10
24.0
 20
-19.01923
 30
0.0
 11
24.0
 21
-19.01923
 31
0.0
  1
t1.2
  3
STANDARD
100
AcDbAlignedDimension
 13
-1.0
 23
-8.5
 33
0.0
 14
-1.5
 24
-7.300003
 34
0.0
 50
89.98785500000002
100
AcDbRotatedDimension
  0
DIMENSION
  5
138
330
1E
100
AcDbEntity
  8
MO_001_VIEW_PV
  6
C_SOLID_M
100
AcDbDimension
  2
*D10
 10
-24.0
 20
-18.0
 30
0.0
 11
-24.0
 21
-18.0
 31
0.0
  3
STANDARD
100
AcDbAlignedDimension
 13
-33.0
 23
-1.0
 33
0.0
 14
-40.0
 24
-3.300001
 34
0.0
 50
179.97571
100
AcDbRotatedDimension
  0
DIMENSION
  5
13A
330
1E
100
AcDbEntity
  8
MO_001_VIEW_PV
  6
C_SOLID_M
100
AcDbDimension
  2
*D11
 10
14.17413599999999
 20
-75.0
 30
0.0
 11
14.17413599999999
 21
-75.0
 31
0.0
  1
長さ250以上
  3
STANDARD
100
AcDbAlignedDimension
 13
32.0
 23
-65.74000500000001
 33
0.0
 14
-3.651727999999999
 24
-58.942635
 34
0.0
100
AcDbRotatedDimension
  0
DIMENSION
  5
13C
330
1E
100
AcDbEntity
  8
MO_001_VIEW_PV
  6
C_SOLID_M
100
AcDbDimension
  2
*D12
 10
-48.794533
 20
24.0
 30
0.0
 11
-48.794533
 21
24.0
 31
0.0
  3
STANDARD
100
AcDbAlignedDimension
 13
-37.0
 23
5.5
 33
0.0
 14
-40.0
 24
3.300001
 34
0.0
 50
179.97571
100
AcDbRotatedDimension
  0
DIMENSION
  5
13E
330
1E
100
AcDbEntity
  8
MO_001_VIEW_PV
  6
C_SOLID_M
100
AcDbDimension
  2
*D13
 10
-45.0
 20
-9.632319999999999
 30
0.0
 11
-45.0
 21
-9.632319999999999
 31
0.0
  3
STANDARD
100
AcDbAlignedDimension
 13
-40.0
 23
-1.0
 33
0.0
 14
-40.0
 24
1.0
 34
0.0
 50
89.98785500000002
100
AcDbRotatedDimension
  0
DIMENSION
  5
140
330
1E
100
AcDbEntity
  8
MO_001_VIEW_PV
  6
C_SOLID_M
100
AcDbDimension
  2
*D14
 10
-51.0
 20
-12.0
 30
0.0
 11
-51.0
 21
-12.0
 31
0.0
  3
STANDARD
100
AcDbAlignedDimension
 13
-39.799999
 23
-3.5
 33
0.0
 14
-39.799999
 24
3.5
 34
0.0
 50
89.98785500000002
100
AcDbRotatedDimension
  0
LINE
  5
141
330
1E
100
AcDbEntity
  8
MO_001_VIEW_PV
  6
C_SOLID_L
100
AcDbLine
 10
14.534956
 20
-62.840002
 30
0.0
 11
23.59660299999999
 21
-47.144772
 31
0.0
  0
POLYLINE
  5
142
330
1E
100
AcDbEntity
  8
MO_001_VIEW_PV
  6
C_SOLID_L
100
AcDb2dPolyline
 66
     1
 10
0.0
 20
0.0
 30
0.0
 70
     1
  0
VERTEX
  5
208
330
142
100
AcDbEntity
  8
MO_001_VIEW_PV
  6
C_SOLID_L
100
AcDbVertex
100
AcDb2dVertex
 10
15.688751
 20
-59.67454899999999
 30
0.0
  0
VERTEX
  5
209
330
142
100
AcDbEntity
  8
MO_001_VIEW_PV
  6
C_SOLID_L
100
AcDbVertex
100
AcDb2dVertex
 10
14.78895599999999
 20
-62.400061
 30
0.0
  0
VERTEX
  5
20A
330
142
100
AcDbEntity
  8
MO_001_VIEW_PV
  6
C_SOLID_L
100
AcDbVertex
100
AcDb2dVertex
 10
16.69942199999999
 20
-60.258061
 30
0.0
  0
SEQEND
  5
20B
330
142
100
AcDbEntity
  8
MO_001_VIEW_PV
  6
C_SOLID_L
  0
LINE
  5
147
330
1E
100
AcDbEntity
  8
MO_001_VIEW_PV
  6
C_SOLID_L
100
AcDbLine
 10
-37.000001
 20
3.054097999999999
 30
0.0
 11
-43.96939299999999
 21
18.00000199999999
 31
0.0
  0
POLYLINE
  5
148
330
1E
100
AcDbEntity
  8
MO_001_VIEW_PV
  6
C_SOLID_L
100
AcDb2dPolyline
 66
     1
 10
0.0
 20
0.0
 30
0.0
 70
     1
  0
VERTEX
  5
20C
330
148
100
AcDbEntity
  8
MO_001_VIEW_PV
  6
C_SOLID_L
100
AcDbVertex
100
AcDb2dVertex
 10
-38.93119999999999
 20
5.814859999999999
 30
0.0
  0
VERTEX
  5
20D
330
148
100
AcDbEntity
  8
MO_001_VIEW_PV
  6
C_SOLID_L
100
AcDbVertex
100
AcDb2dVertex
 10
-37.21469099999999
 20
3.514502999999999
 30
0.0
  0
VERTEX
  5
20E
330
148
100
AcDbEntity
  8
MO_001_VIEW_PV
  6
C_SOLID_L
100
AcDbVertex
100
AcDb2dVertex
 10
-37.87351799999999
 20
6.308066
 30
0.0
  0
SEQEND
  5
20F
330
148
100
AcDbEntity
  8
MO_001_VIEW_PV
  6
C_SOLID_L
  0
LINE
  5
14D
330
1E
100
AcDbEntity
  8
MO_001_VIEW_PV
  6
C_SOLID_L
100
AcDbLine
 10
-18.732177
 20
-56.30915699999999
 30
0.0
 11
-25.829798
 21
-68.99999499999999
 31
0.0
  0
POLYLINE
  5
14E
330
1E
100
AcDbEntity
  8
MO_001_VIEW_PV
  6
C_SOLID_L
100
AcDb2dPolyline
 66
     1
 10
0.0
 20
0.0
 30
0.0
 70
     1
  0
VERTEX
  5
210
330
14E
100
AcDbEntity
  8
MO_001_VIEW_PV
  6
C_SOLID_L
100
AcDbVertex
100
AcDb2dVertex
 10
-19.84260799999999
 20
-59.490081
 30
0.0
  0
VERTEX
  5
211
330
14E
100
AcDbEntity
  8
MO_001_VIEW_PV
  6
C_SOLID_L
100
AcDbVertex
100
AcDb2dVertex
 10
-18.980142
 20
-56.752528
 30
0.0
  0
VERTEX
  5
212
330
14E
100
AcDbEntity
  8
MO_001_VIEW_PV
  6
C_SOLID_L
100
AcDbVertex
100
AcDb2dVertex
 10
-20.861159
 20
-58.92043499999999
 30
0.0
  0
SEQEND
  5
213
330
14E
100
AcDbEntity
  8
MO_001_VIEW_PV
  6
C_SOLID_L
  0
ENDSEC
  0
SECTION
  2
OBJECTS
  0
DICTIONARY
  5
1A
330
0
100
AcDbDictionary
  3
ACAD_GROUP
350
1B
  3
ACAD_MLINESTYLE
350
1C
  3
ACAD_LAYOUT
350
1FE
  3
ACAD_PLOTSETTINGS
350
1FF
1001
ACAD
1000
TREAT_AS_HARD
1070
     0
  0
DICTIONARY
  5
204
330
1E
100
AcDbDictionary
  3
ACAD_LAYOUTSELFREF
350
205
  0
DICTIONARY
  5
206
330
1F
100
AcDbDictionary
  3
ACAD_LAYOUTSELFREF
350
207
  0
DICTIONARY
  5
1B
102
{ACAD_REACTORS
330
1A
102
}
330
1A
100
AcDbDictionary
1001
ACAD
1000
TREAT_AS_HARD
1070
     0
  0
DICTIONARY
  5
1C
102
{ACAD_REACTORS
330
1A
102
}
330
1A
100
AcDbDictionary
  3
STANDARD
350
1D
1001
ACAD
1000
TREAT_AS_HARD
1070
     0
  0
DICTIONARY
  5
1FE
102
{ACAD_REACTORS
330
1A
102
}
330
1A
100
AcDbDictionary
1001
ACAD
1000
TREAT_AS_HARD
1070
     0
  0
DICTIONARY
  5
1FF
102
{ACAD_REACTORS
330
1A
102
}
330
1A
100
AcDbDictionary
1001
ACAD
1000
TREAT_AS_HARD
1070
     0
  0
XRECORD
  5
205
102
{ACAD_REACTORS
330
204
102
}
330
204
100
AcDbXrecord
340
1E
  0
XRECORD
  5
207
102
{ACAD_REACTORS
330
206
102
}
330
206
100
AcDbXrecord
340
1F
  0
MLINESTYLE
  5
1D
102
{ACAD_REACTORS
330
1C
102
}
330
1C
100
AcDbMlineStyle
  2
STANDARD
 70
     0
  3

 62
     0
 51
90.0
 52
90.0
 71
     2
 49
0.5
 62
   256
  6
BYLAYER
 49
-0.5
 62
   256
  6
BYLAYER
  0
ENDSEC
  0
EOF
