  0
SECTION
  2
HEADER
  9
$ACADVER
  1
AC1012
  9
$DWGCODEPAGE
  3
dos932
  9
$INSBASE
 10
0.0
 20
0.0
 30
0.0
  9
$EXTMIN
 10
-114.1789267692984
 20
-95.08972714375483
 30
-0.0015258207003583
  9
$EXTMAX
 10
65.13719388553079
 20
31.13205013742657
 30
0.0000000349246037
  9
$LIMMIN
 10
-114.1602149999999
 20
-98.208984
  9
$LIMMAX
 10
61.02853399999999
 20
33.0
  9
$ORTHOMODE
 70
     0
  9
$REGENMODE
 70
     1
  9
$FILLMODE
 70
     1
  9
$QTEXTMODE
 70
     0
  9
$MIRRTEXT
 70
     1
  9
$DRAGMODE
 70
     2
  9
$LTSCALE
 40
1.0
  9
$OSMODE
 70
    37
  9
$ATTMODE
 70
     1
  9
$TEXTSIZE
 40
4.1672
  9
$TRACEWID
 40
0.05
  9
$TEXTSTYLE
  7
STANDARD
  9
$CLAYER
  8
0
  9
$CELTYPE
  6
CONTINUOUS
  9
$CECOLOR
 62
   256
  9
$CELTSCALE
 40
1.0
  9
$DELOBJ
 70
     1
  9
$DISPSILH
 70
     0
  9
$DIMSCALE
 40
1.0
  9
$DIMASZ
 40
0.18
  9
$DIMEXO
 40
0.0625
  9
$DIMDLI
 40
0.38
  9
$DIMRND
 40
0.0
  9
$DIMDLE
 40
0.0
  9
$DIMEXE
 40
0.18
  9
$DIMTP
 40
0.0
  9
$DIMTM
 40
0.0
  9
$DIMTXT
 40
0.18
  9
$DIMCEN
 40
0.09
  9
$DIMTSZ
 40
0.0
  9
$DIMTOL
 70
     0
  9
$DIMLIM
 70
     0
  9
$DIMTIH
 70
     1
  9
$DIMTOH
 70
     1
  9
$DIMSE1
 70
     0
  9
$DIMSE2
 70
     0
  9
$DIMTAD
 70
     0
  9
$DIMZIN
 70
     0
  9
$DIMBLK
  1

  9
$DIMASO
 70
     1
  9
$DIMSHO
 70
     1
  9
$DIMPOST
  1

  9
$DIMAPOST
  1

  9
$DIMALT
 70
     0
  9
$DIMALTD
 70
     2
  9
$DIMALTF
 40
25.4
  9
$DIMLFAC
 40
1.0
  9
$DIMTOFL
 70
     0
  9
$DIMTVP
 40
0.0
  9
$DIMTIX
 70
     0
  9
$DIMSOXD
 70
     0
  9
$DIMSAH
 70
     0
  9
$DIMBLK1
  1

  9
$DIMBLK2
  1

  9
$DIMSTYLE
  2
STANDARD
  9
$DIMCLRD
 70
     0
  9
$DIMCLRE
 70
     0
  9
$DIMCLRT
 70
     0
  9
$DIMTFAC
 40
1.0
  9
$DIMGAP
 40
0.09
  9
$DIMJUST
 70
     0
  9
$DIMSD1
 70
     0
  9
$DIMSD2
 70
     0
  9
$DIMTOLJ
 70
     1
  9
$DIMTZIN
 70
     0
  9
$DIMALTZ
 70
     0
  9
$DIMALTTZ
 70
     0
  9
$DIMFIT
 70
     3
  9
$DIMUPT
 70
     0
  9
$DIMUNIT
 70
     2
  9
$DIMDEC
 70
     4
  9
$DIMTDEC
 70
     4
  9
$DIMALTU
 70
     2
  9
$DIMALTTD
 70
     2
  9
$DIMTXSTY
  7
STANDARD
  9
$DIMAUNIT
 70
     0
  9
$LUNITS
 70
     2
  9
$LUPREC
 70
     6
  9
$SKETCHINC
 40
0.1
  9
$FILLETRAD
 40
0.0
  9
$AUNITS
 70
     0
  9
$AUPREC
 70
     4
  9
$MENU
  1
acad
  9
$ELEVATION
 40
0.0
  9
$PELEVATION
 40
0.0
  9
$THICKNESS
 40
0.0
  9
$LIMCHECK
 70
     0
  9
$BLIPMODE
 70
     0
  9
$CHAMFERA
 40
0.0
  9
$CHAMFERB
 40
0.0
  9
$CHAMFERC
 40
0.0
  9
$CHAMFERD
 40
0.0
  9
$SKPOLY
 70
     0
  9
$TDCREATE
 40
2376122.594796493
  9
$TDUPDATE
 40
2451663.753496990
  9
$TDINDWG
 40
0.0010114583
  9
$TDUSRTIMER
 40
0.0010107639
  9
$USRTIMER
 70
     1
  9
$ANGBASE
 50
0.0
  9
$ANGDIR
 70
     0
  9
$PDMODE
 70
     0
  9
$PDSIZE
 40
0.0
  9
$PLINEWID
 40
0.0
  9
$COORDS
 70
     1
  9
$SPLFRAME
 70
     0
  9
$SPLINETYPE
 70
     6
  9
$SPLINESEGS
 70
     8
  9
$ATTDIA
 70
     0
  9
$ATTREQ
 70
     1
  9
$HANDLING
 70
 10241
  9
$HANDSEED
  5
224
  9
$SURFTAB1
 70
     6
  9
$SURFTAB2
 70
     6
  9
$SURFTYPE
 70
     6
  9
$SURFU
 70
     6
  9
$SURFV
 70
     6
  9
$UCSNAME
  2
MO_001_VIEW_PV_P
  9
$UCSORG
 10
0.0
 20
0.0
 30
0.0
  9
$UCSXDIR
 10
1.0
 20
0.0
 30
0.0
  9
$UCSYDIR
 10
-0.0000000002051034
 20
1.0
 30
0.0
  9
$PUCSNAME
  2

  9
$PUCSORG
 10
0.0
 20
0.0
 30
0.0
  9
$PUCSXDIR
 10
1.0
 20
0.0
 30
0.0
  9
$PUCSYDIR
 10
0.0
 20
1.0
 30
0.0
  9
$USERI1
 70
     0
  9
$USERI2
 70
     0
  9
$USERI3
 70
     0
  9
$USERI4
 70
     0
  9
$USERI5
 70
     0
  9
$USERR1
 40
0.0
  9
$USERR2
 40
0.0
  9
$USERR3
 40
0.0
  9
$USERR4
 40
0.0
  9
$USERR5
 40
0.0
  9
$WORLDVIEW
 70
     1
  9
$SHADEDGE
 70
     3
  9
$SHADEDIF
 70
    70
  9
$TILEMODE
 70
     1
  9
$MAXACTVP
 70
    16
  9
$PINSBASE
 10
0.0
 20
0.0
 30
0.0
  9
$PLIMCHECK
 70
     0
  9
$PEXTMIN
 10
-114.1602149999999
 20
-98.208984
 30
1.000000000000000E+20
  9
$PEXTMAX
 10
61.02853399999999
 20
33.0
 30
-1.000000000000000E+20
  9
$PLIMMIN
 10
0.0
 20
0.0
  9
$PLIMMAX
 10
12.0
 20
9.0
  9
$UNITMODE
 70
     0
  9
$VISRETAIN
 70
     0
  9
$PLINEGEN
 70
     0
  9
$PSLTSCALE
 70
     1
  9
$TREEDEPTH
 70
  3020
  9
$PICKSTYLE
 70
     1
  9
$CMLSTYLE
  2
STANDARD
  9
$CMLJUST
 70
     0
  9
$CMLSCALE
 40
1.0
  9
$SAVEIMAGES
 70
     1
  0
ENDSEC
  0
SECTION
  2
CLASSES
  0
CLASS
  1
ACDBDICTIONARYWDFLT
  2
AcDbDictionaryWithDefault
  3
AutoCAD 2000
 90
    32768
280
     0
281
     0
  0
CLASS
  1
ACDBPLACEHOLDER
  2
AcDbPlaceHolder
  3
AutoCAD 2000
 90
    32768
280
     0
281
     0
  0
CLASS
  1
LAYOUT
  2
AcDbLayout
  3
AutoCAD 2000
 90
    32768
280
     0
281
     0
  0
CLASS
  1
LONG_TRANSACTION
  2
AcDbLongTransaction
  3
AutoCAD 2000
 90
    32768
280
     0
281
     0
  0
CLASS
  1
LWPOLYLINE
  2
AcDbPolyline
  3
AutoCAD 2000
 90
    32768
280
     0
281
     1
  0
CLASS
  1
HATCH
  2
AcDbHatch
  3
AutoCAD 2000
 90
    32768
280
     0
281
     1
  0
CLASS
  1
XRECORD
  2
AcDbXrecord
  3
AutoCAD 2000
 90
    32768
280
     0
281
     0
  0
ENDSEC
  0
SECTION
  2
TABLES
  0
TABLE
  2
VPORT
  5
7
330
0
100
AcDbSymbolTable
 70
     2
  0
VPORT
  5
20F
330
7
100
AcDbSymbolTableRecord
100
AcDbViewportTableRecord
  2
*ACTIVE
 70
     0
 10
0.0
 20
0.0
 11
1.0
 21
1.0
 12
-7.465586928475119
 22
-21.09883183030933
 13
0.0
 23
0.0
 14
6.349999999999999
 24
6.349999999999999
 15
6.349999999999999
 25
6.349999999999999
 16
0.0
 26
0.0
 36
1.0
 17
0.0
 27
0.0
 37
0.0
 40
175.7756368705695
 41
1.691964285714285
 42
50.0
 43
0.0
 44
0.0
 50
0.0
 51
0.0
 71
     0
 72
   100
 73
     1
 74
     1
 75
     0
 76
     0
 77
     0
 78
     0
  0
ENDTAB
  0
TABLE
  2
LTYPE
  5
4
330
0
100
AcDbSymbolTable
 70
    37
  0
LTYPE
  5
12
330
4
100
AcDbSymbolTableRecord
100
AcDbLinetypeTableRecord
  2
BYBLOCK
 70
     0
  3

 72
    65
 73
     0
 40
0.0
  0
LTYPE
  5
13
330
4
100
AcDbSymbolTableRecord
100
AcDbLinetypeTableRecord
  2
BYLAYER
 70
     0
  3

 72
    65
 73
     0
 40
0.0
  0
LTYPE
  5
14
330
4
100
AcDbSymbolTableRecord
100
AcDbLinetypeTableRecord
  2
CONTINUOUS
 70
     0
  3
DXF Default line type
 72
    65
 73
     0
 40
0.0
  0
LTYPE
  5
20
330
4
100
AcDbSymbolTableRecord
100
AcDbLinetypeTableRecord
  2
DASHED
 70
     0
  3
DXF Dashed
 72
    65
 73
     2
 40
0.75
 49
0.5
 74
     0
 49
-0.25
 74
     0
  0
LTYPE
  5
21
330
4
100
AcDbSymbolTableRecord
100
AcDbLinetypeTableRecord
  2
HIDDEN
 70
     0
  3
DXF Hidden
 72
    65
 73
     2
 40
0.375
 49
0.25
 74
     0
 49
-0.125
 74
     0
  0
LTYPE
  5
22
330
4
100
AcDbSymbolTableRecord
100
AcDbLinetypeTableRecord
  2
CENTER
 70
     0
  3
DXF Center
 72
    65
 73
     4
 40
2.0
 49
1.25
 74
     0
 49
-0.25
 74
     0
 49
0.25
 74
     0
 49
-0.25
 74
     0
  0
LTYPE
  5
23
330
4
100
AcDbSymbolTableRecord
100
AcDbLinetypeTableRecord
  2
PHANTOM
 70
     0
  3
DXF Phantom
 72
    65
 73
     6
 40
2.5
 49
1.25
 74
     0
 49
-0.25
 74
     0
 49
0.25
 74
     0
 49
-0.25
 74
     0
 49
0.25
 74
     0
 49
-0.25
 74
     0
  0
LTYPE
  5
24
330
4
100
AcDbSymbolTableRecord
100
AcDbLinetypeTableRecord
  2
DOT
 70
     0
  3
DXF DOT
 72
    65
 73
     2
 40
0.25
 49
0.0
 74
     0
 49
-0.25
 74
     0
  0
LTYPE
  5
25
330
4
100
AcDbSymbolTableRecord
100
AcDbLinetypeTableRecord
  2
DASHDOT
 70
     0
  3
DXF Dash Dot
 72
    65
 73
     4
 40
1.0
 49
0.5
 74
     0
 49
-0.25
 74
     0
 49
0.0
 74
     0
 49
-0.25
 74
     0
  0
LTYPE
  5
26
330
4
100
AcDbSymbolTableRecord
100
AcDbLinetypeTableRecord
  2
BORDER
 70
     0
  3
DXF Border
 72
    65
 73
     6
 40
1.75
 49
0.5
 74
     0
 49
-0.25
 74
     0
 49
0.5
 74
     0
 49
-0.25
 74
     0
 49
0.0
 74
     0
 49
-0.25
 74
     0
  0
LTYPE
  5
27
330
4
100
AcDbSymbolTableRecord
100
AcDbLinetypeTableRecord
  2
DIVIDE
 70
     0
  3
DXF Divide
 72
    65
 73
     6
 40
1.25
 49
0.5
 74
     0
 49
-0.25
 74
     0
 49
0.0
 74
     0
 49
-0.25
 74
     0
 49
0.0
 74
     0
 49
-0.25
 74
     0
  0
LTYPE
  5
28
330
4
100
AcDbSymbolTableRecord
100
AcDbLinetypeTableRecord
  2
C_SOLID_L
 70
     0
  3
CADAM Solid Light
 72
    65
 73
     0
 40
0.0
  0
LTYPE
  5
29
330
4
100
AcDbSymbolTableRecord
100
AcDbLinetypeTableRecord
  2
C_SOLID_M
 70
     0
  3
CADAM Solid Medium
 72
    65
 73
     0
 40
0.0
  0
LTYPE
  5
2A
330
4
100
AcDbSymbolTableRecord
100
AcDbLinetypeTableRecord
  2
C_SOLID_H
 70
     0
  3
CADAM Solid Heavy
 72
    65
 73
     0
 40
0.0
  0
LTYPE
  5
2B
330
4
100
AcDbSymbolTableRecord
100
AcDbLinetypeTableRecord
  2
C_DASHED_L
 70
     0
  3
CADAM Dashed Light
 72
    65
 73
     2
 40
0.375
 49
0.25
 74
     0
 49
-0.125
 74
     0
  0
LTYPE
  5
2C
330
4
100
AcDbSymbolTableRecord
100
AcDbLinetypeTableRecord
  2
C_DASHED_M
 70
     0
  3
CADAM Dashed Medium
 72
    65
 73
     2
 40
0.5
 49
0.375
 74
     0
 49
-0.125
 74
     0
  0
LTYPE
  5
2D
330
4
100
AcDbSymbolTableRecord
100
AcDbLinetypeTableRecord
  2
C_CENTER_L
 70
     0
  3
CADAM Center Light
 72
    65
 73
     4
 40
2.0
 49
1.25
 74
     0
 49
-0.25
 74
     0
 49
0.25
 74
     0
 49
-0.25
 74
     0
  0
LTYPE
  5
2E
330
4
100
AcDbSymbolTableRecord
100
AcDbLinetypeTableRecord
  2
C_PHANTOM_L
 70
     0
  3
CADAM Phantom Light
 72
    65
 73
     6
 40
2.5
 49
1.25
 74
     0
 49
-0.25
 74
     0
 49
0.25
 74
     0
 49
-0.25
 74
     0
 49
0.25
 74
     0
 49
-0.25
 74
     0
  0
LTYPE
  5
2F
330
4
100
AcDbSymbolTableRecord
100
AcDbLinetypeTableRecord
  2
C_BREAK_M
 70
     0
  3
CADAM Break Medium
 72
    65
 73
     4
 40
1.0
 49
0.5
 74
     0
 49
-0.25
 74
     0
 49
0.0
 74
     0
 49
-0.25
 74
     0
  0
LTYPE
  5
30
330
4
100
AcDbSymbolTableRecord
100
AcDbLinetypeTableRecord
  2
C_NC
 70
     0
  3
CADAM NC
 72
    65
 73
     0
 40
0.0
  0
LTYPE
  5
31
330
4
100
AcDbSymbolTableRecord
100
AcDbLinetypeTableRecord
  2
DSH1
 70
     0
  3
CADAM Style2 Type 1 Dashed Line
 72
    65
 73
     2
 40
0.075
 49
0.04
 74
     0
 49
-0.035
 74
     0
  0
LTYPE
  5
32
330
4
100
AcDbSymbolTableRecord
100
AcDbLinetypeTableRecord
  2
DSH2
 70
     0
  3
CADAM Style2 Type 2 Dashed Line
 72
    65
 73
     2
 40
0.15
 49
0.11
 74
     0
 49
-0.04
 74
     0
  0
LTYPE
  5
33
330
4
100
AcDbSymbolTableRecord
100
AcDbLinetypeTableRecord
  2
DSH3
 70
     0
  3
CADAM Style2 Type 3 Dashed Line
 72
    65
 73
     2
 40
0.2
 49
0.15
 74
     0
 49
-0.05
 74
     0
  0
LTYPE
  5
34
330
4
100
AcDbSymbolTableRecord
100
AcDbLinetypeTableRecord
  2
DSH4
 70
     0
  3
CADAM Style2 Type 4 Dashed Line
 72
    65
 73
     2
 40
0.36
 49
0.28
 74
     0
 49
-0.08
 74
     0
  0
LTYPE
  5
35
330
4
100
AcDbSymbolTableRecord
100
AcDbLinetypeTableRecord
  2
DSH5
 70
     0
  3
CADAM Style2 Type 5 Dashed Line
 72
    65
 73
     2
 40
0.47
 49
0.39
 74
     0
 49
-0.08
 74
     0
  0
LTYPE
  5
36
330
4
100
AcDbSymbolTableRecord
100
AcDbLinetypeTableRecord
  2
DSH6
 70
     0
  3
CADAM Style2 Type 6 Dashed Line
 72
    65
 73
     2
 40
0.9
 49
0.8100000000000001
 74
     0
 49
-0.09
 74
     0
  0
LTYPE
  5
37
330
4
100
AcDbSymbolTableRecord
100
AcDbLinetypeTableRecord
  2
PL1
 70
     0
  3
Style 2 Type 1 Phantom Line
 72
    65
 73
     6
 40
1.0
 49
0.6
 74
     0
 49
-0.08
 74
     0
 49
0.08
 74
     0
 49
-0.08
 74
     0
 49
0.08
 74
     0
 49
-0.08
 74
     0
  0
LTYPE
  5
38
330
4
100
AcDbSymbolTableRecord
100
AcDbLinetypeTableRecord
  2
PL2
 70
     0
  3
Style 2 Type 2 Phantom Line
 72
    65
 73
     6
 40
1.08
 49
0.6
 74
     0
 49
-0.08
 74
     0
 49
0.12
 74
     0
 49
-0.08
 74
     0
 49
0.12
 74
     0
 49
-0.08
 74
     0
  0
LTYPE
  5
39
330
4
100
AcDbSymbolTableRecord
100
AcDbLinetypeTableRecord
  2
PL3
 70
     0
  3
Style 2 Type 3 Phantom Line
 72
    65
 73
     6
 40
2.0
 49
1.439999999999999
 74
     0
 49
-0.08
 74
     0
 49
0.16
 74
     0
 49
-0.08
 74
     0
 49
0.16
 74
     0
 49
-0.08
 74
     0
  0
LTYPE
  5
3A
330
4
100
AcDbSymbolTableRecord
100
AcDbLinetypeTableRecord
  2
CL1
 70
     0
  3
CADAM Style 2 Type 1 Center Line
 72
    65
 73
     4
 40
0.7
 49
0.45
 74
     0
 49
-0.06
 74
     0
 49
0.13
 74
     0
 49
-0.06
 74
     0
  0
LTYPE
  5
3B
330
4
100
AcDbSymbolTableRecord
100
AcDbLinetypeTableRecord
  2
CL2
 70
     0
  3
CADAM Style 2 Type 2 Center Line
 72
    65
 73
     4
 40
1.199999999999999
 49
1.01
 74
     0
 49
-0.06
 74
     0
 49
0.11
 74
     0
 49
-0.06
 74
     0
  0
LTYPE
  5
3C
330
4
100
AcDbSymbolTableRecord
100
AcDbLinetypeTableRecord
  2
CL3
 70
     0
  3
CADAM Style 2 Type 3 Center Line
 72
    65
 73
     4
 40
1.199999999999999
 49
0.98
 74
     0
 49
-0.06
 74
     0
 49
0.1
 74
     0
 49
-0.06
 74
     0
  0
LTYPE
  5
3D
330
4
100
AcDbSymbolTableRecord
100
AcDbLinetypeTableRecord
  2
CL4
 70
     0
  3
CADAM Style 2 Type 4 Center Line
 72
    65
 73
     4
 40
2.2
 49
1.929999999999999
 74
     0
 49
-0.07
 74
     0
 49
0.13
 74
     0
 49
-0.07
 74
     0
  0
LTYPE
  5
3E
330
4
100
AcDbSymbolTableRecord
100
AcDbLinetypeTableRecord
  2
CL5
 70
     0
  3
CADAM Style 2 Type 5 Center Line
 72
    65
 73
     4
 40
2.2
 49
1.879999999999999
 74
     0
 49
-0.07
 74
     0
 49
0.18
 74
     0
 49
-0.07
 74
     0
  0
LTYPE
  5
3F
330
4
100
AcDbSymbolTableRecord
100
AcDbLinetypeTableRecord
  2
SBK1
 70
     0
  3
CADAM Style 2 Type 1 SetBack Line
 72
    65
 73
     8
 40
2.7
 49
0.1
 74
     0
 49
-0.08
 74
     0
 49
0.1
 74
     0
 49
-0.8
 74
     0
 49
0.0
 74
     0
 49
0.0
 74
     0
 49
0.0
 74
     0
 49
0.0
 74
     0
  0
LTYPE
  5
40
330
4
100
AcDbSymbolTableRecord
100
AcDbLinetypeTableRecord
  2
SBK2
 70
     0
  3
CADAM Style 2 Type 2 SetBack Line
 72
    65
 73
     8
 40
3.709999999999999
 49
0.13
 74
     0
 49
-0.08
 74
     0
 49
0.13
 74
     0
 49
-0.8
 74
     0
 49
0.0
 74
     0
 49
0.0
 74
     0
 49
0.0
 74
     0
 49
0.0
 74
     0
  0
LTYPE
  5
41
330
4
100
AcDbSymbolTableRecord
100
AcDbLinetypeTableRecord
  2
STCH
 70
     0
  3
CADAM Style2 Stitch Line
 72
    65
 73
     2
 40
0.25
 49
0.0
 74
     0
 49
-0.25
 74
     0
  0
LTYPE
  5
42
330
4
100
AcDbSymbolTableRecord
100
AcDbLinetypeTableRecord
  2
MTCH
 70
     0
  3
CADAM Style2 Match Line
 72
    65
 73
     6
 40
2.0
 49
1.439999999999999
 74
     0
 49
-0.8
 74
     0
 49
0.16
 74
     0
 49
-0.08
 74
     0
 49
0.16
 74
     0
 49
-0.08
 74
     0
  0
LTYPE
  5
43
330
4
100
AcDbSymbolTableRecord
100
AcDbLinetypeTableRecord
  2
SLD
 70
     0
  3
CADAM Solid_EXT2
 72
    65
 73
     0
 40
0.0
  0
ENDTAB
  0
TABLE
  2
LAYER
  5
2
330
0
100
AcDbSymbolTable
 70
     7
  0
LAYER
  5
15
330
2
100
AcDbSymbolTableRecord
100
AcDbLayerTableRecord
  2
0
 70
     0
 62
     7
  6
CONTINUOUS
  0
LAYER
  5
44
330
2
100
AcDbSymbolTableRecord
100
AcDbLayerTableRecord
  2
MO_001_NOSHOW
 70
     1
 62
     7
  6
CONTINUOUS
  0
LAYER
  5
45
330
2
100
AcDbSymbolTableRecord
100
AcDbLayerTableRecord
  2
MO_001_VIEW_PV
 70
     0
 62
     7
  6
CONTINUOUS
  0
LAYER
  5
46
330
2
100
AcDbSymbolTableRecord
100
AcDbLayerTableRecord
  2
OVERLAY_MAP
 70
     1
 62
     7
  6
CONTINUOUS
  0
LAYER
  5
47
330
2
100
AcDbSymbolTableRecord
100
AcDbLayerTableRecord
  2
DITTOS
 70
     0
 62
     7
  6
CONTINUOUS
  0
LAYER
  5
48
330
2
100
AcDbSymbolTableRecord
100
AcDbLayerTableRecord
  2
SYMBOLS
 70
     0
 62
     7
  6
CONTINUOUS
  0
LAYER
  5
49
330
2
100
AcDbSymbolTableRecord
100
AcDbLayerTableRecord
  2
SETS
 70
     0
 62
     7
  6
CONTINUOUS
  0
ENDTAB
  0
TABLE
  2
STYLE
  5
3
330
0
100
AcDbSymbolTable
 70
     1
  0
STYLE
  5
18
330
3
100
AcDbSymbolTableRecord
100
AcDbTextStyleTableRecord
  2
STANDARD
 70
     0
 40
4.1672
 41
1.0
 50
0.0
 71
     0
 42
4.1672
  3
monotxt
  4
BIGFONT
  0
ENDTAB
  0
TABLE
  2
VIEW
  5
5
330
0
100
AcDbSymbolTable
 70
     0
  0
ENDTAB
  0
TABLE
  2
UCS
  5
6
330
0
100
AcDbSymbolTable
 70
     1
  0
UCS
  5
4A
330
6
100
AcDbSymbolTableRecord
100
AcDbUCSTableRecord
  2
MO_001_VIEW_PV_P
 70
     0
 10
0.0
 20
0.0
 30
0.0
 11
1.0
 21
0.0
 31
0.0
 12
-0.0000000002051034
 22
1.0
 32
0.0
  0
ENDTAB
  0
TABLE
  2
APPID
  5
8
330
0
100
AcDbSymbolTable
 70
     1
  0
APPID
  5
17
330
8
100
AcDbSymbolTableRecord
100
AcDbRegAppTableRecord
  2
ACAD
 70
     0
  0
ENDTAB
  0
TABLE
  2
DIMSTYLE
  5
9
330
0
100
AcDbSymbolTable
 70
     1
  0
DIMSTYLE
105
19
102
{ACAD_REACTORS
330
12F
330
131
330
133
330
135
330
137
330
139
330
13B
330
13D
330
13F
330
141
330
143
330
145
330
147
330
149
330
14B
102
}
330
9
100
AcDbSymbolTableRecord
100
AcDbDimStyleTableRecord
  2
STANDARD
 70
     0
  3

  4

  5

  6

  7

 40
1.0
 41
0.18
 42
0.0625
 43
0.38
 44
0.18
 45
0.0
 46
0.0
 47
0.0
 48
0.0
140
0.18
141
0.09
142
0.0
143
25.4
144
1.0
145
0.0
146
1.0
147
0.09
 71
     0
 72
     0
 73
     1
 74
     1
 75
     0
 76
     0
 77
     0
 78
     0
170
     0
171
     2
172
     0
173
     0
174
     0
175
     0
176
     0
177
     0
178
     0
270
     2
271
     4
272
     4
273
     2
274
     2
340
18
275
     0
280
     0
281
     0
282
     0
283
     1
284
     0
285
     0
286
     0
287
     3
288
     0
  0
ENDTAB
  0
TABLE
  2
BLOCK_RECORD
  5
C
330
0
100
AcDbSymbolTable
 70
    15
  0
BLOCK_RECORD
  5
1E
102
{ACAD_XDICTIONARY
360
210
102
}
330
C
100
AcDbSymbolTableRecord
100
AcDbBlockTableRecord
  2
*MODEL_SPACE
  0
BLOCK_RECORD
  5
1F
102
{ACAD_XDICTIONARY
360
212
102
}
330
C
100
AcDbSymbolTableRecord
100
AcDbBlockTableRecord
  2
*PAPER_SPACE
  0
BLOCK_RECORD
  5
12E
330
C
100
AcDbSymbolTableRecord
100
AcDbBlockTableRecord
  2
*D0
  0
BLOCK_RECORD
  5
130
330
C
100
AcDbSymbolTableRecord
100
AcDbBlockTableRecord
  2
*D1
  0
BLOCK_RECORD
  5
132
330
C
100
AcDbSymbolTableRecord
100
AcDbBlockTableRecord
  2
*D2
  0
BLOCK_RECORD
  5
134
330
C
100
AcDbSymbolTableRecord
100
AcDbBlockTableRecord
  2
*D3
  0
BLOCK_RECORD
  5
136
330
C
100
AcDbSymbolTableRecord
100
AcDbBlockTableRecord
  2
*D4
  0
BLOCK_RECORD
  5
138
330
C
100
AcDbSymbolTableRecord
100
AcDbBlockTableRecord
  2
*D5
  0
BLOCK_RECORD
  5
13A
330
C
100
AcDbSymbolTableRecord
100
AcDbBlockTableRecord
  2
*D6
  0
BLOCK_RECORD
  5
13C
330
C
100
AcDbSymbolTableRecord
100
AcDbBlockTableRecord
  2
*D7
  0
BLOCK_RECORD
  5
13E
330
C
100
AcDbSymbolTableRecord
100
AcDbBlockTableRecord
  2
*D8
  0
BLOCK_RECORD
  5
140
330
C
100
AcDbSymbolTableRecord
100
AcDbBlockTableRecord
  2
*D9
  0
BLOCK_RECORD
  5
142
330
C
100
AcDbSymbolTableRecord
100
AcDbBlockTableRecord
  2
*D10
  0
BLOCK_RECORD
  5
144
330
C
100
AcDbSymbolTableRecord
100
AcDbBlockTableRecord
  2
*D11
  0
BLOCK_RECORD
  5
146
330
C
100
AcDbSymbolTableRecord
100
AcDbBlockTableRecord
  2
*D12
  0
BLOCK_RECORD
  5
148
330
C
100
AcDbSymbolTableRecord
100
AcDbBlockTableRecord
  2
*D13
  0
BLOCK_RECORD
  5
14A
330
C
100
AcDbSymbolTableRecord
100
AcDbBlockTableRecord
  2
*D14
  0
ENDTAB
  0
ENDSEC
  0
SECTION
  2
BLOCKS
  0
BLOCK
  5
E
330
1E
100
AcDbEntity
  8
0
100
AcDbBlockBegin
  2
*MODEL_SPACE
 70
     0
 10
0.0
 20
0.0
 30
0.0
  3
*MODEL_SPACE
  1

  0
ENDBLK
  5
F
330
1E
100
AcDbEntity
  8
0
100
AcDbBlockEnd
  0
BLOCK
  5
10
330
1F
100
AcDbEntity
 67
     1
  8
0
100
AcDbBlockBegin
  2
*PAPER_SPACE
 70
     0
 10
0.0
 20
0.0
 30
0.0
  3
*PAPER_SPACE
  1

  0
ENDBLK
  5
11
330
1F
100
AcDbEntity
 67
     1
  8
0
100
AcDbBlockEnd
  0
BLOCK
  5
164
330
12E
100
AcDbEntity
  8
0
100
AcDbBlockBegin
  2
*D0
 70
     1
 10
0.0
 20
0.0
 30
0.0
  3
*D0
  1

  0
LINE
  5
165
330
12E
100
AcDbEntity
  8
MO_001_VIEW_PV
  6
BYBLOCK
100
AcDbLine
 10
-104.4999999999999
 20
-21.0
 30
0.0
 11
-81.5
 21
-21.0
 31
0.0
  0
SOLID
  5
166
330
12E
100
AcDbEntity
  8
MO_001_VIEW_PV
  6
BYBLOCK
100
AcDbTrace
 10
-101.1817399999999
 20
-20.416488
 30
0.0
 11
-103.9919999999999
 21
-21.0
 31
0.0
 12
-101.1817399999999
 22
-21.58351199999999
 32
0.0
 13
-101.1817399999999
 23
-21.58351199999999
 33
0.0
  0
SOLID
  5
167
330
12E
100
AcDbEntity
  8
MO_001_VIEW_PV
  6
BYBLOCK
100
AcDbTrace
 10
-84.81825999999999
 20
-21.58351199999999
 30
0.0
 11
-82.00799999999999
 21
-21.0
 31
0.0
 12
-84.81825999999999
 22
-20.416488
 32
0.0
 13
-84.81825999999999
 23
-20.416488
 33
0.0
  0
LINE
  5
168
330
12E
100
AcDbEntity
  8
MO_001_VIEW_PV
  6
BYBLOCK
100
AcDbLine
 10
-104.4999999999999
 20
-11.25
 30
0.0
 11
-104.4999999999999
 21
-23.28599899999999
 31
0.0
  0
LINE
  5
169
330
12E
100
AcDbEntity
  8
MO_001_VIEW_PV
  6
BYBLOCK
100
AcDbLine
 10
-81.5
 20
-11.25
 30
0.0
 11
-81.5
 21
-23.28599899999999
 31
0.0
  0
TEXT
  5
16A
330
12E
100
AcDbEntity
  8
MO_001_VIEW_PV
  6
BYBLOCK
100
AcDbText
 10
-92.785714
 20
-18.375
 30
0.0
 40
1.5
  1
%%P0.3
100
AcDbText
  0
TEXT
  5
16B
330
12E
100
AcDbEntity
  8
MO_001_VIEW_PV
  6
BYBLOCK
100
AcDbText
 10
-98.57142900000001
 20
-20.24999999999999
 30
0.0
 40
3.0
  1
23
100
AcDbText
  0
ENDBLK
  5
16C
330
12E
100
AcDbEntity
  8
0
100
AcDbBlockEnd
  0
BLOCK
  5
16D
330
130
100
AcDbEntity
  8
0
100
AcDbBlockBegin
  2
*D1
 70
     1
 10
0.0
 20
0.0
 30
0.0
  3
*D1
  1

  0
LINE
  5
16E
330
130
100
AcDbEntity
  8
MO_001_VIEW_PV
  6
BYBLOCK
100
AcDbLine
 10
-72.0
 20
-13.15
 30
0.0
 11
-72.0
 21
13.25
 31
0.0
  0
SOLID
  5
16F
330
130
100
AcDbEntity
  8
MO_001_VIEW_PV
  6
BYBLOCK
100
AcDbTrace
 10
-72.58351199999999
 20
-9.831739
 30
0.0
 11
-72.0
 21
-12.642
 31
0.0
 12
-71.416488
 22
-9.831739
 32
0.0
 13
-71.416488
 23
-9.831739
 33
0.0
  0
SOLID
  5
170
330
130
100
AcDbEntity
  8
MO_001_VIEW_PV
  6
BYBLOCK
100
AcDbTrace
 10
-71.416488
 20
9.931739999999999
 30
0.0
 11
-72.0
 21
12.742
 31
0.0
 12
-72.58351199999999
 22
9.931739999999999
 32
0.0
 13
-72.58351199999999
 23
9.931739999999999
 33
0.0
  0
LINE
  5
171
330
130
100
AcDbEntity
  8
MO_001_VIEW_PV
  6
BYBLOCK
100
AcDbLine
 10
-88.0
 20
-13.15
 30
0.0
 11
-69.71399699999999
 21
-13.15
 31
0.0
  0
LINE
  5
172
330
130
100
AcDbEntity
  8
MO_001_VIEW_PV
  6
BYBLOCK
100
AcDbLine
 10
-81.5
 20
13.25
 30
0.0
 11
-69.71399699999999
 21
13.25
 31
0.0
  0
TEXT
  5
173
330
130
100
AcDbEntity
  8
MO_001_VIEW_PV
  6
BYBLOCK
100
AcDbText
 10
-74.625
 20
3.214285999999999
 30
0.0
 40
1.5
  1
%%P0.5
 50
90.0
100
AcDbText
  0
TEXT
  5
174
330
130
100
AcDbEntity
  8
MO_001_VIEW_PV
  6
BYBLOCK
100
AcDbText
 10
-72.75
 20
-8.571429
 30
0.0
 40
3.0
  1
26.5
 50
90.0
100
AcDbText
  0
ENDBLK
  5
175
330
130
100
AcDbEntity
  8
0
100
AcDbBlockEnd
  0
BLOCK
  5
176
330
132
100
AcDbEntity
  8
0
100
AcDbBlockBegin
  2
*D2
 70
     1
 10
0.0
 20
0.0
 30
0.0
  3
*D2
  1

  0
TEXT
  5
177
330
132
100
AcDbEntity
  8
MO_001_VIEW_PV
  6
BYBLOCK
100
AcDbText
 10
-59.691732
 20
23.625
 30
0.0
 40
1.5
  1
%%P0.2
100
AcDbText
  0
TEXT
  5
178
330
132
100
AcDbEntity
  8
MO_001_VIEW_PV
  6
BYBLOCK
100
AcDbText
 10
-62.47744599999999
 20
21.75
 30
0.0
 40
3.0
  1
4
100
AcDbText
  0
LINE
  5
179
330
132
100
AcDbEntity
  8
MO_001_VIEW_PV
  6
BYBLOCK
100
AcDbLine
 10
-46.0
 20
21.0
 30
0.0
 11
-50.0
 21
21.0
 31
0.0
  0
LINE
  5
17A
330
132
100
AcDbEntity
  8
MO_001_VIEW_PV
  6
BYBLOCK
100
AcDbLine
 10
-46.0
 20
21.0
 30
0.0
 11
-39.64999999999999
 21
21.0
 31
0.0
  0
LINE
  5
17B
330
132
100
AcDbEntity
  8
MO_001_VIEW_PV
  6
BYBLOCK
100
AcDbLine
 10
-50.0
 20
21.0
 30
0.0
 11
-56.35
 21
21.0
 31
0.0
  0
SOLID
  5
17C
330
132
100
AcDbEntity
  8
MO_001_VIEW_PV
  6
BYBLOCK
100
AcDbTrace
 10
-42.68174000000001
 20
21.58351199999999
 30
0.0
 11
-45.49199999999999
 21
21.0
 31
0.0
 12
-42.68174000000001
 22
20.416488
 32
0.0
 13
-42.68174000000001
 23
20.416488
 33
0.0
  0
SOLID
  5
17D
330
132
100
AcDbEntity
  8
MO_001_VIEW_PV
  6
BYBLOCK
100
AcDbTrace
 10
-53.31825999999999
 20
20.416488
 30
0.0
 11
-50.508
 21
21.0
 31
0.0
 12
-53.31825999999999
 22
21.58351199999999
 32
0.0
 13
-53.31825999999999
 23
21.58351199999999
 33
0.0
  0
LINE
  5
17E
330
132
100
AcDbEntity
  8
MO_001_VIEW_PV
  6
BYBLOCK
100
AcDbLine
 10
-46.0
 20
7.331344999999999
 30
0.0
 11
-46.0
 21
23.28599899999999
 31
0.0
  0
LINE
  5
17F
330
132
100
AcDbEntity
  8
MO_001_VIEW_PV
  6
BYBLOCK
100
AcDbLine
 10
-50.0
 20
5.200001
 30
0.0
 11
-50.0
 21
23.28599899999999
 31
0.0
  0
LINE
  5
180
330
132
100
AcDbEntity
  8
MO_001_VIEW_PV
  6
BYBLOCK
100
AcDbLine
 10
-50.0
 20
21.0
 30
0.0
 11
-63.44173000000001
 21
21.0
 31
0.0
  0
ENDBLK
  5
181
330
132
100
AcDbEntity
  8
0
100
AcDbBlockEnd
  0
BLOCK
  5
182
330
134
100
AcDbEntity
  8
0
100
AcDbBlockBegin
  2
*D3
 70
     1
 10
0.0
 20
0.0
 30
0.0
  3
*D3
  1

  0
TEXT
  5
183
330
134
100
AcDbEntity
  8
MO_001_VIEW_PV
  6
BYBLOCK
100
AcDbText
 10
-59.745847
 20
29.625
 30
0.0
 40
1.5
  1
%%P0.3
100
AcDbText
  0
TEXT
  5
184
330
134
100
AcDbEntity
  8
MO_001_VIEW_PV
  6
BYBLOCK
100
AcDbText
 10
-65.53156099999999
 20
27.75
 30
0.0
 40
3.0
  1
10
100
AcDbText
  0
LINE
  5
185
330
134
100
AcDbEntity
  8
MO_001_VIEW_PV
  6
BYBLOCK
100
AcDbLine
 10
-50.0
 20
27.0
 30
0.0
 11
-40.0
 21
27.0
 31
0.0
  0
LINE
  5
186
330
134
100
AcDbEntity
  8
MO_001_VIEW_PV
  6
BYBLOCK
100
AcDbLine
 10
-50.0
 20
27.0
 30
0.0
 11
-56.35
 21
27.0
 31
0.0
  0
LINE
  5
187
330
134
100
AcDbEntity
  8
MO_001_VIEW_PV
  6
BYBLOCK
100
AcDbLine
 10
-40.0
 20
27.0
 30
0.0
 11
-33.65
 21
27.0
 31
0.0
  0
SOLID
  5
188
330
134
100
AcDbEntity
  8
MO_001_VIEW_PV
  6
BYBLOCK
100
AcDbTrace
 10
-53.31825999999999
 20
26.416488
 30
0.0
 11
-50.508
 21
27.0
 31
0.0
 12
-53.31825999999999
 22
27.58351199999999
 32
0.0
 13
-53.31825999999999
 23
27.58351199999999
 33
0.0
  0
SOLID
  5
189
330
134
100
AcDbEntity
  8
MO_001_VIEW_PV
  6
BYBLOCK
100
AcDbTrace
 10
-36.68174
 20
27.58351199999999
 30
0.0
 11
-39.49199999999999
 21
27.0
 31
0.0
 12
-36.68174
 22
26.416488
 32
0.0
 13
-36.68174
 23
26.416488
 33
0.0
  0
LINE
  5
18A
330
134
100
AcDbEntity
  8
MO_001_VIEW_PV
  6
BYBLOCK
100
AcDbLine
 10
-50.0
 20
5.200001
 30
0.0
 11
-50.0
 21
29.285999
 31
0.0
  0
LINE
  5
18B
330
134
100
AcDbEntity
  8
MO_001_VIEW_PV
  6
BYBLOCK
100
AcDbLine
 10
-40.0
 20
13.25
 30
0.0
 11
-40.0
 21
29.285999
 31
0.0
  0
LINE
  5
18C
330
134
100
AcDbEntity
  8
MO_001_VIEW_PV
  6
BYBLOCK
100
AcDbLine
 10
-66.49584200000001
 20
27.0
 30
0.0
 11
-50.0
 21
27.0
 31
0.0
  0
ENDBLK
  5
18D
330
134
100
AcDbEntity
  8
0
100
AcDbBlockEnd
  0
BLOCK
  5
18E
330
136
100
AcDbEntity
  8
0
100
AcDbBlockBegin
  2
*D4
 70
     1
 10
0.0
 20
0.0
 30
0.0
  3
*D4
  1

  0
TEXT
  5
18F
330
136
100
AcDbEntity
  8
MO_001_VIEW_PV
  6
BYBLOCK
100
AcDbText
 10
-19.785714
 20
29.625
 30
0.0
 40
1.5
  1
%%P0.5
100
AcDbText
  0
TEXT
  5
190
330
136
100
AcDbEntity
  8
MO_001_VIEW_PV
  6
BYBLOCK
100
AcDbText
 10
-25.571429
 20
27.75
 30
0.0
 40
3.0
  1
40
100
AcDbText
  0
LINE
  5
191
330
136
100
AcDbEntity
  8
MO_001_VIEW_PV
  6
BYBLOCK
100
AcDbLine
 10
-40.0
 20
27.0
 30
0.0
 11
0.0
 21
27.0
 31
0.0
  0
SOLID
  5
192
330
136
100
AcDbEntity
  8
MO_001_VIEW_PV
  6
BYBLOCK
100
AcDbTrace
 10
-36.68174
 20
27.58351199999999
 30
0.0
 11
-39.49199999999999
 21
27.0
 31
0.0
 12
-36.68174
 22
26.416488
 32
0.0
 13
-36.68174
 23
26.416488
 33
0.0
  0
SOLID
  5
193
330
136
100
AcDbEntity
  8
MO_001_VIEW_PV
  6
BYBLOCK
100
AcDbTrace
 10
-3.318259999999999
 20
26.416488
 30
0.0
 11
-0.508
 21
27.0
 31
0.0
 12
-3.318259999999999
 22
27.58351199999999
 32
0.0
 13
-3.318259999999999
 23
27.58351199999999
 33
0.0
  0
LINE
  5
194
330
136
100
AcDbEntity
  8
MO_001_VIEW_PV
  6
BYBLOCK
100
AcDbLine
 10
-40.0
 20
13.25
 30
0.0
 11
-40.0
 21
29.285999
 31
0.0
  0
LINE
  5
195
330
136
100
AcDbEntity
  8
MO_001_VIEW_PV
  6
BYBLOCK
100
AcDbLine
 10
0.0
 20
12.25
 30
0.0
 11
0.0
 21
29.285999
 31
0.0
  0
ENDBLK
  5
196
330
136
100
AcDbEntity
  8
0
100
AcDbBlockEnd
  0
BLOCK
  5
197
330
138
100
AcDbEntity
  8
0
100
AcDbBlockBegin
  2
*D5
 70
     1
 10
0.0
 20
0.0
 30
0.0
  3
*D5
  1

  0
TEXT
  5
198
330
138
100
AcDbEntity
  8
MO_001_VIEW_PV
  6
BYBLOCK
100
AcDbText
 10
4.928570999999999
 20
27.75
 30
0.0
 40
3.0
  1
(0.7)
100
AcDbText
  0
LINE
  5
199
330
138
100
AcDbEntity
  8
MO_001_VIEW_PV
  6
BYBLOCK
100
AcDbLine
 10
0.7
 20
27.0
 30
0.0
 11
0.0
 21
27.0
 31
0.0
  0
LINE
  5
19A
330
138
100
AcDbEntity
  8
MO_001_VIEW_PV
  6
BYBLOCK
100
AcDbLine
 10
0.7
 20
27.0
 30
0.0
 11
7.049999999999999
 21
27.0
 31
0.0
  0
LINE
  5
19B
330
138
100
AcDbEntity
  8
MO_001_VIEW_PV
  6
BYBLOCK
100
AcDbLine
 10
0.0
 20
27.0
 30
0.0
 11
-6.349999999999999
 21
27.0
 31
0.0
  0
SOLID
  5
19C
330
138
100
AcDbEntity
  8
MO_001_VIEW_PV
  6
BYBLOCK
100
AcDbTrace
 10
4.018259999999999
 20
27.58351199999999
 30
0.0
 11
1.207999999999999
 21
27.0
 31
0.0
 12
4.018259999999999
 22
26.416488
 32
0.0
 13
4.018259999999999
 23
26.416488
 33
0.0
  0
SOLID
  5
19D
330
138
100
AcDbEntity
  8
MO_001_VIEW_PV
  6
BYBLOCK
100
AcDbTrace
 10
-3.318259999999999
 20
26.416488
 30
0.0
 11
-0.508
 21
27.0
 31
0.0
 12
-3.318259999999999
 22
27.58351199999999
 32
0.0
 13
-3.318259999999999
 23
27.58351199999999
 33
0.0
  0
LINE
  5
19E
330
138
100
AcDbEntity
  8
MO_001_VIEW_PV
  6
BYBLOCK
100
AcDbLine
 10
0.7
 20
4.5
 30
0.0
 11
0.7
 21
29.285999
 31
0.0
  0
LINE
  5
19F
330
138
100
AcDbEntity
  8
MO_001_VIEW_PV
  6
BYBLOCK
100
AcDbLine
 10
0.0
 20
12.25
 30
0.0
 11
0.0
 21
29.285999
 31
0.0
  0
LINE
  5
1A0
330
138
100
AcDbEntity
  8
MO_001_VIEW_PV
  6
BYBLOCK
100
AcDbLine
 10
20.035715
 20
27.0
 30
0.0
 11
0.7
 21
27.0
 31
0.0
  0
ENDBLK
  5
1A1
330
138
100
AcDbEntity
  8
0
100
AcDbBlockEnd
  0
BLOCK
  5
1A2
330
13A
100
AcDbEntity
  8
0
100
AcDbBlockBegin
  2
*D6
 70
     1
 10
0.0
 20
0.0
 30
0.0
  3
*D6
  1

  0
TEXT
  5
1A3
330
13A
100
AcDbEntity
  8
MO_001_VIEW_PV
  6
BYBLOCK
100
AcDbText
 10
-59.625
 20
-12.575105
 30
0.0
 40
1.5
  1
%%P0.1
 50
90.0
100
AcDbText
  0
TEXT
  5
1A4
330
13A
100
AcDbEntity
  8
MO_001_VIEW_PV
  6
BYBLOCK
100
AcDbText
 10
-57.75
 20
-15.360819
 30
0.0
 40
3.0
  1
3
 50
90.0
100
AcDbText
  0
LINE
  5
1A5
330
13A
100
AcDbEntity
  8
MO_001_VIEW_PV
  6
BYBLOCK
100
AcDbLine
 10
-57.0
 20
-1.5
 30
0.0
 11
-57.0
 21
1.5
 31
0.0
  0
LINE
  5
1A6
330
13A
100
AcDbEntity
  8
MO_001_VIEW_PV
  6
BYBLOCK
100
AcDbLine
 10
-57.0
 20
-1.5
 30
0.0
 11
-57.0
 21
-7.849999999999999
 31
0.0
  0
LINE
  5
1A7
330
13A
100
AcDbEntity
  8
MO_001_VIEW_PV
  6
BYBLOCK
100
AcDbLine
 10
-57.0
 20
1.5
 30
0.0
 11
-57.0
 21
7.849999999999999
 31
0.0
  0
SOLID
  5
1A8
330
13A
100
AcDbEntity
  8
MO_001_VIEW_PV
  6
BYBLOCK
100
AcDbTrace
 10
-56.416488
 20
-4.818259999999999
 30
0.0
 11
-57.0
 21
-2.008
 31
0.0
 12
-57.58351199999999
 22
-4.818259999999999
 32
0.0
 13
-57.58351199999999
 23
-4.818259999999999
 33
0.0
  0
SOLID
  5
1A9
330
13A
100
AcDbEntity
  8
MO_001_VIEW_PV
  6
BYBLOCK
100
AcDbTrace
 10
-57.58351199999999
 20
4.818259999999999
 30
0.0
 11
-57.0
 21
2.008
 31
0.0
 12
-56.416488
 22
4.818259999999999
 32
0.0
 13
-56.416488
 23
4.818259999999999
 33
0.0
  0
LINE
  5
1AA
330
13A
100
AcDbEntity
  8
MO_001_VIEW_PV
  6
BYBLOCK
100
AcDbLine
 10
-50.0
 20
-1.5
 30
0.0
 11
-59.285999
 21
-1.5
 31
0.0
  0
LINE
  5
1AB
330
13A
100
AcDbEntity
  8
MO_001_VIEW_PV
  6
BYBLOCK
100
AcDbLine
 10
-50.0
 20
1.5
 30
0.0
 11
-59.285999
 21
1.5
 31
0.0
  0
LINE
  5
1AC
330
13A
100
AcDbEntity
  8
MO_001_VIEW_PV
  6
BYBLOCK
100
AcDbLine
 10
-57.0
 20
-16.325104
 30
0.0
 11
-57.0
 21
-1.5
 31
0.0
  0
ENDBLK
  5
1AD
330
13A
100
AcDbEntity
  8
0
100
AcDbBlockEnd
  0
BLOCK
  5
1AE
330
13C
100
AcDbEntity
  8
0
100
AcDbBlockBegin
  2
*D7
 70
     1
 10
0.0
 20
0.0
 30
0.0
  3
*D7
  1

  0
TEXT
  5
1AF
330
13C
100
AcDbEntity
  8
MO_001_VIEW_PV
  6
BYBLOCK
100
AcDbText
 10
-65.625
 20
-14.681039
 30
0.0
 40
1.5
  1
%%P0.1
 50
90.0
100
AcDbText
  0
TEXT
  5
1B0
330
13C
100
AcDbEntity
  8
MO_001_VIEW_PV
  6
BYBLOCK
100
AcDbText
 10
-63.75
 20
-23.466753
 30
0.0
 40
3.0
  1
%%C11
 50
90.0
100
AcDbText
  0
LINE
  5
1B1
330
13C
100
AcDbEntity
  8
MO_001_VIEW_PV
  6
BYBLOCK
100
AcDbLine
 10
-63.0
 20
-5.5
 30
0.0
 11
-63.0
 21
5.5
 31
0.0
  0
LINE
  5
1B2
330
13C
100
AcDbEntity
  8
MO_001_VIEW_PV
  6
BYBLOCK
100
AcDbLine
 10
-63.0
 20
-5.5
 30
0.0
 11
-63.0
 21
-11.85
 31
0.0
  0
LINE
  5
1B3
330
13C
100
AcDbEntity
  8
MO_001_VIEW_PV
  6
BYBLOCK
100
AcDbLine
 10
-63.0
 20
5.5
 30
0.0
 11
-63.0
 21
11.85
 31
0.0
  0
SOLID
  5
1B4
330
13C
100
AcDbEntity
  8
MO_001_VIEW_PV
  6
BYBLOCK
100
AcDbTrace
 10
-62.416488
 20
-8.81826
 30
0.0
 11
-63.0
 21
-6.007999999999999
 31
0.0
 12
-63.583512
 22
-8.81826
 32
0.0
 13
-63.583512
 23
-8.81826
 33
0.0
  0
SOLID
  5
1B5
330
13C
100
AcDbEntity
  8
MO_001_VIEW_PV
  6
BYBLOCK
100
AcDbTrace
 10
-63.583512
 20
8.81826
 30
0.0
 11
-63.0
 21
6.007999999999999
 31
0.0
 12
-62.416488
 22
8.81826
 32
0.0
 13
-62.416488
 23
8.81826
 33
0.0
  0
LINE
  5
1B6
330
13C
100
AcDbEntity
  8
MO_001_VIEW_PV
  6
BYBLOCK
100
AcDbLine
 10
-49.700001
 20
-5.5
 30
0.0
 11
-65.286003
 21
-5.5
 31
0.0
  0
LINE
  5
1B7
330
13C
100
AcDbEntity
  8
MO_001_VIEW_PV
  6
BYBLOCK
100
AcDbLine
 10
-49.700001
 20
5.5
 30
0.0
 11
-65.286003
 21
5.5
 31
0.0
  0
LINE
  5
1B8
330
13C
100
AcDbEntity
  8
MO_001_VIEW_PV
  6
BYBLOCK
100
AcDbLine
 10
-63.0
 20
-24.431038
 30
0.0
 11
-63.0
 21
-5.5
 31
0.0
  0
ENDBLK
  5
1B9
330
13C
100
AcDbEntity
  8
0
100
AcDbBlockEnd
  0
BLOCK
  5
1BA
330
13E
100
AcDbEntity
  8
0
100
AcDbBlockBegin
  2
*D8
 70
     1
 10
0.0
 20
0.0
 30
0.0
  3
*D8
  1

  0
TEXT
  5
1BB
330
13E
100
AcDbEntity
  8
MO_001_VIEW_PV
  6
BYBLOCK
100
AcDbText
 10
-33.328721
 20
-18.375
 30
0.0
 40
1.5
  1
%%P0.2
100
AcDbText
  0
TEXT
  5
1BC
330
13E
100
AcDbEntity
  8
MO_001_VIEW_PV
  6
BYBLOCK
100
AcDbText
 10
-36.11443599999999
 20
-20.24999999999999
 30
0.0
 40
3.0
  1
9
100
AcDbText
  0
LINE
  5
1BD
330
13E
100
AcDbEntity
  8
MO_001_VIEW_PV
  6
BYBLOCK
100
AcDbLine
 10
-50.0
 20
-21.0
 30
0.0
 11
-41.0
 21
-21.0
 31
0.0
  0
LINE
  5
1BE
330
13E
100
AcDbEntity
  8
MO_001_VIEW_PV
  6
BYBLOCK
100
AcDbLine
 10
-50.0
 20
-21.0
 30
0.0
 11
-56.35
 21
-21.0
 31
0.0
  0
LINE
  5
1BF
330
13E
100
AcDbEntity
  8
MO_001_VIEW_PV
  6
BYBLOCK
100
AcDbLine
 10
-41.0
 20
-21.0
 30
0.0
 11
-34.64999999999999
 21
-21.0
 31
0.0
  0
SOLID
  5
1C0
330
13E
100
AcDbEntity
  8
MO_001_VIEW_PV
  6
BYBLOCK
100
AcDbTrace
 10
-53.31825999999999
 20
-21.58351199999999
 30
0.0
 11
-50.508
 21
-21.0
 31
0.0
 12
-53.31825999999999
 22
-20.416488
 32
0.0
 13
-53.31825999999999
 23
-20.416488
 33
0.0
  0
SOLID
  5
1C1
330
13E
100
AcDbEntity
  8
MO_001_VIEW_PV
  6
BYBLOCK
100
AcDbTrace
 10
-37.68174
 20
-20.416488
 30
0.0
 11
-40.49199999999999
 21
-21.0
 31
0.0
 12
-37.68174
 22
-21.58351199999999
 32
0.0
 13
-37.68174
 23
-21.58351199999999
 33
0.0
  0
LINE
  5
1C2
330
13E
100
AcDbEntity
  8
MO_001_VIEW_PV
  6
BYBLOCK
100
AcDbLine
 10
-50.0
 20
-5.200001
 30
0.0
 11
-50.0
 21
-23.28599899999999
 31
0.0
  0
LINE
  5
1C3
330
13E
100
AcDbEntity
  8
MO_001_VIEW_PV
  6
BYBLOCK
100
AcDbLine
 10
-41.0
 20
-1.5
 30
0.0
 11
-41.0
 21
-23.28599899999999
 31
0.0
  0
LINE
  5
1C4
330
13E
100
AcDbEntity
  8
MO_001_VIEW_PV
  6
BYBLOCK
100
AcDbLine
 10
-41.0
 20
-21.0
 30
0.0
 11
-27.007292
 21
-21.0
 31
0.0
  0
ENDBLK
  5
1C5
330
13E
100
AcDbEntity
  8
0
100
AcDbBlockEnd
  0
BLOCK
  5
1C6
330
140
100
AcDbEntity
  8
0
100
AcDbBlockBegin
  2
*D9
 70
     1
 10
0.0
 20
0.0
 30
0.0
  3
*D9
  1

  0
TEXT
  5
1C7
330
140
100
AcDbEntity
  8
MO_001_VIEW_PV
  6
BYBLOCK
100
AcDbText
 10
26.25
 20
-23.571429
 30
0.0
 40
3.0
  1
t2
 50
90.0
100
AcDbText
  0
LINE
  5
1C8
330
140
100
AcDbEntity
  8
MO_001_VIEW_PV
  6
BYBLOCK
100
AcDbLine
 10
27.0
 20
-13.25
 30
0.0
 11
27.0
 21
-11.25
 31
0.0
  0
LINE
  5
1C9
330
140
100
AcDbEntity
  8
MO_001_VIEW_PV
  6
BYBLOCK
100
AcDbLine
 10
27.0
 20
-13.25
 30
0.0
 11
27.0
 21
-19.6
 31
0.0
  0
LINE
  5
1CA
330
140
100
AcDbEntity
  8
MO_001_VIEW_PV
  6
BYBLOCK
100
AcDbLine
 10
27.0
 20
-11.25
 30
0.0
 11
27.0
 21
-4.9
 31
0.0
  0
SOLID
  5
1CB
330
140
100
AcDbEntity
  8
MO_001_VIEW_PV
  6
BYBLOCK
100
AcDbTrace
 10
27.58351199999999
 20
-16.56826
 30
0.0
 11
27.0
 21
-13.75799999999999
 31
0.0
 12
26.416488
 22
-16.56826
 32
0.0
 13
26.416488
 23
-16.56826
 33
0.0
  0
SOLID
  5
1CC
330
140
100
AcDbEntity
  8
MO_001_VIEW_PV
  6
BYBLOCK
100
AcDbTrace
 10
26.416488
 20
-7.931739999999999
 30
0.0
 11
27.0
 21
-10.742
 31
0.0
 12
27.58351199999999
 22
-7.931739999999999
 32
0.0
 13
27.58351199999999
 23
-7.931739999999999
 33
0.0
  0
LINE
  5
1CD
330
140
100
AcDbEntity
  8
MO_001_VIEW_PV
  6
BYBLOCK
100
AcDbLine
 10
-1.0
 20
-13.25
 30
0.0
 11
29.285999
 21
-13.25
 31
0.0
  0
LINE
  5
1CE
330
140
100
AcDbEntity
  8
MO_001_VIEW_PV
  6
BYBLOCK
100
AcDbLine
 10
-2.299999
 20
-11.25
 30
0.0
 11
29.285999
 21
-11.25
 31
0.0
  0
LINE
  5
1CF
330
140
100
AcDbEntity
  8
MO_001_VIEW_PV
  6
BYBLOCK
100
AcDbLine
 10
27.0
 20
-24.535715
 30
0.0
 11
27.0
 21
-13.25
 31
0.0
  0
ENDBLK
  5
1D0
330
140
100
AcDbEntity
  8
0
100
AcDbBlockEnd
  0
BLOCK
  5
1D1
330
142
100
AcDbEntity
  8
0
100
AcDbBlockBegin
  2
*D10
 70
     1
 10
0.0
 20
0.0
 30
0.0
  3
*D10
  1

  0
LINE
  5
1D2
330
142
100
AcDbEntity
  8
MO_001_VIEW_PV
  6
BYBLOCK
100
AcDbLine
 10
-46.0
 20
-30.0
 30
0.0
 11
-22.0
 21
-30.0
 31
0.0
  0
SOLID
  5
1D3
330
142
100
AcDbEntity
  8
MO_001_VIEW_PV
  6
BYBLOCK
100
AcDbTrace
 10
-42.68174000000001
 20
-29.416488
 30
0.0
 11
-45.49199999999999
 21
-30.0
 31
0.0
 12
-42.68174000000001
 22
-30.583512
 32
0.0
 13
-42.68174000000001
 23
-30.583512
 33
0.0
  0
SOLID
  5
1D4
330
142
100
AcDbEntity
  8
MO_001_VIEW_PV
  6
BYBLOCK
100
AcDbTrace
 10
-25.31826
 20
-30.583512
 30
0.0
 11
-22.508
 21
-30.0
 31
0.0
 12
-25.31826
 22
-29.416488
 32
0.0
 13
-25.31826
 23
-29.416488
 33
0.0
  0
LINE
  5
1D5
330
142
100
AcDbEntity
  8
MO_001_VIEW_PV
  6
BYBLOCK
100
AcDbLine
 10
-46.0
 20
-44.073196
 30
0.0
 11
-46.0
 21
-27.714001
 31
0.0
  0
LINE
  5
1D6
330
142
100
AcDbEntity
  8
MO_001_VIEW_PV
  6
BYBLOCK
100
AcDbLine
 10
-22.0
 20
-41.5
 30
0.0
 11
-22.0
 21
-27.714001
 31
0.0
  0
TEXT
  5
1D7
330
142
100
AcDbEntity
  8
MO_001_VIEW_PV
  6
BYBLOCK
100
AcDbText
 10
-32.785714
 20
-27.375
 30
0.0
 40
1.5
  1
%%P0.5
100
AcDbText
  0
TEXT
  5
1D8
330
142
100
AcDbEntity
  8
MO_001_VIEW_PV
  6
BYBLOCK
100
AcDbText
 10
-38.57142899999999
 20
-29.25
 30
0.0
 40
3.0
  1
24
100
AcDbText
  0
ENDBLK
  5
1D9
330
142
100
AcDbEntity
  8
0
100
AcDbBlockEnd
  0
BLOCK
  5
1DA
330
144
100
AcDbEntity
  8
0
100
AcDbBlockBegin
  2
*D11
 70
     1
 10
0.0
 20
0.0
 30
0.0
  3
*D11
  1

  0
LINE
  5
1DB
330
144
100
AcDbEntity
  8
MO_001_VIEW_PV
  6
BYBLOCK
100
AcDbLine
 10
-22.0
 20
-30.0
 30
0.0
 11
-8.0
 21
-30.0
 31
0.0
  0
SOLID
  5
1DC
330
144
100
AcDbEntity
  8
MO_001_VIEW_PV
  6
BYBLOCK
100
AcDbTrace
 10
-18.68173999999999
 20
-29.416488
 30
0.0
 11
-21.49199999999999
 21
-30.0
 31
0.0
 12
-18.68173999999999
 22
-30.583512
 32
0.0
 13
-18.68173999999999
 23
-30.583512
 33
0.0
  0
SOLID
  5
1DD
330
144
100
AcDbEntity
  8
MO_001_VIEW_PV
  6
BYBLOCK
100
AcDbTrace
 10
-11.31825999999999
 20
-30.583512
 30
0.0
 11
-8.507999999999999
 21
-30.0
 31
0.0
 12
-11.31825999999999
 22
-29.416488
 32
0.0
 13
-11.31825999999999
 23
-29.416488
 33
0.0
  0
LINE
  5
1DE
330
144
100
AcDbEntity
  8
MO_001_VIEW_PV
  6
BYBLOCK
100
AcDbLine
 10
-22.0
 20
-41.5
 30
0.0
 11
-22.0
 21
-27.714001
 31
0.0
  0
LINE
  5
1DF
330
144
100
AcDbEntity
  8
MO_001_VIEW_PV
  6
BYBLOCK
100
AcDbLine
 10
-8.0
 20
-41.5
 30
0.0
 11
-8.0
 21
-27.714001
 31
0.0
  0
TEXT
  5
1E0
330
144
100
AcDbEntity
  8
MO_001_VIEW_PV
  6
BYBLOCK
100
AcDbText
 10
-14.785714
 20
-27.375
 30
0.0
 40
1.5
  1
%%P0.2
100
AcDbText
  0
TEXT
  5
1E1
330
144
100
AcDbEntity
  8
MO_001_VIEW_PV
  6
BYBLOCK
100
AcDbText
 10
-20.571429
 20
-29.25
 30
0.0
 40
3.0
  1
14
100
AcDbText
  0
ENDBLK
  5
1E2
330
144
100
AcDbEntity
  8
0
100
AcDbBlockEnd
  0
BLOCK
  5
1E3
330
146
100
AcDbEntity
  8
0
100
AcDbBlockBegin
  2
*D12
 70
     1
 10
0.0
 20
0.0
 30
0.0
  3
*D12
  1

  0
LINE
  5
1E4
330
146
100
AcDbEntity
  8
MO_001_VIEW_PV
  6
BYBLOCK
100
AcDbLine
 10
0.0
 20
-30.0
 30
0.0
 11
-8.0
 21
-30.0
 31
0.0
  0
LINE
  5
1E5
330
146
100
AcDbEntity
  8
MO_001_VIEW_PV
  6
BYBLOCK
100
AcDbLine
 10
0.0
 20
-30.0
 30
0.0
 11
6.349999999999999
 21
-30.0
 31
0.0
  0
LINE
  5
1E6
330
146
100
AcDbEntity
  8
MO_001_VIEW_PV
  6
BYBLOCK
100
AcDbLine
 10
-8.0
 20
-30.0
 30
0.0
 11
-14.35
 21
-30.0
 31
0.0
  0
SOLID
  5
1E7
330
146
100
AcDbEntity
  8
MO_001_VIEW_PV
  6
BYBLOCK
100
AcDbTrace
 10
3.318259999999999
 20
-29.416488
 30
0.0
 11
0.508
 21
-30.0
 31
0.0
 12
3.318259999999999
 22
-30.583512
 32
0.0
 13
3.318259999999999
 23
-30.583512
 33
0.0
  0
SOLID
  5
1E8
330
146
100
AcDbEntity
  8
MO_001_VIEW_PV
  6
BYBLOCK
100
AcDbTrace
 10
-11.31825999999999
 20
-30.583512
 30
0.0
 11
-8.507999999999999
 21
-30.0
 31
0.0
 12
-11.31825999999999
 22
-29.416488
 32
0.0
 13
-11.31825999999999
 23
-29.416488
 33
0.0
  0
LINE
  5
1E9
330
146
100
AcDbEntity
  8
MO_001_VIEW_PV
  6
BYBLOCK
100
AcDbLine
 10
0.0
 20
-36.5
 30
0.0
 11
0.0
 21
-27.714001
 31
0.0
  0
LINE
  5
1EA
330
146
100
AcDbEntity
  8
MO_001_VIEW_PV
  6
BYBLOCK
100
AcDbLine
 10
-8.0
 20
-41.5
 30
0.0
 11
-8.0
 21
-27.714001
 31
0.0
  0
TEXT
  5
1EB
330
146
100
AcDbEntity
  8
MO_001_VIEW_PV
  6
BYBLOCK
100
AcDbText
 10
7.714286
 20
-27.375
 30
0.0
 40
1.5
  1
%%P0.2
100
AcDbText
  0
TEXT
  5
1EC
330
146
100
AcDbEntity
  8
MO_001_VIEW_PV
  6
BYBLOCK
100
AcDbText
 10
4.928570999999999
 20
-29.25
 30
0.0
 40
3.0
  1
8
100
AcDbText
  0
LINE
  5
1ED
330
146
100
AcDbEntity
  8
MO_001_VIEW_PV
  6
BYBLOCK
100
AcDbLine
 10
14.035714
 20
-30.0
 30
0.0
 11
0.0
 21
-30.0
 31
0.0
  0
ENDBLK
  5
1EE
330
146
100
AcDbEntity
  8
0
100
AcDbBlockEnd
  0
BLOCK
  5
1EF
330
148
100
AcDbEntity
  8
0
100
AcDbBlockBegin
  2
*D13
 70
     1
 10
0.0
 20
0.0
 30
0.0
  3
*D13
  1

  0
TEXT
  5
1F0
330
148
100
AcDbEntity
  8
MO_001_VIEW_PV
  6
BYBLOCK
100
AcDbText
 10
5.999998999999999
 20
-40.25540999999999
 30
0.0
 40
1.5
  1
%%P0.2
 50
90.0
100
AcDbText
  0
TEXT
  5
1F1
330
148
100
AcDbEntity
  8
MO_001_VIEW_PV
  6
BYBLOCK
100
AcDbText
 10
9.0
 20
-43.041125
 30
0.0
 40
3.0
  1
8
 50
90.0
100
AcDbText
  0
LINE
  5
1F2
330
148
100
AcDbEntity
  8
MO_001_VIEW_PV
  6
BYBLOCK
100
AcDbLine
 10
12.0
 20
-52.0
 30
0.0
 11
12.0
 21
-44.0
 31
0.0
  0
LINE
  5
1F3
330
148
100
AcDbEntity
  8
MO_001_VIEW_PV
  6
BYBLOCK
100
AcDbLine
 10
12.0
 20
-52.0
 30
0.0
 11
12.0
 21
-58.35
 31
0.0
  0
LINE
  5
1F4
330
148
100
AcDbEntity
  8
MO_001_VIEW_PV
  6
BYBLOCK
100
AcDbLine
 10
12.0
 20
-44.0
 30
0.0
 11
12.0
 21
-37.65
 31
0.0
  0
SOLID
  5
1F5
330
148
100
AcDbEntity
  8
MO_001_VIEW_PV
  6
BYBLOCK
100
AcDbTrace
 10
12.58351199999999
 20
-55.31825999999999
 30
0.0
 11
12.0
 21
-52.508
 31
0.0
 12
11.416488
 22
-55.31825999999999
 32
0.0
 13
11.416488
 23
-55.31825999999999
 33
0.0
  0
SOLID
  5
1F6
330
148
100
AcDbEntity
  8
MO_001_VIEW_PV
  6
BYBLOCK
100
AcDbTrace
 10
11.416488
 20
-40.68174
 30
0.0
 11
12.0
 21
-43.49199999999999
 31
0.0
 12
12.58351199999999
 22
-40.68174
 32
0.0
 13
12.58351199999999
 23
-40.68174
 33
0.0
  0
LINE
  5
1F7
330
148
100
AcDbEntity
  8
MO_001_VIEW_PV
  6
BYBLOCK
100
AcDbLine
 10
-5.5
 20
-52.0
 30
0.0
 11
14.286
 21
-52.0
 31
0.0
  0
LINE
  5
1F8
330
148
100
AcDbEntity
  8
MO_001_VIEW_PV
  6
BYBLOCK
100
AcDbLine
 10
-5.5
 20
-44.0
 30
0.0
 11
14.286
 21
-44.0
 31
0.0
  0
LINE
  5
1F9
330
148
100
AcDbEntity
  8
MO_001_VIEW_PV
  6
BYBLOCK
100
AcDbLine
 10
12.0
 20
-44.0
 30
0.0
 11
12.0
 21
-33.933979
 31
0.0
  0
ENDBLK
  5
1FA
330
148
100
AcDbEntity
  8
0
100
AcDbBlockEnd
  0
BLOCK
  5
1FB
330
14A
100
AcDbEntity
  8
0
100
AcDbBlockBegin
  2
*D14
 70
     1
 10
0.0
 20
0.0
 30
0.0
  3
*D14
  1

  0
TEXT
  5
1FC
330
14A
100
AcDbEntity
  8
MO_001_VIEW_PV
  6
BYBLOCK
100
AcDbText
 10
3.302705
 20
-74.25
 30
0.0
 40
3.0
  1
長さ250以上
100
AcDbText
  0
LINE
  5
1FD
330
14A
100
AcDbEntity
  8
MO_001_VIEW_PV
  6
BYBLOCK
100
AcDbLine
 10
31.400002
 20
-75.0
 30
0.0
 11
-4.651733999999999
 21
-75.0
 31
0.0
  0
SOLID
  5
1FE
330
14A
100
AcDbEntity
  8
MO_001_VIEW_PV
  6
BYBLOCK
100
AcDbTrace
 10
28.081741
 20
-75.583512
 30
0.0
 11
30.892002
 21
-75.0
 31
0.0
 12
28.081741
 22
-74.416488
 32
0.0
 13
28.081741
 23
-74.416488
 33
0.0
  0
SOLID
  5
1FF
330
14A
100
AcDbEntity
  8
MO_001_VIEW_PV
  6
BYBLOCK
100
AcDbTrace
 10
-1.333474
 20
-74.416488
 30
0.0
 11
-4.143733999999999
 21
-75.0
 31
0.0
 12
-1.333474
 22
-75.583512
 32
0.0
 13
-1.333474
 23
-75.583512
 33
0.0
  0
LINE
  5
200
330
14A
100
AcDbEntity
  8
MO_001_VIEW_PV
  6
BYBLOCK
100
AcDbLine
 10
31.400002
 20
-66.74000500000001
 30
0.0
 11
31.400002
 21
-77.286003
 31
0.0
  0
LINE
  5
201
330
14A
100
AcDbEntity
  8
MO_001_VIEW_PV
  6
BYBLOCK
100
AcDbLine
 10
-4.651733999999999
 20
-59.942642
 30
0.0
 11
-4.651733999999999
 21
-77.286003
 31
0.0
  0
ENDBLK
  5
202
330
14A
100
AcDbEntity
  8
0
100
AcDbBlockEnd
  0
ENDSEC
  0
SECTION
  2
ENTITIES
  0
TEXT
  5
4B
330
1E
100
AcDbEntity
  8
OVERLAY_MAP
  6
C_SOLID_L
100
AcDbText
 10
0.0
 20
6.349999999999999
 30
0.0
 40
4.1672
  1
Model Overlay Name
100
AcDbText
  0
TEXT
  5
4C
330
1E
100
AcDbEntity
  8
OVERLAY_MAP
  6
C_SOLID_L
100
AcDbText
 10
126.999998
 20
0.0
 30
0.0
 40
4.1672
  1
Number
100
AcDbText
  0
TEXT
  5
4D
330
1E
100
AcDbEntity
  8
OVERLAY_MAP
  6
C_SOLID_L
100
AcDbText
 10
177.7999969999999
 20
0.0
 30
0.0
 40
4.1672
  1
File Text
100
AcDbText
  0
TEXT
  5
4E
330
1E
100
AcDbEntity
  8
OVERLAY_MAP
  6
C_SOLID_L
100
AcDbText
 10
0.0
 20
-6.349999999999999
 30
0.0
 40
4.1672
  1
sh1l-1140 
100
AcDbText
  0
TEXT
  5
4F
330
1E
100
AcDbEntity
  8
OVERLAY_MAP
  6
C_SOLID_L
100
AcDbText
 10
126.999998
 20
-6.349999999999999
 30
0.0
 40
4.1672
  1
001
100
AcDbText
  0
TEXT
  5
50
330
1E
100
AcDbEntity
  8
OVERLAY_MAP
  6
C_SOLID_L
100
AcDbText
 10
177.7999969999999
 20
-6.349999999999999
 30
0.0
 40
4.1672
  1
                                                                   00118
100
AcDbText
  0
LINE
  5
51
330
1E
100
AcDbEntity
  8
MO_001_VIEW_PV
  6
C_CENTER_L
100
AcDbLine
 10
-51.170856
 20
0.0
 30
0.0
 11
7.725494
 21
0.0
 31
0.0
  0
LINE
  5
52
330
1E
100
AcDbEntity
  8
MO_001_VIEW_PV
  6
C_SOLID_M
100
AcDbLine
 10
-40.0
 20
-11.25
 30
0.0
 11
-2.299999
 21
-11.25
 31
0.0
  0
LINE
  5
53
330
1E
100
AcDbEntity
  8
MO_001_VIEW_PV
  6
C_SOLID_M
100
AcDbLine
 10
-40.0
 20
-13.25
 30
0.0
 11
-1.0
 21
-13.25
 31
0.0
  0
LINE
  5
54
330
1E
100
AcDbEntity
  8
MO_001_VIEW_PV
  6
C_SOLID_M
100
AcDbLine
 10
-40.0
 20
-11.25
 30
0.0
 11
-40.0
 21
-13.25
 31
0.0
  0
ARC
  5
55
330
1E
100
AcDbEntity
  8
MO_001_VIEW_PV
  6
C_SOLID_M
100
AcDbCircle
 10
-1.0
 20
-12.25
 30
0.0
 40
1.0
100
AcDbArc
 50
269.999991
 51
0.000003
  0
LINE
  5
56
330
1E
100
AcDbEntity
  8
MO_001_VIEW_PV
  6
C_SOLID_M
100
AcDbLine
 10
0.0
 20
-10.25
 30
0.0
 11
-2.0
 21
-10.25
 31
0.0
  0
LINE
  5
57
330
1E
100
AcDbEntity
  8
MO_001_VIEW_PV
  6
C_SOLID_M
100
AcDbLine
 10
-3.0
 20
-13.25
 30
0.0
 11
-3.0
 21
-11.25
 31
0.0
  0
LINE
  5
58
330
1E
100
AcDbEntity
  8
MO_001_VIEW_PV
  6
C_SOLID_M
100
AcDbLine
 10
0.0
 20
-12.25
 30
0.0
 11
0.0
 21
12.25
 31
0.0
  0
LINE
  5
59
330
1E
100
AcDbEntity
  8
MO_001_VIEW_PV
  6
C_SOLID_M
100
AcDbLine
 10
-40.0
 20
11.25
 30
0.0
 11
-2.299999
 21
11.25
 31
0.0
  0
LINE
  5
5A
330
1E
100
AcDbEntity
  8
MO_001_VIEW_PV
  6
C_SOLID_M
100
AcDbLine
 10
-40.0
 20
13.25
 30
0.0
 11
-1.0
 21
13.25
 31
0.0
  0
LINE
  5
5B
330
1E
100
AcDbEntity
  8
MO_001_VIEW_PV
  6
C_SOLID_M
100
AcDbLine
 10
-40.0
 20
11.25
 30
0.0
 11
-40.0
 21
13.25
 31
0.0
  0
LINE
  5
5C
330
1E
100
AcDbEntity
  8
MO_001_VIEW_PV
  6
C_SOLID_M
100
AcDbLine
 10
-2.0
 20
-10.94999999999999
 30
0.0
 11
-2.0
 21
10.950001
 31
0.0
  0
ARC
  5
5D
330
1E
100
AcDbEntity
  8
MO_001_VIEW_PV
  6
C_SOLID_M
100
AcDbCircle
 10
-1.0
 20
12.25
 30
0.0
 40
1.0
100
AcDbArc
 50
0.0
 51
90.000002
  0
LINE
  5
5E
330
1E
100
AcDbEntity
  8
MO_001_VIEW_PV
  6
C_SOLID_M
100
AcDbLine
 10
0.0
 20
10.25
 30
0.0
 11
-2.0
 21
10.25
 31
0.0
  0
LINE
  5
5F
330
1E
100
AcDbEntity
  8
MO_001_VIEW_PV
  6
C_SOLID_M
100
AcDbLine
 10
-3.0
 20
13.25
 30
0.0
 11
-3.0
 21
11.25
 31
0.0
  0
LINE
  5
60
330
1E
100
AcDbEntity
  8
MO_001_VIEW_PV
  6
C_CENTER_L
100
AcDbLine
 10
-51.54583699999999
 20
-48.0
 30
0.0
 11
3.310005
 21
-48.0
 31
0.0
  0
LINE
  5
61
330
1E
100
AcDbEntity
  8
MO_001_VIEW_PV
  6
C_SOLID_M
100
AcDbLine
 10
-2.0
 20
-59.5
 30
0.0
 11
0.0
 21
-59.5
 31
0.0
  0
LINE
  5
62
330
1E
100
AcDbEntity
  8
MO_001_VIEW_PV
  6
C_SOLID_M
100
AcDbLine
 10
-3.0
 20
-59.0
 30
0.0
 11
-3.0
 21
-59.5
 31
0.0
  0
LINE
  5
63
330
1E
100
AcDbEntity
  8
MO_001_VIEW_PV
  6
C_SOLID_M
100
AcDbLine
 10
-3.0
 20
-59.0
 30
0.0
 11
0.0
 21
-59.0
 31
0.0
  0
LINE
  5
64
330
1E
100
AcDbEntity
  8
MO_001_VIEW_PV
  6
C_SOLID_M
100
AcDbLine
 10
-40.0
 20
-59.5
 30
0.0
 11
-3.0
 21
-59.5
 31
0.0
  0
LINE
  5
65
330
1E
100
AcDbEntity
  8
MO_001_VIEW_PV
  6
C_SOLID_M
100
AcDbLine
 10
-2.0
 20
-59.5
 30
0.0
 11
-2.0
 21
-59.0
 31
0.0
  0
LINE
  5
66
330
1E
100
AcDbEntity
  8
MO_001_VIEW_PV
  6
C_SOLID_M
100
AcDbLine
 10
-40.0
 20
-53.0
 30
0.0
 11
-40.0
 21
-59.5
 31
0.0
  0
LINE
  5
67
330
1E
100
AcDbEntity
  8
MO_001_VIEW_PV
  6
C_SOLID_M
100
AcDbLine
 10
-40.0
 20
-53.0
 30
0.0
 11
-36.69999699999999
 21
-53.0
 31
0.0
  0
LINE
  5
68
330
1E
100
AcDbEntity
  8
MO_001_VIEW_PV
  6
C_SOLID_M
100
AcDbLine
 10
-36.700009
 20
-53.000021
 30
0.0
 11
-37.000008
 21
-52.000022
 31
0.0
  0
LINE
  5
69
330
1E
100
AcDbEntity
  8
MO_001_VIEW_PV
  6
C_SOLID_M
100
AcDbLine
 10
-37.0
 20
-53.0
 30
0.0
 11
-37.0
 21
-43.0
 31
0.0
  0
LINE
  5
6A
330
1E
100
AcDbEntity
  8
MO_001_VIEW_PV
  6
C_SOLID_M
100
AcDbLine
 10
0.0
 20
-59.5
 30
0.0
 11
0.0
 21
-36.5
 31
0.0
  0
LINE
  5
6B
330
1E
100
AcDbEntity
  8
MO_001_VIEW_PV
  6
C_SOLID_M
100
AcDbLine
 10
-2.0
 20
-36.5
 30
0.0
 11
0.0
 21
-36.5
 31
0.0
  0
LINE
  5
6C
330
1E
100
AcDbEntity
  8
MO_001_VIEW_PV
  6
C_SOLID_M
100
AcDbLine
 10
-3.0
 20
-37.0
 30
0.0
 11
-3.0
 21
-36.5
 31
0.0
  0
LINE
  5
6D
330
1E
100
AcDbEntity
  8
MO_001_VIEW_PV
  6
C_SOLID_M
100
AcDbLine
 10
-3.0
 20
-37.0
 30
0.0
 11
0.0
 21
-37.0
 31
0.0
  0
LINE
  5
6E
330
1E
100
AcDbEntity
  8
MO_001_VIEW_PV
  6
C_SOLID_M
100
AcDbLine
 10
-40.0
 20
-36.5
 30
0.0
 11
-3.0
 21
-36.5
 31
0.0
  0
LINE
  5
6F
330
1E
100
AcDbEntity
  8
MO_001_VIEW_PV
  6
C_SOLID_M
100
AcDbLine
 10
-2.0
 20
-36.5
 30
0.0
 11
-2.0
 21
-37.0
 31
0.0
  0
LINE
  5
70
330
1E
100
AcDbEntity
  8
MO_001_VIEW_PV
  6
C_SOLID_M
100
AcDbLine
 10
-40.0
 20
-43.0
 30
0.0
 11
-40.0
 21
-36.5
 31
0.0
  0
LINE
  5
71
330
1E
100
AcDbEntity
  8
MO_001_VIEW_PV
  6
C_SOLID_M
100
AcDbLine
 10
-40.0
 20
-43.0
 30
0.0
 11
-36.69999699999999
 21
-43.0
 31
0.0
  0
LINE
  5
72
330
1E
100
AcDbEntity
  8
MO_001_VIEW_PV
  6
C_SOLID_M
100
AcDbLine
 10
-36.700001
 20
-43.000036
 30
0.0
 11
-37.000001
 21
-44.000038
 31
0.0
  0
LINE
  5
73
330
1E
100
AcDbEntity
  8
MO_001_VIEW_PV
  6
C_CENTER_L
100
AcDbLine
 10
-8.0
 20
-49.5
 30
0.0
 11
-8.0
 21
-54.5
 31
0.0
  0
LINE
  5
74
330
1E
100
AcDbEntity
  8
MO_001_VIEW_PV
  6
C_CENTER_L
100
AcDbLine
 10
-8.0
 20
-41.5
 30
0.0
 11
-8.0
 21
-46.5
 31
0.0
  0
LINE
  5
75
330
1E
100
AcDbEntity
  8
MO_001_VIEW_PV
  6
C_CENTER_L
100
AcDbLine
 10
-22.0
 20
-41.5
 30
0.0
 11
-22.0
 21
-46.5
 31
0.0
  0
LINE
  5
76
330
1E
100
AcDbEntity
  8
MO_001_VIEW_PV
  6
C_CENTER_L
100
AcDbLine
 10
-22.0
 20
-49.5
 30
0.0
 11
-22.0
 21
-54.5
 31
0.0
  0
LINE
  5
77
330
1E
100
AcDbEntity
  8
MO_001_VIEW_PV
  6
C_CENTER_L
100
AcDbLine
 10
-24.5
 20
-44.0
 30
0.0
 11
-19.5
 21
-44.0
 31
0.0
  0
LINE
  5
78
330
1E
100
AcDbEntity
  8
MO_001_VIEW_PV
  6
C_CENTER_L
100
AcDbLine
 10
-24.5
 20
-52.0
 30
0.0
 11
-19.5
 21
-52.0
 31
0.0
  0
LINE
  5
79
330
1E
100
AcDbEntity
  8
MO_001_VIEW_PV
  6
C_CENTER_L
100
AcDbLine
 10
-10.5
 20
-44.0
 30
0.0
 11
-5.5
 21
-44.0
 31
0.0
  0
LINE
  5
7A
330
1E
100
AcDbEntity
  8
MO_001_VIEW_PV
  6
C_CENTER_L
100
AcDbLine
 10
-10.5
 20
-52.0
 30
0.0
 11
-5.5
 21
-52.0
 31
0.0
  0
CIRCLE
  5
7B
330
1E
100
AcDbEntity
  8
MO_001_VIEW_PV
  6
C_SOLID_M
100
AcDbCircle
 10
-22.0
 20
-44.0
 30
0.0
 40
1.3
  0
CIRCLE
  5
7C
330
1E
100
AcDbEntity
  8
MO_001_VIEW_PV
  6
C_SOLID_M
100
AcDbCircle
 10
-8.0
 20
-52.0
 30
0.0
 40
1.3
  0
CIRCLE
  5
7D
330
1E
100
AcDbEntity
  8
MO_001_VIEW_PV
  6
C_SOLID_L
100
AcDbCircle
 10
-8.0
 20
-44.0
 30
0.0
 40
1.5
  0
CIRCLE
  5
7E
330
1E
100
AcDbEntity
  8
MO_001_VIEW_PV
  6
C_SOLID_L
100
AcDbCircle
 10
-22.0
 20
-52.0
 30
0.0
 40
1.5
  0
CIRCLE
  5
7F
330
1E
100
AcDbEntity
  8
MO_001_VIEW_PV
  6
C_SOLID_M
100
AcDbCircle
 10
-8.0
 20
-44.0
 30
0.0
 40
1.2295
  0
CIRCLE
  5
80
330
1E
100
AcDbEntity
  8
MO_001_VIEW_PV
  6
C_SOLID_M
100
AcDbCircle
 10
-22.0
 20
-52.0
 30
0.0
 40
1.2295
  0
LINE
  5
81
330
1E
100
AcDbEntity
  8
MO_001_VIEW_PV
  6
C_CENTER_L
100
AcDbLine
 10
-22.0
 20
-15.25
 30
0.0
 11
-22.0
 21
-9.25
 31
0.0
  0
LINE
  5
82
330
1E
100
AcDbEntity
  8
MO_001_VIEW_PV
  6
C_CENTER_L
100
AcDbLine
 10
-8.0
 20
-15.25
 30
0.0
 11
-8.0
 21
-9.25
 31
0.0
  0
LINE
  5
83
330
1E
100
AcDbEntity
  8
MO_001_VIEW_PV
  6
C_SOLID_L
100
AcDbLine
 10
-20.77049999999999
 20
-12.047294
 30
0.0
 11
-20.77049999999999
 21
-11.700797
 31
0.0
  0
LINE
  5
84
330
1E
100
AcDbEntity
  8
MO_001_VIEW_PV
  6
C_SOLID_L
100
AcDbLine
 10
-20.77049999999999
 20
-12.833099
 30
0.0
 11
-20.77049999999999
 21
-12.505165
 31
0.0
  0
LINE
  5
85
330
1E
100
AcDbEntity
  8
MO_001_VIEW_PV
  6
C_SOLID_M
100
AcDbLine
 10
-104.4999999999999
 20
13.25
 30
0.0
 11
-104.4999999999999
 21
-13.25
 31
0.0
  0
LINE
  5
86
330
1E
100
AcDbEntity
  8
MO_001_VIEW_PV
  6
C_SOLID_M
100
AcDbLine
 10
-97.75
 20
-11.25
 30
0.0
 11
-104.4999999999999
 21
-11.25
 31
0.0
  0
LINE
  5
87
330
1E
100
AcDbEntity
  8
MO_001_VIEW_PV
  6
C_SOLID_M
100
AcDbLine
 10
-93.0
 20
-13.25
 30
0.0
 11
-104.4999999999999
 21
-13.25
 31
0.0
  0
LINE
  5
88
330
1E
100
AcDbEntity
  8
MO_001_VIEW_PV
  6
C_SOLID_M
100
AcDbLine
 10
-98.0
 20
-11.25
 30
0.0
 11
-98.0
 21
-13.25
 31
0.0
  0
LINE
  5
89
330
1E
100
AcDbEntity
  8
MO_001_VIEW_PV
  6
C_SOLID_M
100
AcDbLine
 10
-81.5
 20
13.25
 30
0.0
 11
-81.5
 21
-13.25
 31
0.0
  0
LINE
  5
8A
330
1E
100
AcDbEntity
  8
MO_001_VIEW_PV
  6
C_SOLID_M
100
AcDbLine
 10
-88.25000000000001
 20
-11.25
 30
0.0
 11
-81.5
 21
-11.25
 31
0.0
  0
LINE
  5
8B
330
1E
100
AcDbEntity
  8
MO_001_VIEW_PV
  6
C_SOLID_M
100
AcDbLine
 10
-93.0
 20
-13.25
 30
0.0
 11
-81.5
 21
-13.25
 31
0.0
  0
LINE
  5
8C
330
1E
100
AcDbEntity
  8
MO_001_VIEW_PV
  6
C_SOLID_M
100
AcDbLine
 10
-88.0
 20
-11.25
 30
0.0
 11
-88.0
 21
-13.25
 31
0.0
  0
LINE
  5
8D
330
1E
100
AcDbEntity
  8
MO_001_VIEW_PV
  6
C_SOLID_M
100
AcDbLine
 10
-97.75
 20
11.25
 30
0.0
 11
-104.4999999999999
 21
11.25
 31
0.0
  0
LINE
  5
8E
330
1E
100
AcDbEntity
  8
MO_001_VIEW_PV
  6
C_SOLID_M
100
AcDbLine
 10
-93.0
 20
13.25
 30
0.0
 11
-104.4999999999999
 21
13.25
 31
0.0
  0
LINE
  5
8F
330
1E
100
AcDbEntity
  8
MO_001_VIEW_PV
  6
C_SOLID_M
100
AcDbLine
 10
-98.0
 20
11.25
 30
0.0
 11
-98.0
 21
13.25
 31
0.0
  0
LINE
  5
90
330
1E
100
AcDbEntity
  8
MO_001_VIEW_PV
  6
C_SOLID_M
100
AcDbLine
 10
-88.25000000000001
 20
11.25
 30
0.0
 11
-81.5
 21
11.25
 31
0.0
  0
LINE
  5
91
330
1E
100
AcDbEntity
  8
MO_001_VIEW_PV
  6
C_SOLID_M
100
AcDbLine
 10
-93.0
 20
13.25
 30
0.0
 11
-81.5
 21
13.25
 31
0.0
  0
LINE
  5
92
330
1E
100
AcDbEntity
  8
MO_001_VIEW_PV
  6
C_SOLID_M
100
AcDbLine
 10
-88.0
 20
11.25
 30
0.0
 11
-88.0
 21
13.25
 31
0.0
  0
LINE
  5
93
330
1E
100
AcDbEntity
  8
MO_001_VIEW_PV
  6
C_CENTER_L
100
AcDbLine
 10
-93.0
 20
15.0
 30
0.0
 11
-93.0
 21
-15.0
 31
0.0
  0
LINE
  5
94
330
1E
100
AcDbEntity
  8
MO_001_VIEW_PV
  6
C_CENTER_L
100
AcDbLine
 10
-108.0
 20
0.0
 30
0.0
 11
-78.0
 21
0.0
 31
0.0
  0
ARC
  5
95
330
1E
100
AcDbEntity
  8
MO_001_VIEW_PV
  6
C_SOLID_M
100
AcDbCircle
 10
-2.299999
 20
10.950001
 30
0.0
 40
0.3
100
AcDbArc
 50
0.0
 51
89.99998900000001
  0
ARC
  5
96
330
1E
100
AcDbEntity
  8
MO_001_VIEW_PV
  6
C_SOLID_M
100
AcDbCircle
 10
-2.299999
 20
-10.94999999999999
 30
0.0
 40
0.3
100
AcDbArc
 50
269.999991
 51
0.000003
  0
LINE
  5
97
330
1E
100
AcDbEntity
  8
MO_001_VIEW_PV
  6
C_SOLID_L
100
AcDbLine
 10
-20.5
 20
-12.047294
 30
0.0
 11
-20.5
 21
-11.700797
 31
0.0
  0
LINE
  5
98
330
1E
100
AcDbEntity
  8
MO_001_VIEW_PV
  6
C_SOLID_L
100
AcDbLine
 10
-20.5
 20
-12.833099
 30
0.0
 11
-20.5
 21
-12.505165
 31
0.0
  0
LINE
  5
99
330
1E
100
AcDbEntity
  8
MO_001_VIEW_PV
  6
C_SOLID_L
100
AcDbLine
 10
-23.5
 20
-12.047294
 30
0.0
 11
-23.5
 21
-11.700797
 31
0.0
  0
LINE
  5
9A
330
1E
100
AcDbEntity
  8
MO_001_VIEW_PV
  6
C_SOLID_L
100
AcDbLine
 10
-23.2295
 20
-12.047294
 30
0.0
 11
-23.2295
 21
-11.700797
 31
0.0
  0
LINE
  5
9B
330
1E
100
AcDbEntity
  8
MO_001_VIEW_PV
  6
C_SOLID_L
100
AcDbLine
 10
-23.5
 20
-12.833099
 30
0.0
 11
-23.5
 21
-12.505165
 31
0.0
  0
LINE
  5
9C
330
1E
100
AcDbEntity
  8
MO_001_VIEW_PV
  6
C_SOLID_L
100
AcDbLine
 10
-23.2295
 20
-12.833099
 30
0.0
 11
-23.2295
 21
-12.505165
 31
0.0
  0
LINE
  5
9D
330
1E
100
AcDbEntity
  8
MO_001_VIEW_PV
  6
C_SOLID_L
100
AcDbLine
 10
-9.5
 20
-12.047294
 30
0.0
 11
-9.5
 21
-11.700797
 31
0.0
  0
LINE
  5
9E
330
1E
100
AcDbEntity
  8
MO_001_VIEW_PV
  6
C_SOLID_L
100
AcDbLine
 10
-9.5
 20
-12.833099
 30
0.0
 11
-9.5
 21
-12.505165
 31
0.0
  0
LINE
  5
9F
330
1E
100
AcDbEntity
  8
MO_001_VIEW_PV
  6
C_SOLID_L
100
AcDbLine
 10
-9.229499999999999
 20
-12.833099
 30
0.0
 11
-9.229499999999999
 21
-12.505165
 31
0.0
  0
LINE
  5
A0
330
1E
100
AcDbEntity
  8
MO_001_VIEW_PV
  6
C_SOLID_L
100
AcDbLine
 10
-9.229499999999999
 20
-12.047294
 30
0.0
 11
-9.229499999999999
 21
-11.700797
 31
0.0
  0
LINE
  5
A1
330
1E
100
AcDbEntity
  8
MO_001_VIEW_PV
  6
C_SOLID_L
100
AcDbLine
 10
-6.7705
 20
-12.047294
 30
0.0
 11
-6.7705
 21
-11.700797
 31
0.0
  0
LINE
  5
A2
330
1E
100
AcDbEntity
  8
MO_001_VIEW_PV
  6
C_SOLID_L
100
AcDbLine
 10
-6.5
 20
-12.047294
 30
0.0
 11
-6.5
 21
-11.700797
 31
0.0
  0
LINE
  5
A3
330
1E
100
AcDbEntity
  8
MO_001_VIEW_PV
  6
C_SOLID_L
100
AcDbLine
 10
-6.7705
 20
-12.833099
 30
0.0
 11
-6.7705
 21
-12.505165
 31
0.0
  0
LINE
  5
A4
330
1E
100
AcDbEntity
  8
MO_001_VIEW_PV
  6
C_SOLID_L
100
AcDbLine
 10
-6.5
 20
-12.833099
 30
0.0
 11
-6.5
 21
-12.505165
 31
0.0
  0
LINE
  5
A5
330
1E
100
AcDbEntity
  8
MO_001_VIEW_PV
  6
C_SOLID_M
100
AcDbLine
 10
-37.0
 20
11.25
 30
0.0
 11
-37.0
 21
-11.25
 31
0.0
  0
LINE
  5
A6
330
1E
100
AcDbEntity
  8
MO_001_VIEW_PV
  6
C_SOLID_M
100
AcDbLine
 10
0.7
 20
-4.5
 30
0.0
 11
0.0
 21
-4.5
 31
0.0
  0
LINE
  5
A7
330
1E
100
AcDbEntity
  8
MO_001_VIEW_PV
  6
C_SOLID_M
100
AcDbLine
 10
0.7
 20
4.5
 30
0.0
 11
0.7
 21
-4.5
 31
0.0
  0
LINE
  5
A8
330
1E
100
AcDbEntity
  8
MO_001_VIEW_PV
  6
C_SOLID_M
100
AcDbLine
 10
0.7
 20
4.5
 30
0.0
 11
0.0
 21
4.5
 31
0.0
  0
LINE
  5
A9
330
1E
100
AcDbEntity
  8
MO_001_VIEW_PV
  6
C_SOLID_M
100
AcDbLine
 10
-50.0
 20
-5.200001
 30
0.0
 11
-50.0
 21
-1.5
 31
0.0
  0
LINE
  5
AA
330
1E
100
AcDbEntity
  8
MO_001_VIEW_PV
  6
C_SOLID_M
100
AcDbLine
 10
-47.5
 20
-5.5
 30
0.0
 11
-49.700001
 21
-5.5
 31
0.0
  0
LINE
  5
AB
330
1E
100
AcDbEntity
  8
MO_001_VIEW_PV
  6
C_SOLID_M
100
AcDbLine
 10
-49.700001
 20
-5.5
 30
0.0
 11
-49.700001
 21
-1.5
 31
0.0
  0
LINE
  5
AC
330
1E
100
AcDbEntity
  8
MO_001_VIEW_PV
  6
C_SOLID_M
100
AcDbLine
 10
-49.700005
 20
-5.499998999999999
 30
0.0
 11
-50.00000599999999
 21
-5.199999
 31
0.0
  0
LINE
  5
AD
330
1E
100
AcDbEntity
  8
MO_001_VIEW_PV
  6
C_CENTER_L
100
AcDbLine
 10
-46.0
 20
-7.418949
 30
0.0
 11
-46.0
 21
7.331344999999999
 31
0.0
  0
LINE
  5
AE
330
1E
100
AcDbEntity
  8
MO_001_VIEW_PV
  6
C_DASHED_M
100
AcDbLine
 10
-47.5
 20
-5.5
 30
0.0
 11
-47.5
 21
-1.5
 31
0.0
  0
LINE
  5
AF
330
1E
100
AcDbEntity
  8
MO_001_VIEW_PV
  6
C_DASHED_M
100
AcDbLine
 10
-44.5
 20
-5.5
 30
0.0
 11
-44.5
 21
-1.5
 31
0.0
  0
LINE
  5
B0
330
1E
100
AcDbEntity
  8
MO_001_VIEW_PV
  6
C_SOLID_M
100
AcDbLine
 10
-41.0
 20
-1.5
 30
0.0
 11
-41.0
 21
1.5
 31
0.0
  0
LINE
  5
B1
330
1E
100
AcDbEntity
  8
MO_001_VIEW_PV
  6
C_SOLID_M
100
AcDbLine
 10
-41.0
 20
-1.5
 30
0.0
 11
-50.0
 21
-1.5
 31
0.0
  0
LINE
  5
B2
330
1E
100
AcDbEntity
  8
MO_001_VIEW_PV
  6
C_SOLID_M
100
AcDbLine
 10
-50.0
 20
5.200001
 30
0.0
 11
-50.0
 21
1.5
 31
0.0
  0
LINE
  5
B3
330
1E
100
AcDbEntity
  8
MO_001_VIEW_PV
  6
C_SOLID_M
100
AcDbLine
 10
-47.5
 20
5.5
 30
0.0
 11
-49.700001
 21
5.5
 31
0.0
  0
LINE
  5
B4
330
1E
100
AcDbEntity
  8
MO_001_VIEW_PV
  6
C_SOLID_M
100
AcDbLine
 10
-49.700001
 20
5.5
 30
0.0
 11
-49.700001
 21
1.5
 31
0.0
  0
LINE
  5
B5
330
1E
100
AcDbEntity
  8
MO_001_VIEW_PV
  6
C_SOLID_M
100
AcDbLine
 10
-49.70000699999999
 20
5.500001999999999
 30
0.0
 11
-50.00000700000001
 21
5.200002999999999
 31
0.0
  0
LINE
  5
B6
330
1E
100
AcDbEntity
  8
MO_001_VIEW_PV
  6
C_DASHED_M
100
AcDbLine
 10
-47.5
 20
5.5
 30
0.0
 11
-47.5
 21
1.5
 31
0.0
  0
LINE
  5
B7
330
1E
100
AcDbEntity
  8
MO_001_VIEW_PV
  6
C_DASHED_M
100
AcDbLine
 10
-44.5
 20
5.5
 30
0.0
 11
-44.5
 21
1.5
 31
0.0
  0
LINE
  5
B8
330
1E
100
AcDbEntity
  8
MO_001_VIEW_PV
  6
C_SOLID_M
100
AcDbLine
 10
-41.0
 20
1.5
 30
0.0
 11
-50.0
 21
1.5
 31
0.0
  0
CIRCLE
  5
B9
330
1E
100
AcDbEntity
  8
MO_001_VIEW_PV
  6
C_SOLID_M
100
AcDbCircle
 10
-93.0
 20
0.0
 30
0.0
 40
5.5
  0
ARC
  5
BA
330
1E
100
AcDbEntity
  8
MO_001_VIEW_PV
  6
C_SOLID_M
100
AcDbCircle
 10
-93.0
 20
0.0
 30
0.0
 40
5.200001
100
AcDbArc
 50
16.765871
 51
163.234131
  0
LINE
  5
BB
330
1E
100
AcDbEntity
  8
MO_001_VIEW_PV
  6
C_SOLID_M
100
AcDbLine
 10
-98.29150400000001
 20
1.5
 30
0.0
 11
-87.708496
 21
1.5
 31
0.0
  0
LINE
  5
BC
330
1E
100
AcDbEntity
  8
MO_001_VIEW_PV
  6
C_SOLID_M
100
AcDbLine
 10
-98.29150400000001
 20
-1.5
 30
0.0
 11
-87.708496
 21
-1.5
 31
0.0
  0
ARC
  5
BD
330
1E
100
AcDbEntity
  8
MO_001_VIEW_PV
  6
C_SOLID_M
100
AcDbCircle
 10
-93.0
 20
0.0
 30
0.0
 40
5.200001
100
AcDbArc
 50
196.765869
 51
343.234129
  0
ARC
  5
BE
330
1E
100
AcDbEntity
  8
MO_001_VIEW_PV
  6
C_SOLID_M
100
AcDbCircle
 10
-46.0
 20
10.79149899999999
 30
0.0
 40
5.499996
100
AcDbArc
 50
254.173384
 51
285.826611
  0
LINE
  5
BF
330
1E
100
AcDbEntity
  8
MO_001_VIEW_PV
  6
C_SOLID_M
100
AcDbLine
 10
-39.0
 20
5.5
 30
0.0
 11
-44.5
 21
5.5
 31
0.0
  0
ARC
  5
C0
330
1E
100
AcDbEntity
  8
MO_001_VIEW_PV
  6
C_SOLID_M
100
AcDbCircle
 10
-46.0
 20
-10.79149899999999
 30
0.0
 40
5.499996
100
AcDbArc
 50
74.173389
 51
105.8266159999999
  0
LINE
  5
C1
330
1E
100
AcDbEntity
  8
MO_001_VIEW_PV
  6
C_SOLID_M
100
AcDbLine
 10
-39.0
 20
-5.5
 30
0.0
 11
-44.5
 21
-5.5
 31
0.0
  0
LINE
  5
C2
330
1E
100
AcDbEntity
  8
MO_001_VIEW_PV
  6
C_SOLID_M
100
AcDbLine
 10
-81.5
 20
11.25
 30
0.0
 11
-81.5
 21
0.0
 31
0.0
  0
LINE
  5
C3
330
1E
100
AcDbEntity
  8
MO_001_VIEW_PV
  6
C_SOLID_M
100
AcDbLine
 10
-98.0
 20
13.15
 30
0.0
 11
-88.0
 21
13.15
 31
0.0
  0
LINE
  5
C4
330
1E
100
AcDbEntity
  8
MO_001_VIEW_PV
  6
C_SOLID_M
100
AcDbLine
 10
-81.5
 20
-11.25
 30
0.0
 11
-81.5
 21
0.0
 31
0.0
  0
LINE
  5
C5
330
1E
100
AcDbEntity
  8
MO_001_VIEW_PV
  6
C_SOLID_M
100
AcDbLine
 10
-98.0
 20
-13.15
 30
0.0
 11
-88.0
 21
-13.15
 31
0.0
  0
LINE
  5
C6
330
1E
100
AcDbEntity
  8
MO_001_VIEW_PV
  6
C_SOLID_M
100
AcDbLine
 10
-104.4999999999999
 20
11.25
 30
0.0
 11
-104.4999999999999
 21
0.0
 31
0.0
  0
LINE
  5
C7
330
1E
100
AcDbEntity
  8
MO_001_VIEW_PV
  6
C_SOLID_M
100
AcDbLine
 10
-104.4999999999999
 20
-11.25
 30
0.0
 11
-104.4999999999999
 21
0.0
 31
0.0
  0
CIRCLE
  5
C8
330
1E
100
AcDbEntity
  8
MO_001_VIEW_PV
  6
C_SOLID_M
100
AcDbCircle
 10
-93.0
 20
0.0
 30
0.0
 40
6.049999999999999
  0
LINE
  5
C9
330
1E
100
AcDbEntity
  8
MO_001_VIEW_PV
  6
C_SOLID_M
100
AcDbLine
 10
-88.00001599999999
 20
13.150002
 30
0.0
 11
-88.25001699999999
 21
11.250002
 31
0.0
  0
LINE
  5
CA
330
1E
100
AcDbEntity
  8
MO_001_VIEW_PV
  6
C_SOLID_M
100
AcDbLine
 10
-98.00001800000002
 20
13.150003
 30
0.0
 11
-97.75001800000001
 21
11.250002
 31
0.0
  0
LINE
  5
CB
330
1E
100
AcDbEntity
  8
MO_001_VIEW_PV
  6
C_SOLID_M
100
AcDbLine
 10
-88.00001599999999
 20
-13.150002
 30
0.0
 11
-88.25001699999999
 21
-11.250002
 31
0.0
  0
LINE
  5
CC
330
1E
100
AcDbEntity
  8
MO_001_VIEW_PV
  6
C_SOLID_M
100
AcDbLine
 10
-98.00001800000002
 20
-13.150003
 30
0.0
 11
-97.75001800000001
 21
-11.250002
 31
0.0
  0
LINE
  5
CD
330
1E
100
AcDbEntity
  8
MO_001_VIEW_PV
  6
C_DASHED_M
100
AcDbLine
 10
-94.50000000000001
 20
5.291501999999999
 30
0.0
 11
-94.50000000000001
 21
1.5
 31
0.0
  0
LINE
  5
CE
330
1E
100
AcDbEntity
  8
MO_001_VIEW_PV
  6
C_DASHED_M
100
AcDbLine
 10
-91.5
 20
5.291501999999999
 30
0.0
 11
-91.5
 21
1.5
 31
0.0
  0
LINE
  5
CF
330
1E
100
AcDbEntity
  8
MO_001_VIEW_PV
  6
C_DASHED_M
100
AcDbLine
 10
-91.5
 20
-5.291501999999999
 30
0.0
 11
-91.5
 21
-1.5
 31
0.0
  0
LINE
  5
D0
330
1E
100
AcDbEntity
  8
MO_001_VIEW_PV
  6
C_DASHED_M
100
AcDbLine
 10
-94.50000000000001
 20
-5.291501999999999
 30
0.0
 11
-94.50000000000001
 21
-1.5
 31
0.0
  0
LINE
  5
D1
330
1E
100
AcDbEntity
  8
MO_001_VIEW_PV
  6
C_SOLID_M
100
AcDbLine
 10
-39.0
 20
-53.0
 30
0.0
 11
-39.0
 21
-43.0
 31
0.0
  0
LINE
  5
D2
330
1E
100
AcDbEntity
  8
MO_001_VIEW_PV
  6
C_SOLID_M
100
AcDbLine
 10
-39.0
 20
11.25
 30
0.0
 11
-39.0
 21
-11.25
 31
0.0
  0
LINE
  5
D3
330
1E
100
AcDbEntity
  8
MO_001_VIEW_PV
  6
C_SOLID_M
100
AcDbLine
 10
0.7
 20
-43.5
 30
0.0
 11
0.7
 21
-52.5
 31
0.0
  0
LINE
  5
D4
330
1E
100
AcDbEntity
  8
MO_001_VIEW_PV
  6
C_SOLID_M
100
AcDbLine
 10
0.7
 20
-43.5
 30
0.0
 11
0.0
 21
-43.5
 31
0.0
  0
LINE
  5
D5
330
1E
100
AcDbEntity
  8
MO_001_VIEW_PV
  6
C_SOLID_M
100
AcDbLine
 10
0.7
 20
-52.5
 30
0.0
 11
0.0
 21
-52.5
 31
0.0
  0
LINE
  5
D6
330
1E
100
AcDbEntity
  8
MO_001_VIEW_PV
  6
C_CENTER_L
100
AcDbLine
 10
-46.0
 20
-51.804184
 30
0.0
 11
-46.0
 21
-44.073196
 31
0.0
  0
LINE
  5
D7
330
1E
100
AcDbEntity
  8
MO_001_VIEW_PV
  6
C_SOLID_M
100
AcDbLine
 10
-41.0
 20
-42.708496
 30
0.0
 11
-41.0
 21
-42.5
 31
0.0
  0
LINE
  5
D8
330
1E
100
AcDbEntity
  8
MO_001_VIEW_PV
  6
C_SOLID_M
100
AcDbLine
 10
-50.0
 20
-43.021042
 30
0.0
 11
-50.0
 21
-52.978958
 31
0.0
  0
LINE
  5
D9
330
1E
100
AcDbEntity
  8
MO_001_VIEW_PV
  6
C_SOLID_M
100
AcDbLine
 10
-49.700001
 20
-42.708496
 30
0.0
 11
-49.700001
 21
-53.291504
 31
0.0
  0
LINE
  5
DA
330
1E
100
AcDbEntity
  8
MO_001_VIEW_PV
  6
C_SOLID_M
100
AcDbLine
 10
-40.0
 20
-42.5
 30
0.0
 11
-41.0
 21
-42.5
 31
0.0
  0
LINE
  5
DB
330
1E
100
AcDbEntity
  8
MO_001_VIEW_PV
  6
C_SOLID_M
100
AcDbLine
 10
-49.700001
 20
-42.708496
 30
0.0
 11
-41.0
 21
-42.708496
 31
0.0
  0
CIRCLE
  5
DC
330
1E
100
AcDbEntity
  8
MO_001_VIEW_PV
  6
C_SOLID_M
100
AcDbCircle
 10
-46.0
 20
-48.0
 30
0.0
 40
1.5
  0
LINE
  5
DD
330
1E
100
AcDbEntity
  8
MO_001_VIEW_PV
  6
C_SOLID_M
100
AcDbLine
 10
-50.00000599999999
 20
-43.021047
 30
0.0
 11
-49.700005
 21
-42.70849899999999
 31
0.0
  0
LINE
  5
DE
330
1E
100
AcDbEntity
  8
MO_001_VIEW_PV
  6
C_SOLID_M
100
AcDbLine
 10
-50.000005
 20
-52.978964
 30
0.0
 11
-49.700005
 21
-53.291511
 31
0.0
  0
LINE
  5
DF
330
1E
100
AcDbEntity
  8
MO_001_VIEW_PV
  6
C_SOLID_M
100
AcDbLine
 10
-49.700001
 20
-53.291504
 30
0.0
 11
-41.0
 21
-53.291504
 31
0.0
  0
LINE
  5
E0
330
1E
100
AcDbEntity
  8
MO_001_VIEW_PV
  6
C_SOLID_M
100
AcDbLine
 10
-41.0
 20
-53.291504
 30
0.0
 11
-41.0
 21
-53.5
 31
0.0
  0
LINE
  5
E1
330
1E
100
AcDbEntity
  8
MO_001_VIEW_PV
  6
C_SOLID_M
100
AcDbLine
 10
-40.0
 20
-53.5
 30
0.0
 11
-41.0
 21
-53.5
 31
0.0
  0
LINE
  5
E2
330
1E
100
AcDbEntity
  8
MO_001_VIEW_PV
  6
C_SOLID_M
100
AcDbLine
 10
-2.099997999999999
 20
-11.0
 30
0.0
 11
-2.099997999999999
 21
11.0
 31
0.0
  0
LINE
  5
E3
330
1E
100
AcDbEntity
  8
MO_001_VIEW_PV
  6
C_SOLID_M
100
AcDbLine
 10
-3.299998999999999
 20
-10.800003
 30
0.0
 11
-3.299998999999999
 21
10.800003
 31
0.0
  0
LINE
  5
E4
330
1E
100
AcDbEntity
  8
MO_001_VIEW_PV
  6
C_SOLID_M
100
AcDbLine
 10
-2.099997999999999
 20
-11.0
 30
0.0
 11
-3.099997999999999
 21
-11.0
 31
0.0
  0
ARC
  5
E5
330
1E
100
AcDbEntity
  8
MO_001_VIEW_PV
  6
C_SOLID_M
100
AcDbCircle
 10
-3.099997999999999
 20
-10.800003
 30
0.0
 40
0.2
100
AcDbArc
 50
180.000009
 51
269.999998
  0
LINE
  5
E6
330
1E
100
AcDbEntity
  8
MO_001_VIEW_PV
  6
C_SOLID_M
100
AcDbLine
 10
-25.6
 20
10.699997
 30
0.0
 11
-25.6
 21
-10.699997
 31
0.0
  0
LINE
  5
E7
330
1E
100
AcDbEntity
  8
MO_001_VIEW_PV
  6
C_SOLID_M
100
AcDbLine
 10
-2.099997999999999
 20
11.0
 30
0.0
 11
-3.099997999999999
 21
11.0
 31
0.0
  0
ARC
  5
E8
330
1E
100
AcDbEntity
  8
MO_001_VIEW_PV
  6
C_SOLID_M
100
AcDbCircle
 10
-3.099997999999999
 20
10.800003
 30
0.0
 40
0.2
100
AcDbArc
 50
90.00000899999999
 51
179.9999909999999
  0
LINE
  5
E9
330
1E
100
AcDbEntity
  8
MO_001_VIEW_PV
  6
C_SOLID_M
100
AcDbLine
 10
-25.6
 20
-6.800003
 30
0.0
 11
-26.200001
 21
-6.800003
 31
0.0
  0
LINE
  5
EA
330
1E
100
AcDbEntity
  8
MO_001_VIEW_PV
  6
C_SOLID_M
100
AcDbLine
 10
-26.200001
 20
-7.800003
 30
0.0
 11
-26.200001
 21
-6.800003
 31
0.0
  0
LINE
  5
EB
330
1E
100
AcDbEntity
  8
MO_001_VIEW_PV
  6
C_SOLID_M
100
AcDbLine
 10
-26.200001
 20
-7.800003
 30
0.0
 11
-25.6
 21
-7.800003
 31
0.0
  0
LINE
  5
EC
330
1E
100
AcDbEntity
  8
MO_001_VIEW_PV
  6
C_SOLID_M
100
AcDbLine
 10
-37.0
 20
11.19999699999999
 30
0.0
 11
-26.1
 21
11.19999699999999
 31
0.0
  0
LINE
  5
ED
330
1E
100
AcDbEntity
  8
MO_001_VIEW_PV
  6
C_SOLID_M
100
AcDbLine
 10
-37.0
 20
-11.19999699999999
 30
0.0
 11
-26.1
 21
-11.19999699999999
 31
0.0
  0
ARC
  5
EE
330
1E
100
AcDbEntity
  8
MO_001_VIEW_PV
  6
C_SOLID_M
100
AcDbCircle
 10
-26.1
 20
10.699997
 30
0.0
 40
0.5
100
AcDbArc
 50
0.0
 51
89.99998900000001
  0
ARC
  5
EF
330
1E
100
AcDbEntity
  8
MO_001_VIEW_PV
  6
C_SOLID_M
100
AcDbCircle
 10
-26.1
 20
-10.699997
 30
0.0
 40
0.5
100
AcDbArc
 50
269.999998
 51
0.00001
  0
LINE
  5
F0
330
1E
100
AcDbEntity
  8
MO_001_VIEW_PV
  6
C_SOLID_M
100
AcDbLine
 10
32.0
 20
1.239999999999999
 30
0.0
 11
32.0
 21
0.76
 31
0.0
  0
LINE
  5
F1
330
1E
100
AcDbEntity
  8
MO_001_VIEW_PV
  6
C_SOLID_M
100
AcDbLine
 10
27.0
 20
1.659999999999999
 30
0.0
 11
27.0
 21
0.34
 31
0.0
  0
LINE
  5
F2
330
1E
100
AcDbEntity
  8
MO_001_VIEW_PV
  6
C_SOLID_M
100
AcDbLine
 10
0.7
 20
1.659999999999999
 30
0.0
 11
27.0
 21
1.659999999999999
 31
0.0
  0
LINE
  5
F3
330
1E
100
AcDbEntity
  8
MO_001_VIEW_PV
  6
C_SOLID_M
100
AcDbLine
 10
0.7
 20
0.34
 30
0.0
 11
27.0
 21
0.34
 31
0.0
  0
LINE
  5
F4
330
1E
100
AcDbEntity
  8
MO_001_VIEW_PV
  6
C_SOLID_M
100
AcDbLine
 10
27.0
 20
1.239999999999999
 30
0.0
 11
32.0
 21
1.239999999999999
 31
0.0
  0
LINE
  5
F5
330
1E
100
AcDbEntity
  8
MO_001_VIEW_PV
  6
C_SOLID_M
100
AcDbLine
 10
27.0
 20
0.76
 30
0.0
 11
32.0
 21
0.76
 31
0.0
  0
LINE
  5
F6
330
1E
100
AcDbEntity
  8
MO_001_VIEW_PV
  6
C_SOLID_M
100
AcDbLine
 10
32.0
 20
-0.76
 30
0.0
 11
32.0
 21
-1.239999999999999
 31
0.0
  0
LINE
  5
F7
330
1E
100
AcDbEntity
  8
MO_001_VIEW_PV
  6
C_SOLID_M
100
AcDbLine
 10
27.0
 20
-0.34
 30
0.0
 11
27.0
 21
-1.659999999999999
 31
0.0
  0
LINE
  5
F8
330
1E
100
AcDbEntity
  8
MO_001_VIEW_PV
  6
C_SOLID_M
100
AcDbLine
 10
0.7
 20
-0.34
 30
0.0
 11
27.0
 21
-0.34
 31
0.0
  0
LINE
  5
F9
330
1E
100
AcDbEntity
  8
MO_001_VIEW_PV
  6
C_SOLID_M
100
AcDbLine
 10
0.7
 20
-1.659999999999999
 30
0.0
 11
27.0
 21
-1.659999999999999
 31
0.0
  0
LINE
  5
FA
330
1E
100
AcDbEntity
  8
MO_001_VIEW_PV
  6
C_SOLID_M
100
AcDbLine
 10
27.0
 20
-0.76
 30
0.0
 11
32.0
 21
-0.76
 31
0.0
  0
LINE
  5
FB
330
1E
100
AcDbEntity
  8
MO_001_VIEW_PV
  6
C_SOLID_M
100
AcDbLine
 10
27.0
 20
-1.239999999999999
 30
0.0
 11
32.0
 21
-1.239999999999999
 31
0.0
  0
LINE
  5
FC
330
1E
100
AcDbEntity
  8
MO_001_VIEW_PV
  6
C_SOLID_M
100
AcDbLine
 10
31.400002
 20
-66.25999499999998
 30
0.0
 11
31.400002
 21
-66.74000500000001
 31
0.0
  0
LINE
  5
FD
330
1E
100
AcDbEntity
  8
MO_001_VIEW_PV
  6
C_SOLID_M
100
AcDbLine
 10
26.400002
 20
-65.839996
 30
0.0
 11
26.400002
 21
-67.160004
 31
0.0
  0
LINE
  5
FE
330
1E
100
AcDbEntity
  8
MO_001_VIEW_PV
  6
C_SOLID_M
100
AcDbLine
 10
5.750353999999999
 20
-65.839996
 30
0.0
 11
26.400002
 21
-65.839996
 31
0.0
  0
LINE
  5
FF
330
1E
100
AcDbEntity
  8
MO_001_VIEW_PV
  6
C_SOLID_M
100
AcDbLine
 10
5.750353999999999
 20
-67.160004
 30
0.0
 11
26.400002
 21
-67.160004
 31
0.0
  0
LINE
  5
100
330
1E
100
AcDbEntity
  8
MO_001_VIEW_PV
  6
C_SOLID_M
100
AcDbLine
 10
26.400002
 20
-66.25999499999998
 30
0.0
 11
31.400002
 21
-66.25999499999998
 31
0.0
  0
LINE
  5
101
330
1E
100
AcDbEntity
  8
MO_001_VIEW_PV
  6
C_SOLID_M
100
AcDbLine
 10
26.400002
 20
-66.74000500000001
 30
0.0
 11
31.400002
 21
-66.74000500000001
 31
0.0
  0
LINE
  5
102
330
1E
100
AcDbEntity
  8
MO_001_VIEW_PV
  6
C_SOLID_M
100
AcDbLine
 10
-14.799999
 20
-60.090912
 30
0.0
 11
-4.799998999999999
 21
-60.090912
 31
0.0
  0
LINE
  5
103
330
1E
100
AcDbEntity
  8
MO_001_VIEW_PV
  6
C_SOLID_M
100
AcDbLine
 10
-4.800006999999999
 20
-60.09088199999999
 30
0.0
 11
-4.209098
 21
-59.499974
 31
0.0
  0
ARC
  5
104
330
1E
100
AcDbEntity
  8
MO_001_VIEW_PV
  6
C_SOLID_M
100
AcDbCircle
 10
-14.799999
 20
-58.590912
 30
0.0
 40
1.5
100
AcDbArc
 50
217.305245
 51
269.999998
  0
ARC
  5
105
330
1E
100
AcDbEntity
  8
MO_001_VIEW_PV
  6
C_SOLID_M
100
AcDbCircle
 10
4.353709999999999
 20
-55.839996
 30
0.0
 40
8.0
100
AcDbArc
 50
224.9999859999999
 51
269.999998
  0
ARC
  5
106
330
1E
100
AcDbEntity
  8
MO_001_VIEW_PV
  6
C_SOLID_M
100
AcDbCircle
 10
4.353709999999999
 20
-55.839996
 30
0.0
 40
9.32
100
AcDbArc
 50
254.2487139999999
 51
269.999998
  0
LINE
  5
107
330
1E
100
AcDbEntity
  8
MO_001_VIEW_PV
  6
C_SOLID_M
100
AcDbLine
 10
31.400002
 20
-64.25999499999999
 30
0.0
 11
31.400002
 21
-64.74000500000001
 31
0.0
  0
LINE
  5
108
330
1E
100
AcDbEntity
  8
MO_001_VIEW_PV
  6
C_SOLID_M
100
AcDbLine
 10
26.400002
 20
-63.839996
 30
0.0
 11
26.400002
 21
-65.160004
 31
0.0
  0
LINE
  5
109
330
1E
100
AcDbEntity
  8
MO_001_VIEW_PV
  6
C_SOLID_M
100
AcDbLine
 10
4.353709999999999
 20
-63.839996
 30
0.0
 11
26.400002
 21
-63.839996
 31
0.0
  0
LINE
  5
10A
330
1E
100
AcDbEntity
  8
MO_001_VIEW_PV
  6
C_SOLID_M
100
AcDbLine
 10
4.353709999999999
 20
-65.160004
 30
0.0
 11
26.400002
 21
-65.160004
 31
0.0
  0
LINE
  5
10B
330
1E
100
AcDbEntity
  8
MO_001_VIEW_PV
  6
C_SOLID_M
100
AcDbLine
 10
26.400002
 20
-64.25999499999999
 30
0.0
 11
31.400002
 21
-64.25999499999999
 31
0.0
  0
LINE
  5
10C
330
1E
100
AcDbEntity
  8
MO_001_VIEW_PV
  6
C_SOLID_M
100
AcDbLine
 10
26.400002
 20
-64.74000500000001
 30
0.0
 11
31.400002
 21
-64.74000500000001
 31
0.0
  0
ARC
  5
10D
330
1E
100
AcDbEntity
  8
MO_001_VIEW_PV
  6
C_SOLID_M
100
AcDbCircle
 10
5.750353999999999
 20
-57.839996
 30
0.0
 40
8.0
100
AcDbArc
 50
220.0000009999999
 51
269.999998
  0
ARC
  5
10E
330
1E
100
AcDbEntity
  8
MO_001_VIEW_PV
  6
C_SOLID_M
100
AcDbCircle
 10
5.750353999999999
 20
-57.839996
 30
0.0
 40
9.320003999999999
100
AcDbArc
 50
220.0000009999999
 51
269.999998
  0
LINE
  5
10F
330
1E
100
AcDbEntity
  8
MO_001_VIEW_PV
  6
C_SOLID_M
100
AcDbLine
 10
-4.651747
 20
-59.942649
 30
0.0
 11
-1.389205
 21
-63.830796
 31
0.0
  0
LINE
  5
110
330
1E
100
AcDbEntity
  8
MO_001_VIEW_PV
  6
C_SOLID_M
100
AcDbLine
 10
-3.300019999999999
 20
-59.50001999999999
 30
0.0
 11
-0.378026
 21
-62.98231600000001
 31
0.0
  0
LINE
  5
111
330
1E
100
AcDbEntity
  8
MO_001_VIEW_PV
  6
C_SOLID_M
100
AcDbLine
 10
-3.299999999999999
 20
-59.499974
 30
0.0
 11
-1.303144999999999
 21
-61.496828
 31
0.0
  0
LINE
  5
112
330
1E
100
AcDbEntity
  8
MO_001_VIEW_PV
  6
C_SOLID_M
100
AcDbLine
 10
-3.299998999999999
 20
-10.2
 30
0.0
 11
-25.6
 21
-10.2
 31
0.0
  0
LINE
  5
113
330
1E
100
AcDbEntity
  8
MO_001_VIEW_PV
  6
C_SOLID_M
100
AcDbLine
 10
-3.299998999999999
 20
10.2
 30
0.0
 11
-25.6
 21
10.2
 31
0.0
  0
ARC
  5
114
330
1E
100
AcDbEntity
  8
MO_001_VIEW_PV
  6
C_SOLID_M
100
AcDbCircle
 10
-93.0
 20
0.0
 30
0.0
 40
12.090912
100
AcDbArc
 50
162.01318
 51
197.986816
  0
LINE
  5
115
330
1E
100
AcDbEntity
  8
MO_001_VIEW_PV
  6
C_SOLID_M
100
AcDbLine
 10
-113.907429
 20
-0.384937
 30
0.0
 11
-105.090938
 21
-0.000001
 31
0.0
  0
LINE
  5
116
330
1E
100
AcDbEntity
  8
MO_001_VIEW_PV
  6
C_SOLID_M
100
AcDbLine
 10
-113.849851
 20
-1.703688999999999
 30
0.0
 11
-105.018878
 21
-1.31812
 31
0.0
  0
LINE
  5
117
330
1E
100
AcDbEntity
  8
MO_001_VIEW_PV
  6
C_SOLID_M
100
AcDbLine
 10
-113.966759
 20
1.708795
 30
0.0
 11
-105.018878
 21
1.318122
 31
0.0
  0
LINE
  5
118
330
1E
100
AcDbEntity
  8
MO_001_VIEW_PV
  6
C_SOLID_M
100
AcDbLine
 10
-114.024337
 20
0.390043
 30
0.0
 11
-105.090938
 21
0.000003
 31
0.0
  0
ARC
  5
119
330
1E
100
AcDbEntity
  8
MO_001_VIEW_PV
  6
C_SOLID_M
100
AcDbCircle
 10
-114.1807559999999
 20
-0.7271880000000001
 30
0.0
 40
0.4380010000000001
100
AcDbArc
 50
313.6121319999999
 51
51.388113
  0
ARC
  5
11A
330
1E
100
AcDbEntity
  8
MO_001_VIEW_PV
  6
C_SOLID_M
100
AcDbCircle
 10
-113.576523
 20
-1.361438999999999
 30
0.0
 40
0.4380010000000001
100
AcDbArc
 50
133.612311
 51
231.388122
  0
ARC
  5
11B
330
1E
100
AcDbEntity
  8
MO_001_VIEW_PV
  6
C_SOLID_M
100
AcDbCircle
 10
-113.6053159999999
 20
-0.702063
 30
0.0
 40
0.4380010000000001
100
AcDbArc
 50
133.611887
 51
231.3878759999999
  0
ARC
  5
11C
330
1E
100
AcDbEntity
  8
MO_001_VIEW_PV
  6
C_SOLID_M
100
AcDbCircle
 10
-114.268875
 20
1.391666999999999
 30
0.0
 40
0.4380010000000001
100
AcDbArc
 50
308.6121289999999
 51
46.388114
  0
ARC
  5
11D
330
1E
100
AcDbEntity
  8
MO_001_VIEW_PV
  6
C_SOLID_M
100
AcDbCircle
 10
-113.7222139999999
 20
0.707166
 30
0.0
 40
0.4380010000000001
100
AcDbArc
 50
128.612298
 51
226.388095
  0
ARC
  5
11E
330
1E
100
AcDbEntity
  8
MO_001_VIEW_PV
  6
C_SOLID_M
100
AcDbCircle
 10
-113.69342
 20
1.366543
 30
0.0
 40
0.4380010000000001
100
AcDbArc
 50
128.6118879999999
 51
226.3878629999999
  0
LINE
  5
11F
330
1E
100
AcDbEntity
  8
MO_001_VIEW_PV
  6
C_SOLID_L
100
AcDbLine
 10
19.59660299999999
 20
-48.14475999999999
 30
0.0
 11
61.02853399999999
 21
-48.14475999999999
 31
0.0
  0
LINE
  5
120
330
1E
100
AcDbEntity
  8
MO_001_VIEW_PV
  6
C_SOLID_L
100
AcDbLine
 10
-66.30783100000001
 20
15.0
 30
0.0
 11
-51.605206
 21
15.0
 31
0.0
  0
LINE
  5
121
330
1E
100
AcDbEntity
  8
MO_001_VIEW_PV
  6
C_SOLID_L
100
AcDbLine
 10
-69.179924
 20
-69.0
 30
0.0
 11
-44.42804699999999
 21
-69.0
 31
0.0
  0
LINE
  5
122
330
1E
100
AcDbEntity
  8
MO_001_VIEW_PV
  6
C_SOLID_L
100
AcDbLine
 10
-65.53184499999999
 20
-75.0
 30
0.0
 11
-34.805294
 21
-75.0
 31
0.0
  0
TEXT
  5
123
330
1E
100
AcDbEntity
  8
MO_001_VIEW_PV
  6
C_SOLID_L
100
AcDbText
 10
-106.488281
 20
-89.083594
 30
0.0
 40
4.167187
  1
SH1L-1140
100
AcDbText
  0
TEXT
  5
124
330
1E
100
AcDbEntity
  8
MO_001_VIEW_PV
  6
C_SOLID_L
100
AcDbText
 10
1.511719
 20
-89.083594
 30
0.0
 40
4.167187
  1
単位：mm
100
AcDbText
  0
TEXT
  5
125
330
1E
100
AcDbEntity
  8
MO_001_VIEW_PV
  6
C_SOLID_L
100
AcDbText
 10
1.511719
 20
-95.08359399999999
 30
0.0
 40
4.167187
  1
図は励磁時（保持時）を示す
100
AcDbText
  0
TEXT
  5
126
330
1E
100
AcDbEntity
  8
MO_001_VIEW_PV
  6
C_SOLID_L
100
AcDbText
 10
20.025175
 20
-42.89475999999999
 30
0.0
 40
3.0
  1
リ－ド線
100
AcDbText
  0
TEXT
  5
127
330
1E
100
AcDbEntity
  8
MO_001_VIEW_PV
  6
C_SOLID_L
100
AcDbText
 10
20.025175
 20
-47.39475999999999
 30
0.0
 40
3.0
  1
UL1007 AWG.26
100
AcDbText
  0
TEXT
  5
128
330
1E
100
AcDbEntity
  8
MO_001_VIEW_PV
  6
C_SOLID_L
100
AcDbText
 10
20.025175
 20
-51.89475999999999
 30
0.0
 40
3.0
  1
（白、黒）
100
AcDbText
  0
TEXT
  5
129
330
1E
100
AcDbEntity
  8
MO_001_VIEW_PV
  6
C_SOLID_L
100
AcDbText
 10
-57.96827
 20
17.625
 30
0.0
 40
1.5
  1
%%P0.1
100
AcDbText
  0
TEXT
  5
12A
330
1E
100
AcDbEntity
  8
MO_001_VIEW_PV
  6
C_SOLID_L
100
AcDbText
 10
-63.753985
 20
15.75
 30
0.0
 40
3.0
  1
%%C3
100
AcDbText
  0
TEXT
  5
12B
330
1E
100
AcDbEntity
  8
MO_001_VIEW_PV
  6
C_SOLID_L
100
AcDbText
 10
-49.90512999999999
 20
-66.375
 30
0.0
 40
1.5
  1
%%P0.1
100
AcDbText
  0
TEXT
  5
12C
330
1E
100
AcDbEntity
  8
MO_001_VIEW_PV
  6
C_SOLID_L
100
AcDbText
 10
-67.690844
 20
-68.25
 30
0.0
 40
3.0
  1
2-%%C2.6
100
AcDbText
  0
TEXT
  5
12D
330
1E
100
AcDbEntity
  8
MO_001_VIEW_PV
  6
C_SOLID_L
100
AcDbText
 10
-64.16047900000001
 20
-74.25
 30
0.0
 40
3.0
  1
2-M3 P0.5
100
AcDbText
  0
DIMENSION
  5
12F
330
1E
100
AcDbEntity
  8
MO_001_VIEW_PV
  6
C_SOLID_M
100
AcDbDimension
  2
*D0
 10
-93.0
 20
-21.0
 30
0.0
 11
-93.0
 21
-21.0
 31
0.0
  3
STANDARD
100
AcDbAlignedDimension
 13
-81.5
 23
-11.25
 33
0.0
 14
-104.4999999999999
 24
-11.25
 34
0.0
100
AcDbRotatedDimension
  0
DIMENSION
  5
131
330
1E
100
AcDbEntity
  8
MO_001_VIEW_PV
  6
C_SOLID_M
100
AcDbDimension
  2
*D1
 10
-72.0
 20
0.0
 30
0.0
 11
-72.0
 21
0.0
 31
0.0
  3
STANDARD
100
AcDbAlignedDimension
 13
-81.5
 23
13.25
 33
0.0
 14
-88.0
 24
-13.15
 34
0.0
 50
89.999523
100
AcDbRotatedDimension
  0
DIMENSION
  5
133
330
1E
100
AcDbEntity
  8
MO_001_VIEW_PV
  6
C_SOLID_M
100
AcDbDimension
  2
*D2
 10
-58.406017
 20
21.0
 30
0.0
 11
-58.406017
 21
21.0
 31
0.0
  3
STANDARD
100
AcDbAlignedDimension
 13
-46.0
 23
7.331344999999999
 33
0.0
 14
-50.0
 24
5.200001
 34
0.0
 50
179.97571
100
AcDbRotatedDimension
  0
DIMENSION
  5
135
330
1E
100
AcDbEntity
  8
MO_001_VIEW_PV
  6
C_SOLID_M
100
AcDbDimension
  2
*D3
 10
-59.960133
 20
27.0
 30
0.0
 11
-59.960133
 21
27.0
 31
0.0
  3
STANDARD
100
AcDbAlignedDimension
 13
-50.0
 23
5.200001
 33
0.0
 14
-40.0
 24
13.25
 34
0.0
100
AcDbRotatedDimension
  0
DIMENSION
  5
137
330
1E
100
AcDbEntity
  8
MO_001_VIEW_PV
  6
C_SOLID_M
100
AcDbDimension
  2
*D4
 10
-20.0
 20
27.0
 30
0.0
 11
-20.0
 21
27.0
 31
0.0
  3
STANDARD
100
AcDbAlignedDimension
 13
-40.0
 23
13.25
 33
0.0
 14
0.0
 24
12.25
 34
0.0
100
AcDbRotatedDimension
  0
DIMENSION
  5
139
330
1E
100
AcDbEntity
  8
MO_001_VIEW_PV
  6
C_SOLID_M
100
AcDbDimension
  2
*D5
 10
12.0
 20
27.0
 30
0.0
 11
12.0
 21
27.0
 31
0.0
  1
(0.7)
  3
STANDARD
100
AcDbAlignedDimension
 13
0.7
 23
4.5
 33
0.0
 14
0.0
 24
12.25
 34
0.0
 50
179.97571
100
AcDbRotatedDimension
  0
DIMENSION
  5
13B
330
1E
100
AcDbEntity
  8
MO_001_VIEW_PV
  6
C_SOLID_M
100
AcDbDimension
  2
*D6
 10
-57.0
 20
-11.28939099999999
 30
0.0
 11
-57.0
 21
-11.28939099999999
 31
0.0
  3
STANDARD
100
AcDbAlignedDimension
 13
-50.0
 23
-1.5
 33
0.0
 14
-50.0
 24
1.5
 34
0.0
 50
89.98785500000002
100
AcDbRotatedDimension
  0
DIMENSION
  5
13D
330
1E
100
AcDbEntity
  8
MO_001_VIEW_PV
  6
C_SOLID_M
100
AcDbDimension
  2
*D7
 10
-63.0
 20
-16.395325
 30
0.0
 11
-63.0
 21
-16.395325
 31
0.0
  3
STANDARD
100
AcDbAlignedDimension
 13
-49.700001
 23
-5.5
 33
0.0
 14
-49.700001
 24
5.5
 34
0.0
 50
89.98785500000002
100
AcDbRotatedDimension
  0
DIMENSION
  5
13F
330
1E
100
AcDbEntity
  8
MO_001_VIEW_PV
  6
C_SOLID_M
100
AcDbDimension
  2
*D8
 10
-32.043007
 20
-21.0
 30
0.0
 11
-32.043007
 21
-21.0
 31
0.0
  3
STANDARD
100
AcDbAlignedDimension
 13
-50.0
 23
-5.200001
 33
0.0
 14
-41.0
 24
-1.5
 34
0.0
100
AcDbRotatedDimension
  0
DIMENSION
  5
141
330
1E
100
AcDbEntity
  8
MO_001_VIEW_PV
  6
C_SOLID_M
100
AcDbDimension
  2
*D9
 10
27.0
 20
-21.0
 30
0.0
 11
27.0
 21
-21.0
 31
0.0
  1
t2
  3
STANDARD
100
AcDbAlignedDimension
 13
-1.0
 23
-13.25
 33
0.0
 14
-2.299999
 24
-11.25
 34
0.0
 50
89.98785500000002
100
AcDbRotatedDimension
  0
DIMENSION
  5
143
330
1E
100
AcDbEntity
  8
MO_001_VIEW_PV
  6
C_SOLID_M
100
AcDbDimension
  2
*D10
 10
-33.0
 20
-30.0
 30
0.0
 11
-33.0
 21
-30.0
 31
0.0
  3
STANDARD
100
AcDbAlignedDimension
 13
-22.0
 23
-41.5
 33
0.0
 14
-46.0
 24
-44.073196
 34
0.0
100
AcDbRotatedDimension
  0
DIMENSION
  5
145
330
1E
100
AcDbEntity
  8
MO_001_VIEW_PV
  6
C_SOLID_M
100
AcDbDimension
  2
*D11
 10
-15.0
 20
-30.0
 30
0.0
 11
-15.0
 21
-30.0
 31
0.0
  3
STANDARD
100
AcDbAlignedDimension
 13
-8.0
 23
-41.5
 33
0.0
 14
-22.0
 24
-41.5
 34
0.0
100
AcDbRotatedDimension
  0
DIMENSION
  5
147
330
1E
100
AcDbEntity
  8
MO_001_VIEW_PV
  6
C_SOLID_M
100
AcDbDimension
  2
*D12
 10
9.0
 20
-30.0
 30
0.0
 11
9.0
 21
-30.0
 31
0.0
  3
STANDARD
100
AcDbAlignedDimension
 13
-8.0
 23
-41.5
 33
0.0
 14
0.0
 24
-36.5
 34
0.0
100
AcDbRotatedDimension
  0
DIMENSION
  5
149
330
1E
100
AcDbEntity
  8
MO_001_VIEW_PV
  6
C_SOLID_M
100
AcDbDimension
  2
*D13
 10
12.0
 20
-38.969696
 30
0.0
 11
12.0
 21
-38.969696
 31
0.0
  3
STANDARD
100
AcDbAlignedDimension
 13
-5.5
 23
-44.0
 33
0.0
 14
-5.5
 24
-52.0
 34
0.0
 50
89.999523
100
AcDbRotatedDimension
  0
DIMENSION
  5
14B
330
1E
100
AcDbEntity
  8
MO_001_VIEW_PV
  6
C_SOLID_M
100
AcDbDimension
  2
*D14
 10
13.37413399999999
 20
-75.0
 30
0.0
 11
13.37413399999999
 21
-75.0
 31
0.0
  1
長さ250以上
  3
STANDARD
100
AcDbAlignedDimension
 13
-4.651733999999999
 23
-59.942642
 33
0.0
 14
31.400002
 24
-66.74000500000001
 34
0.0
100
AcDbRotatedDimension
  0
LINE
  5
14C
330
1E
100
AcDbEntity
  8
MO_001_VIEW_PV
  6
C_SOLID_L
100
AcDbLine
 10
10.534958
 20
-63.840002
 30
0.0
 11
19.596606
 21
-48.14477
 31
0.0
  0
POLYLINE
  5
14D
330
1E
100
AcDbEntity
  8
MO_001_VIEW_PV
  6
C_SOLID_L
100
AcDb2dPolyline
 66
     1
 10
0.0
 20
0.0
 30
0.0
 70
     1
  0
VERTEX
  5
214
330
14D
100
AcDbEntity
  8
MO_001_VIEW_PV
  6
C_SOLID_L
100
AcDbVertex
100
AcDb2dVertex
 10
11.688753
 20
-60.674548
 30
0.0
  0
VERTEX
  5
215
330
14D
100
AcDbEntity
  8
MO_001_VIEW_PV
  6
C_SOLID_L
100
AcDbVertex
100
AcDb2dVertex
 10
10.788958
 20
-63.400061
 30
0.0
  0
VERTEX
  5
216
330
14D
100
AcDbEntity
  8
MO_001_VIEW_PV
  6
C_SOLID_L
100
AcDbVertex
100
AcDb2dVertex
 10
12.699424
 20
-61.25806
 30
0.0
  0
SEQEND
  5
217
330
14D
100
AcDbEntity
  8
MO_001_VIEW_PV
  6
C_SOLID_L
  0
LINE
  5
152
330
1E
100
AcDbEntity
  8
MO_001_VIEW_PV
  6
C_SOLID_L
100
AcDbLine
 10
-46.000003
 20
5.291501
 30
0.0
 11
-51.605209
 21
15.0
 31
0.0
  0
POLYLINE
  5
153
330
1E
100
AcDbEntity
  8
MO_001_VIEW_PV
  6
C_SOLID_L
100
AcDb2dPolyline
 66
     1
 10
0.0
 20
0.0
 30
0.0
 70
     1
  0
VERTEX
  5
218
330
153
100
AcDbEntity
  8
MO_001_VIEW_PV
  6
C_SOLID_L
100
AcDbVertex
100
AcDb2dVertex
 10
-48.16446899999999
 20
7.873442999999999
 30
0.0
  0
VERTEX
  5
219
330
153
100
AcDbEntity
  8
MO_001_VIEW_PV
  6
C_SOLID_L
100
AcDbVertex
100
AcDb2dVertex
 10
-46.254003
 20
5.731441999999999
 30
0.0
  0
VERTEX
  5
21A
330
153
100
AcDbEntity
  8
MO_001_VIEW_PV
  6
C_SOLID_L
100
AcDbVertex
100
AcDb2dVertex
 10
-47.15379699999999
 20
8.456955
 30
0.0
  0
SEQEND
  5
21B
330
153
100
AcDbEntity
  8
MO_001_VIEW_PV
  6
C_SOLID_L
  0
LINE
  5
158
330
1E
100
AcDbEntity
  8
MO_001_VIEW_PV
  6
C_SOLID_L
100
AcDbLine
 10
-22.868126
 20
-44.96768499999999
 30
0.0
 11
-44.428048
 21
-69.000004
 31
0.0
  0
POLYLINE
  5
159
330
1E
100
AcDbEntity
  8
MO_001_VIEW_PV
  6
C_SOLID_L
100
AcDb2dPolyline
 66
     1
 10
0.0
 20
0.0
 30
0.0
 70
     1
  0
VERTEX
  5
21C
330
159
100
AcDbEntity
  8
MO_001_VIEW_PV
  6
C_SOLID_L
100
AcDbVertex
100
AcDb2dVertex
 10
-24.649653
 20
-47.82731799999999
 30
0.0
  0
VERTEX
  5
21D
330
159
100
AcDbEntity
  8
MO_001_VIEW_PV
  6
C_SOLID_L
100
AcDbVertex
100
AcDb2dVertex
 10
-23.207358
 20
-45.345819
 30
0.0
  0
VERTEX
  5
21E
330
159
100
AcDbEntity
  8
MO_001_VIEW_PV
  6
C_SOLID_L
100
AcDbVertex
100
AcDb2dVertex
 10
-25.51833699999999
 20
-47.048002
 30
0.0
  0
SEQEND
  5
21F
330
159
100
AcDbEntity
  8
MO_001_VIEW_PV
  6
C_SOLID_L
  0
LINE
  5
15E
330
1E
100
AcDbEntity
  8
MO_001_VIEW_PV
  6
C_SOLID_L
100
AcDbLine
 10
-22.729663
 20
-53.310568
 30
0.0
 11
-34.805294
 21
-75.00000199999999
 31
0.0
  0
POLYLINE
  5
15F
330
1E
100
AcDbEntity
  8
MO_001_VIEW_PV
  6
C_SOLID_L
100
AcDb2dPolyline
 66
     1
 10
0.0
 20
0.0
 30
0.0
 70
     1
  0
VERTEX
  5
220
330
15F
100
AcDbEntity
  8
MO_001_VIEW_PV
  6
C_SOLID_L
100
AcDbVertex
100
AcDb2dVertex
 10
-23.83398
 20
-56.49361999999999
 30
0.0
  0
VERTEX
  5
221
330
15F
100
AcDbEntity
  8
MO_001_VIEW_PV
  6
C_SOLID_L
100
AcDbVertex
100
AcDb2dVertex
 10
-22.976775
 20
-53.754414
 30
0.0
  0
VERTEX
  5
222
330
15F
100
AcDbEntity
  8
MO_001_VIEW_PV
  6
C_SOLID_L
100
AcDbVertex
100
AcDb2dVertex
 10
-24.853624
 20
-55.92593100000001
 30
0.0
  0
SEQEND
  5
223
330
15F
100
AcDbEntity
  8
MO_001_VIEW_PV
  6
C_SOLID_L
  0
ENDSEC
  0
SECTION
  2
OBJECTS
  0
DICTIONARY
  5
1A
330
0
100
AcDbDictionary
  3
ACAD_GROUP
350
1B
  3
ACAD_MLINESTYLE
350
1C
  3
ACAD_LAYOUT
350
20A
  3
ACAD_PLOTSETTINGS
350
20B
1001
ACAD
1000
TREAT_AS_HARD
1070
     0
  0
DICTIONARY
  5
210
330
1E
100
AcDbDictionary
  3
ACAD_LAYOUTSELFREF
350
211
  0
DICTIONARY
  5
212
330
1F
100
AcDbDictionary
  3
ACAD_LAYOUTSELFREF
350
213
  0
DICTIONARY
  5
1B
102
{ACAD_REACTORS
330
1A
102
}
330
1A
100
AcDbDictionary
1001
ACAD
1000
TREAT_AS_HARD
1070
     0
  0
DICTIONARY
  5
1C
102
{ACAD_REACTORS
330
1A
102
}
330
1A
100
AcDbDictionary
  3
STANDARD
350
1D
1001
ACAD
1000
TREAT_AS_HARD
1070
     0
  0
DICTIONARY
  5
20A
102
{ACAD_REACTORS
330
1A
102
}
330
1A
100
AcDbDictionary
1001
ACAD
1000
TREAT_AS_HARD
1070
     0
  0
DICTIONARY
  5
20B
102
{ACAD_REACTORS
330
1A
102
}
330
1A
100
AcDbDictionary
1001
ACAD
1000
TREAT_AS_HARD
1070
     0
  0
XRECORD
  5
211
102
{ACAD_REACTORS
330
210
102
}
330
210
100
AcDbXrecord
340
1E
  0
XRECORD
  5
213
102
{ACAD_REACTORS
330
212
102
}
330
212
100
AcDbXrecord
340
1F
  0
MLINESTYLE
  5
1D
102
{ACAD_REACTORS
330
1C
102
}
330
1C
100
AcDbMlineStyle
  2
STANDARD
 70
     0
  3

 62
     0
 51
90.0
 52
90.0
 71
     2
 49
0.5
 62
   256
  6
BYLAYER
 49
-0.5
 62
   256
  6
BYLAYER
  0
ENDSEC
  0
EOF
