  0
SECTION
  2
HEADER
  9
$ACADVER
  1
AC1012
  9
$DWGCODEPAGE
  3
dos932
  9
$INSBASE
 10
0.0
 20
0.0
 30
0.0
  9
$EXTMIN
 10
-115.1797812428606
 20
-98.0900828868924
 30
-0.0015258207003583
  9
$EXTMAX
 10
68.03412490348512
 20
31.13029812536649
 30
0.0000000349246037
  9
$LIMMIN
 10
-115.1602149999999
 20
-101.208984
  9
$LIMMAX
 10
68.028534
 20
33.0
  9
$ORTHOMODE
 70
     0
  9
$REGENMODE
 70
     1
  9
$FILLMODE
 70
     1
  9
$QTEXTMODE
 70
     0
  9
$MIRRTEXT
 70
     1
  9
$DRAGMODE
 70
     2
  9
$LTSCALE
 40
1.0
  9
$OSMODE
 70
    37
  9
$ATTMODE
 70
     1
  9
$TEXTSIZE
 40
4.1672
  9
$TRACEWID
 40
0.05
  9
$TEXTSTYLE
  7
STANDARD
  9
$CLAYER
  8
0
  9
$CELTYPE
  6
CONTINUOUS
  9
$CECOLOR
 62
   256
  9
$CELTSCALE
 40
1.0
  9
$DELOBJ
 70
     1
  9
$DISPSILH
 70
     0
  9
$DIMSCALE
 40
1.0
  9
$DIMASZ
 40
0.18
  9
$DIMEXO
 40
0.0625
  9
$DIMDLI
 40
0.38
  9
$DIMRND
 40
0.0
  9
$DIMDLE
 40
0.0
  9
$DIMEXE
 40
0.18
  9
$DIMTP
 40
0.0
  9
$DIMTM
 40
0.0
  9
$DIMTXT
 40
0.18
  9
$DIMCEN
 40
0.09
  9
$DIMTSZ
 40
0.0
  9
$DIMTOL
 70
     0
  9
$DIMLIM
 70
     0
  9
$DIMTIH
 70
     1
  9
$DIMTOH
 70
     1
  9
$DIMSE1
 70
     0
  9
$DIMSE2
 70
     0
  9
$DIMTAD
 70
     0
  9
$DIMZIN
 70
     0
  9
$DIMBLK
  1

  9
$DIMASO
 70
     1
  9
$DIMSHO
 70
     1
  9
$DIMPOST
  1

  9
$DIMAPOST
  1

  9
$DIMALT
 70
     0
  9
$DIMALTD
 70
     2
  9
$DIMALTF
 40
25.4
  9
$DIMLFAC
 40
1.0
  9
$DIMTOFL
 70
     0
  9
$DIMTVP
 40
0.0
  9
$DIMTIX
 70
     0
  9
$DIMSOXD
 70
     0
  9
$DIMSAH
 70
     0
  9
$DIMBLK1
  1

  9
$DIMBLK2
  1

  9
$DIMSTYLE
  2
STANDARD
  9
$DIMCLRD
 70
     0
  9
$DIMCLRE
 70
     0
  9
$DIMCLRT
 70
     0
  9
$DIMTFAC
 40
1.0
  9
$DIMGAP
 40
0.09
  9
$DIMJUST
 70
     0
  9
$DIMSD1
 70
     0
  9
$DIMSD2
 70
     0
  9
$DIMTOLJ
 70
     1
  9
$DIMTZIN
 70
     0
  9
$DIMALTZ
 70
     0
  9
$DIMALTTZ
 70
     0
  9
$DIMFIT
 70
     3
  9
$DIMUPT
 70
     0
  9
$DIMUNIT
 70
     2
  9
$DIMDEC
 70
     4
  9
$DIMTDEC
 70
     4
  9
$DIMALTU
 70
     2
  9
$DIMALTTD
 70
     2
  9
$DIMTXSTY
  7
STANDARD
  9
$DIMAUNIT
 70
     0
  9
$LUNITS
 70
     2
  9
$LUPREC
 70
     6
  9
$SKETCHINC
 40
0.1
  9
$FILLETRAD
 40
0.0
  9
$AUNITS
 70
     0
  9
$AUPREC
 70
     4
  9
$MENU
  1
acad
  9
$ELEVATION
 40
0.0
  9
$PELEVATION
 40
0.0
  9
$THICKNESS
 40
0.0
  9
$LIMCHECK
 70
     0
  9
$BLIPMODE
 70
     0
  9
$CHAMFERA
 40
0.0
  9
$CHAMFERB
 40
0.0
  9
$CHAMFERC
 40
0.0
  9
$CHAMFERD
 40
0.0
  9
$SKPOLY
 70
     0
  9
$TDCREATE
 40
2376122.594801238
  9
$TDUPDATE
 40
2451663.755069096
  9
$TDINDWG
 40
0.0014412037
  9
$TDUSRTIMER
 40
0.0014412037
  9
$USRTIMER
 70
     1
  9
$ANGBASE
 50
0.0
  9
$ANGDIR
 70
     0
  9
$PDMODE
 70
     0
  9
$PDSIZE
 40
0.0
  9
$PLINEWID
 40
0.0
  9
$COORDS
 70
     1
  9
$SPLFRAME
 70
     0
  9
$SPLINETYPE
 70
     6
  9
$SPLINESEGS
 70
     8
  9
$ATTDIA
 70
     0
  9
$ATTREQ
 70
     1
  9
$HANDLING
 70
 10241
  9
$HANDSEED
  5
212
  9
$SURFTAB1
 70
     6
  9
$SURFTAB2
 70
     6
  9
$SURFTYPE
 70
     6
  9
$SURFU
 70
     6
  9
$SURFV
 70
     6
  9
$UCSNAME
  2
MO_001_VIEW_PV_P
  9
$UCSORG
 10
0.0
 20
0.0
 30
0.0
  9
$UCSXDIR
 10
1.0
 20
0.0
 30
0.0
  9
$UCSYDIR
 10
-0.0000000002051034
 20
1.0
 30
0.0
  9
$PUCSNAME
  2

  9
$PUCSORG
 10
0.0
 20
0.0
 30
0.0
  9
$PUCSXDIR
 10
1.0
 20
0.0
 30
0.0
  9
$PUCSYDIR
 10
0.0
 20
1.0
 30
0.0
  9
$USERI1
 70
     0
  9
$USERI2
 70
     0
  9
$USERI3
 70
     0
  9
$USERI4
 70
     0
  9
$USERI5
 70
     0
  9
$USERR1
 40
0.0
  9
$USERR2
 40
0.0
  9
$USERR3
 40
0.0
  9
$USERR4
 40
0.0
  9
$USERR5
 40
0.0
  9
$WORLDVIEW
 70
     1
  9
$SHADEDGE
 70
     3
  9
$SHADEDIF
 70
    70
  9
$TILEMODE
 70
     1
  9
$MAXACTVP
 70
    16
  9
$PINSBASE
 10
0.0
 20
0.0
 30
0.0
  9
$PLIMCHECK
 70
     0
  9
$PEXTMIN
 10
-115.1602149999999
 20
-101.208984
 30
1.000000000000000E+20
  9
$PEXTMAX
 10
68.028534
 20
33.0
 30
-1.000000000000000E+20
  9
$PLIMMIN
 10
0.0
 20
0.0
  9
$PLIMMAX
 10
12.0
 20
9.0
  9
$UNITMODE
 70
     0
  9
$VISRETAIN
 70
     0
  9
$PLINEGEN
 70
     0
  9
$PSLTSCALE
 70
     1
  9
$TREEDEPTH
 70
  3020
  9
$PICKSTYLE
 70
     1
  9
$CMLSTYLE
  2
STANDARD
  9
$CMLJUST
 70
     0
  9
$CMLSCALE
 40
1.0
  9
$SAVEIMAGES
 70
     1
  0
ENDSEC
  0
SECTION
  2
CLASSES
  0
CLASS
  1
ACDBDICTIONARYWDFLT
  2
AcDbDictionaryWithDefault
  3
AutoCAD 2000
 90
    32768
280
     0
281
     0
  0
CLASS
  1
ACDBPLACEHOLDER
  2
AcDbPlaceHolder
  3
AutoCAD 2000
 90
    32768
280
     0
281
     0
  0
CLASS
  1
LAYOUT
  2
AcDbLayout
  3
AutoCAD 2000
 90
    32768
280
     0
281
     0
  0
CLASS
  1
LONG_TRANSACTION
  2
AcDbLongTransaction
  3
AutoCAD 2000
 90
    32768
280
     0
281
     0
  0
CLASS
  1
LWPOLYLINE
  2
AcDbPolyline
  3
AutoCAD 2000
 90
    32768
280
     0
281
     1
  0
CLASS
  1
HATCH
  2
AcDbHatch
  3
AutoCAD 2000
 90
    32768
280
     0
281
     1
  0
CLASS
  1
XRECORD
  2
AcDbXrecord
  3
AutoCAD 2000
 90
    32768
280
     0
281
     0
  0
ENDSEC
  0
SECTION
  2
TABLES
  0
TABLE
  2
VPORT
  5
7
330
0
100
AcDbSymbolTable
 70
     2
  0
VPORT
  5
201
330
7
100
AcDbSymbolTableRecord
100
AcDbViewportTableRecord
  2
*ACTIVE
 70
     0
 10
0.0
 20
0.0
 11
1.0
 21
1.0
 12
-5.74936649344346
 22
-25.09781855291874
 13
0.0
 23
0.0
 14
6.349999999999999
 24
6.349999999999999
 15
6.349999999999999
 25
6.349999999999999
 16
0.0
 26
0.0
 36
1.0
 17
0.0
 27
0.0
 37
0.0
 40
170.6688622242413
 41
1.691964285714285
 42
50.0
 43
0.0
 44
0.0
 50
0.0
 51
0.0
 71
     0
 72
   100
 73
     1
 74
     1
 75
     0
 76
     0
 77
     0
 78
     0
  0
ENDTAB
  0
TABLE
  2
LTYPE
  5
4
330
0
100
AcDbSymbolTable
 70
    37
  0
LTYPE
  5
12
330
4
100
AcDbSymbolTableRecord
100
AcDbLinetypeTableRecord
  2
BYBLOCK
 70
     0
  3

 72
    65
 73
     0
 40
0.0
  0
LTYPE
  5
13
330
4
100
AcDbSymbolTableRecord
100
AcDbLinetypeTableRecord
  2
BYLAYER
 70
     0
  3

 72
    65
 73
     0
 40
0.0
  0
LTYPE
  5
14
330
4
100
AcDbSymbolTableRecord
100
AcDbLinetypeTableRecord
  2
CONTINUOUS
 70
     0
  3
DXF Default line type
 72
    65
 73
     0
 40
0.0
  0
LTYPE
  5
20
330
4
100
AcDbSymbolTableRecord
100
AcDbLinetypeTableRecord
  2
DASHED
 70
     0
  3
DXF Dashed
 72
    65
 73
     2
 40
0.75
 49
0.5
 74
     0
 49
-0.25
 74
     0
  0
LTYPE
  5
21
330
4
100
AcDbSymbolTableRecord
100
AcDbLinetypeTableRecord
  2
HIDDEN
 70
     0
  3
DXF Hidden
 72
    65
 73
     2
 40
0.375
 49
0.25
 74
     0
 49
-0.125
 74
     0
  0
LTYPE
  5
22
330
4
100
AcDbSymbolTableRecord
100
AcDbLinetypeTableRecord
  2
CENTER
 70
     0
  3
DXF Center
 72
    65
 73
     4
 40
2.0
 49
1.25
 74
     0
 49
-0.25
 74
     0
 49
0.25
 74
     0
 49
-0.25
 74
     0
  0
LTYPE
  5
23
330
4
100
AcDbSymbolTableRecord
100
AcDbLinetypeTableRecord
  2
PHANTOM
 70
     0
  3
DXF Phantom
 72
    65
 73
     6
 40
2.5
 49
1.25
 74
     0
 49
-0.25
 74
     0
 49
0.25
 74
     0
 49
-0.25
 74
     0
 49
0.25
 74
     0
 49
-0.25
 74
     0
  0
LTYPE
  5
24
330
4
100
AcDbSymbolTableRecord
100
AcDbLinetypeTableRecord
  2
DOT
 70
     0
  3
DXF DOT
 72
    65
 73
     2
 40
0.25
 49
0.0
 74
     0
 49
-0.25
 74
     0
  0
LTYPE
  5
25
330
4
100
AcDbSymbolTableRecord
100
AcDbLinetypeTableRecord
  2
DASHDOT
 70
     0
  3
DXF Dash Dot
 72
    65
 73
     4
 40
1.0
 49
0.5
 74
     0
 49
-0.25
 74
     0
 49
0.0
 74
     0
 49
-0.25
 74
     0
  0
LTYPE
  5
26
330
4
100
AcDbSymbolTableRecord
100
AcDbLinetypeTableRecord
  2
BORDER
 70
     0
  3
DXF Border
 72
    65
 73
     6
 40
1.75
 49
0.5
 74
     0
 49
-0.25
 74
     0
 49
0.5
 74
     0
 49
-0.25
 74
     0
 49
0.0
 74
     0
 49
-0.25
 74
     0
  0
LTYPE
  5
27
330
4
100
AcDbSymbolTableRecord
100
AcDbLinetypeTableRecord
  2
DIVIDE
 70
     0
  3
DXF Divide
 72
    65
 73
     6
 40
1.25
 49
0.5
 74
     0
 49
-0.25
 74
     0
 49
0.0
 74
     0
 49
-0.25
 74
     0
 49
0.0
 74
     0
 49
-0.25
 74
     0
  0
LTYPE
  5
28
330
4
100
AcDbSymbolTableRecord
100
AcDbLinetypeTableRecord
  2
C_SOLID_L
 70
     0
  3
CADAM Solid Light
 72
    65
 73
     0
 40
0.0
  0
LTYPE
  5
29
330
4
100
AcDbSymbolTableRecord
100
AcDbLinetypeTableRecord
  2
C_SOLID_M
 70
     0
  3
CADAM Solid Medium
 72
    65
 73
     0
 40
0.0
  0
LTYPE
  5
2A
330
4
100
AcDbSymbolTableRecord
100
AcDbLinetypeTableRecord
  2
C_SOLID_H
 70
     0
  3
CADAM Solid Heavy
 72
    65
 73
     0
 40
0.0
  0
LTYPE
  5
2B
330
4
100
AcDbSymbolTableRecord
100
AcDbLinetypeTableRecord
  2
C_DASHED_L
 70
     0
  3
CADAM Dashed Light
 72
    65
 73
     2
 40
0.375
 49
0.25
 74
     0
 49
-0.125
 74
     0
  0
LTYPE
  5
2C
330
4
100
AcDbSymbolTableRecord
100
AcDbLinetypeTableRecord
  2
C_DASHED_M
 70
     0
  3
CADAM Dashed Medium
 72
    65
 73
     2
 40
0.5
 49
0.375
 74
     0
 49
-0.125
 74
     0
  0
LTYPE
  5
2D
330
4
100
AcDbSymbolTableRecord
100
AcDbLinetypeTableRecord
  2
C_CENTER_L
 70
     0
  3
CADAM Center Light
 72
    65
 73
     4
 40
2.0
 49
1.25
 74
     0
 49
-0.25
 74
     0
 49
0.25
 74
     0
 49
-0.25
 74
     0
  0
LTYPE
  5
2E
330
4
100
AcDbSymbolTableRecord
100
AcDbLinetypeTableRecord
  2
C_PHANTOM_L
 70
     0
  3
CADAM Phantom Light
 72
    65
 73
     6
 40
2.5
 49
1.25
 74
     0
 49
-0.25
 74
     0
 49
0.25
 74
     0
 49
-0.25
 74
     0
 49
0.25
 74
     0
 49
-0.25
 74
     0
  0
LTYPE
  5
2F
330
4
100
AcDbSymbolTableRecord
100
AcDbLinetypeTableRecord
  2
C_BREAK_M
 70
     0
  3
CADAM Break Medium
 72
    65
 73
     4
 40
1.0
 49
0.5
 74
     0
 49
-0.25
 74
     0
 49
0.0
 74
     0
 49
-0.25
 74
     0
  0
LTYPE
  5
30
330
4
100
AcDbSymbolTableRecord
100
AcDbLinetypeTableRecord
  2
C_NC
 70
     0
  3
CADAM NC
 72
    65
 73
     0
 40
0.0
  0
LTYPE
  5
31
330
4
100
AcDbSymbolTableRecord
100
AcDbLinetypeTableRecord
  2
DSH1
 70
     0
  3
CADAM Style2 Type 1 Dashed Line
 72
    65
 73
     2
 40
0.075
 49
0.04
 74
     0
 49
-0.035
 74
     0
  0
LTYPE
  5
32
330
4
100
AcDbSymbolTableRecord
100
AcDbLinetypeTableRecord
  2
DSH2
 70
     0
  3
CADAM Style2 Type 2 Dashed Line
 72
    65
 73
     2
 40
0.15
 49
0.11
 74
     0
 49
-0.04
 74
     0
  0
LTYPE
  5
33
330
4
100
AcDbSymbolTableRecord
100
AcDbLinetypeTableRecord
  2
DSH3
 70
     0
  3
CADAM Style2 Type 3 Dashed Line
 72
    65
 73
     2
 40
0.2
 49
0.15
 74
     0
 49
-0.05
 74
     0
  0
LTYPE
  5
34
330
4
100
AcDbSymbolTableRecord
100
AcDbLinetypeTableRecord
  2
DSH4
 70
     0
  3
CADAM Style2 Type 4 Dashed Line
 72
    65
 73
     2
 40
0.36
 49
0.28
 74
     0
 49
-0.08
 74
     0
  0
LTYPE
  5
35
330
4
100
AcDbSymbolTableRecord
100
AcDbLinetypeTableRecord
  2
DSH5
 70
     0
  3
CADAM Style2 Type 5 Dashed Line
 72
    65
 73
     2
 40
0.47
 49
0.39
 74
     0
 49
-0.08
 74
     0
  0
LTYPE
  5
36
330
4
100
AcDbSymbolTableRecord
100
AcDbLinetypeTableRecord
  2
DSH6
 70
     0
  3
CADAM Style2 Type 6 Dashed Line
 72
    65
 73
     2
 40
0.9
 49
0.8100000000000001
 74
     0
 49
-0.09
 74
     0
  0
LTYPE
  5
37
330
4
100
AcDbSymbolTableRecord
100
AcDbLinetypeTableRecord
  2
PL1
 70
     0
  3
Style 2 Type 1 Phantom Line
 72
    65
 73
     6
 40
1.0
 49
0.6
 74
     0
 49
-0.08
 74
     0
 49
0.08
 74
     0
 49
-0.08
 74
     0
 49
0.08
 74
     0
 49
-0.08
 74
     0
  0
LTYPE
  5
38
330
4
100
AcDbSymbolTableRecord
100
AcDbLinetypeTableRecord
  2
PL2
 70
     0
  3
Style 2 Type 2 Phantom Line
 72
    65
 73
     6
 40
1.08
 49
0.6
 74
     0
 49
-0.08
 74
     0
 49
0.12
 74
     0
 49
-0.08
 74
     0
 49
0.12
 74
     0
 49
-0.08
 74
     0
  0
LTYPE
  5
39
330
4
100
AcDbSymbolTableRecord
100
AcDbLinetypeTableRecord
  2
PL3
 70
     0
  3
Style 2 Type 3 Phantom Line
 72
    65
 73
     6
 40
2.0
 49
1.439999999999999
 74
     0
 49
-0.08
 74
     0
 49
0.16
 74
     0
 49
-0.08
 74
     0
 49
0.16
 74
     0
 49
-0.08
 74
     0
  0
LTYPE
  5
3A
330
4
100
AcDbSymbolTableRecord
100
AcDbLinetypeTableRecord
  2
CL1
 70
     0
  3
CADAM Style 2 Type 1 Center Line
 72
    65
 73
     4
 40
0.7
 49
0.45
 74
     0
 49
-0.06
 74
     0
 49
0.13
 74
     0
 49
-0.06
 74
     0
  0
LTYPE
  5
3B
330
4
100
AcDbSymbolTableRecord
100
AcDbLinetypeTableRecord
  2
CL2
 70
     0
  3
CADAM Style 2 Type 2 Center Line
 72
    65
 73
     4
 40
1.199999999999999
 49
1.01
 74
     0
 49
-0.06
 74
     0
 49
0.11
 74
     0
 49
-0.06
 74
     0
  0
LTYPE
  5
3C
330
4
100
AcDbSymbolTableRecord
100
AcDbLinetypeTableRecord
  2
CL3
 70
     0
  3
CADAM Style 2 Type 3 Center Line
 72
    65
 73
     4
 40
1.199999999999999
 49
0.98
 74
     0
 49
-0.06
 74
     0
 49
0.1
 74
     0
 49
-0.06
 74
     0
  0
LTYPE
  5
3D
330
4
100
AcDbSymbolTableRecord
100
AcDbLinetypeTableRecord
  2
CL4
 70
     0
  3
CADAM Style 2 Type 4 Center Line
 72
    65
 73
     4
 40
2.2
 49
1.929999999999999
 74
     0
 49
-0.07
 74
     0
 49
0.13
 74
     0
 49
-0.07
 74
     0
  0
LTYPE
  5
3E
330
4
100
AcDbSymbolTableRecord
100
AcDbLinetypeTableRecord
  2
CL5
 70
     0
  3
CADAM Style 2 Type 5 Center Line
 72
    65
 73
     4
 40
2.2
 49
1.879999999999999
 74
     0
 49
-0.07
 74
     0
 49
0.18
 74
     0
 49
-0.07
 74
     0
  0
LTYPE
  5
3F
330
4
100
AcDbSymbolTableRecord
100
AcDbLinetypeTableRecord
  2
SBK1
 70
     0
  3
CADAM Style 2 Type 1 SetBack Line
 72
    65
 73
     8
 40
2.7
 49
0.1
 74
     0
 49
-0.08
 74
     0
 49
0.1
 74
     0
 49
-0.8
 74
     0
 49
0.0
 74
     0
 49
0.0
 74
     0
 49
0.0
 74
     0
 49
0.0
 74
     0
  0
LTYPE
  5
40
330
4
100
AcDbSymbolTableRecord
100
AcDbLinetypeTableRecord
  2
SBK2
 70
     0
  3
CADAM Style 2 Type 2 SetBack Line
 72
    65
 73
     8
 40
3.709999999999999
 49
0.13
 74
     0
 49
-0.08
 74
     0
 49
0.13
 74
     0
 49
-0.8
 74
     0
 49
0.0
 74
     0
 49
0.0
 74
     0
 49
0.0
 74
     0
 49
0.0
 74
     0
  0
LTYPE
  5
41
330
4
100
AcDbSymbolTableRecord
100
AcDbLinetypeTableRecord
  2
STCH
 70
     0
  3
CADAM Style2 Stitch Line
 72
    65
 73
     2
 40
0.25
 49
0.0
 74
     0
 49
-0.25
 74
     0
  0
LTYPE
  5
42
330
4
100
AcDbSymbolTableRecord
100
AcDbLinetypeTableRecord
  2
MTCH
 70
     0
  3
CADAM Style2 Match Line
 72
    65
 73
     6
 40
2.0
 49
1.439999999999999
 74
     0
 49
-0.8
 74
     0
 49
0.16
 74
     0
 49
-0.08
 74
     0
 49
0.16
 74
     0
 49
-0.08
 74
     0
  0
LTYPE
  5
43
330
4
100
AcDbSymbolTableRecord
100
AcDbLinetypeTableRecord
  2
SLD
 70
     0
  3
CADAM Solid_EXT2
 72
    65
 73
     0
 40
0.0
  0
ENDTAB
  0
TABLE
  2
LAYER
  5
2
330
0
100
AcDbSymbolTable
 70
     7
  0
LAYER
  5
15
330
2
100
AcDbSymbolTableRecord
100
AcDbLayerTableRecord
  2
0
 70
     0
 62
     7
  6
CONTINUOUS
  0
LAYER
  5
44
330
2
100
AcDbSymbolTableRecord
100
AcDbLayerTableRecord
  2
MO_001_NOSHOW
 70
     1
 62
     7
  6
CONTINUOUS
  0
LAYER
  5
45
330
2
100
AcDbSymbolTableRecord
100
AcDbLayerTableRecord
  2
MO_001_VIEW_PV
 70
     0
 62
     7
  6
CONTINUOUS
  0
LAYER
  5
46
330
2
100
AcDbSymbolTableRecord
100
AcDbLayerTableRecord
  2
OVERLAY_MAP
 70
     1
 62
     7
  6
CONTINUOUS
  0
LAYER
  5
47
330
2
100
AcDbSymbolTableRecord
100
AcDbLayerTableRecord
  2
DITTOS
 70
     0
 62
     7
  6
CONTINUOUS
  0
LAYER
  5
48
330
2
100
AcDbSymbolTableRecord
100
AcDbLayerTableRecord
  2
SYMBOLS
 70
     0
 62
     7
  6
CONTINUOUS
  0
LAYER
  5
49
330
2
100
AcDbSymbolTableRecord
100
AcDbLayerTableRecord
  2
SETS
 70
     0
 62
     7
  6
CONTINUOUS
  0
ENDTAB
  0
TABLE
  2
STYLE
  5
3
330
0
100
AcDbSymbolTable
 70
     1
  0
STYLE
  5
18
330
3
100
AcDbSymbolTableRecord
100
AcDbTextStyleTableRecord
  2
STANDARD
 70
     0
 40
4.1672
 41
1.0
 50
0.0
 71
     0
 42
4.1672
  3
monotxt
  4
BIGFONT
  0
ENDTAB
  0
TABLE
  2
VIEW
  5
5
330
0
100
AcDbSymbolTable
 70
     0
  0
ENDTAB
  0
TABLE
  2
UCS
  5
6
330
0
100
AcDbSymbolTable
 70
     1
  0
UCS
  5
4A
330
6
100
AcDbSymbolTableRecord
100
AcDbUCSTableRecord
  2
MO_001_VIEW_PV_P
 70
     0
 10
0.0
 20
0.0
 30
0.0
 11
1.0
 21
0.0
 31
0.0
 12
-0.0000000002051034
 22
1.0
 32
0.0
  0
ENDTAB
  0
TABLE
  2
APPID
  5
8
330
0
100
AcDbSymbolTable
 70
     1
  0
APPID
  5
17
330
8
100
AcDbSymbolTableRecord
100
AcDbRegAppTableRecord
  2
ACAD
 70
     0
  0
ENDTAB
  0
TABLE
  2
DIMSTYLE
  5
9
330
0
100
AcDbSymbolTable
 70
     1
  0
DIMSTYLE
105
19
102
{ACAD_REACTORS
330
129
330
12B
330
12D
330
12F
330
131
330
133
330
135
330
137
330
139
330
13B
330
13D
330
13F
330
141
330
149
330
14B
102
}
330
9
100
AcDbSymbolTableRecord
100
AcDbDimStyleTableRecord
  2
STANDARD
 70
     0
  3

  4

  5

  6

  7

 40
1.0
 41
0.18
 42
0.0625
 43
0.38
 44
0.18
 45
0.0
 46
0.0
 47
0.0
 48
0.0
140
0.18
141
0.09
142
0.0
143
25.4
144
1.0
145
0.0
146
1.0
147
0.09
 71
     0
 72
     0
 73
     1
 74
     1
 75
     0
 76
     0
 77
     0
 78
     0
170
     0
171
     2
172
     0
173
     0
174
     0
175
     0
176
     0
177
     0
178
     0
270
     2
271
     4
272
     4
273
     2
274
     2
340
18
275
     0
280
     0
281
     0
282
     0
283
     1
284
     0
285
     0
286
     0
287
     3
288
     0
  0
ENDTAB
  0
TABLE
  2
BLOCK_RECORD
  5
C
330
0
100
AcDbSymbolTable
 70
    15
  0
BLOCK_RECORD
  5
1E
102
{ACAD_XDICTIONARY
360
202
102
}
330
C
100
AcDbSymbolTableRecord
100
AcDbBlockTableRecord
  2
*MODEL_SPACE
  0
BLOCK_RECORD
  5
1F
102
{ACAD_XDICTIONARY
360
204
102
}
330
C
100
AcDbSymbolTableRecord
100
AcDbBlockTableRecord
  2
*PAPER_SPACE
  0
BLOCK_RECORD
  5
128
330
C
100
AcDbSymbolTableRecord
100
AcDbBlockTableRecord
  2
*D0
  0
BLOCK_RECORD
  5
12A
330
C
100
AcDbSymbolTableRecord
100
AcDbBlockTableRecord
  2
*D1
  0
BLOCK_RECORD
  5
12C
330
C
100
AcDbSymbolTableRecord
100
AcDbBlockTableRecord
  2
*D2
  0
BLOCK_RECORD
  5
12E
330
C
100
AcDbSymbolTableRecord
100
AcDbBlockTableRecord
  2
*D3
  0
BLOCK_RECORD
  5
130
330
C
100
AcDbSymbolTableRecord
100
AcDbBlockTableRecord
  2
*D4
  0
BLOCK_RECORD
  5
132
330
C
100
AcDbSymbolTableRecord
100
AcDbBlockTableRecord
  2
*D5
  0
BLOCK_RECORD
  5
134
330
C
100
AcDbSymbolTableRecord
100
AcDbBlockTableRecord
  2
*D6
  0
BLOCK_RECORD
  5
136
330
C
100
AcDbSymbolTableRecord
100
AcDbBlockTableRecord
  2
*D7
  0
BLOCK_RECORD
  5
138
330
C
100
AcDbSymbolTableRecord
100
AcDbBlockTableRecord
  2
*D8
  0
BLOCK_RECORD
  5
13A
330
C
100
AcDbSymbolTableRecord
100
AcDbBlockTableRecord
  2
*D9
  0
BLOCK_RECORD
  5
13C
330
C
100
AcDbSymbolTableRecord
100
AcDbBlockTableRecord
  2
*D10
  0
BLOCK_RECORD
  5
13E
330
C
100
AcDbSymbolTableRecord
100
AcDbBlockTableRecord
  2
*D11
  0
BLOCK_RECORD
  5
140
330
C
100
AcDbSymbolTableRecord
100
AcDbBlockTableRecord
  2
*D12
  0
BLOCK_RECORD
  5
148
330
C
100
AcDbSymbolTableRecord
100
AcDbBlockTableRecord
  2
*D13
  0
BLOCK_RECORD
  5
14A
330
C
100
AcDbSymbolTableRecord
100
AcDbBlockTableRecord
  2
*D14
  0
ENDTAB
  0
ENDSEC
  0
SECTION
  2
BLOCKS
  0
BLOCK
  5
E
330
1E
100
AcDbEntity
  8
0
100
AcDbBlockBegin
  2
*MODEL_SPACE
 70
     0
 10
0.0
 20
0.0
 30
0.0
  3
*MODEL_SPACE
  1

  0
ENDBLK
  5
F
330
1E
100
AcDbEntity
  8
0
100
AcDbBlockEnd
  0
BLOCK
  5
10
330
1F
100
AcDbEntity
 67
     1
  8
0
100
AcDbBlockBegin
  2
*PAPER_SPACE
 70
     0
 10
0.0
 20
0.0
 30
0.0
  3
*PAPER_SPACE
  1

  0
ENDBLK
  5
11
330
1F
100
AcDbEntity
 67
     1
  8
0
100
AcDbBlockEnd
  0
BLOCK
  5
158
330
128
100
AcDbEntity
  8
0
100
AcDbBlockBegin
  2
*D0
 70
     1
 10
0.0
 20
0.0
 30
0.0
  3
*D0
  1

  0
TEXT
  5
159
330
128
100
AcDbEntity
  8
MO_001_VIEW_PV
  6
BYBLOCK
100
AcDbText
 10
-58.90819699999999
 20
23.625
 30
0.0
 40
1.5
  1
%%P0.2
100
AcDbText
  0
TEXT
  5
15A
330
128
100
AcDbEntity
  8
MO_001_VIEW_PV
  6
BYBLOCK
100
AcDbText
 10
-61.693911
 20
21.75
 30
0.0
 40
3.0
  1
4
100
AcDbText
  0
LINE
  5
15B
330
128
100
AcDbEntity
  8
MO_001_VIEW_PV
  6
BYBLOCK
100
AcDbLine
 10
-46.0
 20
21.0
 30
0.0
 11
-50.0
 21
21.0
 31
0.0
  0
LINE
  5
15C
330
128
100
AcDbEntity
  8
MO_001_VIEW_PV
  6
BYBLOCK
100
AcDbLine
 10
-46.0
 20
21.0
 30
0.0
 11
-39.64999999999999
 21
21.0
 31
0.0
  0
LINE
  5
15D
330
128
100
AcDbEntity
  8
MO_001_VIEW_PV
  6
BYBLOCK
100
AcDbLine
 10
-50.0
 20
21.0
 30
0.0
 11
-56.35
 21
21.0
 31
0.0
  0
SOLID
  5
15E
330
128
100
AcDbEntity
  8
MO_001_VIEW_PV
  6
BYBLOCK
100
AcDbTrace
 10
-42.68174000000001
 20
21.58351199999999
 30
0.0
 11
-45.49199999999999
 21
21.0
 31
0.0
 12
-42.68174000000001
 22
20.416488
 32
0.0
 13
-42.68174000000001
 23
20.416488
 33
0.0
  0
SOLID
  5
15F
330
128
100
AcDbEntity
  8
MO_001_VIEW_PV
  6
BYBLOCK
100
AcDbTrace
 10
-53.31825999999999
 20
20.416488
 30
0.0
 11
-50.508
 21
21.0
 31
0.0
 12
-53.31825999999999
 22
21.58351199999999
 32
0.0
 13
-53.31825999999999
 23
21.58351199999999
 33
0.0
  0
LINE
  5
160
330
128
100
AcDbEntity
  8
MO_001_VIEW_PV
  6
BYBLOCK
100
AcDbLine
 10
-46.0
 20
8.0
 30
0.0
 11
-46.0
 21
23.28599899999999
 31
0.0
  0
LINE
  5
161
330
128
100
AcDbEntity
  8
MO_001_VIEW_PV
  6
BYBLOCK
100
AcDbLine
 10
-50.0
 20
5.7
 30
0.0
 11
-50.0
 21
23.28599899999999
 31
0.0
  0
LINE
  5
162
330
128
100
AcDbEntity
  8
MO_001_VIEW_PV
  6
BYBLOCK
100
AcDbLine
 10
-50.0
 20
21.0
 30
0.0
 11
-62.65819499999999
 21
21.0
 31
0.0
  0
ENDBLK
  5
163
330
128
100
AcDbEntity
  8
0
100
AcDbBlockEnd
  0
BLOCK
  5
164
330
12A
100
AcDbEntity
  8
0
100
AcDbBlockBegin
  2
*D1
 70
     1
 10
0.0
 20
0.0
 30
0.0
  3
*D1
  1

  0
TEXT
  5
165
330
12A
100
AcDbEntity
  8
MO_001_VIEW_PV
  6
BYBLOCK
100
AcDbText
 10
-56.49779999999999
 20
29.625
 30
0.0
 40
1.5
  1
%%P0.3
100
AcDbText
  0
TEXT
  5
166
330
12A
100
AcDbEntity
  8
MO_001_VIEW_PV
  6
BYBLOCK
100
AcDbText
 10
-62.28351400000001
 20
27.75
 30
0.0
 40
3.0
  1
10
100
AcDbText
  0
LINE
  5
167
330
12A
100
AcDbEntity
  8
MO_001_VIEW_PV
  6
BYBLOCK
100
AcDbLine
 10
-50.0
 20
27.0
 30
0.0
 11
-40.0
 21
27.0
 31
0.0
  0
LINE
  5
168
330
12A
100
AcDbEntity
  8
MO_001_VIEW_PV
  6
BYBLOCK
100
AcDbLine
 10
-50.0
 20
27.0
 30
0.0
 11
-56.35
 21
27.0
 31
0.0
  0
LINE
  5
169
330
12A
100
AcDbEntity
  8
MO_001_VIEW_PV
  6
BYBLOCK
100
AcDbLine
 10
-40.0
 20
27.0
 30
0.0
 11
-33.65
 21
27.0
 31
0.0
  0
SOLID
  5
16A
330
12A
100
AcDbEntity
  8
MO_001_VIEW_PV
  6
BYBLOCK
100
AcDbTrace
 10
-53.31825999999999
 20
26.416488
 30
0.0
 11
-50.508
 21
27.0
 31
0.0
 12
-53.31825999999999
 22
27.58351199999999
 32
0.0
 13
-53.31825999999999
 23
27.58351199999999
 33
0.0
  0
SOLID
  5
16B
330
12A
100
AcDbEntity
  8
MO_001_VIEW_PV
  6
BYBLOCK
100
AcDbTrace
 10
-36.68174
 20
27.58351199999999
 30
0.0
 11
-39.49199999999999
 21
27.0
 31
0.0
 12
-36.68174
 22
26.416488
 32
0.0
 13
-36.68174
 23
26.416488
 33
0.0
  0
LINE
  5
16C
330
12A
100
AcDbEntity
  8
MO_001_VIEW_PV
  6
BYBLOCK
100
AcDbLine
 10
-50.0
 20
5.7
 30
0.0
 11
-50.0
 21
29.285999
 31
0.0
  0
LINE
  5
16D
330
12A
100
AcDbEntity
  8
MO_001_VIEW_PV
  6
BYBLOCK
100
AcDbLine
 10
-40.0
 20
14.75
 30
0.0
 11
-40.0
 21
29.285999
 31
0.0
  0
LINE
  5
16E
330
12A
100
AcDbEntity
  8
MO_001_VIEW_PV
  6
BYBLOCK
100
AcDbLine
 10
-63.247799
 20
27.0
 30
0.0
 11
-50.0
 21
27.0
 31
0.0
  0
ENDBLK
  5
16F
330
12A
100
AcDbEntity
  8
0
100
AcDbBlockEnd
  0
BLOCK
  5
170
330
12C
100
AcDbEntity
  8
0
100
AcDbBlockBegin
  2
*D2
 70
     1
 10
0.0
 20
0.0
 30
0.0
  3
*D2
  1

  0
TEXT
  5
171
330
12C
100
AcDbEntity
  8
MO_001_VIEW_PV
  6
BYBLOCK
100
AcDbText
 10
-19.785714
 20
29.625
 30
0.0
 40
1.5
  1
%%P0.5
100
AcDbText
  0
TEXT
  5
172
330
12C
100
AcDbEntity
  8
MO_001_VIEW_PV
  6
BYBLOCK
100
AcDbText
 10
-25.571429
 20
27.75
 30
0.0
 40
3.0
  1
40
100
AcDbText
  0
LINE
  5
173
330
12C
100
AcDbEntity
  8
MO_001_VIEW_PV
  6
BYBLOCK
100
AcDbLine
 10
0.0
 20
27.0
 30
0.0
 11
-40.0
 21
27.0
 31
0.0
  0
SOLID
  5
174
330
12C
100
AcDbEntity
  8
MO_001_VIEW_PV
  6
BYBLOCK
100
AcDbTrace
 10
-3.318259999999999
 20
26.416488
 30
0.0
 11
-0.508
 21
27.0
 31
0.0
 12
-3.318259999999999
 22
27.58351199999999
 32
0.0
 13
-3.318259999999999
 23
27.58351199999999
 33
0.0
  0
SOLID
  5
175
330
12C
100
AcDbEntity
  8
MO_001_VIEW_PV
  6
BYBLOCK
100
AcDbTrace
 10
-36.68174
 20
27.58351199999999
 30
0.0
 11
-39.49199999999999
 21
27.0
 31
0.0
 12
-36.68174
 22
26.416488
 32
0.0
 13
-36.68174
 23
26.416488
 33
0.0
  0
LINE
  5
176
330
12C
100
AcDbEntity
  8
MO_001_VIEW_PV
  6
BYBLOCK
100
AcDbLine
 10
0.0
 20
12.75
 30
0.0
 11
0.0
 21
29.285999
 31
0.0
  0
LINE
  5
177
330
12C
100
AcDbEntity
  8
MO_001_VIEW_PV
  6
BYBLOCK
100
AcDbLine
 10
-40.0
 20
14.75
 30
0.0
 11
-40.0
 21
29.285999
 31
0.0
  0
ENDBLK
  5
178
330
12C
100
AcDbEntity
  8
0
100
AcDbBlockEnd
  0
BLOCK
  5
179
330
12E
100
AcDbEntity
  8
0
100
AcDbBlockBegin
  2
*D3
 70
     1
 10
0.0
 20
0.0
 30
0.0
  3
*D3
  1

  0
TEXT
  5
17A
330
12E
100
AcDbEntity
  8
MO_001_VIEW_PV
  6
BYBLOCK
100
AcDbText
 10
4.293988999999999
 20
27.75
 30
0.0
 40
3.0
  1
(0.7)
100
AcDbText
  0
LINE
  5
17B
330
12E
100
AcDbEntity
  8
MO_001_VIEW_PV
  6
BYBLOCK
100
AcDbLine
 10
0.7
 20
27.0
 30
0.0
 11
0.0
 21
27.0
 31
0.0
  0
LINE
  5
17C
330
12E
100
AcDbEntity
  8
MO_001_VIEW_PV
  6
BYBLOCK
100
AcDbLine
 10
0.7
 20
27.0
 30
0.0
 11
7.049999999999999
 21
27.0
 31
0.0
  0
LINE
  5
17D
330
12E
100
AcDbEntity
  8
MO_001_VIEW_PV
  6
BYBLOCK
100
AcDbLine
 10
0.0
 20
27.0
 30
0.0
 11
-6.349999999999999
 21
27.0
 31
0.0
  0
SOLID
  5
17E
330
12E
100
AcDbEntity
  8
MO_001_VIEW_PV
  6
BYBLOCK
100
AcDbTrace
 10
4.018259999999999
 20
27.58351199999999
 30
0.0
 11
1.207999999999999
 21
27.0
 31
0.0
 12
4.018259999999999
 22
26.416488
 32
0.0
 13
4.018259999999999
 23
26.416488
 33
0.0
  0
SOLID
  5
17F
330
12E
100
AcDbEntity
  8
MO_001_VIEW_PV
  6
BYBLOCK
100
AcDbTrace
 10
-3.318259999999999
 20
26.416488
 30
0.0
 11
-0.508
 21
27.0
 31
0.0
 12
-3.318259999999999
 22
27.58351199999999
 32
0.0
 13
-3.318259999999999
 23
27.58351199999999
 33
0.0
  0
LINE
  5
180
330
12E
100
AcDbEntity
  8
MO_001_VIEW_PV
  6
BYBLOCK
100
AcDbLine
 10
0.7
 20
5.0
 30
0.0
 11
0.7
 21
29.285999
 31
0.0
  0
LINE
  5
181
330
12E
100
AcDbEntity
  8
MO_001_VIEW_PV
  6
BYBLOCK
100
AcDbLine
 10
0.0
 20
12.75
 30
0.0
 11
0.0
 21
29.285999
 31
0.0
  0
LINE
  5
182
330
12E
100
AcDbEntity
  8
MO_001_VIEW_PV
  6
BYBLOCK
100
AcDbLine
 10
19.40113299999999
 20
27.0
 30
0.0
 11
0.7
 21
27.0
 31
0.0
  0
ENDBLK
  5
183
330
12E
100
AcDbEntity
  8
0
100
AcDbBlockEnd
  0
BLOCK
  5
184
330
130
100
AcDbEntity
  8
0
100
AcDbBlockBegin
  2
*D4
 70
     1
 10
0.0
 20
0.0
 30
0.0
  3
*D4
  1

  0
TEXT
  5
185
330
130
100
AcDbEntity
  8
MO_001_VIEW_PV
  6
BYBLOCK
100
AcDbText
 10
-59.625
 20
-12.586396
 30
0.0
 40
1.5
  1
%%P0.1
 50
90.0
100
AcDbText
  0
TEXT
  5
186
330
130
100
AcDbEntity
  8
MO_001_VIEW_PV
  6
BYBLOCK
100
AcDbText
 10
-57.75
 20
-15.37211099999999
 30
0.0
 40
3.0
  1
3
 50
90.0
100
AcDbText
  0
LINE
  5
187
330
130
100
AcDbEntity
  8
MO_001_VIEW_PV
  6
BYBLOCK
100
AcDbLine
 10
-57.0
 20
-1.5
 30
0.0
 11
-57.0
 21
1.5
 31
0.0
  0
LINE
  5
188
330
130
100
AcDbEntity
  8
MO_001_VIEW_PV
  6
BYBLOCK
100
AcDbLine
 10
-57.0
 20
-1.5
 30
0.0
 11
-57.0
 21
-7.849999999999999
 31
0.0
  0
LINE
  5
189
330
130
100
AcDbEntity
  8
MO_001_VIEW_PV
  6
BYBLOCK
100
AcDbLine
 10
-57.0
 20
1.5
 30
0.0
 11
-57.0
 21
7.849999999999999
 31
0.0
  0
SOLID
  5
18A
330
130
100
AcDbEntity
  8
MO_001_VIEW_PV
  6
BYBLOCK
100
AcDbTrace
 10
-56.416488
 20
-4.818259999999999
 30
0.0
 11
-57.0
 21
-2.008
 31
0.0
 12
-57.58351199999999
 22
-4.818259999999999
 32
0.0
 13
-57.58351199999999
 23
-4.818259999999999
 33
0.0
  0
SOLID
  5
18B
330
130
100
AcDbEntity
  8
MO_001_VIEW_PV
  6
BYBLOCK
100
AcDbTrace
 10
-57.58351199999999
 20
4.818259999999999
 30
0.0
 11
-57.0
 21
2.008
 31
0.0
 12
-56.416488
 22
4.818259999999999
 32
0.0
 13
-56.416488
 23
4.818259999999999
 33
0.0
  0
LINE
  5
18C
330
130
100
AcDbEntity
  8
MO_001_VIEW_PV
  6
BYBLOCK
100
AcDbLine
 10
-50.0
 20
-1.5
 30
0.0
 11
-59.285999
 21
-1.5
 31
0.0
  0
LINE
  5
18D
330
130
100
AcDbEntity
  8
MO_001_VIEW_PV
  6
BYBLOCK
100
AcDbLine
 10
-50.0
 20
1.5
 30
0.0
 11
-59.285999
 21
1.5
 31
0.0
  0
LINE
  5
18E
330
130
100
AcDbEntity
  8
MO_001_VIEW_PV
  6
BYBLOCK
100
AcDbLine
 10
-57.0
 20
-16.336395
 30
0.0
 11
-57.0
 21
-1.5
 31
0.0
  0
ENDBLK
  5
18F
330
130
100
AcDbEntity
  8
0
100
AcDbBlockEnd
  0
BLOCK
  5
190
330
132
100
AcDbEntity
  8
0
100
AcDbBlockBegin
  2
*D5
 70
     1
 10
0.0
 20
0.0
 30
0.0
  3
*D5
  1

  0
TEXT
  5
191
330
132
100
AcDbEntity
  8
MO_001_VIEW_PV
  6
BYBLOCK
100
AcDbText
 10
-65.625
 20
-12.317586
 30
0.0
 40
1.5
  1
%%P0.1
 50
90.0
100
AcDbText
  0
TEXT
  5
192
330
132
100
AcDbEntity
  8
MO_001_VIEW_PV
  6
BYBLOCK
100
AcDbText
 10
-63.75
 20
-21.1033
 30
0.0
 40
3.0
  1
%%C12
 50
90.0
100
AcDbText
  0
LINE
  5
193
330
132
100
AcDbEntity
  8
MO_001_VIEW_PV
  6
BYBLOCK
100
AcDbLine
 10
-63.0
 20
-6.0
 30
0.0
 11
-63.0
 21
6.0
 31
0.0
  0
SOLID
  5
194
330
132
100
AcDbEntity
  8
MO_001_VIEW_PV
  6
BYBLOCK
100
AcDbTrace
 10
-63.583512
 20
-2.68174
 30
0.0
 11
-63.0
 21
-5.492
 31
0.0
 12
-62.416488
 22
-2.68174
 32
0.0
 13
-62.416488
 23
-2.68174
 33
0.0
  0
SOLID
  5
195
330
132
100
AcDbEntity
  8
MO_001_VIEW_PV
  6
BYBLOCK
100
AcDbTrace
 10
-62.416488
 20
2.68174
 30
0.0
 11
-63.0
 21
5.492
 31
0.0
 12
-63.583512
 22
2.68174
 32
0.0
 13
-63.583512
 23
2.68174
 33
0.0
  0
LINE
  5
196
330
132
100
AcDbEntity
  8
MO_001_VIEW_PV
  6
BYBLOCK
100
AcDbLine
 10
-49.700001
 20
-6.0
 30
0.0
 11
-65.286003
 21
-6.0
 31
0.0
  0
LINE
  5
197
330
132
100
AcDbEntity
  8
MO_001_VIEW_PV
  6
BYBLOCK
100
AcDbLine
 10
-49.700001
 20
6.0
 30
0.0
 11
-65.286003
 21
6.0
 31
0.0
  0
LINE
  5
198
330
132
100
AcDbEntity
  8
MO_001_VIEW_PV
  6
BYBLOCK
100
AcDbLine
 10
-63.0
 20
-22.067585
 30
0.0
 11
-63.0
 21
-6.0
 31
0.0
  0
ENDBLK
  5
199
330
132
100
AcDbEntity
  8
0
100
AcDbBlockEnd
  0
BLOCK
  5
19A
330
134
100
AcDbEntity
  8
0
100
AcDbBlockBegin
  2
*D6
 70
     1
 10
0.0
 20
0.0
 30
0.0
  3
*D6
  1

  0
LINE
  5
19B
330
134
100
AcDbEntity
  8
MO_001_VIEW_PV
  6
BYBLOCK
100
AcDbLine
 10
-105.4999999999999
 20
-24.0
 30
0.0
 11
-80.5
 21
-24.0
 31
0.0
  0
SOLID
  5
19C
330
134
100
AcDbEntity
  8
MO_001_VIEW_PV
  6
BYBLOCK
100
AcDbTrace
 10
-102.1817399999999
 20
-23.416488
 30
0.0
 11
-104.9919999999999
 21
-24.0
 31
0.0
 12
-102.1817399999999
 22
-24.583512
 32
0.0
 13
-102.1817399999999
 23
-24.583512
 33
0.0
  0
SOLID
  5
19D
330
134
100
AcDbEntity
  8
MO_001_VIEW_PV
  6
BYBLOCK
100
AcDbTrace
 10
-83.81826
 20
-24.583512
 30
0.0
 11
-81.00799999999999
 21
-24.0
 31
0.0
 12
-83.81826
 22
-23.416488
 32
0.0
 13
-83.81826
 23
-23.416488
 33
0.0
  0
LINE
  5
19E
330
134
100
AcDbEntity
  8
MO_001_VIEW_PV
  6
BYBLOCK
100
AcDbLine
 10
-105.4999999999999
 20
-14.75
 30
0.0
 11
-105.4999999999999
 21
-26.285999
 31
0.0
  0
LINE
  5
19F
330
134
100
AcDbEntity
  8
MO_001_VIEW_PV
  6
BYBLOCK
100
AcDbLine
 10
-80.5
 20
-14.75
 30
0.0
 11
-80.5
 21
-26.285999
 31
0.0
  0
TEXT
  5
1A0
330
134
100
AcDbEntity
  8
MO_001_VIEW_PV
  6
BYBLOCK
100
AcDbText
 10
-92.785714
 20
-21.375
 30
0.0
 40
1.5
  1
%%P0.5
100
AcDbText
  0
TEXT
  5
1A1
330
134
100
AcDbEntity
  8
MO_001_VIEW_PV
  6
BYBLOCK
100
AcDbText
 10
-98.57142900000001
 20
-23.25
 30
0.0
 40
3.0
  1
25
100
AcDbText
  0
ENDBLK
  5
1A2
330
134
100
AcDbEntity
  8
0
100
AcDbBlockEnd
  0
BLOCK
  5
1A3
330
136
100
AcDbEntity
  8
0
100
AcDbBlockBegin
  2
*D7
 70
     1
 10
0.0
 20
0.0
 30
0.0
  3
*D7
  1

  0
LINE
  5
1A4
330
136
100
AcDbEntity
  8
MO_001_VIEW_PV
  6
BYBLOCK
100
AcDbLine
 10
-72.0
 20
-14.65
 30
0.0
 11
-72.0
 21
14.75
 31
0.0
  0
SOLID
  5
1A5
330
136
100
AcDbEntity
  8
MO_001_VIEW_PV
  6
BYBLOCK
100
AcDbTrace
 10
-72.58351199999999
 20
-11.331739
 30
0.0
 11
-72.0
 21
-14.142
 31
0.0
 12
-71.416488
 22
-11.331739
 32
0.0
 13
-71.416488
 23
-11.331739
 33
0.0
  0
SOLID
  5
1A6
330
136
100
AcDbEntity
  8
MO_001_VIEW_PV
  6
BYBLOCK
100
AcDbTrace
 10
-71.416488
 20
11.43173999999999
 30
0.0
 11
-72.0
 21
14.242
 31
0.0
 12
-72.58351199999999
 22
11.43173999999999
 32
0.0
 13
-72.58351199999999
 23
11.43173999999999
 33
0.0
  0
LINE
  5
1A7
330
136
100
AcDbEntity
  8
MO_001_VIEW_PV
  6
BYBLOCK
100
AcDbLine
 10
-87.0
 20
-14.65
 30
0.0
 11
-69.71399699999999
 21
-14.65
 31
0.0
  0
LINE
  5
1A8
330
136
100
AcDbEntity
  8
MO_001_VIEW_PV
  6
BYBLOCK
100
AcDbLine
 10
-80.5
 20
14.75
 30
0.0
 11
-69.71399699999999
 21
14.75
 31
0.0
  0
TEXT
  5
1A9
330
136
100
AcDbEntity
  8
MO_001_VIEW_PV
  6
BYBLOCK
100
AcDbText
 10
-74.625
 20
3.264286
 30
0.0
 40
1.5
  1
%%P0.5
 50
90.0
100
AcDbText
  0
TEXT
  5
1AA
330
136
100
AcDbEntity
  8
MO_001_VIEW_PV
  6
BYBLOCK
100
AcDbText
 10
-72.75
 20
-8.521428
 30
0.0
 40
3.0
  1
29.5
 50
90.0
100
AcDbText
  0
ENDBLK
  5
1AB
330
136
100
AcDbEntity
  8
0
100
AcDbBlockEnd
  0
BLOCK
  5
1AC
330
138
100
AcDbEntity
  8
0
100
AcDbBlockBegin
  2
*D8
 70
     1
 10
0.0
 20
0.0
 30
0.0
  3
*D8
  1

  0
LINE
  5
1AD
330
138
100
AcDbEntity
  8
MO_001_VIEW_PV
  6
BYBLOCK
100
AcDbLine
 10
-21.0
 20
-33.0
 30
0.0
 11
-46.299999
 21
-33.0
 31
0.0
  0
SOLID
  5
1AE
330
138
100
AcDbEntity
  8
MO_001_VIEW_PV
  6
BYBLOCK
100
AcDbTrace
 10
-24.31826
 20
-33.58351199999999
 30
0.0
 11
-21.508
 21
-33.0
 31
0.0
 12
-24.31826
 22
-32.416488
 32
0.0
 13
-24.31826
 23
-32.416488
 33
0.0
  0
SOLID
  5
1AF
330
138
100
AcDbEntity
  8
MO_001_VIEW_PV
  6
BYBLOCK
100
AcDbTrace
 10
-42.981739
 20
-32.416488
 30
0.0
 11
-45.79199899999999
 21
-33.0
 31
0.0
 12
-42.981739
 22
-33.58351199999999
 32
0.0
 13
-42.981739
 23
-33.58351199999999
 33
0.0
  0
LINE
  5
1B0
330
138
100
AcDbEntity
  8
MO_001_VIEW_PV
  6
BYBLOCK
100
AcDbLine
 10
-21.0
 20
-43.0
 30
0.0
 11
-21.0
 21
-30.71400099999999
 31
0.0
  0
LINE
  5
1B1
330
138
100
AcDbEntity
  8
MO_001_VIEW_PV
  6
BYBLOCK
100
AcDbLine
 10
-46.299999
 20
-50.0
 30
0.0
 11
-46.299999
 21
-30.71400099999999
 31
0.0
  0
TEXT
  5
1B2
330
138
100
AcDbEntity
  8
MO_001_VIEW_PV
  6
BYBLOCK
100
AcDbText
 10
-33.435716
 20
-30.375
 30
0.0
 40
1.5
  1
%%P0.5
100
AcDbText
  0
TEXT
  5
1B3
330
138
100
AcDbEntity
  8
MO_001_VIEW_PV
  6
BYBLOCK
100
AcDbText
 10
-39.22143
 20
-32.25
 30
0.0
 40
3.0
  1
25
100
AcDbText
  0
ENDBLK
  5
1B4
330
138
100
AcDbEntity
  8
0
100
AcDbBlockEnd
  0
BLOCK
  5
1B5
330
13A
100
AcDbEntity
  8
0
100
AcDbBlockBegin
  2
*D9
 70
     1
 10
0.0
 20
0.0
 30
0.0
  3
*D9
  1

  0
LINE
  5
1B6
330
13A
100
AcDbEntity
  8
MO_001_VIEW_PV
  6
BYBLOCK
100
AcDbLine
 10
-21.0
 20
-33.0
 30
0.0
 11
-8.0
 21
-33.0
 31
0.0
  0
SOLID
  5
1B7
330
13A
100
AcDbEntity
  8
MO_001_VIEW_PV
  6
BYBLOCK
100
AcDbTrace
 10
-17.68173999999999
 20
-32.416488
 30
0.0
 11
-20.49199999999999
 21
-33.0
 31
0.0
 12
-17.68173999999999
 22
-33.58351199999999
 32
0.0
 13
-17.68173999999999
 23
-33.58351199999999
 33
0.0
  0
SOLID
  5
1B8
330
13A
100
AcDbEntity
  8
MO_001_VIEW_PV
  6
BYBLOCK
100
AcDbTrace
 10
-11.31825999999999
 20
-33.58351199999999
 30
0.0
 11
-8.507999999999999
 21
-33.0
 31
0.0
 12
-11.31825999999999
 22
-32.416488
 32
0.0
 13
-11.31825999999999
 23
-32.416488
 33
0.0
  0
LINE
  5
1B9
330
13A
100
AcDbEntity
  8
MO_001_VIEW_PV
  6
BYBLOCK
100
AcDbLine
 10
-21.0
 20
-43.0
 30
0.0
 11
-21.0
 21
-30.71400099999999
 31
0.0
  0
LINE
  5
1BA
330
13A
100
AcDbEntity
  8
MO_001_VIEW_PV
  6
BYBLOCK
100
AcDbLine
 10
-8.0
 20
-43.0
 30
0.0
 11
-8.0
 21
-30.71400099999999
 31
0.0
  0
TEXT
  5
1BB
330
13A
100
AcDbEntity
  8
MO_001_VIEW_PV
  6
BYBLOCK
100
AcDbText
 10
-14.285714
 20
-30.375
 30
0.0
 40
1.5
  1
%%P0.2
100
AcDbText
  0
TEXT
  5
1BC
330
13A
100
AcDbEntity
  8
MO_001_VIEW_PV
  6
BYBLOCK
100
AcDbText
 10
-20.071429
 20
-32.25
 30
0.0
 40
3.0
  1
13
100
AcDbText
  0
LINE
  5
1BD
330
13A
100
AcDbEntity
  8
MO_001_VIEW_PV
  6
BYBLOCK
100
AcDbLine
 10
-21.035715
 20
-33.0
 30
0.0
 11
-21.0
 21
-33.0
 31
0.0
  0
LINE
  5
1BE
330
13A
100
AcDbEntity
  8
MO_001_VIEW_PV
  6
BYBLOCK
100
AcDbLine
 10
-8.0
 20
-33.0
 30
0.0
 11
-7.964286
 21
-33.0
 31
0.0
  0
ENDBLK
  5
1BF
330
13A
100
AcDbEntity
  8
0
100
AcDbBlockEnd
  0
BLOCK
  5
1C0
330
13C
100
AcDbEntity
  8
0
100
AcDbBlockBegin
  2
*D10
 70
     1
 10
0.0
 20
0.0
 30
0.0
  3
*D10
  1

  0
LINE
  5
1C1
330
13C
100
AcDbEntity
  8
MO_001_VIEW_PV
  6
BYBLOCK
100
AcDbLine
 10
0.0
 20
-33.0
 30
0.0
 11
-8.0
 21
-33.0
 31
0.0
  0
LINE
  5
1C2
330
13C
100
AcDbEntity
  8
MO_001_VIEW_PV
  6
BYBLOCK
100
AcDbLine
 10
0.0
 20
-33.0
 30
0.0
 11
6.349999999999999
 21
-33.0
 31
0.0
  0
LINE
  5
1C3
330
13C
100
AcDbEntity
  8
MO_001_VIEW_PV
  6
BYBLOCK
100
AcDbLine
 10
-8.0
 20
-33.0
 30
0.0
 11
-14.35
 21
-33.0
 31
0.0
  0
SOLID
  5
1C4
330
13C
100
AcDbEntity
  8
MO_001_VIEW_PV
  6
BYBLOCK
100
AcDbTrace
 10
3.318259999999999
 20
-32.416488
 30
0.0
 11
0.508
 21
-33.0
 31
0.0
 12
3.318259999999999
 22
-33.58351199999999
 32
0.0
 13
3.318259999999999
 23
-33.58351199999999
 33
0.0
  0
SOLID
  5
1C5
330
13C
100
AcDbEntity
  8
MO_001_VIEW_PV
  6
BYBLOCK
100
AcDbTrace
 10
-11.31825999999999
 20
-33.58351199999999
 30
0.0
 11
-8.507999999999999
 21
-33.0
 31
0.0
 12
-11.31825999999999
 22
-32.416488
 32
0.0
 13
-11.31825999999999
 23
-32.416488
 33
0.0
  0
LINE
  5
1C6
330
13C
100
AcDbEntity
  8
MO_001_VIEW_PV
  6
BYBLOCK
100
AcDbLine
 10
0.0
 20
-40.49999999999999
 30
0.0
 11
0.0
 21
-30.71400099999999
 31
0.0
  0
LINE
  5
1C7
330
13C
100
AcDbEntity
  8
MO_001_VIEW_PV
  6
BYBLOCK
100
AcDbLine
 10
-8.0
 20
-43.0
 30
0.0
 11
-8.0
 21
-30.71400099999999
 31
0.0
  0
TEXT
  5
1C8
330
13C
100
AcDbEntity
  8
MO_001_VIEW_PV
  6
BYBLOCK
100
AcDbText
 10
6.485717
 20
-30.375
 30
0.0
 40
1.5
  1
%%P0.2
100
AcDbText
  0
TEXT
  5
1C9
330
13C
100
AcDbEntity
  8
MO_001_VIEW_PV
  6
BYBLOCK
100
AcDbText
 10
3.700001999999999
 20
-32.25
 30
0.0
 40
3.0
  1
8
100
AcDbText
  0
LINE
  5
1CA
330
13C
100
AcDbEntity
  8
MO_001_VIEW_PV
  6
BYBLOCK
100
AcDbLine
 10
12.807145
 20
-33.0
 30
0.0
 11
0.0
 21
-33.0
 31
0.0
  0
ENDBLK
  5
1CB
330
13C
100
AcDbEntity
  8
0
100
AcDbBlockEnd
  0
BLOCK
  5
1CC
330
13E
100
AcDbEntity
  8
0
100
AcDbBlockBegin
  2
*D11
 70
     1
 10
0.0
 20
0.0
 30
0.0
  3
*D11
  1

  0
LINE
  5
1CD
330
13E
100
AcDbEntity
  8
MO_001_VIEW_PV
  6
BYBLOCK
100
AcDbLine
 10
18.0
 20
-45.49999999999999
 30
0.0
 11
18.0
 21
-60.5
 31
0.0
  0
SOLID
  5
1CE
330
13E
100
AcDbEntity
  8
MO_001_VIEW_PV
  6
BYBLOCK
100
AcDbTrace
 10
18.58351199999999
 20
-48.81826
 30
0.0
 11
18.0
 21
-46.008
 31
0.0
 12
17.416488
 22
-48.81826
 32
0.0
 13
17.416488
 23
-48.81826
 33
0.0
  0
SOLID
  5
1CF
330
13E
100
AcDbEntity
  8
MO_001_VIEW_PV
  6
BYBLOCK
100
AcDbTrace
 10
17.416488
 20
-57.18174000000001
 30
0.0
 11
18.0
 21
-59.992
 31
0.0
 12
18.58351199999999
 22
-57.18174000000001
 32
0.0
 13
18.58351199999999
 23
-57.18174000000001
 33
0.0
  0
LINE
  5
1D0
330
13E
100
AcDbEntity
  8
MO_001_VIEW_PV
  6
BYBLOCK
100
AcDbLine
 10
-5.5
 20
-45.49999999999999
 30
0.0
 11
20.285999
 21
-45.49999999999999
 31
0.0
  0
LINE
  5
1D1
330
13E
100
AcDbEntity
  8
MO_001_VIEW_PV
  6
BYBLOCK
100
AcDbLine
 10
-5.5
 20
-60.5
 30
0.0
 11
20.285999
 21
-60.5
 31
0.0
  0
TEXT
  5
1D2
330
13E
100
AcDbEntity
  8
MO_001_VIEW_PV
  6
BYBLOCK
100
AcDbText
 10
15.375
 20
-39.215615
 30
0.0
 40
1.5
  1
%%P0.2
 50
90.0
100
AcDbText
  0
TEXT
  5
1D3
330
13E
100
AcDbEntity
  8
MO_001_VIEW_PV
  6
BYBLOCK
100
AcDbText
 10
17.25
 20
-45.00132999999999
 30
0.0
 40
3.0
  1
15
 50
90.0
100
AcDbText
  0
LINE
  5
1D4
330
13E
100
AcDbEntity
  8
MO_001_VIEW_PV
  6
BYBLOCK
100
AcDbLine
 10
18.0
 20
-32.894184
 30
0.0
 11
18.0
 21
-45.49999999999999
 31
0.0
  0
ENDBLK
  5
1D5
330
13E
100
AcDbEntity
  8
0
100
AcDbBlockEnd
  0
BLOCK
  5
1D6
330
140
100
AcDbEntity
  8
0
100
AcDbBlockBegin
  2
*D12
 70
     1
 10
0.0
 20
0.0
 30
0.0
  3
*D12
  1

  0
LINE
  5
1D7
330
140
100
AcDbEntity
  8
MO_001_VIEW_PV
  6
BYBLOCK
100
AcDbLine
 10
-4.851736999999999
 20
-65.942635
 30
0.0
 11
-4.851736999999999
 21
-83.28600300000001
 31
0.0
  0
TEXT
  5
1D8
330
140
100
AcDbEntity
  8
MO_001_VIEW_PV
  6
BYBLOCK
100
AcDbText
 10
3.202703
 20
-80.25
 30
0.0
 40
3.0
  1
長さ250以上
100
AcDbText
  0
LINE
  5
1D9
330
140
100
AcDbEntity
  8
MO_001_VIEW_PV
  6
BYBLOCK
100
AcDbLine
 10
-4.851736999999999
 20
-81.0
 30
0.0
 11
31.400002
 21
-81.0
 31
0.0
  0
SOLID
  5
1DA
330
140
100
AcDbEntity
  8
MO_001_VIEW_PV
  6
BYBLOCK
100
AcDbTrace
 10
-1.533476999999999
 20
-80.416488
 30
0.0
 11
-4.343736999999999
 21
-81.0
 31
0.0
 12
-1.533476999999999
 22
-81.583512
 32
0.0
 13
-1.533476999999999
 23
-81.583512
 33
0.0
  0
SOLID
  5
1DB
330
140
100
AcDbEntity
  8
MO_001_VIEW_PV
  6
BYBLOCK
100
AcDbTrace
 10
28.081741
 20
-81.583512
 30
0.0
 11
30.892002
 21
-81.0
 31
0.0
 12
28.081741
 22
-80.416488
 32
0.0
 13
28.081741
 23
-80.416488
 33
0.0
  0
LINE
  5
1DC
330
140
100
AcDbEntity
  8
MO_001_VIEW_PV
  6
BYBLOCK
100
AcDbLine
 10
31.400002
 20
-72.74000500000001
 30
0.0
 11
31.400002
 21
-83.28600300000001
 31
0.0
  0
ENDBLK
  5
1DD
330
140
100
AcDbEntity
  8
0
100
AcDbBlockEnd
  0
BLOCK
  5
1DE
330
148
100
AcDbEntity
  8
0
100
AcDbBlockBegin
  2
*D13
 70
     1
 10
0.0
 20
0.0
 30
0.0
  3
*D13
  1

  0
TEXT
  5
1DF
330
148
100
AcDbEntity
  8
MO_001_VIEW_PV
  6
BYBLOCK
100
AcDbText
 10
18.53001
 20
-26.74880399999999
 30
0.0
 40
3.0
  1
t2
 50
90.0
100
AcDbText
  0
LINE
  5
1E0
330
148
100
AcDbEntity
  8
MO_001_VIEW_PV
  6
BYBLOCK
100
AcDbLine
 10
19.28001
 20
-14.75
 30
0.0
 11
19.28001
 21
-12.75
 31
0.0
  0
LINE
  5
1E1
330
148
100
AcDbEntity
  8
MO_001_VIEW_PV
  6
BYBLOCK
100
AcDbLine
 10
19.28001
 20
-14.75
 30
0.0
 11
19.28001
 21
-21.1
 31
0.0
  0
LINE
  5
1E2
330
148
100
AcDbEntity
  8
MO_001_VIEW_PV
  6
BYBLOCK
100
AcDbLine
 10
19.28001
 20
-12.75
 30
0.0
 11
19.28001
 21
-6.4
 31
0.0
  0
SOLID
  5
1E3
330
148
100
AcDbEntity
  8
MO_001_VIEW_PV
  6
BYBLOCK
100
AcDbTrace
 10
19.86352199999999
 20
-18.06826
 30
0.0
 11
19.28001
 21
-15.258
 31
0.0
 12
18.69649899999999
 22
-18.06826
 32
0.0
 13
18.69649899999999
 23
-18.06826
 33
0.0
  0
SOLID
  5
1E4
330
148
100
AcDbEntity
  8
MO_001_VIEW_PV
  6
BYBLOCK
100
AcDbTrace
 10
18.69649899999999
 20
-9.431739999999999
 30
0.0
 11
19.28001
 21
-12.242
 31
0.0
 12
19.86352199999999
 22
-9.431739999999999
 32
0.0
 13
19.86352199999999
 23
-9.431739999999999
 33
0.0
  0
LINE
  5
1E5
330
148
100
AcDbEntity
  8
MO_001_VIEW_PV
  6
BYBLOCK
100
AcDbLine
 10
-2.0
 20
-14.75
 30
0.0
 11
21.56601
 21
-14.75
 31
0.0
  0
LINE
  5
1E6
330
148
100
AcDbEntity
  8
MO_001_VIEW_PV
  6
BYBLOCK
100
AcDbLine
 10
-25.5
 20
-12.75
 30
0.0
 11
21.56601
 21
-12.75
 31
0.0
  0
LINE
  5
1E7
330
148
100
AcDbEntity
  8
MO_001_VIEW_PV
  6
BYBLOCK
100
AcDbLine
 10
19.28001
 20
-27.713089
 30
0.0
 11
19.28001
 21
-14.75
 31
0.0
  0
ENDBLK
  5
1E8
330
148
100
AcDbEntity
  8
0
100
AcDbBlockEnd
  0
BLOCK
  5
1E9
330
14A
100
AcDbEntity
  8
0
100
AcDbBlockBegin
  2
*D14
 70
     1
 10
0.0
 20
0.0
 30
0.0
  3
*D14
  1

  0
TEXT
  5
1EA
330
14A
100
AcDbEntity
  8
MO_001_VIEW_PV
  6
BYBLOCK
100
AcDbText
 10
-31.285714
 20
-21.375
 30
0.0
 40
1.5
  1
%%P0.2
100
AcDbText
  0
TEXT
  5
1EB
330
14A
100
AcDbEntity
  8
MO_001_VIEW_PV
  6
BYBLOCK
100
AcDbText
 10
-34.07142899999999
 20
-23.25
 30
0.0
 40
3.0
  1
9
100
AcDbText
  0
LINE
  5
1EC
330
14A
100
AcDbEntity
  8
MO_001_VIEW_PV
  6
BYBLOCK
100
AcDbLine
 10
-50.0
 20
-24.0
 30
0.0
 11
-41.0
 21
-24.0
 31
0.0
  0
LINE
  5
1ED
330
14A
100
AcDbEntity
  8
MO_001_VIEW_PV
  6
BYBLOCK
100
AcDbLine
 10
-50.0
 20
-24.0
 30
0.0
 11
-56.35
 21
-24.0
 31
0.0
  0
LINE
  5
1EE
330
14A
100
AcDbEntity
  8
MO_001_VIEW_PV
  6
BYBLOCK
100
AcDbLine
 10
-41.0
 20
-24.0
 30
0.0
 11
-34.64999999999999
 21
-24.0
 31
0.0
  0
SOLID
  5
1EF
330
14A
100
AcDbEntity
  8
MO_001_VIEW_PV
  6
BYBLOCK
100
AcDbTrace
 10
-53.31825999999999
 20
-24.583512
 30
0.0
 11
-50.508
 21
-24.0
 31
0.0
 12
-53.31825999999999
 22
-23.416488
 32
0.0
 13
-53.31825999999999
 23
-23.416488
 33
0.0
  0
SOLID
  5
1F0
330
14A
100
AcDbEntity
  8
MO_001_VIEW_PV
  6
BYBLOCK
100
AcDbTrace
 10
-37.68174
 20
-23.416488
 30
0.0
 11
-40.49199999999999
 21
-24.0
 31
0.0
 12
-37.68174
 22
-24.583512
 32
0.0
 13
-37.68174
 23
-24.583512
 33
0.0
  0
LINE
  5
1F1
330
14A
100
AcDbEntity
  8
MO_001_VIEW_PV
  6
BYBLOCK
100
AcDbLine
 10
-50.0
 20
-5.7
 30
0.0
 11
-50.0
 21
-26.285999
 31
0.0
  0
LINE
  5
1F2
330
14A
100
AcDbEntity
  8
MO_001_VIEW_PV
  6
BYBLOCK
100
AcDbLine
 10
-41.0
 20
-1.5
 30
0.0
 11
-41.0
 21
-26.285999
 31
0.0
  0
LINE
  5
1F3
330
14A
100
AcDbEntity
  8
MO_001_VIEW_PV
  6
BYBLOCK
100
AcDbLine
 10
-41.0
 20
-24.0
 30
0.0
 11
-24.964285
 21
-24.0
 31
0.0
  0
ENDBLK
  5
1F4
330
14A
100
AcDbEntity
  8
0
100
AcDbBlockEnd
  0
ENDSEC
  0
SECTION
  2
ENTITIES
  0
TEXT
  5
4B
330
1E
100
AcDbEntity
  8
OVERLAY_MAP
  6
C_SOLID_L
100
AcDbText
 10
0.0
 20
6.349999999999999
 30
0.0
 40
4.1672
  1
Model Overlay Name
100
AcDbText
  0
TEXT
  5
4C
330
1E
100
AcDbEntity
  8
OVERLAY_MAP
  6
C_SOLID_L
100
AcDbText
 10
126.999998
 20
0.0
 30
0.0
 40
4.1672
  1
Number
100
AcDbText
  0
TEXT
  5
4D
330
1E
100
AcDbEntity
  8
OVERLAY_MAP
  6
C_SOLID_L
100
AcDbText
 10
177.7999969999999
 20
0.0
 30
0.0
 40
4.1672
  1
File Text
100
AcDbText
  0
TEXT
  5
4E
330
1E
100
AcDbEntity
  8
OVERLAY_MAP
  6
C_SOLID_L
100
AcDbText
 10
0.0
 20
-6.349999999999999
 30
0.0
 40
4.1672
  1
sh1l-1240 
100
AcDbText
  0
TEXT
  5
4F
330
1E
100
AcDbEntity
  8
OVERLAY_MAP
  6
C_SOLID_L
100
AcDbText
 10
126.999998
 20
-6.349999999999999
 30
0.0
 40
4.1672
  1
001
100
AcDbText
  0
TEXT
  5
50
330
1E
100
AcDbEntity
  8
OVERLAY_MAP
  6
C_SOLID_L
100
AcDbText
 10
177.7999969999999
 20
-6.349999999999999
 30
0.0
 40
4.1672
  1
                                                                   00118
100
AcDbText
  0
LINE
  5
51
330
1E
100
AcDbEntity
  8
MO_001_VIEW_PV
  6
C_CENTER_L
100
AcDbLine
 10
-53.735359
 20
0.0
 30
0.0
 11
6.895110999999999
 21
0.0
 31
0.0
  0
LINE
  5
52
330
1E
100
AcDbEntity
  8
MO_001_VIEW_PV
  6
C_SOLID_M
100
AcDbLine
 10
-40.0
 20
-12.75
 30
0.0
 11
-2.299999999999999
 21
-12.75
 31
0.0
  0
LINE
  5
53
330
1E
100
AcDbEntity
  8
MO_001_VIEW_PV
  6
C_SOLID_M
100
AcDbLine
 10
-40.0
 20
-14.75
 30
0.0
 11
-2.0
 21
-14.75
 31
0.0
  0
LINE
  5
54
330
1E
100
AcDbEntity
  8
MO_001_VIEW_PV
  6
C_SOLID_M
100
AcDbLine
 10
-40.0
 20
-12.75
 30
0.0
 11
-40.0
 21
-14.75
 31
0.0
  0
LINE
  5
55
330
1E
100
AcDbEntity
  8
MO_001_VIEW_PV
  6
C_SOLID_M
100
AcDbLine
 10
-2.0
 20
12.45
 30
0.0
 11
-2.0
 21
-12.45
 31
0.0
  0
ARC
  5
56
330
1E
100
AcDbEntity
  8
MO_001_VIEW_PV
  6
C_SOLID_M
100
AcDbCircle
 10
-2.299999999999999
 20
-12.45
 30
0.0
 40
0.3
100
AcDbArc
 50
269.999998
 51
0.000003
  0
ARC
  5
57
330
1E
100
AcDbEntity
  8
MO_001_VIEW_PV
  6
C_SOLID_M
100
AcDbCircle
 10
-2.0
 20
-12.75
 30
0.0
 40
2.0
100
AcDbArc
 50
269.999998
 51
0.000003
  0
LINE
  5
58
330
1E
100
AcDbEntity
  8
MO_001_VIEW_PV
  6
C_SOLID_M
100
AcDbLine
 10
0.0
 20
-11.75
 30
0.0
 11
-2.0
 21
-11.75
 31
0.0
  0
LINE
  5
59
330
1E
100
AcDbEntity
  8
MO_001_VIEW_PV
  6
C_SOLID_M
100
AcDbLine
 10
-3.0
 20
-14.75
 30
0.0
 11
-3.0
 21
-12.75
 31
0.0
  0
LINE
  5
5A
330
1E
100
AcDbEntity
  8
MO_001_VIEW_PV
  6
C_SOLID_M
100
AcDbLine
 10
0.0
 20
-12.75
 30
0.0
 11
0.0
 21
12.75
 31
0.0
  0
LINE
  5
5B
330
1E
100
AcDbEntity
  8
MO_001_VIEW_PV
  6
C_SOLID_M
100
AcDbLine
 10
-40.0
 20
12.75
 30
0.0
 11
-2.299999999999999
 21
12.75
 31
0.0
  0
LINE
  5
5C
330
1E
100
AcDbEntity
  8
MO_001_VIEW_PV
  6
C_SOLID_M
100
AcDbLine
 10
-40.0
 20
14.75
 30
0.0
 11
-2.0
 21
14.75
 31
0.0
  0
LINE
  5
5D
330
1E
100
AcDbEntity
  8
MO_001_VIEW_PV
  6
C_SOLID_M
100
AcDbLine
 10
-40.0
 20
12.75
 30
0.0
 11
-40.0
 21
14.75
 31
0.0
  0
ARC
  5
5E
330
1E
100
AcDbEntity
  8
MO_001_VIEW_PV
  6
C_SOLID_M
100
AcDbCircle
 10
-2.299999999999999
 20
12.45
 30
0.0
 40
0.3
100
AcDbArc
 50
0.0
 51
90.000002
  0
ARC
  5
5F
330
1E
100
AcDbEntity
  8
MO_001_VIEW_PV
  6
C_SOLID_M
100
AcDbCircle
 10
-2.0
 20
12.75
 30
0.0
 40
2.0
100
AcDbArc
 50
0.0
 51
90.000002
  0
LINE
  5
60
330
1E
100
AcDbEntity
  8
MO_001_VIEW_PV
  6
C_SOLID_M
100
AcDbLine
 10
0.0
 20
11.75
 30
0.0
 11
-2.0
 21
11.75
 31
0.0
  0
LINE
  5
61
330
1E
100
AcDbEntity
  8
MO_001_VIEW_PV
  6
C_SOLID_M
100
AcDbLine
 10
-3.0
 20
14.75
 30
0.0
 11
-3.0
 21
12.75
 31
0.0
  0
LINE
  5
62
330
1E
100
AcDbEntity
  8
MO_001_VIEW_PV
  6
C_CENTER_L
100
AcDbLine
 10
-43.14465300000001
 20
-53.0
 30
0.0
 11
4.608887
 21
-53.0
 31
0.0
  0
LINE
  5
63
330
1E
100
AcDbEntity
  8
MO_001_VIEW_PV
  6
C_SOLID_M
100
AcDbLine
 10
-2.0
 20
-65.5
 30
0.0
 11
0.0
 21
-65.5
 31
0.0
  0
LINE
  5
64
330
1E
100
AcDbEntity
  8
MO_001_VIEW_PV
  6
C_SOLID_M
100
AcDbLine
 10
-40.0
 20
-59.0
 30
0.0
 11
-40.0
 21
-65.5
 31
0.0
  0
LINE
  5
65
330
1E
100
AcDbEntity
  8
MO_001_VIEW_PV
  6
C_SOLID_M
100
AcDbLine
 10
-40.0
 20
-59.0
 30
0.0
 11
-36.700001
 21
-59.0
 31
0.0
  0
LINE
  5
66
330
1E
100
AcDbEntity
  8
MO_001_VIEW_PV
  6
C_SOLID_M
100
AcDbLine
 10
-36.999999
 20
-58.19998399999999
 30
0.0
 11
-36.700001
 21
-58.99998499999999
 31
0.0
  0
LINE
  5
67
330
1E
100
AcDbEntity
  8
MO_001_VIEW_PV
  6
C_SOLID_M
100
AcDbLine
 10
-3.0
 20
-65.0
 30
0.0
 11
0.0
 21
-65.0
 31
0.0
  0
LINE
  5
68
330
1E
100
AcDbEntity
  8
MO_001_VIEW_PV
  6
C_SOLID_M
100
AcDbLine
 10
-3.0
 20
-65.0
 30
0.0
 11
-3.0
 21
-65.5
 31
0.0
  0
LINE
  5
69
330
1E
100
AcDbEntity
  8
MO_001_VIEW_PV
  6
C_SOLID_M
100
AcDbLine
 10
-2.0
 20
-65.5
 30
0.0
 11
-2.0
 21
-65.0
 31
0.0
  0
LINE
  5
6A
330
1E
100
AcDbEntity
  8
MO_001_VIEW_PV
  6
C_SOLID_M
100
AcDbLine
 10
-40.0
 20
-65.5
 30
0.0
 11
-3.0
 21
-65.5
 31
0.0
  0
CIRCLE
  5
6B
330
1E
100
AcDbEntity
  8
MO_001_VIEW_PV
  6
C_SOLID_L
100
AcDbCircle
 10
-21.0
 20
-60.5
 30
0.0
 40
1.5
  0
CIRCLE
  5
6C
330
1E
100
AcDbEntity
  8
MO_001_VIEW_PV
  6
C_SOLID_L
100
AcDbCircle
 10
-8.0
 20
-60.5
 30
0.0
 40
1.5
  0
LINE
  5
6D
330
1E
100
AcDbEntity
  8
MO_001_VIEW_PV
  6
C_CENTER_L
100
AcDbLine
 10
-23.5
 20
-60.5
 30
0.0
 11
-18.5
 21
-60.5
 31
0.0
  0
LINE
  5
6E
330
1E
100
AcDbEntity
  8
MO_001_VIEW_PV
  6
C_CENTER_L
100
AcDbLine
 10
-10.5
 20
-60.5
 30
0.0
 11
-5.5
 21
-60.5
 31
0.0
  0
LINE
  5
6F
330
1E
100
AcDbEntity
  8
MO_001_VIEW_PV
  6
C_CENTER_L
100
AcDbLine
 10
-8.0
 20
-58.0
 30
0.0
 11
-8.0
 21
-63.0
 31
0.0
  0
LINE
  5
70
330
1E
100
AcDbEntity
  8
MO_001_VIEW_PV
  6
C_CENTER_L
100
AcDbLine
 10
-21.0
 20
-58.0
 30
0.0
 11
-21.0
 21
-63.0
 31
0.0
  0
LINE
  5
71
330
1E
100
AcDbEntity
  8
MO_001_VIEW_PV
  6
C_SOLID_M
100
AcDbLine
 10
0.0
 20
-65.5
 30
0.0
 11
0.0
 21
-40.49999999999999
 31
0.0
  0
LINE
  5
72
330
1E
100
AcDbEntity
  8
MO_001_VIEW_PV
  6
C_SOLID_M
100
AcDbLine
 10
-2.0
 20
-40.49999999999999
 30
0.0
 11
0.0
 21
-40.49999999999999
 31
0.0
  0
LINE
  5
73
330
1E
100
AcDbEntity
  8
MO_001_VIEW_PV
  6
C_SOLID_M
100
AcDbLine
 10
-40.0
 20
-47.0
 30
0.0
 11
-40.0
 21
-40.49999999999999
 31
0.0
  0
LINE
  5
74
330
1E
100
AcDbEntity
  8
MO_001_VIEW_PV
  6
C_SOLID_M
100
AcDbLine
 10
-40.0
 20
-47.0
 30
0.0
 11
-36.700001
 21
-47.0
 31
0.0
  0
LINE
  5
75
330
1E
100
AcDbEntity
  8
MO_001_VIEW_PV
  6
C_SOLID_M
100
AcDbLine
 10
-37.0
 20
-59.0
 30
0.0
 11
-37.0
 21
-47.0
 31
0.0
  0
LINE
  5
76
330
1E
100
AcDbEntity
  8
MO_001_VIEW_PV
  6
C_SOLID_M
100
AcDbLine
 10
-36.999994
 20
-47.799991
 30
0.0
 11
-36.699996
 21
-46.99999
 31
0.0
  0
LINE
  5
77
330
1E
100
AcDbEntity
  8
MO_001_VIEW_PV
  6
C_SOLID_M
100
AcDbLine
 10
-3.0
 20
-41.0
 30
0.0
 11
0.0
 21
-41.0
 31
0.0
  0
LINE
  5
78
330
1E
100
AcDbEntity
  8
MO_001_VIEW_PV
  6
C_SOLID_M
100
AcDbLine
 10
-3.0
 20
-41.0
 30
0.0
 11
-3.0
 21
-40.49999999999999
 31
0.0
  0
LINE
  5
79
330
1E
100
AcDbEntity
  8
MO_001_VIEW_PV
  6
C_SOLID_M
100
AcDbLine
 10
-2.0
 20
-40.49999999999999
 30
0.0
 11
-2.0
 21
-41.0
 31
0.0
  0
LINE
  5
7A
330
1E
100
AcDbEntity
  8
MO_001_VIEW_PV
  6
C_SOLID_M
100
AcDbLine
 10
-40.0
 20
-40.49999999999999
 30
0.0
 11
-3.0
 21
-40.49999999999999
 31
0.0
  0
CIRCLE
  5
7B
330
1E
100
AcDbEntity
  8
MO_001_VIEW_PV
  6
C_SOLID_L
100
AcDbCircle
 10
-21.0
 20
-45.49999999999999
 30
0.0
 40
1.5
  0
CIRCLE
  5
7C
330
1E
100
AcDbEntity
  8
MO_001_VIEW_PV
  6
C_SOLID_L
100
AcDbCircle
 10
-8.0
 20
-45.49999999999999
 30
0.0
 40
1.5
  0
LINE
  5
7D
330
1E
100
AcDbEntity
  8
MO_001_VIEW_PV
  6
C_CENTER_L
100
AcDbLine
 10
-23.5
 20
-45.49999999999999
 30
0.0
 11
-18.5
 21
-45.49999999999999
 31
0.0
  0
LINE
  5
7E
330
1E
100
AcDbEntity
  8
MO_001_VIEW_PV
  6
C_CENTER_L
100
AcDbLine
 10
-10.5
 20
-45.49999999999999
 30
0.0
 11
-5.5
 21
-45.49999999999999
 31
0.0
  0
LINE
  5
7F
330
1E
100
AcDbEntity
  8
MO_001_VIEW_PV
  6
C_CENTER_L
100
AcDbLine
 10
-8.0
 20
-48.0
 30
0.0
 11
-8.0
 21
-43.0
 31
0.0
  0
LINE
  5
80
330
1E
100
AcDbEntity
  8
MO_001_VIEW_PV
  6
C_CENTER_L
100
AcDbLine
 10
-21.0
 20
-48.0
 30
0.0
 11
-21.0
 21
-43.0
 31
0.0
  0
LINE
  5
81
330
1E
100
AcDbEntity
  8
MO_001_VIEW_PV
  6
C_CENTER_L
100
AcDbLine
 10
-8.0
 20
-11.285721
 30
0.0
 11
-8.0
 21
-15.813877
 31
0.0
  0
LINE
  5
82
330
1E
100
AcDbEntity
  8
MO_001_VIEW_PV
  6
C_CENTER_L
100
AcDbLine
 10
-21.0
 20
-11.285721
 30
0.0
 11
-21.0
 21
-15.813877
 31
0.0
  0
LINE
  5
83
330
1E
100
AcDbEntity
  8
MO_001_VIEW_PV
  6
C_SOLID_L
100
AcDbLine
 10
-9.5
 20
-13.140367
 30
0.0
 11
-9.5
 21
-13.50438699999999
 31
0.0
  0
LINE
  5
84
330
1E
100
AcDbEntity
  8
MO_001_VIEW_PV
  6
C_SOLID_L
100
AcDbLine
 10
-9.5
 20
-13.956654
 30
0.0
 11
-9.5
 21
-14.309642
 31
0.0
  0
LINE
  5
85
330
1E
100
AcDbEntity
  8
MO_001_VIEW_PV
  6
C_SOLID_M
100
AcDbLine
 10
-105.4999999999999
 20
14.75
 30
0.0
 11
-93.0
 21
14.75
 31
0.0
  0
LINE
  5
86
330
1E
100
AcDbEntity
  8
MO_001_VIEW_PV
  6
C_SOLID_M
100
AcDbLine
 10
-99.0
 20
14.75
 30
0.0
 11
-99.0
 21
12.75
 31
0.0
  0
LINE
  5
87
330
1E
100
AcDbEntity
  8
MO_001_VIEW_PV
  6
C_SOLID_M
100
AcDbLine
 10
-105.4999999999999
 20
-14.75
 30
0.0
 11
-105.4999999999999
 21
14.75
 31
0.0
  0
LINE
  5
88
330
1E
100
AcDbEntity
  8
MO_001_VIEW_PV
  6
C_SOLID_M
100
AcDbLine
 10
-80.5
 20
14.75
 30
0.0
 11
-93.0
 21
14.75
 31
0.0
  0
LINE
  5
89
330
1E
100
AcDbEntity
  8
MO_001_VIEW_PV
  6
C_SOLID_M
100
AcDbLine
 10
-87.0
 20
14.75
 30
0.0
 11
-87.0
 21
12.75
 31
0.0
  0
LINE
  5
8A
330
1E
100
AcDbEntity
  8
MO_001_VIEW_PV
  6
C_SOLID_M
100
AcDbLine
 10
-80.5
 20
-14.75
 30
0.0
 11
-80.5
 21
14.75
 31
0.0
  0
LINE
  5
8B
330
1E
100
AcDbEntity
  8
MO_001_VIEW_PV
  6
C_SOLID_M
100
AcDbLine
 10
-105.4999999999999
 20
-14.75
 30
0.0
 11
-93.0
 21
-14.75
 31
0.0
  0
LINE
  5
8C
330
1E
100
AcDbEntity
  8
MO_001_VIEW_PV
  6
C_SOLID_M
100
AcDbLine
 10
-99.0
 20
-14.75
 30
0.0
 11
-99.0
 21
-12.75
 31
0.0
  0
LINE
  5
8D
330
1E
100
AcDbEntity
  8
MO_001_VIEW_PV
  6
C_SOLID_M
100
AcDbLine
 10
-80.5
 20
-14.75
 30
0.0
 11
-93.0
 21
-14.75
 31
0.0
  0
LINE
  5
8E
330
1E
100
AcDbEntity
  8
MO_001_VIEW_PV
  6
C_SOLID_M
100
AcDbLine
 10
-87.0
 20
-14.75
 30
0.0
 11
-87.0
 21
-12.75
 31
0.0
  0
LINE
  5
8F
330
1E
100
AcDbEntity
  8
MO_001_VIEW_PV
  6
C_CENTER_L
100
AcDbLine
 10
-93.0
 20
-17.5
 30
0.0
 11
-93.0
 21
17.5
 31
0.0
  0
LINE
  5
90
330
1E
100
AcDbEntity
  8
MO_001_VIEW_PV
  6
C_CENTER_L
100
AcDbLine
 10
-110.4999999999999
 20
0.0
 30
0.0
 11
-78.0
 21
0.0
 31
0.0
  0
CIRCLE
  5
91
330
1E
100
AcDbEntity
  8
MO_001_VIEW_PV
  6
C_SOLID_M
100
AcDbCircle
 10
-8.0
 20
-45.49999999999999
 30
0.0
 40
1.0295
  0
CIRCLE
  5
92
330
1E
100
AcDbEntity
  8
MO_001_VIEW_PV
  6
C_SOLID_M
100
AcDbCircle
 10
-21.0
 20
-45.49999999999999
 30
0.0
 40
1.0295
  0
CIRCLE
  5
93
330
1E
100
AcDbEntity
  8
MO_001_VIEW_PV
  6
C_SOLID_M
100
AcDbCircle
 10
-8.0
 20
-60.5
 30
0.0
 40
1.0295
  0
CIRCLE
  5
94
330
1E
100
AcDbEntity
  8
MO_001_VIEW_PV
  6
C_SOLID_M
100
AcDbCircle
 10
-21.0
 20
-60.5
 30
0.0
 40
1.0295
  0
LINE
  5
95
330
1E
100
AcDbEntity
  8
MO_001_VIEW_PV
  6
C_SOLID_L
100
AcDbLine
 10
-9.229499999999999
 20
-13.140367
 30
0.0
 11
-9.229499999999999
 21
-13.50438699999999
 31
0.0
  0
LINE
  5
96
330
1E
100
AcDbEntity
  8
MO_001_VIEW_PV
  6
C_SOLID_L
100
AcDbLine
 10
-9.229499999999999
 20
-13.956654
 30
0.0
 11
-9.229499999999999
 21
-14.309642
 31
0.0
  0
LINE
  5
97
330
1E
100
AcDbEntity
  8
MO_001_VIEW_PV
  6
C_SOLID_L
100
AcDbLine
 10
-6.7705
 20
-13.140367
 30
0.0
 11
-6.7705
 21
-13.50438699999999
 31
0.0
  0
LINE
  5
98
330
1E
100
AcDbEntity
  8
MO_001_VIEW_PV
  6
C_SOLID_L
100
AcDbLine
 10
-6.5
 20
-13.140367
 30
0.0
 11
-6.5
 21
-13.50438699999999
 31
0.0
  0
LINE
  5
99
330
1E
100
AcDbEntity
  8
MO_001_VIEW_PV
  6
C_SOLID_L
100
AcDbLine
 10
-6.7705
 20
-13.956654
 30
0.0
 11
-6.7705
 21
-14.309642
 31
0.0
  0
LINE
  5
9A
330
1E
100
AcDbEntity
  8
MO_001_VIEW_PV
  6
C_SOLID_L
100
AcDbLine
 10
-6.5
 20
-13.956654
 30
0.0
 11
-6.5
 21
-14.309642
 31
0.0
  0
LINE
  5
9B
330
1E
100
AcDbEntity
  8
MO_001_VIEW_PV
  6
C_SOLID_L
100
AcDbLine
 10
-22.5
 20
-13.140367
 30
0.0
 11
-22.5
 21
-13.50438699999999
 31
0.0
  0
LINE
  5
9C
330
1E
100
AcDbEntity
  8
MO_001_VIEW_PV
  6
C_SOLID_L
100
AcDbLine
 10
-22.2295
 20
-13.140367
 30
0.0
 11
-22.2295
 21
-13.50438699999999
 31
0.0
  0
LINE
  5
9D
330
1E
100
AcDbEntity
  8
MO_001_VIEW_PV
  6
C_SOLID_L
100
AcDbLine
 10
-22.5
 20
-13.956654
 30
0.0
 11
-22.5
 21
-14.309642
 31
0.0
  0
LINE
  5
9E
330
1E
100
AcDbEntity
  8
MO_001_VIEW_PV
  6
C_SOLID_L
100
AcDbLine
 10
-22.2295
 20
-13.956654
 30
0.0
 11
-22.2295
 21
-14.309642
 31
0.0
  0
LINE
  5
9F
330
1E
100
AcDbEntity
  8
MO_001_VIEW_PV
  6
C_SOLID_L
100
AcDbLine
 10
-19.7705
 20
-13.956654
 30
0.0
 11
-19.7705
 21
-14.309642
 31
0.0
  0
LINE
  5
A0
330
1E
100
AcDbEntity
  8
MO_001_VIEW_PV
  6
C_SOLID_L
100
AcDbLine
 10
-19.5
 20
-13.956654
 30
0.0
 11
-19.5
 21
-14.309642
 31
0.0
  0
LINE
  5
A1
330
1E
100
AcDbEntity
  8
MO_001_VIEW_PV
  6
C_SOLID_L
100
AcDbLine
 10
-19.7705
 20
-13.140367
 30
0.0
 11
-19.7705
 21
-13.50438699999999
 31
0.0
  0
LINE
  5
A2
330
1E
100
AcDbEntity
  8
MO_001_VIEW_PV
  6
C_SOLID_L
100
AcDbLine
 10
-19.5
 20
-13.140367
 30
0.0
 11
-19.5
 21
-13.50438699999999
 31
0.0
  0
LINE
  5
A3
330
1E
100
AcDbEntity
  8
MO_001_VIEW_PV
  6
C_SOLID_M
100
AcDbLine
 10
0.7
 20
-5.0
 30
0.0
 11
0.0
 21
-5.0
 31
0.0
  0
LINE
  5
A4
330
1E
100
AcDbEntity
  8
MO_001_VIEW_PV
  6
C_SOLID_M
100
AcDbLine
 10
0.7
 20
5.0
 30
0.0
 11
0.7
 21
-5.0
 31
0.0
  0
LINE
  5
A5
330
1E
100
AcDbEntity
  8
MO_001_VIEW_PV
  6
C_SOLID_M
100
AcDbLine
 10
0.7
 20
5.0
 30
0.0
 11
0.0
 21
5.0
 31
0.0
  0
LINE
  5
A6
330
1E
100
AcDbEntity
  8
MO_001_VIEW_PV
  6
C_SOLID_M
100
AcDbLine
 10
-50.0
 20
5.7
 30
0.0
 11
-50.0
 21
1.5
 31
0.0
  0
LINE
  5
A7
330
1E
100
AcDbEntity
  8
MO_001_VIEW_PV
  6
C_SOLID_M
100
AcDbLine
 10
-44.5
 20
6.0
 30
0.0
 11
-39.0
 21
6.0
 31
0.0
  0
LINE
  5
A8
330
1E
100
AcDbEntity
  8
MO_001_VIEW_PV
  6
C_SOLID_M
100
AcDbLine
 10
-50.0
 20
1.5
 30
0.0
 11
-41.0
 21
1.5
 31
0.0
  0
LINE
  5
A9
330
1E
100
AcDbEntity
  8
MO_001_VIEW_PV
  6
C_SOLID_M
100
AcDbLine
 10
-41.0
 20
1.5
 30
0.0
 11
-41.0
 21
0.0
 31
0.0
  0
LINE
  5
AA
330
1E
100
AcDbEntity
  8
MO_001_VIEW_PV
  6
C_SOLID_M
100
AcDbLine
 10
-50.00000599999999
 20
5.700002999999999
 30
0.0
 11
-49.700005
 21
6.000002999999999
 31
0.0
  0
LINE
  5
AB
330
1E
100
AcDbEntity
  8
MO_001_VIEW_PV
  6
C_SOLID_M
100
AcDbLine
 10
-49.700001
 20
6.0
 30
0.0
 11
-49.700001
 21
1.5
 31
0.0
  0
LINE
  5
AC
330
1E
100
AcDbEntity
  8
MO_001_VIEW_PV
  6
C_DASHED_M
100
AcDbLine
 10
-47.5
 20
6.0
 30
0.0
 11
-47.5
 21
1.5
 31
0.0
  0
LINE
  5
AD
330
1E
100
AcDbEntity
  8
MO_001_VIEW_PV
  6
C_DASHED_M
100
AcDbLine
 10
-44.5
 20
6.0
 30
0.0
 11
-44.5
 21
1.5
 31
0.0
  0
LINE
  5
AE
330
1E
100
AcDbEntity
  8
MO_001_VIEW_PV
  6
C_SOLID_M
100
AcDbLine
 10
-50.0
 20
-5.7
 30
0.0
 11
-50.0
 21
-1.5
 31
0.0
  0
LINE
  5
AF
330
1E
100
AcDbEntity
  8
MO_001_VIEW_PV
  6
C_SOLID_M
100
AcDbLine
 10
-44.5
 20
-6.0
 30
0.0
 11
-39.0
 21
-6.0
 31
0.0
  0
LINE
  5
B0
330
1E
100
AcDbEntity
  8
MO_001_VIEW_PV
  6
C_SOLID_M
100
AcDbLine
 10
-50.0
 20
-1.5
 30
0.0
 11
-41.0
 21
-1.5
 31
0.0
  0
LINE
  5
B1
330
1E
100
AcDbEntity
  8
MO_001_VIEW_PV
  6
C_SOLID_M
100
AcDbLine
 10
-41.0
 20
-1.5
 30
0.0
 11
-41.0
 21
0.0
 31
0.0
  0
LINE
  5
B2
330
1E
100
AcDbEntity
  8
MO_001_VIEW_PV
  6
C_SOLID_M
100
AcDbLine
 10
-50.00000599999999
 20
-5.700002999999999
 30
0.0
 11
-49.700005
 21
-6.000002999999999
 31
0.0
  0
LINE
  5
B3
330
1E
100
AcDbEntity
  8
MO_001_VIEW_PV
  6
C_SOLID_M
100
AcDbLine
 10
-49.700001
 20
-6.0
 30
0.0
 11
-49.700001
 21
-1.5
 31
0.0
  0
LINE
  5
B4
330
1E
100
AcDbEntity
  8
MO_001_VIEW_PV
  6
C_DASHED_M
100
AcDbLine
 10
-47.5
 20
-6.0
 30
0.0
 11
-47.5
 21
-1.5
 31
0.0
  0
LINE
  5
B5
330
1E
100
AcDbEntity
  8
MO_001_VIEW_PV
  6
C_DASHED_M
100
AcDbLine
 10
-44.5
 20
-6.0
 30
0.0
 11
-44.5
 21
-1.5
 31
0.0
  0
LINE
  5
B6
330
1E
100
AcDbEntity
  8
MO_001_VIEW_PV
  6
C_SOLID_M
100
AcDbLine
 10
-98.809471
 20
1.5
 30
0.0
 11
-87.19052099999998
 21
1.5
 31
0.0
  0
LINE
  5
B7
330
1E
100
AcDbEntity
  8
MO_001_VIEW_PV
  6
C_SOLID_M
100
AcDbLine
 10
-98.809471
 20
-1.5
 30
0.0
 11
-87.19052099999998
 21
-1.5
 31
0.0
  0
CIRCLE
  5
B8
330
1E
100
AcDbEntity
  8
MO_001_VIEW_PV
  6
C_SOLID_M
100
AcDbCircle
 10
-93.0
 20
0.0
 30
0.0
 40
6.0
  0
ARC
  5
B9
330
1E
100
AcDbEntity
  8
MO_001_VIEW_PV
  6
C_SOLID_M
100
AcDbCircle
 10
-93.0
 20
0.0
 30
0.0
 40
5.7
100
AcDbArc
 50
15.257524
 51
164.742483
  0
ARC
  5
BA
330
1E
100
AcDbEntity
  8
MO_001_VIEW_PV
  6
C_SOLID_M
100
AcDbCircle
 10
-93.0
 20
0.0
 30
0.0
 40
5.7
100
AcDbArc
 50
195.2575169999999
 51
344.7424759999999
  0
LINE
  5
BB
330
1E
100
AcDbEntity
  8
MO_001_VIEW_PV
  6
C_DASHED_M
100
AcDbLine
 10
-91.5
 20
-1.5
 30
0.0
 11
-91.5
 21
-5.809474999999999
 31
0.0
  0
LINE
  5
BC
330
1E
100
AcDbEntity
  8
MO_001_VIEW_PV
  6
C_DASHED_M
100
AcDbLine
 10
-94.50000000000001
 20
-1.5
 30
0.0
 11
-94.50000000000001
 21
-5.809474999999999
 31
0.0
  0
LINE
  5
BD
330
1E
100
AcDbEntity
  8
MO_001_VIEW_PV
  6
C_DASHED_M
100
AcDbLine
 10
-91.5
 20
5.809474999999999
 30
0.0
 11
-91.5
 21
1.5
 31
0.0
  0
LINE
  5
BE
330
1E
100
AcDbEntity
  8
MO_001_VIEW_PV
  6
C_DASHED_M
100
AcDbLine
 10
-94.50000000000001
 20
5.809474999999999
 30
0.0
 11
-94.50000000000001
 21
1.5
 31
0.0
  0
LINE
  5
BF
330
1E
100
AcDbEntity
  8
MO_001_VIEW_PV
  6
C_CENTER_L
100
AcDbLine
 10
-53.109539
 20
-53.0
 30
0.0
 11
-27.393654
 21
-53.0
 31
0.0
  0
LINE
  5
C0
330
1E
100
AcDbEntity
  8
MO_001_VIEW_PV
  6
C_SOLID_M
100
AcDbLine
 10
-50.0
 20
-47.500908
 30
0.0
 11
-50.0
 21
-58.499092
 31
0.0
  0
LINE
  5
C1
330
1E
100
AcDbEntity
  8
MO_001_VIEW_PV
  6
C_SOLID_M
100
AcDbLine
 10
-41.299999
 20
-47.0
 30
0.0
 11
-40.0
 21
-47.0
 31
0.0
  0
LINE
  5
C2
330
1E
100
AcDbEntity
  8
MO_001_VIEW_PV
  6
C_SOLID_M
100
AcDbLine
 10
-49.700001
 20
-47.190521
 30
0.0
 11
-49.700001
 21
-58.809479
 31
0.0
  0
CIRCLE
  5
C3
330
1E
100
AcDbEntity
  8
MO_001_VIEW_PV
  6
C_SOLID_M
100
AcDbCircle
 10
-46.299999
 20
-53.0
 30
0.0
 40
1.5
  0
LINE
  5
C4
330
1E
100
AcDbEntity
  8
MO_001_VIEW_PV
  6
C_SOLID_M
100
AcDbLine
 10
-41.299999
 20
-47.0
 30
0.0
 11
-41.299999
 21
-47.190521
 31
0.0
  0
ARC
  5
C5
330
1E
100
AcDbEntity
  8
MO_001_VIEW_PV
  6
C_SOLID_M
100
AcDbCircle
 10
-46.0
 20
11.80947299999999
 30
0.0
 40
5.999998
100
AcDbArc
 50
255.5225029999999
 51
284.477499
  0
LINE
  5
C6
330
1E
100
AcDbEntity
  8
MO_001_VIEW_PV
  6
C_SOLID_M
100
AcDbLine
 10
-49.700001
 20
6.0
 30
0.0
 11
-47.5
 21
6.0
 31
0.0
  0
LINE
  5
C7
330
1E
100
AcDbEntity
  8
MO_001_VIEW_PV
  6
C_SOLID_M
100
AcDbLine
 10
-49.700001
 20
-6.0
 30
0.0
 11
-47.5
 21
-6.0
 31
0.0
  0
ARC
  5
C8
330
1E
100
AcDbEntity
  8
MO_001_VIEW_PV
  6
C_SOLID_M
100
AcDbCircle
 10
-46.0
 20
-11.80947299999999
 30
0.0
 40
5.999998
100
AcDbArc
 50
75.52250100000001
 51
104.4774969999999
  0
LINE
  5
C9
330
1E
100
AcDbEntity
  8
MO_001_VIEW_PV
  6
C_SOLID_M
100
AcDbLine
 10
-49.700001
 20
-47.190521
 30
0.0
 11
-41.299999
 21
-47.190521
 31
0.0
  0
LINE
  5
CA
330
1E
100
AcDbEntity
  8
MO_001_VIEW_PV
  6
C_SOLID_M
100
AcDbLine
 10
-50.000001
 20
-47.50091
 30
0.0
 11
-49.700001
 21
-47.190523
 31
0.0
  0
LINE
  5
CB
330
1E
100
AcDbEntity
  8
MO_001_VIEW_PV
  6
C_SOLID_M
100
AcDbLine
 10
-49.999992
 20
-58.499083
 30
0.0
 11
-49.699992
 21
-58.80946899999999
 31
0.0
  0
LINE
  5
CC
330
1E
100
AcDbEntity
  8
MO_001_VIEW_PV
  6
C_SOLID_M
100
AcDbLine
 10
-41.299999
 20
-59.0
 30
0.0
 11
-40.0
 21
-59.0
 31
0.0
  0
LINE
  5
CD
330
1E
100
AcDbEntity
  8
MO_001_VIEW_PV
  6
C_SOLID_M
100
AcDbLine
 10
-49.700001
 20
-58.809479
 30
0.0
 11
-41.299999
 21
-58.809479
 31
0.0
  0
LINE
  5
CE
330
1E
100
AcDbEntity
  8
MO_001_VIEW_PV
  6
C_SOLID_M
100
AcDbLine
 10
-41.299999
 20
-59.0
 30
0.0
 11
-41.299999
 21
-58.809479
 31
0.0
  0
LINE
  5
CF
330
1E
100
AcDbEntity
  8
MO_001_VIEW_PV
  6
C_SOLID_M
100
AcDbLine
 10
-39.0
 20
-59.0
 30
0.0
 11
-39.0
 21
-47.0
 31
0.0
  0
LINE
  5
D0
330
1E
100
AcDbEntity
  8
MO_001_VIEW_PV
  6
C_SOLID_M
100
AcDbLine
 10
-39.0
 20
12.75
 30
0.0
 11
-39.0
 21
-12.75
 31
0.0
  0
LINE
  5
D1
330
1E
100
AcDbEntity
  8
MO_001_VIEW_PV
  6
C_SOLID_M
100
AcDbLine
 10
-37.0
 20
12.75
 30
0.0
 11
-37.0
 21
-12.75
 31
0.0
  0
LINE
  5
D2
330
1E
100
AcDbEntity
  8
MO_001_VIEW_PV
  6
C_SOLID_M
100
AcDbLine
 10
-87.199997
 20
12.75
 30
0.0
 11
-80.5
 21
12.75
 31
0.0
  0
LINE
  5
D3
330
1E
100
AcDbEntity
  8
MO_001_VIEW_PV
  6
C_SOLID_M
100
AcDbLine
 10
-99.0
 20
14.65
 30
0.0
 11
-87.0
 21
14.65
 31
0.0
  0
LINE
  5
D4
330
1E
100
AcDbEntity
  8
MO_001_VIEW_PV
  6
C_SOLID_M
100
AcDbLine
 10
-98.800003
 20
12.75
 30
0.0
 11
-105.4999999999999
 21
12.75
 31
0.0
  0
LINE
  5
D5
330
1E
100
AcDbEntity
  8
MO_001_VIEW_PV
  6
C_SOLID_M
100
AcDbLine
 10
-99.0
 20
-14.65
 30
0.0
 11
-87.0
 21
-14.65
 31
0.0
  0
LINE
  5
D6
330
1E
100
AcDbEntity
  8
MO_001_VIEW_PV
  6
C_SOLID_M
100
AcDbLine
 10
-87.199997
 20
-12.75
 30
0.0
 11
-80.5
 21
-12.75
 31
0.0
  0
LINE
  5
D7
330
1E
100
AcDbEntity
  8
MO_001_VIEW_PV
  6
C_SOLID_M
100
AcDbLine
 10
-98.800003
 20
-12.75
 30
0.0
 11
-105.4999999999999
 21
-12.75
 31
0.0
  0
CIRCLE
  5
D8
330
1E
100
AcDbEntity
  8
MO_001_VIEW_PV
  6
C_SOLID_M
100
AcDbCircle
 10
-93.0
 20
0.0
 30
0.0
 40
6.5
  0
LINE
  5
D9
330
1E
100
AcDbEntity
  8
MO_001_VIEW_PV
  6
C_SOLID_M
100
AcDbLine
 10
-87.199997
 20
12.75
 30
0.0
 11
-86.99999699999999
 21
14.649999
 31
0.0
  0
LINE
  5
DA
330
1E
100
AcDbEntity
  8
MO_001_VIEW_PV
  6
C_SOLID_M
100
AcDbLine
 10
-98.8
 20
12.75
 30
0.0
 11
-99.0
 21
14.65
 31
0.0
  0
LINE
  5
DB
330
1E
100
AcDbEntity
  8
MO_001_VIEW_PV
  6
C_SOLID_M
100
AcDbLine
 10
-98.8
 20
-12.75
 30
0.0
 11
-99.0
 21
-14.65
 31
0.0
  0
LINE
  5
DC
330
1E
100
AcDbEntity
  8
MO_001_VIEW_PV
  6
C_SOLID_M
100
AcDbLine
 10
-87.199997
 20
-12.75
 30
0.0
 11
-86.99999699999999
 21
-14.649999
 31
0.0
  0
LINE
  5
DD
330
1E
100
AcDbEntity
  8
MO_001_VIEW_PV
  6
C_SOLID_M
100
AcDbLine
 10
-2.100006
 20
12.65
 30
0.0
 11
-2.100006
 21
-12.65
 31
0.0
  0
LINE
  5
DE
330
1E
100
AcDbEntity
  8
MO_001_VIEW_PV
  6
C_SOLID_M
100
AcDbLine
 10
-37.0
 20
12.75
 30
0.0
 11
-25.5
 21
12.75
 31
0.0
  0
LINE
  5
DF
330
1E
100
AcDbEntity
  8
MO_001_VIEW_PV
  6
C_SOLID_M
100
AcDbLine
 10
-37.0
 20
-12.75
 30
0.0
 11
-25.5
 21
-12.75
 31
0.0
  0
LINE
  5
E0
330
1E
100
AcDbEntity
  8
MO_001_VIEW_PV
  6
C_SOLID_M
100
AcDbLine
 10
-25.0
 20
12.25
 30
0.0
 11
-25.0
 21
-12.25
 31
0.0
  0
ARC
  5
E1
330
1E
100
AcDbEntity
  8
MO_001_VIEW_PV
  6
C_SOLID_M
100
AcDbCircle
 10
-25.5
 20
12.25
 30
0.0
 40
0.5
100
AcDbArc
 50
0.0
 51
89.99998900000001
  0
ARC
  5
E2
330
1E
100
AcDbEntity
  8
MO_001_VIEW_PV
  6
C_SOLID_M
100
AcDbCircle
 10
-25.5
 20
-12.25
 30
0.0
 40
0.5
100
AcDbArc
 50
269.999998
 51
0.00001
  0
LINE
  5
E3
330
1E
100
AcDbEntity
  8
MO_001_VIEW_PV
  6
C_SOLID_M
100
AcDbLine
 10
-3.300011
 20
12.65
 30
0.0
 11
-2.100006
 21
12.65
 31
0.0
  0
LINE
  5
E4
330
1E
100
AcDbEntity
  8
MO_001_VIEW_PV
  6
C_SOLID_M
100
AcDbLine
 10
-3.300011
 20
-12.65
 30
0.0
 11
-2.100006
 21
-12.65
 31
0.0
  0
LINE
  5
E5
330
1E
100
AcDbEntity
  8
MO_001_VIEW_PV
  6
C_SOLID_M
100
AcDbLine
 10
-3.500008
 20
12.45
 30
0.0
 11
-3.500008
 21
-12.45
 31
0.0
  0
ARC
  5
E6
330
1E
100
AcDbEntity
  8
MO_001_VIEW_PV
  6
C_SOLID_M
100
AcDbCircle
 10
-3.300011
 20
12.45
 30
0.0
 40
0.2
100
AcDbArc
 50
90.000002
 51
180.000005
  0
ARC
  5
E7
330
1E
100
AcDbEntity
  8
MO_001_VIEW_PV
  6
C_SOLID_M
100
AcDbCircle
 10
-3.300011
 20
-12.45
 30
0.0
 40
0.2
100
AcDbArc
 50
180.000009
 51
269.999998
  0
LINE
  5
E8
330
1E
100
AcDbEntity
  8
MO_001_VIEW_PV
  6
C_SOLID_M
100
AcDbLine
 10
-25.0
 20
-11.849999
 30
0.0
 11
-3.500008
 21
-11.849999
 31
0.0
  0
LINE
  5
E9
330
1E
100
AcDbEntity
  8
MO_001_VIEW_PV
  6
C_SOLID_M
100
AcDbLine
 10
-25.0
 20
11.849999
 30
0.0
 11
-3.500008
 21
11.849999
 31
0.0
  0
LINE
  5
EA
330
1E
100
AcDbEntity
  8
MO_001_VIEW_PV
  6
C_SOLID_M
100
AcDbLine
 10
32.0
 20
1.239999999999999
 30
0.0
 11
32.0
 21
0.76
 31
0.0
  0
LINE
  5
EB
330
1E
100
AcDbEntity
  8
MO_001_VIEW_PV
  6
C_SOLID_M
100
AcDbLine
 10
27.0
 20
1.659999999999999
 30
0.0
 11
27.0
 21
0.34
 31
0.0
  0
LINE
  5
EC
330
1E
100
AcDbEntity
  8
MO_001_VIEW_PV
  6
C_SOLID_M
100
AcDbLine
 10
0.7
 20
1.659999999999999
 30
0.0
 11
27.0
 21
1.659999999999999
 31
0.0
  0
LINE
  5
ED
330
1E
100
AcDbEntity
  8
MO_001_VIEW_PV
  6
C_SOLID_M
100
AcDbLine
 10
0.7
 20
0.34
 30
0.0
 11
27.0
 21
0.34
 31
0.0
  0
LINE
  5
EE
330
1E
100
AcDbEntity
  8
MO_001_VIEW_PV
  6
C_SOLID_M
100
AcDbLine
 10
27.0
 20
1.239999999999999
 30
0.0
 11
32.0
 21
1.239999999999999
 31
0.0
  0
LINE
  5
EF
330
1E
100
AcDbEntity
  8
MO_001_VIEW_PV
  6
C_SOLID_M
100
AcDbLine
 10
27.0
 20
0.76
 30
0.0
 11
32.0
 21
0.76
 31
0.0
  0
LINE
  5
F0
330
1E
100
AcDbEntity
  8
MO_001_VIEW_PV
  6
C_SOLID_M
100
AcDbLine
 10
32.0
 20
-0.76
 30
0.0
 11
32.0
 21
-1.239999999999999
 31
0.0
  0
LINE
  5
F1
330
1E
100
AcDbEntity
  8
MO_001_VIEW_PV
  6
C_SOLID_M
100
AcDbLine
 10
27.0
 20
-0.34
 30
0.0
 11
27.0
 21
-1.659999999999999
 31
0.0
  0
LINE
  5
F2
330
1E
100
AcDbEntity
  8
MO_001_VIEW_PV
  6
C_SOLID_M
100
AcDbLine
 10
0.7
 20
-0.34
 30
0.0
 11
27.0
 21
-0.34
 31
0.0
  0
LINE
  5
F3
330
1E
100
AcDbEntity
  8
MO_001_VIEW_PV
  6
C_SOLID_M
100
AcDbLine
 10
0.7
 20
-1.659999999999999
 30
0.0
 11
27.0
 21
-1.659999999999999
 31
0.0
  0
LINE
  5
F4
330
1E
100
AcDbEntity
  8
MO_001_VIEW_PV
  6
C_SOLID_M
100
AcDbLine
 10
27.0
 20
-0.76
 30
0.0
 11
32.0
 21
-0.76
 31
0.0
  0
LINE
  5
F5
330
1E
100
AcDbEntity
  8
MO_001_VIEW_PV
  6
C_SOLID_M
100
AcDbLine
 10
27.0
 20
-1.239999999999999
 30
0.0
 11
32.0
 21
-1.239999999999999
 31
0.0
  0
LINE
  5
F6
330
1E
100
AcDbEntity
  8
MO_001_VIEW_PV
  6
C_SOLID_M
100
AcDbLine
 10
31.400002
 20
-72.25999499999999
 30
0.0
 11
31.400002
 21
-72.74000500000001
 31
0.0
  0
LINE
  5
F7
330
1E
100
AcDbEntity
  8
MO_001_VIEW_PV
  6
C_SOLID_M
100
AcDbLine
 10
26.400002
 20
-71.83999599999999
 30
0.0
 11
26.400002
 21
-73.160004
 31
0.0
  0
LINE
  5
F8
330
1E
100
AcDbEntity
  8
MO_001_VIEW_PV
  6
C_SOLID_M
100
AcDbLine
 10
5.550346
 20
-71.83999599999999
 30
0.0
 11
26.400002
 21
-71.83999599999999
 31
0.0
  0
LINE
  5
F9
330
1E
100
AcDbEntity
  8
MO_001_VIEW_PV
  6
C_SOLID_M
100
AcDbLine
 10
5.550346
 20
-73.160004
 30
0.0
 11
26.400002
 21
-73.160004
 31
0.0
  0
LINE
  5
FA
330
1E
100
AcDbEntity
  8
MO_001_VIEW_PV
  6
C_SOLID_M
100
AcDbLine
 10
26.400002
 20
-72.25999499999999
 30
0.0
 11
31.400002
 21
-72.25999499999999
 31
0.0
  0
LINE
  5
FB
330
1E
100
AcDbEntity
  8
MO_001_VIEW_PV
  6
C_SOLID_M
100
AcDbLine
 10
26.400002
 20
-72.74000500000001
 30
0.0
 11
31.400002
 21
-72.74000500000001
 31
0.0
  0
LINE
  5
FC
330
1E
100
AcDbEntity
  8
MO_001_VIEW_PV
  6
C_SOLID_M
100
AcDbLine
 10
-15.000008
 20
-66.090912
 30
0.0
 11
-5.000007
 21
-66.090912
 31
0.0
  0
LINE
  5
FD
330
1E
100
AcDbEntity
  8
MO_001_VIEW_PV
  6
C_SOLID_M
100
AcDbLine
 10
-5.000005
 20
-66.090891
 30
0.0
 11
-4.409097
 21
-65.499983
 31
0.0
  0
ARC
  5
FE
330
1E
100
AcDbEntity
  8
MO_001_VIEW_PV
  6
C_SOLID_M
100
AcDbCircle
 10
-15.000008
 20
-64.590912
 30
0.0
 40
1.5
100
AcDbArc
 50
217.305245
 51
269.999998
  0
ARC
  5
FF
330
1E
100
AcDbEntity
  8
MO_001_VIEW_PV
  6
C_SOLID_M
100
AcDbCircle
 10
4.153702
 20
-61.83999599999999
 30
0.0
 40
8.0
100
AcDbArc
 50
224.9999859999999
 51
269.999998
  0
ARC
  5
100
330
1E
100
AcDbEntity
  8
MO_001_VIEW_PV
  6
C_SOLID_M
100
AcDbCircle
 10
4.153702
 20
-61.83999599999999
 30
0.0
 40
9.32
100
AcDbArc
 50
254.2487139999999
 51
269.999998
  0
LINE
  5
101
330
1E
100
AcDbEntity
  8
MO_001_VIEW_PV
  6
C_SOLID_M
100
AcDbLine
 10
31.400002
 20
-70.25999499999999
 30
0.0
 11
31.400002
 21
-70.74000500000001
 31
0.0
  0
LINE
  5
102
330
1E
100
AcDbEntity
  8
MO_001_VIEW_PV
  6
C_SOLID_M
100
AcDbLine
 10
26.400002
 20
-69.839996
 30
0.0
 11
26.400002
 21
-71.160004
 31
0.0
  0
LINE
  5
103
330
1E
100
AcDbEntity
  8
MO_001_VIEW_PV
  6
C_SOLID_M
100
AcDbLine
 10
4.153702
 20
-69.839996
 30
0.0
 11
26.400002
 21
-69.839996
 31
0.0
  0
LINE
  5
104
330
1E
100
AcDbEntity
  8
MO_001_VIEW_PV
  6
C_SOLID_M
100
AcDbLine
 10
4.153702
 20
-71.160004
 30
0.0
 11
26.400002
 21
-71.160004
 31
0.0
  0
LINE
  5
105
330
1E
100
AcDbEntity
  8
MO_001_VIEW_PV
  6
C_SOLID_M
100
AcDbLine
 10
26.400002
 20
-70.25999499999999
 30
0.0
 11
31.400002
 21
-70.25999499999999
 31
0.0
  0
LINE
  5
106
330
1E
100
AcDbEntity
  8
MO_001_VIEW_PV
  6
C_SOLID_M
100
AcDbLine
 10
26.400002
 20
-70.74000500000001
 30
0.0
 11
31.400002
 21
-70.74000500000001
 31
0.0
  0
ARC
  5
107
330
1E
100
AcDbEntity
  8
MO_001_VIEW_PV
  6
C_SOLID_M
100
AcDbCircle
 10
5.550346
 20
-63.839996
 30
0.0
 40
8.0
100
AcDbArc
 50
220.0000009999999
 51
269.999998
  0
ARC
  5
108
330
1E
100
AcDbEntity
  8
MO_001_VIEW_PV
  6
C_SOLID_M
100
AcDbCircle
 10
5.550346
 20
-63.839996
 30
0.0
 40
9.320003999999999
100
AcDbArc
 50
220.0000009999999
 51
269.999998
  0
LINE
  5
109
330
1E
100
AcDbEntity
  8
MO_001_VIEW_PV
  6
C_SOLID_M
100
AcDbLine
 10
-4.851744
 20
-65.942645
 30
0.0
 11
-1.589201
 21
-69.830792
 31
0.0
  0
LINE
  5
10A
330
1E
100
AcDbEntity
  8
MO_001_VIEW_PV
  6
C_SOLID_M
100
AcDbLine
 10
-3.500016
 20
-65.500011
 30
0.0
 11
-0.57802
 21
-68.98231
 31
0.0
  0
LINE
  5
10B
330
1E
100
AcDbEntity
  8
MO_001_VIEW_PV
  6
C_SOLID_M
100
AcDbLine
 10
-3.500008999999999
 20
-65.499989
 30
0.0
 11
-1.503157999999999
 21
-67.49684000000001
 31
0.0
  0
LINE
  5
10C
330
1E
100
AcDbEntity
  8
MO_001_VIEW_PV
  6
C_SOLID_M
100
AcDbLine
 10
0.7
 20
-48.0
 30
0.0
 11
0.0
 21
-48.0
 31
0.0
  0
LINE
  5
10D
330
1E
100
AcDbEntity
  8
MO_001_VIEW_PV
  6
C_SOLID_M
100
AcDbLine
 10
0.7
 20
-48.0
 30
0.0
 11
0.7
 21
-58.0
 31
0.0
  0
LINE
  5
10E
330
1E
100
AcDbEntity
  8
MO_001_VIEW_PV
  6
C_SOLID_M
100
AcDbLine
 10
0.7
 20
-58.0
 30
0.0
 11
0.0
 21
-58.0
 31
0.0
  0
LINE
  5
10F
330
1E
100
AcDbEntity
  8
MO_001_VIEW_PV
  6
C_CENTER_L
100
AcDbLine
 10
-46.0
 20
8.0
 30
0.0
 11
-46.0
 21
-8.0
 31
0.0
  0
LINE
  5
110
330
1E
100
AcDbEntity
  8
MO_001_VIEW_PV
  6
C_CENTER_L
100
AcDbLine
 10
-46.299999
 20
-50.0
 30
0.0
 11
-46.299999
 21
-56.0
 31
0.0
  0
ARC
  5
111
330
1E
100
AcDbEntity
  8
MO_001_VIEW_PV
  6
C_SOLID_M
100
AcDbCircle
 10
-93.0
 20
0.0
 30
0.0
 40
13.090912
100
AcDbArc
 50
162.719299
 51
197.280698
  0
LINE
  5
112
330
1E
100
AcDbEntity
  8
MO_001_VIEW_PV
  6
C_SOLID_M
100
AcDbLine
 10
-114.907434
 20
-0.384937
 30
0.0
 11
-106.0909209999999
 21
0.0
 31
0.0
  0
LINE
  5
113
330
1E
100
AcDbEntity
  8
MO_001_VIEW_PV
  6
C_SOLID_M
100
AcDbLine
 10
-114.849857
 20
-1.703688
 30
0.0
 11
-106.0243639999999
 21
-1.318359
 31
0.0
  0
LINE
  5
114
330
1E
100
AcDbEntity
  8
MO_001_VIEW_PV
  6
C_SOLID_M
100
AcDbLine
 10
-114.966765
 20
1.708793999999999
 30
0.0
 11
-106.0243639999999
 21
1.318361
 31
0.0
  0
LINE
  5
115
330
1E
100
AcDbEntity
  8
MO_001_VIEW_PV
  6
C_SOLID_M
100
AcDbLine
 10
-115.0243429999999
 20
0.390043
 30
0.0
 11
-106.0909209999999
 21
0.000002
 31
0.0
  0
ARC
  5
116
330
1E
100
AcDbEntity
  8
MO_001_VIEW_PV
  6
C_SOLID_M
100
AcDbCircle
 10
-115.1807559999999
 20
-0.7271880000000001
 30
0.0
 40
0.4380010000000001
100
AcDbArc
 50
313.6121319999999
 51
51.388113
  0
ARC
  5
117
330
1E
100
AcDbEntity
  8
MO_001_VIEW_PV
  6
C_SOLID_M
100
AcDbCircle
 10
-114.576523
 20
-1.361438999999999
 30
0.0
 40
0.4380010000000001
100
AcDbArc
 50
133.612311
 51
231.388122
  0
ARC
  5
118
330
1E
100
AcDbEntity
  8
MO_001_VIEW_PV
  6
C_SOLID_M
100
AcDbCircle
 10
-114.6053159999999
 20
-0.702063
 30
0.0
 40
0.4380010000000001
100
AcDbArc
 50
133.611887
 51
231.3878759999999
  0
ARC
  5
119
330
1E
100
AcDbEntity
  8
MO_001_VIEW_PV
  6
C_SOLID_M
100
AcDbCircle
 10
-115.268875
 20
1.391666999999999
 30
0.0
 40
0.4380010000000001
100
AcDbArc
 50
308.6121289999999
 51
46.388114
  0
ARC
  5
11A
330
1E
100
AcDbEntity
  8
MO_001_VIEW_PV
  6
C_SOLID_M
100
AcDbCircle
 10
-114.722214
 20
0.707166
 30
0.0
 40
0.4380010000000001
100
AcDbArc
 50
128.612298
 51
226.388095
  0
ARC
  5
11B
330
1E
100
AcDbEntity
  8
MO_001_VIEW_PV
  6
C_SOLID_M
100
AcDbCircle
 10
-114.69342
 20
1.366543
 30
0.0
 40
0.4380010000000001
100
AcDbArc
 50
128.6118879999999
 51
226.3878629999999
  0
LINE
  5
11C
330
1E
100
AcDbEntity
  8
MO_001_VIEW_PV
  6
C_SOLID_L
100
AcDbLine
 10
26.596603
 20
-54.14476
 30
0.0
 11
68.028534
 21
-54.14476
 31
0.0
  0
LINE
  5
11D
330
1E
100
AcDbEntity
  8
MO_001_VIEW_PV
  6
C_SOLID_L
100
AcDbLine
 10
-66.89637799999999
 20
15.0
 30
0.0
 11
-52.435276
 21
15.0
 31
0.0
  0
LINE
  5
11E
330
1E
100
AcDbEntity
  8
MO_001_VIEW_PV
  6
C_SOLID_L
100
AcDbLine
 10
-59.734547
 20
-78.0
 30
0.0
 11
-30.74315499999999
 21
-78.0
 31
0.0
  0
TEXT
  5
11F
330
1E
100
AcDbEntity
  8
MO_001_VIEW_PV
  6
C_SOLID_L
100
AcDbText
 10
27.025175
 20
-48.89476
 30
0.0
 40
3.0
  1
リ－ド線
100
AcDbText
  0
TEXT
  5
120
330
1E
100
AcDbEntity
  8
MO_001_VIEW_PV
  6
C_SOLID_L
100
AcDbText
 10
27.025175
 20
-53.39476
 30
0.0
 40
3.0
  1
UL1007 AWG.24
100
AcDbText
  0
TEXT
  5
121
330
1E
100
AcDbEntity
  8
MO_001_VIEW_PV
  6
C_SOLID_L
100
AcDbText
 10
27.025175
 20
-57.89476
 30
0.0
 40
3.0
  1
（白、黒）
100
AcDbText
  0
TEXT
  5
122
330
1E
100
AcDbEntity
  8
MO_001_VIEW_PV
  6
C_SOLID_L
100
AcDbText
 10
-4.488280999999999
 20
-92.08359399999999
 30
0.0
 40
4.167187
  1
単位：mm
100
AcDbText
  0
TEXT
  5
123
330
1E
100
AcDbEntity
  8
MO_001_VIEW_PV
  6
C_SOLID_L
100
AcDbText
 10
-4.488280999999999
 20
-98.083594
 30
0.0
 40
4.167187
  1
図は励磁時（保持時）を示す
100
AcDbText
  0
TEXT
  5
124
330
1E
100
AcDbEntity
  8
MO_001_VIEW_PV
  6
C_SOLID_L
100
AcDbText
 10
-100.488281
 20
-92.08359399999999
 30
0.0
 40
4.167187
  1
SH1L-1240
100
AcDbText
  0
TEXT
  5
125
330
1E
100
AcDbEntity
  8
MO_001_VIEW_PV
  6
C_SOLID_L
100
AcDbText
 10
-59.976239
 20
17.625
 30
0.0
 40
1.5
  1
%%P0.1
100
AcDbText
  0
TEXT
  5
126
330
1E
100
AcDbEntity
  8
MO_001_VIEW_PV
  6
C_SOLID_L
100
AcDbText
 10
-65.761954
 20
15.75
 30
0.0
 40
3.0
  1
%%C3
100
AcDbText
  0
TEXT
  5
127
330
1E
100
AcDbEntity
  8
MO_001_VIEW_PV
  6
C_SOLID_L
100
AcDbText
 10
-57.571429
 20
-77.25
 30
0.0
 40
3.0
  1
4-M3 P0.5
100
AcDbText
  0
DIMENSION
  5
129
330
1E
100
AcDbEntity
  8
MO_001_VIEW_PV
  6
C_SOLID_M
100
AcDbDimension
  2
*D0
 10
-57.622482
 20
21.0
 30
0.0
 11
-57.622482
 21
21.0
 31
0.0
  3
STANDARD
100
AcDbAlignedDimension
 13
-46.0
 23
8.0
 33
0.0
 14
-50.0
 24
5.7
 34
0.0
 50
179.97571
100
AcDbRotatedDimension
  0
DIMENSION
  5
12B
330
1E
100
AcDbEntity
  8
MO_001_VIEW_PV
  6
C_SOLID_M
100
AcDbDimension
  2
*D1
 10
-56.71208599999999
 20
27.0
 30
0.0
 11
-56.71208599999999
 21
27.0
 31
0.0
  3
STANDARD
100
AcDbAlignedDimension
 13
-50.0
 23
5.7
 33
0.0
 14
-40.0
 24
14.75
 34
0.0
100
AcDbRotatedDimension
  0
DIMENSION
  5
12D
330
1E
100
AcDbEntity
  8
MO_001_VIEW_PV
  6
C_SOLID_M
100
AcDbDimension
  2
*D2
 10
-20.0
 20
27.0
 30
0.0
 11
-20.0
 21
27.0
 31
0.0
  3
STANDARD
100
AcDbAlignedDimension
 13
0.0
 23
12.75
 33
0.0
 14
-40.0
 24
14.75
 34
0.0
 50
179.97571
100
AcDbRotatedDimension
  0
DIMENSION
  5
12F
330
1E
100
AcDbEntity
  8
MO_001_VIEW_PV
  6
C_SOLID_M
100
AcDbDimension
  2
*D3
 10
11.36541699999999
 20
27.0
 30
0.0
 11
11.36541699999999
 21
27.0
 31
0.0
  1
(0.7)
  3
STANDARD
100
AcDbAlignedDimension
 13
0.7
 23
5.0
 33
0.0
 14
0.0
 24
12.75
 34
0.0
 50
179.97571
100
AcDbRotatedDimension
  0
DIMENSION
  5
131
330
1E
100
AcDbEntity
  8
MO_001_VIEW_PV
  6
C_SOLID_M
100
AcDbDimension
  2
*D4
 10
-57.0
 20
-11.30068199999999
 30
0.0
 11
-57.0
 21
-11.30068199999999
 31
0.0
  3
STANDARD
100
AcDbAlignedDimension
 13
-50.0
 23
-1.5
 33
0.0
 14
-50.0
 24
1.5
 34
0.0
 50
89.98785500000002
100
AcDbRotatedDimension
  0
DIMENSION
  5
133
330
1E
100
AcDbEntity
  8
MO_001_VIEW_PV
  6
C_SOLID_M
100
AcDbDimension
  2
*D5
 10
-63.0
 20
-14.031872
 30
0.0
 11
-63.0
 21
-14.031872
 31
0.0
  3
STANDARD
100
AcDbAlignedDimension
 13
-49.700001
 23
-6.0
 33
0.0
 14
-49.700001
 24
6.0
 34
0.0
 50
89.98785500000002
100
AcDbRotatedDimension
  0
DIMENSION
  5
135
330
1E
100
AcDbEntity
  8
MO_001_VIEW_PV
  6
C_SOLID_M
100
AcDbDimension
  2
*D6
 10
-93.0
 20
-24.0
 30
0.0
 11
-93.0
 21
-24.0
 31
0.0
  3
STANDARD
100
AcDbAlignedDimension
 13
-80.5
 23
-14.75
 33
0.0
 14
-105.4999999999999
 24
-14.75
 34
0.0
100
AcDbRotatedDimension
  0
DIMENSION
  5
137
330
1E
100
AcDbEntity
  8
MO_001_VIEW_PV
  6
C_SOLID_M
100
AcDbDimension
  2
*D7
 10
-72.0
 20
0.05
 30
0.0
 11
-72.0
 21
0.05
 31
0.0
  3
STANDARD
100
AcDbAlignedDimension
 13
-80.5
 23
14.75
 33
0.0
 14
-87.0
 24
-14.65
 34
0.0
 50
89.999523
100
AcDbRotatedDimension
  0
DIMENSION
  5
139
330
1E
100
AcDbEntity
  8
MO_001_VIEW_PV
  6
C_SOLID_M
100
AcDbDimension
  2
*D8
 10
-33.650002
 20
-33.0
 30
0.0
 11
-33.650002
 21
-33.0
 31
0.0
  3
STANDARD
100
AcDbAlignedDimension
 13
-46.299999
 23
-50.0
 33
0.0
 14
-21.0
 24
-43.0
 34
0.0
100
AcDbRotatedDimension
  0
DIMENSION
  5
13B
330
1E
100
AcDbEntity
  8
MO_001_VIEW_PV
  6
C_SOLID_M
100
AcDbDimension
  2
*D9
 10
-14.5
 20
-33.0
 30
0.0
 11
-14.5
 21
-33.0
 31
0.0
  3
STANDARD
100
AcDbAlignedDimension
 13
-8.0
 23
-43.0
 33
0.0
 14
-21.0
 24
-43.0
 34
0.0
100
AcDbRotatedDimension
  0
DIMENSION
  5
13D
330
1E
100
AcDbEntity
  8
MO_001_VIEW_PV
  6
C_SOLID_M
100
AcDbDimension
  2
*D10
 10
7.771430999999999
 20
-33.0
 30
0.0
 11
7.771430999999999
 21
-33.0
 31
0.0
  3
STANDARD
100
AcDbAlignedDimension
 13
-8.0
 23
-43.0
 33
0.0
 14
0.0
 24
-40.49999999999999
 34
0.0
100
AcDbRotatedDimension
  0
DIMENSION
  5
13F
330
1E
100
AcDbEntity
  8
MO_001_VIEW_PV
  6
C_SOLID_M
100
AcDbDimension
  2
*D11
 10
18.0
 20
-39.429901
 30
0.0
 11
18.0
 21
-39.429901
 31
0.0
  3
STANDARD
100
AcDbAlignedDimension
 13
-5.5
 23
-60.5
 33
0.0
 14
-5.5
 24
-45.49999999999999
 34
0.0
 50
89.999523
100
AcDbRotatedDimension
  0
DIMENSION
  5
141
330
1E
100
AcDbEntity
  8
MO_001_VIEW_PV
  6
C_SOLID_M
100
AcDbDimension
  2
*D12
 10
13.274132
 20
-81.0
 30
0.0
 11
13.274132
 21
-81.0
 31
0.0
  1
長さ250以上
  3
STANDARD
100
AcDbAlignedDimension
 13
31.400002
 23
-72.74000500000001
 33
0.0
 14
-4.851736999999999
 24
-65.942635
 34
0.0
100
AcDbRotatedDimension
  0
LINE
  5
142
330
1E
100
AcDbEntity
  8
MO_001_VIEW_PV
  6
C_SOLID_L
100
AcDbLine
 10
17.534959
 20
-69.839997
 30
0.0
 11
26.596603
 21
-54.14476999999999
 31
0.0
  0
POLYLINE
  5
143
330
1E
100
AcDbEntity
  8
MO_001_VIEW_PV
  6
C_SOLID_L
100
AcDb2dPolyline
 66
     1
 10
0.0
 20
0.0
 30
0.0
 70
     1
  0
VERTEX
  5
206
330
143
100
AcDbEntity
  8
MO_001_VIEW_PV
  6
C_SOLID_L
100
AcDbVertex
100
AcDb2dVertex
 10
18.688753
 20
-66.674544
 30
0.0
  0
VERTEX
  5
207
330
143
100
AcDbEntity
  8
MO_001_VIEW_PV
  6
C_SOLID_L
100
AcDbVertex
100
AcDb2dVertex
 10
17.788959
 20
-69.400056
 30
0.0
  0
VERTEX
  5
208
330
143
100
AcDbEntity
  8
MO_001_VIEW_PV
  6
C_SOLID_L
100
AcDbVertex
100
AcDb2dVertex
 10
19.699425
 20
-67.25805600000001
 30
0.0
  0
SEQEND
  5
209
330
143
100
AcDbEntity
  8
MO_001_VIEW_PV
  6
C_SOLID_L
  0
DIMENSION
  5
149
330
1E
100
AcDbEntity
  8
MO_001_VIEW_PV
  6
C_SOLID_M
100
AcDbDimension
  2
*D13
 10
19.28001
 20
-24.177376
 30
0.0
 11
19.28001
 21
-24.177376
 31
0.0
  1
t2
  3
STANDARD
100
AcDbAlignedDimension
 13
-2.0
 23
-14.75
 33
0.0
 14
-25.5
 24
-12.75
 34
0.0
 50
89.98785500000002
100
AcDbRotatedDimension
  0
DIMENSION
  5
14B
330
1E
100
AcDbEntity
  8
MO_001_VIEW_PV
  6
C_SOLID_M
100
AcDbDimension
  2
*D14
 10
-30.0
 20
-24.0
 30
0.0
 11
-30.0
 21
-24.0
 31
0.0
  3
STANDARD
100
AcDbAlignedDimension
 13
-50.0
 23
-5.7
 33
0.0
 14
-41.0
 24
-1.5
 34
0.0
100
AcDbRotatedDimension
  0
LINE
  5
14C
330
1E
100
AcDbEntity
  8
MO_001_VIEW_PV
  6
C_SOLID_L
100
AcDbLine
 10
-46.000003
 20
5.809479
 30
0.0
 11
-52.435276
 21
15.0
 31
0.0
  0
POLYLINE
  5
14D
330
1E
100
AcDbEntity
  8
MO_001_VIEW_PV
  6
C_SOLID_L
100
AcDb2dPolyline
 66
     1
 10
0.0
 20
0.0
 30
0.0
 70
     1
  0
VERTEX
  5
20A
330
14D
100
AcDbEntity
  8
MO_001_VIEW_PV
  6
C_SOLID_L
100
AcDbVertex
100
AcDb2dVertex
 10
-48.381264
 20
8.192949999999999
 30
0.0
  0
VERTEX
  5
20B
330
14D
100
AcDbEntity
  8
MO_001_VIEW_PV
  6
C_SOLID_L
100
AcDbVertex
100
AcDb2dVertex
 10
-46.29138
 20
6.225608
 30
0.0
  0
VERTEX
  5
20C
330
14D
100
AcDbEntity
  8
MO_001_VIEW_PV
  6
C_SOLID_L
100
AcDbVertex
100
AcDb2dVertex
 10
-47.425294
 20
8.862327
 30
0.0
  0
SEQEND
  5
20D
330
14D
100
AcDbEntity
  8
MO_001_VIEW_PV
  6
C_SOLID_L
  0
LINE
  5
152
330
1E
100
AcDbEntity
  8
MO_001_VIEW_PV
  6
C_SOLID_L
100
AcDbLine
 10
-21.729662
 20
-61.81057299999999
 30
0.0
 11
-30.743156
 21
-78.000005
 31
0.0
  0
POLYLINE
  5
153
330
1E
100
AcDbEntity
  8
MO_001_VIEW_PV
  6
C_SOLID_L
100
AcDb2dPolyline
 66
     1
 10
0.0
 20
0.0
 30
0.0
 70
     1
  0
VERTEX
  5
20E
330
153
100
AcDbEntity
  8
MO_001_VIEW_PV
  6
C_SOLID_L
100
AcDbVertex
100
AcDb2dVertex
 10
-22.833979
 20
-64.993625
 30
0.0
  0
VERTEX
  5
20F
330
153
100
AcDbEntity
  8
MO_001_VIEW_PV
  6
C_SOLID_L
100
AcDbVertex
100
AcDb2dVertex
 10
-21.97677399999999
 20
-62.25441899999999
 30
0.0
  0
VERTEX
  5
210
330
153
100
AcDbEntity
  8
MO_001_VIEW_PV
  6
C_SOLID_L
100
AcDbVertex
100
AcDb2dVertex
 10
-23.853623
 20
-64.425937
 30
0.0
  0
SEQEND
  5
211
330
153
100
AcDbEntity
  8
MO_001_VIEW_PV
  6
C_SOLID_L
  0
ENDSEC
  0
SECTION
  2
OBJECTS
  0
DICTIONARY
  5
1A
330
0
100
AcDbDictionary
  3
ACAD_GROUP
350
1B
  3
ACAD_MLINESTYLE
350
1C
  3
ACAD_LAYOUT
350
1FC
  3
ACAD_PLOTSETTINGS
350
1FD
1001
ACAD
1000
TREAT_AS_HARD
1070
     0
  0
DICTIONARY
  5
202
330
1E
100
AcDbDictionary
  3
ACAD_LAYOUTSELFREF
350
203
  0
DICTIONARY
  5
204
330
1F
100
AcDbDictionary
  3
ACAD_LAYOUTSELFREF
350
205
  0
DICTIONARY
  5
1B
102
{ACAD_REACTORS
330
1A
102
}
330
1A
100
AcDbDictionary
1001
ACAD
1000
TREAT_AS_HARD
1070
     0
  0
DICTIONARY
  5
1C
102
{ACAD_REACTORS
330
1A
102
}
330
1A
100
AcDbDictionary
  3
STANDARD
350
1D
1001
ACAD
1000
TREAT_AS_HARD
1070
     0
  0
DICTIONARY
  5
1FC
102
{ACAD_REACTORS
330
1A
102
}
330
1A
100
AcDbDictionary
1001
ACAD
1000
TREAT_AS_HARD
1070
     0
  0
DICTIONARY
  5
1FD
102
{ACAD_REACTORS
330
1A
102
}
330
1A
100
AcDbDictionary
1001
ACAD
1000
TREAT_AS_HARD
1070
     0
  0
XRECORD
  5
203
102
{ACAD_REACTORS
330
202
102
}
330
202
100
AcDbXrecord
340
1E
  0
XRECORD
  5
205
102
{ACAD_REACTORS
330
204
102
}
330
204
100
AcDbXrecord
340
1F
  0
MLINESTYLE
  5
1D
102
{ACAD_REACTORS
330
1C
102
}
330
1C
100
AcDbMlineStyle
  2
STANDARD
 70
     0
  3

 62
     0
 51
90.0
 52
90.0
 71
     2
 49
0.5
 62
   256
  6
BYLAYER
 49
-0.5
 62
   256
  6
BYLAYER
  0
ENDSEC
  0
EOF
