  0
SECTION
  2
HEADER
  9
$ACADVER
  1
AC1012
  9
$DWGCODEPAGE
  3
dos932
  9
$INSBASE
 10
0.0
 20
0.0
 30
0.0
  9
$EXTMIN
 10
-111.4102330712561
 20
-113.0900847357838
 30
-0.0015258207003583
  9
$EXTMAX
 10
97.13755290188158
 20
28.1304457637799
 30
0.0000000349246037
  9
$LIMMIN
 10
-111.38931
 20
-116.208984
  9
$LIMMAX
 10
84.50273100000002
 20
30.0
  9
$ORTHOMODE
 70
     0
  9
$REGENMODE
 70
     1
  9
$FILLMODE
 70
     1
  9
$QTEXTMODE
 70
     0
  9
$MIRRTEXT
 70
     1
  9
$DRAGMODE
 70
     2
  9
$LTSCALE
 40
1.0
  9
$OSMODE
 70
    37
  9
$ATTMODE
 70
     1
  9
$TEXTSIZE
 40
4.1672
  9
$TRACEWID
 40
0.05
  9
$TEXTSTYLE
  7
STANDARD
  9
$CLAYER
  8
0
  9
$CELTYPE
  6
CONTINUOUS
  9
$CECOLOR
 62
   256
  9
$CELTSCALE
 40
1.0
  9
$DELOBJ
 70
     1
  9
$DISPSILH
 70
     0
  9
$DIMSCALE
 40
1.0
  9
$DIMASZ
 40
0.18
  9
$DIMEXO
 40
0.0625
  9
$DIMDLI
 40
0.38
  9
$DIMRND
 40
0.0
  9
$DIMDLE
 40
0.0
  9
$DIMEXE
 40
0.18
  9
$DIMTP
 40
0.0
  9
$DIMTM
 40
0.0
  9
$DIMTXT
 40
0.18
  9
$DIMCEN
 40
0.09
  9
$DIMTSZ
 40
0.0
  9
$DIMTOL
 70
     0
  9
$DIMLIM
 70
     0
  9
$DIMTIH
 70
     1
  9
$DIMTOH
 70
     1
  9
$DIMSE1
 70
     0
  9
$DIMSE2
 70
     0
  9
$DIMTAD
 70
     0
  9
$DIMZIN
 70
     0
  9
$DIMBLK
  1

  9
$DIMASO
 70
     1
  9
$DIMSHO
 70
     1
  9
$DIMPOST
  1

  9
$DIMAPOST
  1

  9
$DIMALT
 70
     0
  9
$DIMALTD
 70
     2
  9
$DIMALTF
 40
25.4
  9
$DIMLFAC
 40
1.0
  9
$DIMTOFL
 70
     0
  9
$DIMTVP
 40
0.0
  9
$DIMTIX
 70
     0
  9
$DIMSOXD
 70
     0
  9
$DIMSAH
 70
     0
  9
$DIMBLK1
  1

  9
$DIMBLK2
  1

  9
$DIMSTYLE
  2
STANDARD
  9
$DIMCLRD
 70
     0
  9
$DIMCLRE
 70
     0
  9
$DIMCLRT
 70
     0
  9
$DIMTFAC
 40
1.0
  9
$DIMGAP
 40
0.09
  9
$DIMJUST
 70
     0
  9
$DIMSD1
 70
     0
  9
$DIMSD2
 70
     0
  9
$DIMTOLJ
 70
     1
  9
$DIMTZIN
 70
     0
  9
$DIMALTZ
 70
     0
  9
$DIMALTTZ
 70
     0
  9
$DIMFIT
 70
     3
  9
$DIMUPT
 70
     0
  9
$DIMUNIT
 70
     2
  9
$DIMDEC
 70
     4
  9
$DIMTDEC
 70
     4
  9
$DIMALTU
 70
     2
  9
$DIMALTTD
 70
     2
  9
$DIMTXSTY
  7
STANDARD
  9
$DIMAUNIT
 70
     0
  9
$LUNITS
 70
     2
  9
$LUPREC
 70
     6
  9
$SKETCHINC
 40
0.1
  9
$FILLETRAD
 40
0.0
  9
$AUNITS
 70
     0
  9
$AUPREC
 70
     4
  9
$MENU
  1
acad
  9
$ELEVATION
 40
0.0
  9
$PELEVATION
 40
0.0
  9
$THICKNESS
 40
0.0
  9
$LIMCHECK
 70
     0
  9
$BLIPMODE
 70
     0
  9
$CHAMFERA
 40
0.0
  9
$CHAMFERB
 40
0.0
  9
$CHAMFERC
 40
0.0
  9
$CHAMFERD
 40
0.0
  9
$SKPOLY
 70
     0
  9
$TDCREATE
 40
2376122.594768414
  9
$TDUPDATE
 40
2451663.759027662
  9
$TDINDWG
 40
0.0013609954
  9
$TDUSRTIMER
 40
0.0013604167
  9
$USRTIMER
 70
     1
  9
$ANGBASE
 50
0.0
  9
$ANGDIR
 70
     0
  9
$PDMODE
 70
     0
  9
$PDSIZE
 40
0.0
  9
$PLINEWID
 40
0.0
  9
$COORDS
 70
     1
  9
$SPLFRAME
 70
     0
  9
$SPLINETYPE
 70
     6
  9
$SPLINESEGS
 70
     8
  9
$ATTDIA
 70
     0
  9
$ATTREQ
 70
     1
  9
$HANDLING
 70
 10241
  9
$HANDSEED
  5
243
  9
$SURFTAB1
 70
     6
  9
$SURFTAB2
 70
     6
  9
$SURFTYPE
 70
     6
  9
$SURFU
 70
     6
  9
$SURFV
 70
     6
  9
$UCSNAME
  2
MO_001_VIEW_PV_P
  9
$UCSORG
 10
0.0
 20
0.0
 30
0.0
  9
$UCSXDIR
 10
1.0
 20
0.0
 30
0.0
  9
$UCSYDIR
 10
-0.0000000002051034
 20
1.0
 30
0.0
  9
$PUCSNAME
  2

  9
$PUCSORG
 10
0.0
 20
0.0
 30
0.0
  9
$PUCSXDIR
 10
1.0
 20
0.0
 30
0.0
  9
$PUCSYDIR
 10
0.0
 20
1.0
 30
0.0
  9
$USERI1
 70
     0
  9
$USERI2
 70
     0
  9
$USERI3
 70
     0
  9
$USERI4
 70
     0
  9
$USERI5
 70
     0
  9
$USERR1
 40
0.0
  9
$USERR2
 40
0.0
  9
$USERR3
 40
0.0
  9
$USERR4
 40
0.0
  9
$USERR5
 40
0.0
  9
$WORLDVIEW
 70
     1
  9
$SHADEDGE
 70
     3
  9
$SHADEDIF
 70
    70
  9
$TILEMODE
 70
     1
  9
$MAXACTVP
 70
    16
  9
$PINSBASE
 10
0.0
 20
0.0
 30
0.0
  9
$PLIMCHECK
 70
     0
  9
$PEXTMIN
 10
-111.38931
 20
-116.208984
 30
1.000000000000000E+20
  9
$PEXTMAX
 10
84.50273100000002
 20
30.0
 30
-1.000000000000000E+20
  9
$PLIMMIN
 10
0.0
 20
0.0
  9
$PLIMMAX
 10
12.0
 20
9.0
  9
$UNITMODE
 70
     0
  9
$VISRETAIN
 70
     0
  9
$PLINEGEN
 70
     0
  9
$PSLTSCALE
 70
     1
  9
$TREEDEPTH
 70
  3020
  9
$PICKSTYLE
 70
     1
  9
$CMLSTYLE
  2
STANDARD
  9
$CMLJUST
 70
     0
  9
$CMLSCALE
 40
1.0
  9
$SAVEIMAGES
 70
     1
  0
ENDSEC
  0
SECTION
  2
CLASSES
  0
CLASS
  1
ACDBDICTIONARYWDFLT
  2
AcDbDictionaryWithDefault
  3
AutoCAD 2000
 90
    32768
280
     0
281
     0
  0
CLASS
  1
ACDBPLACEHOLDER
  2
AcDbPlaceHolder
  3
AutoCAD 2000
 90
    32768
280
     0
281
     0
  0
CLASS
  1
LAYOUT
  2
AcDbLayout
  3
AutoCAD 2000
 90
    32768
280
     0
281
     0
  0
CLASS
  1
LONG_TRANSACTION
  2
AcDbLongTransaction
  3
AutoCAD 2000
 90
    32768
280
     0
281
     0
  0
CLASS
  1
LWPOLYLINE
  2
AcDbPolyline
  3
AutoCAD 2000
 90
    32768
280
     0
281
     1
  0
CLASS
  1
HATCH
  2
AcDbHatch
  3
AutoCAD 2000
 90
    32768
280
     0
281
     1
  0
CLASS
  1
XRECORD
  2
AcDbXrecord
  3
AutoCAD 2000
 90
    32768
280
     0
281
     0
  0
ENDSEC
  0
SECTION
  2
TABLES
  0
TABLE
  2
VPORT
  5
7
330
0
100
AcDbSymbolTable
 70
     2
  0
VPORT
  5
232
330
7
100
AcDbSymbolTableRecord
100
AcDbViewportTableRecord
  2
*ACTIVE
 70
     0
 10
0.0
 20
0.0
 11
1.0
 21
1.0
 12
-27.17127661785895
 22
-33.37498243430127
 13
0.0
 23
0.0
 14
6.349999999999999
 24
6.349999999999999
 15
6.349999999999999
 25
6.349999999999999
 16
0.0
 26
0.0
 36
1.0
 17
0.0
 27
0.0
 37
0.0
 40
171.826523878295
 41
1.691964285714285
 42
50.0
 43
0.0
 44
0.0
 50
0.0
 51
0.0
 71
     0
 72
   100
 73
     1
 74
     1
 75
     0
 76
     0
 77
     0
 78
     0
  0
ENDTAB
  0
TABLE
  2
LTYPE
  5
4
330
0
100
AcDbSymbolTable
 70
    37
  0
LTYPE
  5
12
330
4
100
AcDbSymbolTableRecord
100
AcDbLinetypeTableRecord
  2
BYBLOCK
 70
     0
  3

 72
    65
 73
     0
 40
0.0
  0
LTYPE
  5
13
330
4
100
AcDbSymbolTableRecord
100
AcDbLinetypeTableRecord
  2
BYLAYER
 70
     0
  3

 72
    65
 73
     0
 40
0.0
  0
LTYPE
  5
14
330
4
100
AcDbSymbolTableRecord
100
AcDbLinetypeTableRecord
  2
CONTINUOUS
 70
     0
  3
DXF Default line type
 72
    65
 73
     0
 40
0.0
  0
LTYPE
  5
20
330
4
100
AcDbSymbolTableRecord
100
AcDbLinetypeTableRecord
  2
DASHED
 70
     0
  3
DXF Dashed
 72
    65
 73
     2
 40
0.75
 49
0.5
 74
     0
 49
-0.25
 74
     0
  0
LTYPE
  5
21
330
4
100
AcDbSymbolTableRecord
100
AcDbLinetypeTableRecord
  2
HIDDEN
 70
     0
  3
DXF Hidden
 72
    65
 73
     2
 40
0.375
 49
0.25
 74
     0
 49
-0.125
 74
     0
  0
LTYPE
  5
22
330
4
100
AcDbSymbolTableRecord
100
AcDbLinetypeTableRecord
  2
CENTER
 70
     0
  3
DXF Center
 72
    65
 73
     4
 40
2.0
 49
1.25
 74
     0
 49
-0.25
 74
     0
 49
0.25
 74
     0
 49
-0.25
 74
     0
  0
LTYPE
  5
23
330
4
100
AcDbSymbolTableRecord
100
AcDbLinetypeTableRecord
  2
PHANTOM
 70
     0
  3
DXF Phantom
 72
    65
 73
     6
 40
2.5
 49
1.25
 74
     0
 49
-0.25
 74
     0
 49
0.25
 74
     0
 49
-0.25
 74
     0
 49
0.25
 74
     0
 49
-0.25
 74
     0
  0
LTYPE
  5
24
330
4
100
AcDbSymbolTableRecord
100
AcDbLinetypeTableRecord
  2
DOT
 70
     0
  3
DXF DOT
 72
    65
 73
     2
 40
0.25
 49
0.0
 74
     0
 49
-0.25
 74
     0
  0
LTYPE
  5
25
330
4
100
AcDbSymbolTableRecord
100
AcDbLinetypeTableRecord
  2
DASHDOT
 70
     0
  3
DXF Dash Dot
 72
    65
 73
     4
 40
1.0
 49
0.5
 74
     0
 49
-0.25
 74
     0
 49
0.0
 74
     0
 49
-0.25
 74
     0
  0
LTYPE
  5
26
330
4
100
AcDbSymbolTableRecord
100
AcDbLinetypeTableRecord
  2
BORDER
 70
     0
  3
DXF Border
 72
    65
 73
     6
 40
1.75
 49
0.5
 74
     0
 49
-0.25
 74
     0
 49
0.5
 74
     0
 49
-0.25
 74
     0
 49
0.0
 74
     0
 49
-0.25
 74
     0
  0
LTYPE
  5
27
330
4
100
AcDbSymbolTableRecord
100
AcDbLinetypeTableRecord
  2
DIVIDE
 70
     0
  3
DXF Divide
 72
    65
 73
     6
 40
1.25
 49
0.5
 74
     0
 49
-0.25
 74
     0
 49
0.0
 74
     0
 49
-0.25
 74
     0
 49
0.0
 74
     0
 49
-0.25
 74
     0
  0
LTYPE
  5
28
330
4
100
AcDbSymbolTableRecord
100
AcDbLinetypeTableRecord
  2
C_SOLID_L
 70
     0
  3
CADAM Solid Light
 72
    65
 73
     0
 40
0.0
  0
LTYPE
  5
29
330
4
100
AcDbSymbolTableRecord
100
AcDbLinetypeTableRecord
  2
C_SOLID_M
 70
     0
  3
CADAM Solid Medium
 72
    65
 73
     0
 40
0.0
  0
LTYPE
  5
2A
330
4
100
AcDbSymbolTableRecord
100
AcDbLinetypeTableRecord
  2
C_SOLID_H
 70
     0
  3
CADAM Solid Heavy
 72
    65
 73
     0
 40
0.0
  0
LTYPE
  5
2B
330
4
100
AcDbSymbolTableRecord
100
AcDbLinetypeTableRecord
  2
C_DASHED_L
 70
     0
  3
CADAM Dashed Light
 72
    65
 73
     2
 40
0.375
 49
0.25
 74
     0
 49
-0.125
 74
     0
  0
LTYPE
  5
2C
330
4
100
AcDbSymbolTableRecord
100
AcDbLinetypeTableRecord
  2
C_DASHED_M
 70
     0
  3
CADAM Dashed Medium
 72
    65
 73
     2
 40
0.5
 49
0.375
 74
     0
 49
-0.125
 74
     0
  0
LTYPE
  5
2D
330
4
100
AcDbSymbolTableRecord
100
AcDbLinetypeTableRecord
  2
C_CENTER_L
 70
     0
  3
CADAM Center Light
 72
    65
 73
     4
 40
2.0
 49
1.25
 74
     0
 49
-0.25
 74
     0
 49
0.25
 74
     0
 49
-0.25
 74
     0
  0
LTYPE
  5
2E
330
4
100
AcDbSymbolTableRecord
100
AcDbLinetypeTableRecord
  2
C_PHANTOM_L
 70
     0
  3
CADAM Phantom Light
 72
    65
 73
     6
 40
2.5
 49
1.25
 74
     0
 49
-0.25
 74
     0
 49
0.25
 74
     0
 49
-0.25
 74
     0
 49
0.25
 74
     0
 49
-0.25
 74
     0
  0
LTYPE
  5
2F
330
4
100
AcDbSymbolTableRecord
100
AcDbLinetypeTableRecord
  2
C_BREAK_M
 70
     0
  3
CADAM Break Medium
 72
    65
 73
     4
 40
1.0
 49
0.5
 74
     0
 49
-0.25
 74
     0
 49
0.0
 74
     0
 49
-0.25
 74
     0
  0
LTYPE
  5
30
330
4
100
AcDbSymbolTableRecord
100
AcDbLinetypeTableRecord
  2
C_NC
 70
     0
  3
CADAM NC
 72
    65
 73
     0
 40
0.0
  0
LTYPE
  5
31
330
4
100
AcDbSymbolTableRecord
100
AcDbLinetypeTableRecord
  2
DSH1
 70
     0
  3
CADAM Style2 Type 1 Dashed Line
 72
    65
 73
     2
 40
0.075
 49
0.04
 74
     0
 49
-0.035
 74
     0
  0
LTYPE
  5
32
330
4
100
AcDbSymbolTableRecord
100
AcDbLinetypeTableRecord
  2
DSH2
 70
     0
  3
CADAM Style2 Type 2 Dashed Line
 72
    65
 73
     2
 40
0.15
 49
0.11
 74
     0
 49
-0.04
 74
     0
  0
LTYPE
  5
33
330
4
100
AcDbSymbolTableRecord
100
AcDbLinetypeTableRecord
  2
DSH3
 70
     0
  3
CADAM Style2 Type 3 Dashed Line
 72
    65
 73
     2
 40
0.2
 49
0.15
 74
     0
 49
-0.05
 74
     0
  0
LTYPE
  5
34
330
4
100
AcDbSymbolTableRecord
100
AcDbLinetypeTableRecord
  2
DSH4
 70
     0
  3
CADAM Style2 Type 4 Dashed Line
 72
    65
 73
     2
 40
0.36
 49
0.28
 74
     0
 49
-0.08
 74
     0
  0
LTYPE
  5
35
330
4
100
AcDbSymbolTableRecord
100
AcDbLinetypeTableRecord
  2
DSH5
 70
     0
  3
CADAM Style2 Type 5 Dashed Line
 72
    65
 73
     2
 40
0.47
 49
0.39
 74
     0
 49
-0.08
 74
     0
  0
LTYPE
  5
36
330
4
100
AcDbSymbolTableRecord
100
AcDbLinetypeTableRecord
  2
DSH6
 70
     0
  3
CADAM Style2 Type 6 Dashed Line
 72
    65
 73
     2
 40
0.9
 49
0.8100000000000001
 74
     0
 49
-0.09
 74
     0
  0
LTYPE
  5
37
330
4
100
AcDbSymbolTableRecord
100
AcDbLinetypeTableRecord
  2
PL1
 70
     0
  3
Style 2 Type 1 Phantom Line
 72
    65
 73
     6
 40
1.0
 49
0.6
 74
     0
 49
-0.08
 74
     0
 49
0.08
 74
     0
 49
-0.08
 74
     0
 49
0.08
 74
     0
 49
-0.08
 74
     0
  0
LTYPE
  5
38
330
4
100
AcDbSymbolTableRecord
100
AcDbLinetypeTableRecord
  2
PL2
 70
     0
  3
Style 2 Type 2 Phantom Line
 72
    65
 73
     6
 40
1.08
 49
0.6
 74
     0
 49
-0.08
 74
     0
 49
0.12
 74
     0
 49
-0.08
 74
     0
 49
0.12
 74
     0
 49
-0.08
 74
     0
  0
LTYPE
  5
39
330
4
100
AcDbSymbolTableRecord
100
AcDbLinetypeTableRecord
  2
PL3
 70
     0
  3
Style 2 Type 3 Phantom Line
 72
    65
 73
     6
 40
2.0
 49
1.439999999999999
 74
     0
 49
-0.08
 74
     0
 49
0.16
 74
     0
 49
-0.08
 74
     0
 49
0.16
 74
     0
 49
-0.08
 74
     0
  0
LTYPE
  5
3A
330
4
100
AcDbSymbolTableRecord
100
AcDbLinetypeTableRecord
  2
CL1
 70
     0
  3
CADAM Style 2 Type 1 Center Line
 72
    65
 73
     4
 40
0.7
 49
0.45
 74
     0
 49
-0.06
 74
     0
 49
0.13
 74
     0
 49
-0.06
 74
     0
  0
LTYPE
  5
3B
330
4
100
AcDbSymbolTableRecord
100
AcDbLinetypeTableRecord
  2
CL2
 70
     0
  3
CADAM Style 2 Type 2 Center Line
 72
    65
 73
     4
 40
1.199999999999999
 49
1.01
 74
     0
 49
-0.06
 74
     0
 49
0.11
 74
     0
 49
-0.06
 74
     0
  0
LTYPE
  5
3C
330
4
100
AcDbSymbolTableRecord
100
AcDbLinetypeTableRecord
  2
CL3
 70
     0
  3
CADAM Style 2 Type 3 Center Line
 72
    65
 73
     4
 40
1.199999999999999
 49
0.98
 74
     0
 49
-0.06
 74
     0
 49
0.1
 74
     0
 49
-0.06
 74
     0
  0
LTYPE
  5
3D
330
4
100
AcDbSymbolTableRecord
100
AcDbLinetypeTableRecord
  2
CL4
 70
     0
  3
CADAM Style 2 Type 4 Center Line
 72
    65
 73
     4
 40
2.2
 49
1.929999999999999
 74
     0
 49
-0.07
 74
     0
 49
0.13
 74
     0
 49
-0.07
 74
     0
  0
LTYPE
  5
3E
330
4
100
AcDbSymbolTableRecord
100
AcDbLinetypeTableRecord
  2
CL5
 70
     0
  3
CADAM Style 2 Type 5 Center Line
 72
    65
 73
     4
 40
2.2
 49
1.879999999999999
 74
     0
 49
-0.07
 74
     0
 49
0.18
 74
     0
 49
-0.07
 74
     0
  0
LTYPE
  5
3F
330
4
100
AcDbSymbolTableRecord
100
AcDbLinetypeTableRecord
  2
SBK1
 70
     0
  3
CADAM Style 2 Type 1 SetBack Line
 72
    65
 73
     8
 40
2.7
 49
0.1
 74
     0
 49
-0.08
 74
     0
 49
0.1
 74
     0
 49
-0.8
 74
     0
 49
0.0
 74
     0
 49
0.0
 74
     0
 49
0.0
 74
     0
 49
0.0
 74
     0
  0
LTYPE
  5
40
330
4
100
AcDbSymbolTableRecord
100
AcDbLinetypeTableRecord
  2
SBK2
 70
     0
  3
CADAM Style 2 Type 2 SetBack Line
 72
    65
 73
     8
 40
3.709999999999999
 49
0.13
 74
     0
 49
-0.08
 74
     0
 49
0.13
 74
     0
 49
-0.8
 74
     0
 49
0.0
 74
     0
 49
0.0
 74
     0
 49
0.0
 74
     0
 49
0.0
 74
     0
  0
LTYPE
  5
41
330
4
100
AcDbSymbolTableRecord
100
AcDbLinetypeTableRecord
  2
STCH
 70
     0
  3
CADAM Style2 Stitch Line
 72
    65
 73
     2
 40
0.25
 49
0.0
 74
     0
 49
-0.25
 74
     0
  0
LTYPE
  5
42
330
4
100
AcDbSymbolTableRecord
100
AcDbLinetypeTableRecord
  2
MTCH
 70
     0
  3
CADAM Style2 Match Line
 72
    65
 73
     6
 40
2.0
 49
1.439999999999999
 74
     0
 49
-0.8
 74
     0
 49
0.16
 74
     0
 49
-0.08
 74
     0
 49
0.16
 74
     0
 49
-0.08
 74
     0
  0
LTYPE
  5
43
330
4
100
AcDbSymbolTableRecord
100
AcDbLinetypeTableRecord
  2
SLD
 70
     0
  3
CADAM Solid_EXT2
 72
    65
 73
     0
 40
0.0
  0
ENDTAB
  0
TABLE
  2
LAYER
  5
2
330
0
100
AcDbSymbolTable
 70
     7
  0
LAYER
  5
15
330
2
100
AcDbSymbolTableRecord
100
AcDbLayerTableRecord
  2
0
 70
     0
 62
     7
  6
CONTINUOUS
  0
LAYER
  5
44
330
2
100
AcDbSymbolTableRecord
100
AcDbLayerTableRecord
  2
MO_001_NOSHOW
 70
     1
 62
     7
  6
CONTINUOUS
  0
LAYER
  5
45
330
2
100
AcDbSymbolTableRecord
100
AcDbLayerTableRecord
  2
MO_001_VIEW_PV
 70
     0
 62
     7
  6
CONTINUOUS
  0
LAYER
  5
46
330
2
100
AcDbSymbolTableRecord
100
AcDbLayerTableRecord
  2
OVERLAY_MAP
 70
     1
 62
     7
  6
CONTINUOUS
  0
LAYER
  5
47
330
2
100
AcDbSymbolTableRecord
100
AcDbLayerTableRecord
  2
DITTOS
 70
     0
 62
     7
  6
CONTINUOUS
  0
LAYER
  5
48
330
2
100
AcDbSymbolTableRecord
100
AcDbLayerTableRecord
  2
SYMBOLS
 70
     0
 62
     7
  6
CONTINUOUS
  0
LAYER
  5
49
330
2
100
AcDbSymbolTableRecord
100
AcDbLayerTableRecord
  2
SETS
 70
     0
 62
     7
  6
CONTINUOUS
  0
ENDTAB
  0
TABLE
  2
STYLE
  5
3
330
0
100
AcDbSymbolTable
 70
     1
  0
STYLE
  5
18
330
3
100
AcDbSymbolTableRecord
100
AcDbTextStyleTableRecord
  2
STANDARD
 70
     0
 40
4.1672
 41
1.0
 50
0.0
 71
     0
 42
4.1672
  3
monotxt
  4
BIGFONT
  0
ENDTAB
  0
TABLE
  2
VIEW
  5
5
330
0
100
AcDbSymbolTable
 70
     0
  0
ENDTAB
  0
TABLE
  2
UCS
  5
6
330
0
100
AcDbSymbolTable
 70
     1
  0
UCS
  5
4A
330
6
100
AcDbSymbolTableRecord
100
AcDbUCSTableRecord
  2
MO_001_VIEW_PV_P
 70
     0
 10
0.0
 20
0.0
 30
0.0
 11
1.0
 21
0.0
 31
0.0
 12
-0.0000000002051034
 22
1.0
 32
0.0
  0
ENDTAB
  0
TABLE
  2
APPID
  5
8
330
0
100
AcDbSymbolTable
 70
     1
  0
APPID
  5
17
330
8
100
AcDbSymbolTableRecord
100
AcDbRegAppTableRecord
  2
ACAD
 70
     0
  0
ENDTAB
  0
TABLE
  2
DIMSTYLE
  5
9
330
0
100
AcDbSymbolTable
 70
     1
  0
DIMSTYLE
105
19
102
{ACAD_REACTORS
330
166
330
168
330
16A
330
16C
330
16E
330
170
330
172
330
174
330
176
330
178
330
17A
330
17C
330
17E
330
180
102
}
330
9
100
AcDbSymbolTableRecord
100
AcDbDimStyleTableRecord
  2
STANDARD
 70
     0
  3

  4

  5

  6

  7

 40
1.0
 41
0.18
 42
0.0625
 43
0.38
 44
0.18
 45
0.0
 46
0.0
 47
0.0
 48
0.0
140
0.18
141
0.09
142
0.0
143
25.4
144
1.0
145
0.0
146
1.0
147
0.09
 71
     0
 72
     0
 73
     1
 74
     1
 75
     0
 76
     0
 77
     0
 78
     0
170
     0
171
     2
172
     0
173
     0
174
     0
175
     0
176
     0
177
     0
178
     0
270
     2
271
     4
272
     4
273
     2
274
     2
340
18
275
     0
280
     0
281
     0
282
     0
283
     1
284
     0
285
     0
286
     0
287
     3
288
     0
  0
ENDTAB
  0
TABLE
  2
BLOCK_RECORD
  5
C
330
0
100
AcDbSymbolTable
 70
    14
  0
BLOCK_RECORD
  5
1E
102
{ACAD_XDICTIONARY
360
233
102
}
330
C
100
AcDbSymbolTableRecord
100
AcDbBlockTableRecord
  2
*MODEL_SPACE
  0
BLOCK_RECORD
  5
1F
102
{ACAD_XDICTIONARY
360
235
102
}
330
C
100
AcDbSymbolTableRecord
100
AcDbBlockTableRecord
  2
*PAPER_SPACE
  0
BLOCK_RECORD
  5
165
330
C
100
AcDbSymbolTableRecord
100
AcDbBlockTableRecord
  2
*D0
  0
BLOCK_RECORD
  5
167
330
C
100
AcDbSymbolTableRecord
100
AcDbBlockTableRecord
  2
*D1
  0
BLOCK_RECORD
  5
169
330
C
100
AcDbSymbolTableRecord
100
AcDbBlockTableRecord
  2
*D2
  0
BLOCK_RECORD
  5
16B
330
C
100
AcDbSymbolTableRecord
100
AcDbBlockTableRecord
  2
*D3
  0
BLOCK_RECORD
  5
16D
330
C
100
AcDbSymbolTableRecord
100
AcDbBlockTableRecord
  2
*D4
  0
BLOCK_RECORD
  5
16F
330
C
100
AcDbSymbolTableRecord
100
AcDbBlockTableRecord
  2
*D5
  0
BLOCK_RECORD
  5
171
330
C
100
AcDbSymbolTableRecord
100
AcDbBlockTableRecord
  2
*D6
  0
BLOCK_RECORD
  5
173
330
C
100
AcDbSymbolTableRecord
100
AcDbBlockTableRecord
  2
*D7
  0
BLOCK_RECORD
  5
175
330
C
100
AcDbSymbolTableRecord
100
AcDbBlockTableRecord
  2
*D8
  0
BLOCK_RECORD
  5
177
330
C
100
AcDbSymbolTableRecord
100
AcDbBlockTableRecord
  2
*D9
  0
BLOCK_RECORD
  5
179
330
C
100
AcDbSymbolTableRecord
100
AcDbBlockTableRecord
  2
*D10
  0
BLOCK_RECORD
  5
17B
330
C
100
AcDbSymbolTableRecord
100
AcDbBlockTableRecord
  2
*D11
  0
BLOCK_RECORD
  5
17D
330
C
100
AcDbSymbolTableRecord
100
AcDbBlockTableRecord
  2
*D12
  0
BLOCK_RECORD
  5
17F
330
C
100
AcDbSymbolTableRecord
100
AcDbBlockTableRecord
  2
*D13
  0
ENDTAB
  0
ENDSEC
  0
SECTION
  2
BLOCKS
  0
BLOCK
  5
E
330
1E
100
AcDbEntity
  8
0
100
AcDbBlockBegin
  2
*MODEL_SPACE
 70
     0
 10
0.0
 20
0.0
 30
0.0
  3
*MODEL_SPACE
  1

  0
ENDBLK
  5
F
330
1E
100
AcDbEntity
  8
0
100
AcDbBlockEnd
  0
BLOCK
  5
10
330
1F
100
AcDbEntity
 67
     1
  8
0
100
AcDbBlockBegin
  2
*PAPER_SPACE
 70
     0
 10
0.0
 20
0.0
 30
0.0
  3
*PAPER_SPACE
  1

  0
ENDBLK
  5
11
330
1F
100
AcDbEntity
 67
     1
  8
0
100
AcDbBlockEnd
  0
BLOCK
  5
193
330
165
100
AcDbEntity
  8
0
100
AcDbBlockBegin
  2
*D0
 70
     1
 10
0.0
 20
0.0
 30
0.0
  3
*D0
  1

  0
TEXT
  5
194
330
165
100
AcDbEntity
  8
MO_001_VIEW_PV
  6
BYBLOCK
100
AcDbText
 10
-19.785714
 20
26.625
 30
0.0
 40
1.5
  1
%%P0.5
100
AcDbText
  0
TEXT
  5
195
330
165
100
AcDbEntity
  8
MO_001_VIEW_PV
  6
BYBLOCK
100
AcDbText
 10
-25.571429
 20
24.75
 30
0.0
 40
3.0
  1
40
100
AcDbText
  0
LINE
  5
196
330
165
100
AcDbEntity
  8
MO_001_VIEW_PV
  6
BYBLOCK
100
AcDbLine
 10
-40.0
 20
24.0
 30
0.0
 11
0.0
 21
24.0
 31
0.0
  0
SOLID
  5
197
330
165
100
AcDbEntity
  8
MO_001_VIEW_PV
  6
BYBLOCK
100
AcDbTrace
 10
-36.68174
 20
24.583512
 30
0.0
 11
-39.49199999999999
 21
24.0
 31
0.0
 12
-36.68174
 22
23.416488
 32
0.0
 13
-36.68174
 23
23.416488
 33
0.0
  0
SOLID
  5
198
330
165
100
AcDbEntity
  8
MO_001_VIEW_PV
  6
BYBLOCK
100
AcDbTrace
 10
-3.318259999999999
 20
23.416488
 30
0.0
 11
-0.508
 21
24.0
 31
0.0
 12
-3.318259999999999
 22
24.583512
 32
0.0
 13
-3.318259999999999
 23
24.583512
 33
0.0
  0
LINE
  5
199
330
165
100
AcDbEntity
  8
MO_001_VIEW_PV
  6
BYBLOCK
100
AcDbLine
 10
-40.0
 20
13.25
 30
0.0
 11
-40.0
 21
26.285999
 31
0.0
  0
LINE
  5
19A
330
165
100
AcDbEntity
  8
MO_001_VIEW_PV
  6
BYBLOCK
100
AcDbLine
 10
0.0
 20
12.25
 30
0.0
 11
0.0
 21
26.285999
 31
0.0
  0
ENDBLK
  5
19B
330
165
100
AcDbEntity
  8
0
100
AcDbBlockEnd
  0
BLOCK
  5
19C
330
167
100
AcDbEntity
  8
0
100
AcDbBlockBegin
  2
*D1
 70
     1
 10
0.0
 20
0.0
 30
0.0
  3
*D1
  1

  0
TEXT
  5
19D
330
167
100
AcDbEntity
  8
MO_001_VIEW_PV
  6
BYBLOCK
100
AcDbText
 10
7.714286
 20
26.625
 30
0.0
 40
1.5
  1
%%P0.3
100
AcDbText
  0
TEXT
  5
19E
330
167
100
AcDbEntity
  8
MO_001_VIEW_PV
  6
BYBLOCK
100
AcDbText
 10
1.928570999999999
 20
24.75
 30
0.0
 40
3.0
  1
15
100
AcDbText
  0
LINE
  5
19F
330
167
100
AcDbEntity
  8
MO_001_VIEW_PV
  6
BYBLOCK
100
AcDbLine
 10
0.0
 20
24.0
 30
0.0
 11
15.0
 21
24.0
 31
0.0
  0
SOLID
  5
1A0
330
167
100
AcDbEntity
  8
MO_001_VIEW_PV
  6
BYBLOCK
100
AcDbTrace
 10
3.318259999999999
 20
24.583512
 30
0.0
 11
0.508
 21
24.0
 31
0.0
 12
3.318259999999999
 22
23.416488
 32
0.0
 13
3.318259999999999
 23
23.416488
 33
0.0
  0
SOLID
  5
1A1
330
167
100
AcDbEntity
  8
MO_001_VIEW_PV
  6
BYBLOCK
100
AcDbTrace
 10
11.68174
 20
23.416488
 30
0.0
 11
14.492
 21
24.0
 31
0.0
 12
11.68174
 22
24.583512
 32
0.0
 13
11.68174
 23
24.583512
 33
0.0
  0
LINE
  5
1A2
330
167
100
AcDbEntity
  8
MO_001_VIEW_PV
  6
BYBLOCK
100
AcDbLine
 10
0.0
 20
12.25
 30
0.0
 11
0.0
 21
26.285999
 31
0.0
  0
LINE
  5
1A3
330
167
100
AcDbEntity
  8
MO_001_VIEW_PV
  6
BYBLOCK
100
AcDbLine
 10
15.0
 20
1.75
 30
0.0
 11
15.0
 21
26.285999
 31
0.0
  0
ENDBLK
  5
1A4
330
167
100
AcDbEntity
  8
0
100
AcDbBlockEnd
  0
BLOCK
  5
1A5
330
169
100
AcDbEntity
  8
0
100
AcDbBlockBegin
  2
*D2
 70
     1
 10
0.0
 20
0.0
 30
0.0
  3
*D2
  1

  0
TEXT
  5
1A6
330
169
100
AcDbEntity
  8
MO_001_VIEW_PV
  6
BYBLOCK
100
AcDbText
 10
-58.940911
 20
26.625
 30
0.0
 40
1.5
  1
%%P0.3
100
AcDbText
  0
TEXT
  5
1A7
330
169
100
AcDbEntity
  8
MO_001_VIEW_PV
  6
BYBLOCK
100
AcDbText
 10
-64.72662599999999
 20
24.75
 30
0.0
 40
3.0
  1
11
100
AcDbText
  0
LINE
  5
1A8
330
169
100
AcDbEntity
  8
MO_001_VIEW_PV
  6
BYBLOCK
100
AcDbLine
 10
-40.0
 20
24.0
 30
0.0
 11
-51.0
 21
24.0
 31
0.0
  0
LINE
  5
1A9
330
169
100
AcDbEntity
  8
MO_001_VIEW_PV
  6
BYBLOCK
100
AcDbLine
 10
-40.0
 20
24.0
 30
0.0
 11
-33.65
 21
24.0
 31
0.0
  0
LINE
  5
1AA
330
169
100
AcDbEntity
  8
MO_001_VIEW_PV
  6
BYBLOCK
100
AcDbLine
 10
-51.0
 20
24.0
 30
0.0
 11
-57.35
 21
24.0
 31
0.0
  0
SOLID
  5
1AB
330
169
100
AcDbEntity
  8
MO_001_VIEW_PV
  6
BYBLOCK
100
AcDbTrace
 10
-36.68174
 20
24.583512
 30
0.0
 11
-39.49199999999999
 21
24.0
 31
0.0
 12
-36.68174
 22
23.416488
 32
0.0
 13
-36.68174
 23
23.416488
 33
0.0
  0
SOLID
  5
1AC
330
169
100
AcDbEntity
  8
MO_001_VIEW_PV
  6
BYBLOCK
100
AcDbTrace
 10
-54.31826
 20
23.416488
 30
0.0
 11
-51.508
 21
24.0
 31
0.0
 12
-54.31826
 22
24.583512
 32
0.0
 13
-54.31826
 23
24.583512
 33
0.0
  0
LINE
  5
1AD
330
169
100
AcDbEntity
  8
MO_001_VIEW_PV
  6
BYBLOCK
100
AcDbLine
 10
-40.0
 20
13.25
 30
0.0
 11
-40.0
 21
26.285999
 31
0.0
  0
LINE
  5
1AE
330
169
100
AcDbEntity
  8
MO_001_VIEW_PV
  6
BYBLOCK
100
AcDbLine
 10
-51.0
 20
1.75
 30
0.0
 11
-51.0
 21
26.285999
 31
0.0
  0
LINE
  5
1AF
330
169
100
AcDbEntity
  8
MO_001_VIEW_PV
  6
BYBLOCK
100
AcDbLine
 10
-51.0
 20
24.0
 30
0.0
 11
-65.69091
 21
24.0
 31
0.0
  0
ENDBLK
  5
1B0
330
169
100
AcDbEntity
  8
0
100
AcDbBlockEnd
  0
BLOCK
  5
1B1
330
16B
100
AcDbEntity
  8
0
100
AcDbBlockBegin
  2
*D3
 70
     1
 10
0.0
 20
0.0
 30
0.0
  3
*D3
  1

  0
TEXT
  5
1B2
330
16B
100
AcDbEntity
  8
MO_001_VIEW_PV
  6
BYBLOCK
100
AcDbText
 10
-68.577699
 20
20.625
 30
0.0
 40
1.5
  1
%%P0.3
100
AcDbText
  0
TEXT
  5
1B3
330
16B
100
AcDbEntity
  8
MO_001_VIEW_PV
  6
BYBLOCK
100
AcDbText
 10
-71.36341299999999
 20
18.75
 30
0.0
 40
3.0
  1
4
100
AcDbText
  0
LINE
  5
1B4
330
16B
100
AcDbEntity
  8
MO_001_VIEW_PV
  6
BYBLOCK
100
AcDbLine
 10
-55.0
 20
18.0
 30
0.0
 11
-51.0
 21
18.0
 31
0.0
  0
LINE
  5
1B5
330
16B
100
AcDbEntity
  8
MO_001_VIEW_PV
  6
BYBLOCK
100
AcDbLine
 10
-55.0
 20
18.0
 30
0.0
 11
-61.35
 21
18.0
 31
0.0
  0
LINE
  5
1B6
330
16B
100
AcDbEntity
  8
MO_001_VIEW_PV
  6
BYBLOCK
100
AcDbLine
 10
-51.0
 20
18.0
 30
0.0
 11
-44.64999999999999
 21
18.0
 31
0.0
  0
SOLID
  5
1B7
330
16B
100
AcDbEntity
  8
MO_001_VIEW_PV
  6
BYBLOCK
100
AcDbTrace
 10
-58.31825999999999
 20
17.416488
 30
0.0
 11
-55.508
 21
18.0
 31
0.0
 12
-58.31825999999999
 22
18.58351199999999
 32
0.0
 13
-58.31825999999999
 23
18.58351199999999
 33
0.0
  0
SOLID
  5
1B8
330
16B
100
AcDbEntity
  8
MO_001_VIEW_PV
  6
BYBLOCK
100
AcDbTrace
 10
-47.68174000000001
 20
18.58351199999999
 30
0.0
 11
-50.49199999999999
 21
18.0
 31
0.0
 12
-47.68174000000001
 22
17.416488
 32
0.0
 13
-47.68174000000001
 23
17.416488
 33
0.0
  0
LINE
  5
1B9
330
16B
100
AcDbEntity
  8
MO_001_VIEW_PV
  6
BYBLOCK
100
AcDbLine
 10
-55.0
 20
1.75
 30
0.0
 11
-55.0
 21
20.285999
 31
0.0
  0
LINE
  5
1BA
330
16B
100
AcDbEntity
  8
MO_001_VIEW_PV
  6
BYBLOCK
100
AcDbLine
 10
-51.0
 20
1.75
 30
0.0
 11
-51.0
 21
20.285999
 31
0.0
  0
LINE
  5
1BB
330
16B
100
AcDbEntity
  8
MO_001_VIEW_PV
  6
BYBLOCK
100
AcDbLine
 10
-72.32769799999999
 20
18.0
 30
0.0
 11
-55.0
 21
18.0
 31
0.0
  0
ENDBLK
  5
1BC
330
16B
100
AcDbEntity
  8
0
100
AcDbBlockEnd
  0
BLOCK
  5
1BD
330
16D
100
AcDbEntity
  8
0
100
AcDbBlockBegin
  2
*D4
 70
     1
 10
0.0
 20
0.0
 30
0.0
  3
*D4
  1

  0
LINE
  5
1BE
330
16D
100
AcDbEntity
  8
MO_001_VIEW_PV
  6
BYBLOCK
100
AcDbLine
 10
-101.5
 20
-21.0
 30
0.0
 11
-78.5
 21
-21.0
 31
0.0
  0
SOLID
  5
1BF
330
16D
100
AcDbEntity
  8
MO_001_VIEW_PV
  6
BYBLOCK
100
AcDbTrace
 10
-98.18174
 20
-20.416488
 30
0.0
 11
-100.992
 21
-21.0
 31
0.0
 12
-98.18174
 22
-21.58351199999999
 32
0.0
 13
-98.18174
 23
-21.58351199999999
 33
0.0
  0
SOLID
  5
1C0
330
16D
100
AcDbEntity
  8
MO_001_VIEW_PV
  6
BYBLOCK
100
AcDbTrace
 10
-81.81825999999999
 20
-21.58351199999999
 30
0.0
 11
-79.008
 21
-21.0
 31
0.0
 12
-81.81825999999999
 22
-20.416488
 32
0.0
 13
-81.81825999999999
 23
-20.416488
 33
0.0
  0
LINE
  5
1C1
330
16D
100
AcDbEntity
  8
MO_001_VIEW_PV
  6
BYBLOCK
100
AcDbLine
 10
-101.5
 20
-13.25
 30
0.0
 11
-101.5
 21
-23.28599899999999
 31
0.0
  0
LINE
  5
1C2
330
16D
100
AcDbEntity
  8
MO_001_VIEW_PV
  6
BYBLOCK
100
AcDbLine
 10
-78.5
 20
-13.25
 30
0.0
 11
-78.5
 21
-23.28599899999999
 31
0.0
  0
TEXT
  5
1C3
330
16D
100
AcDbEntity
  8
MO_001_VIEW_PV
  6
BYBLOCK
100
AcDbText
 10
-89.78571399999999
 20
-18.375
 30
0.0
 40
1.5
  1
%%P0.3
100
AcDbText
  0
TEXT
  5
1C4
330
16D
100
AcDbEntity
  8
MO_001_VIEW_PV
  6
BYBLOCK
100
AcDbText
 10
-95.571429
 20
-20.24999999999999
 30
0.0
 40
3.0
  1
23
100
AcDbText
  0
ENDBLK
  5
1C5
330
16D
100
AcDbEntity
  8
0
100
AcDbBlockEnd
  0
BLOCK
  5
1C6
330
16F
100
AcDbEntity
  8
0
100
AcDbBlockBegin
  2
*D5
 70
     1
 10
0.0
 20
0.0
 30
0.0
  3
*D5
  1

  0
LINE
  5
1C7
330
16F
100
AcDbEntity
  8
MO_001_VIEW_PV
  6
BYBLOCK
100
AcDbLine
 10
-69.0
 20
-13.25
 30
0.0
 11
-69.0
 21
13.25
 31
0.0
  0
SOLID
  5
1C8
330
16F
100
AcDbEntity
  8
MO_001_VIEW_PV
  6
BYBLOCK
100
AcDbTrace
 10
-69.583512
 20
-9.931739999999999
 30
0.0
 11
-69.0
 21
-12.742
 31
0.0
 12
-68.416488
 22
-9.931739999999999
 32
0.0
 13
-68.416488
 23
-9.931739999999999
 33
0.0
  0
SOLID
  5
1C9
330
16F
100
AcDbEntity
  8
MO_001_VIEW_PV
  6
BYBLOCK
100
AcDbTrace
 10
-68.416488
 20
9.931739999999999
 30
0.0
 11
-69.0
 21
12.742
 31
0.0
 12
-69.583512
 22
9.931739999999999
 32
0.0
 13
-69.583512
 23
9.931739999999999
 33
0.0
  0
LINE
  5
1CA
330
16F
100
AcDbEntity
  8
MO_001_VIEW_PV
  6
BYBLOCK
100
AcDbLine
 10
-78.5
 20
-13.25
 30
0.0
 11
-66.71399699999999
 21
-13.25
 31
0.0
  0
LINE
  5
1CB
330
16F
100
AcDbEntity
  8
MO_001_VIEW_PV
  6
BYBLOCK
100
AcDbLine
 10
-78.5
 20
13.25
 30
0.0
 11
-66.71399699999999
 21
13.25
 31
0.0
  0
TEXT
  5
1CC
330
16F
100
AcDbEntity
  8
MO_001_VIEW_PV
  6
BYBLOCK
100
AcDbText
 10
-71.625
 20
3.214285999999999
 30
0.0
 40
1.5
  1
%%P0.5
 50
90.0
100
AcDbText
  0
TEXT
  5
1CD
330
16F
100
AcDbEntity
  8
MO_001_VIEW_PV
  6
BYBLOCK
100
AcDbText
 10
-69.75
 20
-8.571429
 30
0.0
 40
3.0
  1
26.5
 50
90.0
100
AcDbText
  0
ENDBLK
  5
1CE
330
16F
100
AcDbEntity
  8
0
100
AcDbBlockEnd
  0
BLOCK
  5
1CF
330
171
100
AcDbEntity
  8
0
100
AcDbBlockBegin
  2
*D6
 70
     1
 10
0.0
 20
0.0
 30
0.0
  3
*D6
  1

  0
TEXT
  5
1D0
330
171
100
AcDbEntity
  8
MO_001_VIEW_PV
  6
BYBLOCK
100
AcDbText
 10
24.375
 20
17.46428599999999
 30
0.0
 40
1.5
  1
%%P0.03
 50
90.0
100
AcDbText
  0
TEXT
  5
1D1
330
171
100
AcDbEntity
  8
MO_001_VIEW_PV
  6
BYBLOCK
100
AcDbText
 10
26.25
 20
5.678570999999999
 30
0.0
 40
3.0
  1
%%C3.5
 50
90.0
100
AcDbText
  0
LINE
  5
1D2
330
171
100
AcDbEntity
  8
MO_001_VIEW_PV
  6
BYBLOCK
100
AcDbLine
 10
27.0
 20
1.75
 30
0.0
 11
27.0
 21
-1.75
 31
0.0
  0
LINE
  5
1D3
330
171
100
AcDbEntity
  8
MO_001_VIEW_PV
  6
BYBLOCK
100
AcDbLine
 10
27.0
 20
1.75
 30
0.0
 11
27.0
 21
8.099999999999999
 31
0.0
  0
LINE
  5
1D4
330
171
100
AcDbEntity
  8
MO_001_VIEW_PV
  6
BYBLOCK
100
AcDbLine
 10
27.0
 20
-1.75
 30
0.0
 11
27.0
 21
-8.099999999999999
 31
0.0
  0
SOLID
  5
1D5
330
171
100
AcDbEntity
  8
MO_001_VIEW_PV
  6
BYBLOCK
100
AcDbTrace
 10
26.416488
 20
5.068259999999999
 30
0.0
 11
27.0
 21
2.258
 31
0.0
 12
27.58351199999999
 22
5.068259999999999
 32
0.0
 13
27.58351199999999
 23
5.068259999999999
 33
0.0
  0
SOLID
  5
1D6
330
171
100
AcDbEntity
  8
MO_001_VIEW_PV
  6
BYBLOCK
100
AcDbTrace
 10
27.58351199999999
 20
-5.068259999999999
 30
0.0
 11
27.0
 21
-2.258
 31
0.0
 12
26.416488
 22
-5.068259999999999
 32
0.0
 13
26.416488
 23
-5.068259999999999
 33
0.0
  0
LINE
  5
1D7
330
171
100
AcDbEntity
  8
MO_001_VIEW_PV
  6
BYBLOCK
100
AcDbLine
 10
15.0
 20
1.75
 30
0.0
 11
29.285999
 21
1.75
 31
0.0
  0
LINE
  5
1D8
330
171
100
AcDbEntity
  8
MO_001_VIEW_PV
  6
BYBLOCK
100
AcDbLine
 10
15.0
 20
-1.75
 30
0.0
 11
29.285999
 21
-1.75
 31
0.0
  0
LINE
  5
1D9
330
171
100
AcDbEntity
  8
MO_001_VIEW_PV
  6
BYBLOCK
100
AcDbLine
 10
27.0
 20
25.285713
 30
0.0
 11
27.0
 21
1.75
 31
0.0
  0
ENDBLK
  5
1DA
330
171
100
AcDbEntity
  8
0
100
AcDbBlockEnd
  0
BLOCK
  5
1DB
330
173
100
AcDbEntity
  8
0
100
AcDbBlockBegin
  2
*D7
 70
     1
 10
0.0
 20
0.0
 30
0.0
  3
*D7
  1

  0
TEXT
  5
1DC
330
173
100
AcDbEntity
  8
MO_001_VIEW_PV
  6
BYBLOCK
100
AcDbText
 10
-48.75
 20
-24.800387
 30
0.0
 40
3.0
  1
t2
 50
90.0
100
AcDbText
  0
LINE
  5
1DD
330
173
100
AcDbEntity
  8
MO_001_VIEW_PV
  6
BYBLOCK
100
AcDbLine
 10
-48.0
 20
-13.25
 30
0.0
 11
-48.0
 21
-11.25
 31
0.0
  0
LINE
  5
1DE
330
173
100
AcDbEntity
  8
MO_001_VIEW_PV
  6
BYBLOCK
100
AcDbLine
 10
-48.0
 20
-13.25
 30
0.0
 11
-48.0
 21
-19.6
 31
0.0
  0
LINE
  5
1DF
330
173
100
AcDbEntity
  8
MO_001_VIEW_PV
  6
BYBLOCK
100
AcDbLine
 10
-48.0
 20
-11.25
 30
0.0
 11
-48.0
 21
-4.9
 31
0.0
  0
SOLID
  5
1E0
330
173
100
AcDbEntity
  8
MO_001_VIEW_PV
  6
BYBLOCK
100
AcDbTrace
 10
-47.416488
 20
-16.56826
 30
0.0
 11
-48.0
 21
-13.75799999999999
 31
0.0
 12
-48.583512
 22
-16.56826
 32
0.0
 13
-48.583512
 23
-16.56826
 33
0.0
  0
SOLID
  5
1E1
330
173
100
AcDbEntity
  8
MO_001_VIEW_PV
  6
BYBLOCK
100
AcDbTrace
 10
-48.583512
 20
-7.931739999999999
 30
0.0
 11
-48.0
 21
-10.742
 31
0.0
 12
-47.416488
 22
-7.931739999999999
 32
0.0
 13
-47.416488
 23
-7.931739999999999
 33
0.0
  0
LINE
  5
1E2
330
173
100
AcDbEntity
  8
MO_001_VIEW_PV
  6
BYBLOCK
100
AcDbLine
 10
-40.0
 20
-13.25
 30
0.0
 11
-50.28599899999999
 21
-13.25
 31
0.0
  0
LINE
  5
1E3
330
173
100
AcDbEntity
  8
MO_001_VIEW_PV
  6
BYBLOCK
100
AcDbLine
 10
-40.0
 20
-11.25
 30
0.0
 11
-50.28599899999999
 21
-11.25
 31
0.0
  0
LINE
  5
1E4
330
173
100
AcDbEntity
  8
MO_001_VIEW_PV
  6
BYBLOCK
100
AcDbLine
 10
-48.0
 20
-25.764671
 30
0.0
 11
-48.0
 21
-13.25
 31
0.0
  0
ENDBLK
  5
1E5
330
173
100
AcDbEntity
  8
0
100
AcDbBlockEnd
  0
BLOCK
  5
1E6
330
175
100
AcDbEntity
  8
0
100
AcDbBlockBegin
  2
*D8
 70
     1
 10
0.0
 20
0.0
 30
0.0
  3
*D8
  1

  0
TEXT
  5
1E7
330
175
100
AcDbEntity
  8
MO_001_VIEW_PV
  6
BYBLOCK
100
AcDbText
 10
-62.625
 20
-10.17387899999999
 30
0.0
 40
1.5
  1
%%P0.03
 50
90.0
100
AcDbText
  0
TEXT
  5
1E8
330
175
100
AcDbEntity
  8
MO_001_VIEW_PV
  6
BYBLOCK
100
AcDbText
 10
-60.75
 20
-21.95959299999999
 30
0.0
 40
3.0
  1
%%C3.5
 50
90.0
100
AcDbText
  0
LINE
  5
1E9
330
175
100
AcDbEntity
  8
MO_001_VIEW_PV
  6
BYBLOCK
100
AcDbLine
 10
-60.0
 20
-1.75
 30
0.0
 11
-60.0
 21
1.75
 31
0.0
  0
LINE
  5
1EA
330
175
100
AcDbEntity
  8
MO_001_VIEW_PV
  6
BYBLOCK
100
AcDbLine
 10
-60.0
 20
-1.75
 30
0.0
 11
-60.0
 21
-8.099999999999999
 31
0.0
  0
LINE
  5
1EB
330
175
100
AcDbEntity
  8
MO_001_VIEW_PV
  6
BYBLOCK
100
AcDbLine
 10
-60.0
 20
1.75
 30
0.0
 11
-60.0
 21
8.099999999999999
 31
0.0
  0
SOLID
  5
1EC
330
175
100
AcDbEntity
  8
MO_001_VIEW_PV
  6
BYBLOCK
100
AcDbTrace
 10
-59.416488
 20
-5.068259999999999
 30
0.0
 11
-60.0
 21
-2.258
 31
0.0
 12
-60.583512
 22
-5.068259999999999
 32
0.0
 13
-60.583512
 23
-5.068259999999999
 33
0.0
  0
SOLID
  5
1ED
330
175
100
AcDbEntity
  8
MO_001_VIEW_PV
  6
BYBLOCK
100
AcDbTrace
 10
-60.583512
 20
5.068259999999999
 30
0.0
 11
-60.0
 21
2.258
 31
0.0
 12
-59.416488
 22
5.068259999999999
 32
0.0
 13
-59.416488
 23
5.068259999999999
 33
0.0
  0
LINE
  5
1EE
330
175
100
AcDbEntity
  8
MO_001_VIEW_PV
  6
BYBLOCK
100
AcDbLine
 10
-51.0
 20
-1.75
 30
0.0
 11
-62.28599899999999
 21
-1.75
 31
0.0
  0
LINE
  5
1EF
330
175
100
AcDbEntity
  8
MO_001_VIEW_PV
  6
BYBLOCK
100
AcDbLine
 10
-51.0
 20
1.75
 30
0.0
 11
-62.28599899999999
 21
1.75
 31
0.0
  0
LINE
  5
1F0
330
175
100
AcDbEntity
  8
MO_001_VIEW_PV
  6
BYBLOCK
100
AcDbLine
 10
-60.0
 20
-22.92387799999999
 30
0.0
 11
-60.0
 21
-1.75
 31
0.0
  0
ENDBLK
  5
1F1
330
175
100
AcDbEntity
  8
0
100
AcDbBlockEnd
  0
BLOCK
  5
1F2
330
177
100
AcDbEntity
  8
0
100
AcDbBlockBegin
  2
*D9
 70
     1
 10
0.0
 20
0.0
 30
0.0
  3
*D9
  1

  0
TEXT
  5
1F3
330
177
100
AcDbEntity
  8
MO_001_VIEW_PV
  6
BYBLOCK
100
AcDbText
 10
4.928570999999999
 20
-20.24999999999999
 30
0.0
 40
3.0
  1
(0.5)
100
AcDbText
  0
LINE
  5
1F4
330
177
100
AcDbEntity
  8
MO_001_VIEW_PV
  6
BYBLOCK
100
AcDbLine
 10
0.5
 20
-21.0
 30
0.0
 11
0.0
 21
-21.0
 31
0.0
  0
LINE
  5
1F5
330
177
100
AcDbEntity
  8
MO_001_VIEW_PV
  6
BYBLOCK
100
AcDbLine
 10
0.5
 20
-21.0
 30
0.0
 11
6.849999999999999
 21
-21.0
 31
0.0
  0
LINE
  5
1F6
330
177
100
AcDbEntity
  8
MO_001_VIEW_PV
  6
BYBLOCK
100
AcDbLine
 10
0.0
 20
-21.0
 30
0.0
 11
-6.349999999999999
 21
-21.0
 31
0.0
  0
SOLID
  5
1F7
330
177
100
AcDbEntity
  8
MO_001_VIEW_PV
  6
BYBLOCK
100
AcDbTrace
 10
3.81826
 20
-20.416488
 30
0.0
 11
1.008
 21
-21.0
 31
0.0
 12
3.81826
 22
-21.58351199999999
 32
0.0
 13
3.81826
 23
-21.58351199999999
 33
0.0
  0
SOLID
  5
1F8
330
177
100
AcDbEntity
  8
MO_001_VIEW_PV
  6
BYBLOCK
100
AcDbTrace
 10
-3.318259999999999
 20
-21.58351199999999
 30
0.0
 11
-0.508
 21
-21.0
 31
0.0
 12
-3.318259999999999
 22
-20.416488
 32
0.0
 13
-3.318259999999999
 23
-20.416488
 33
0.0
  0
LINE
  5
1F9
330
177
100
AcDbEntity
  8
MO_001_VIEW_PV
  6
BYBLOCK
100
AcDbLine
 10
0.5
 20
-2.939391999999999
 30
0.0
 11
0.5
 21
-23.28599899999999
 31
0.0
  0
LINE
  5
1FA
330
177
100
AcDbEntity
  8
MO_001_VIEW_PV
  6
BYBLOCK
100
AcDbLine
 10
0.0
 20
-12.25
 30
0.0
 11
0.0
 21
-23.28599899999999
 31
0.0
  0
LINE
  5
1FB
330
177
100
AcDbEntity
  8
MO_001_VIEW_PV
  6
BYBLOCK
100
AcDbLine
 10
20.035715
 20
-21.0
 30
0.0
 11
0.5
 21
-21.0
 31
0.0
  0
ENDBLK
  5
1FC
330
177
100
AcDbEntity
  8
0
100
AcDbBlockEnd
  0
BLOCK
  5
1FD
330
179
100
AcDbEntity
  8
0
100
AcDbBlockBegin
  2
*D10
 70
     1
 10
0.0
 20
0.0
 30
0.0
  3
*D10
  1

  0
LINE
  5
1FE
330
179
100
AcDbEntity
  8
MO_001_VIEW_PV
  6
BYBLOCK
100
AcDbLine
 10
-30.0
 20
-30.0
 30
0.0
 11
-10.0
 21
-30.0
 31
0.0
  0
SOLID
  5
1FF
330
179
100
AcDbEntity
  8
MO_001_VIEW_PV
  6
BYBLOCK
100
AcDbTrace
 10
-26.68174
 20
-29.416488
 30
0.0
 11
-29.49199999999999
 21
-30.0
 31
0.0
 12
-26.68174
 22
-30.583512
 32
0.0
 13
-26.68174
 23
-30.583512
 33
0.0
  0
SOLID
  5
200
330
179
100
AcDbEntity
  8
MO_001_VIEW_PV
  6
BYBLOCK
100
AcDbTrace
 10
-13.31826
 20
-30.583512
 30
0.0
 11
-10.50799999999999
 21
-30.0
 31
0.0
 12
-13.31826
 22
-29.416488
 32
0.0
 13
-13.31826
 23
-29.416488
 33
0.0
  0
LINE
  5
201
330
179
100
AcDbEntity
  8
MO_001_VIEW_PV
  6
BYBLOCK
100
AcDbLine
 10
-30.0
 20
-41.5
 30
0.0
 11
-30.0
 21
-27.714001
 31
0.0
  0
LINE
  5
202
330
179
100
AcDbEntity
  8
MO_001_VIEW_PV
  6
BYBLOCK
100
AcDbLine
 10
-10.0
 20
-41.5
 30
0.0
 11
-10.0
 21
-27.714001
 31
0.0
  0
TEXT
  5
203
330
179
100
AcDbEntity
  8
MO_001_VIEW_PV
  6
BYBLOCK
100
AcDbText
 10
-20.785714
 20
-27.375
 30
0.0
 40
1.5
  1
%%P0.2
100
AcDbText
  0
TEXT
  5
204
330
179
100
AcDbEntity
  8
MO_001_VIEW_PV
  6
BYBLOCK
100
AcDbText
 10
-26.571429
 20
-29.25
 30
0.0
 40
3.0
  1
20
100
AcDbText
  0
ENDBLK
  5
205
330
179
100
AcDbEntity
  8
0
100
AcDbBlockEnd
  0
BLOCK
  5
206
330
17B
100
AcDbEntity
  8
0
100
AcDbBlockBegin
  2
*D11
 70
     1
 10
0.0
 20
0.0
 30
0.0
  3
*D11
  1

  0
LINE
  5
207
330
17B
100
AcDbEntity
  8
MO_001_VIEW_PV
  6
BYBLOCK
100
AcDbLine
 10
0.0
 20
-30.0
 30
0.0
 11
-10.0
 21
-30.0
 31
0.0
  0
LINE
  5
208
330
17B
100
AcDbEntity
  8
MO_001_VIEW_PV
  6
BYBLOCK
100
AcDbLine
 10
0.0
 20
-30.0
 30
0.0
 11
6.349999999999999
 21
-30.0
 31
0.0
  0
LINE
  5
209
330
17B
100
AcDbEntity
  8
MO_001_VIEW_PV
  6
BYBLOCK
100
AcDbLine
 10
-10.0
 20
-30.0
 30
0.0
 11
-16.35
 21
-30.0
 31
0.0
  0
SOLID
  5
20A
330
17B
100
AcDbEntity
  8
MO_001_VIEW_PV
  6
BYBLOCK
100
AcDbTrace
 10
3.318259999999999
 20
-29.416488
 30
0.0
 11
0.508
 21
-30.0
 31
0.0
 12
3.318259999999999
 22
-30.583512
 32
0.0
 13
3.318259999999999
 23
-30.583512
 33
0.0
  0
SOLID
  5
20B
330
17B
100
AcDbEntity
  8
MO_001_VIEW_PV
  6
BYBLOCK
100
AcDbTrace
 10
-13.31826
 20
-30.583512
 30
0.0
 11
-10.50799999999999
 21
-30.0
 31
0.0
 12
-13.31826
 22
-29.416488
 32
0.0
 13
-13.31826
 23
-29.416488
 33
0.0
  0
LINE
  5
20C
330
17B
100
AcDbEntity
  8
MO_001_VIEW_PV
  6
BYBLOCK
100
AcDbLine
 10
0.0
 20
-38.5
 30
0.0
 11
0.0
 21
-27.714001
 31
0.0
  0
LINE
  5
20D
330
17B
100
AcDbEntity
  8
MO_001_VIEW_PV
  6
BYBLOCK
100
AcDbLine
 10
-10.0
 20
-41.5
 30
0.0
 11
-10.0
 21
-27.714001
 31
0.0
  0
TEXT
  5
20E
330
17B
100
AcDbEntity
  8
MO_001_VIEW_PV
  6
BYBLOCK
100
AcDbText
 10
9.214285999999999
 20
-27.375
 30
0.0
 40
1.5
  1
%%P0.2
100
AcDbText
  0
TEXT
  5
20F
330
17B
100
AcDbEntity
  8
MO_001_VIEW_PV
  6
BYBLOCK
100
AcDbText
 10
3.428570999999999
 20
-29.25
 30
0.0
 40
3.0
  1
10
100
AcDbText
  0
LINE
  5
210
330
17B
100
AcDbEntity
  8
MO_001_VIEW_PV
  6
BYBLOCK
100
AcDbLine
 10
15.535714
 20
-30.0
 30
0.0
 11
0.0
 21
-30.0
 31
0.0
  0
ENDBLK
  5
211
330
17B
100
AcDbEntity
  8
0
100
AcDbBlockEnd
  0
BLOCK
  5
212
330
17D
100
AcDbEntity
  8
0
100
AcDbBlockBegin
  2
*D12
 70
     1
 10
0.0
 20
0.0
 30
0.0
  3
*D12
  1

  0
LINE
  5
213
330
17D
100
AcDbEntity
  8
MO_001_VIEW_PV
  6
BYBLOCK
100
AcDbLine
 10
21.0
 20
-56.0
 30
0.0
 11
21.0
 21
-44.0
 31
0.0
  0
LINE
  5
214
330
17D
100
AcDbEntity
  8
MO_001_VIEW_PV
  6
BYBLOCK
100
AcDbLine
 10
21.0
 20
-56.0
 30
0.0
 11
21.0
 21
-62.35
 31
0.0
  0
LINE
  5
215
330
17D
100
AcDbEntity
  8
MO_001_VIEW_PV
  6
BYBLOCK
100
AcDbLine
 10
21.0
 20
-44.0
 30
0.0
 11
21.0
 21
-37.65
 31
0.0
  0
SOLID
  5
216
330
17D
100
AcDbEntity
  8
MO_001_VIEW_PV
  6
BYBLOCK
100
AcDbTrace
 10
21.58351199999999
 20
-59.31826
 30
0.0
 11
21.0
 21
-56.508
 31
0.0
 12
20.416488
 22
-59.31826
 32
0.0
 13
20.416488
 23
-59.31826
 33
0.0
  0
SOLID
  5
217
330
17D
100
AcDbEntity
  8
MO_001_VIEW_PV
  6
BYBLOCK
100
AcDbTrace
 10
20.416488
 20
-40.68174
 30
0.0
 11
21.0
 21
-43.49199999999999
 31
0.0
 12
21.58351199999999
 22
-40.68174
 32
0.0
 13
21.58351199999999
 23
-40.68174
 33
0.0
  0
LINE
  5
218
330
17D
100
AcDbEntity
  8
MO_001_VIEW_PV
  6
BYBLOCK
100
AcDbLine
 10
-7.5
 20
-56.0
 30
0.0
 11
23.28599899999999
 21
-56.0
 31
0.0
  0
LINE
  5
219
330
17D
100
AcDbEntity
  8
MO_001_VIEW_PV
  6
BYBLOCK
100
AcDbLine
 10
-7.5
 20
-44.0
 30
0.0
 11
23.28599899999999
 21
-44.0
 31
0.0
  0
TEXT
  5
21A
330
17D
100
AcDbEntity
  8
MO_001_VIEW_PV
  6
BYBLOCK
100
AcDbText
 10
18.375
 20
-34.28582099999999
 30
0.0
 40
1.5
  1
%%P0.2
 50
90.0
100
AcDbText
  0
TEXT
  5
21B
330
17D
100
AcDbEntity
  8
MO_001_VIEW_PV
  6
BYBLOCK
100
AcDbText
 10
20.24999999999999
 20
-40.071535
 30
0.0
 40
3.0
  1
12
 50
90.0
100
AcDbText
  0
LINE
  5
21C
330
17D
100
AcDbEntity
  8
MO_001_VIEW_PV
  6
BYBLOCK
100
AcDbLine
 10
21.0
 20
-44.0
 30
0.0
 11
21.0
 21
-27.964392
 31
0.0
  0
ENDBLK
  5
21D
330
17D
100
AcDbEntity
  8
0
100
AcDbBlockEnd
  0
BLOCK
  5
21E
330
17F
100
AcDbEntity
  8
0
100
AcDbBlockBegin
  2
*D13
 70
     1
 10
0.0
 20
0.0
 30
0.0
  3
*D13
  1

  0
LINE
  5
21F
330
17F
100
AcDbEntity
  8
MO_001_VIEW_PV
  6
BYBLOCK
100
AcDbLine
 10
-22.33287
 20
-91.5
 30
0.0
 11
-22.33287
 21
-61.5
 31
0.0
  0
SOLID
  5
220
330
17F
100
AcDbEntity
  8
MO_001_VIEW_PV
  6
BYBLOCK
100
AcDbTrace
 10
-22.916382
 20
-88.18174
 30
0.0
 11
-22.33287
 21
-90.99200000000001
 31
0.0
 12
-21.74935899999999
 22
-88.18174
 32
0.0
 13
-21.74935899999999
 23
-88.18174
 33
0.0
  0
SOLID
  5
221
330
17F
100
AcDbEntity
  8
MO_001_VIEW_PV
  6
BYBLOCK
100
AcDbTrace
 10
-21.74935899999999
 20
-64.81825999999999
 30
0.0
 11
-22.33287
 21
-62.008
 31
0.0
 12
-22.916382
 22
-64.81825999999999
 32
0.0
 13
-22.916382
 23
-64.81825999999999
 33
0.0
  0
LINE
  5
222
330
17F
100
AcDbEntity
  8
MO_001_NOSHOW
  6
BYBLOCK
100
AcDbLine
 10
-6.000458
 20
-91.5
 30
0.0
 11
-24.61887
 21
-91.5
 31
0.0
  0
LINE
  5
223
330
17F
100
AcDbEntity
  8
MO_001_NOSHOW
  6
BYBLOCK
100
AcDbLine
 10
-3.0
 20
-61.5
 30
0.0
 11
-24.61887
 21
-61.5
 31
0.0
  0
TEXT
  5
224
330
17F
100
AcDbEntity
  8
MO_001_VIEW_PV
  6
BYBLOCK
100
AcDbText
 10
-23.082871
 20
-86.57142900000001
 30
0.0
 40
3.0
  1
長さ250以上
 50
90.0
100
AcDbText
  0
ENDBLK
  5
225
330
17F
100
AcDbEntity
  8
0
100
AcDbBlockEnd
  0
ENDSEC
  0
SECTION
  2
ENTITIES
  0
TEXT
  5
4B
330
1E
100
AcDbEntity
  8
OVERLAY_MAP
  6
C_SOLID_L
100
AcDbText
 10
0.0
 20
6.349999999999999
 30
0.0
 40
4.1672
  1
Model Overlay Name
100
AcDbText
  0
TEXT
  5
4C
330
1E
100
AcDbEntity
  8
OVERLAY_MAP
  6
C_SOLID_L
100
AcDbText
 10
126.999998
 20
0.0
 30
0.0
 40
4.1672
  1
Number
100
AcDbText
  0
TEXT
  5
4D
330
1E
100
AcDbEntity
  8
OVERLAY_MAP
  6
C_SOLID_L
100
AcDbText
 10
177.7999969999999
 20
0.0
 30
0.0
 40
4.1672
  1
File Text
100
AcDbText
  0
TEXT
  5
4E
330
1E
100
AcDbEntity
  8
OVERLAY_MAP
  6
C_SOLID_L
100
AcDbText
 10
0.0
 20
-6.349999999999999
 30
0.0
 40
4.1672
  1
sh2lc1140 
100
AcDbText
  0
TEXT
  5
4F
330
1E
100
AcDbEntity
  8
OVERLAY_MAP
  6
C_SOLID_L
100
AcDbText
 10
126.999998
 20
-6.349999999999999
 30
0.0
 40
4.1672
  1
001
100
AcDbText
  0
TEXT
  5
50
330
1E
100
AcDbEntity
  8
OVERLAY_MAP
  6
C_SOLID_L
100
AcDbText
 10
177.7999969999999
 20
-6.349999999999999
 30
0.0
 40
4.1672
  1
                                                                   00118
100
AcDbText
  0
POINT
  5
51
330
1E
100
AcDbEntity
  8
MO_001_NOSHOW
  6
C_SOLID_M
100
AcDbPoint
 10
-106.4999999999999
 20
0.0
 30
0.0
  0
LINE
  5
52
330
1E
100
AcDbEntity
  8
MO_001_VIEW_PV
  6
C_CENTER_L
100
AcDbLine
 10
-53.146564
 20
0.0
 30
0.0
 11
17.694078
 21
0.0
 31
0.0
  0
LINE
  5
53
330
1E
100
AcDbEntity
  8
MO_001_VIEW_PV
  6
C_SOLID_M
100
AcDbLine
 10
-40.0
 20
-11.25
 30
0.0
 11
-2.299999
 21
-11.25
 31
0.0
  0
LINE
  5
54
330
1E
100
AcDbEntity
  8
MO_001_VIEW_PV
  6
C_SOLID_M
100
AcDbLine
 10
-40.0
 20
-13.25
 30
0.0
 11
-1.0
 21
-13.25
 31
0.0
  0
LINE
  5
55
330
1E
100
AcDbEntity
  8
MO_001_VIEW_PV
  6
C_SOLID_M
100
AcDbLine
 10
-40.0
 20
-11.25
 30
0.0
 11
-40.0
 21
-13.25
 31
0.0
  0
ARC
  5
56
330
1E
100
AcDbEntity
  8
MO_001_VIEW_PV
  6
C_SOLID_M
100
AcDbCircle
 10
-1.0
 20
-12.25
 30
0.0
 40
1.0
100
AcDbArc
 50
269.999991
 51
0.000003
  0
LINE
  5
57
330
1E
100
AcDbEntity
  8
MO_001_VIEW_PV
  6
C_SOLID_M
100
AcDbLine
 10
0.0
 20
-10.25
 30
0.0
 11
-2.0
 21
-10.25
 31
0.0
  0
LINE
  5
58
330
1E
100
AcDbEntity
  8
MO_001_VIEW_PV
  6
C_SOLID_M
100
AcDbLine
 10
-3.0
 20
-13.25
 30
0.0
 11
-3.0
 21
-11.25
 31
0.0
  0
LINE
  5
59
330
1E
100
AcDbEntity
  8
MO_001_VIEW_PV
  6
C_SOLID_M
100
AcDbLine
 10
0.0
 20
-12.25
 30
0.0
 11
0.0
 21
12.25
 31
0.0
  0
LINE
  5
5A
330
1E
100
AcDbEntity
  8
MO_001_VIEW_PV
  6
C_SOLID_M
100
AcDbLine
 10
-40.0
 20
11.25
 30
0.0
 11
-2.299999
 21
11.25
 31
0.0
  0
LINE
  5
5B
330
1E
100
AcDbEntity
  8
MO_001_VIEW_PV
  6
C_SOLID_M
100
AcDbLine
 10
-40.0
 20
13.25
 30
0.0
 11
-1.0
 21
13.25
 31
0.0
  0
LINE
  5
5C
330
1E
100
AcDbEntity
  8
MO_001_VIEW_PV
  6
C_SOLID_M
100
AcDbLine
 10
-40.0
 20
11.25
 30
0.0
 11
-40.0
 21
13.25
 31
0.0
  0
ARC
  5
5D
330
1E
100
AcDbEntity
  8
MO_001_VIEW_PV
  6
C_SOLID_M
100
AcDbCircle
 10
-1.0
 20
12.25
 30
0.0
 40
1.0
100
AcDbArc
 50
0.0
 51
90.000002
  0
LINE
  5
5E
330
1E
100
AcDbEntity
  8
MO_001_VIEW_PV
  6
C_SOLID_M
100
AcDbLine
 10
0.0
 20
10.25
 30
0.0
 11
-2.0
 21
10.25
 31
0.0
  0
LINE
  5
5F
330
1E
100
AcDbEntity
  8
MO_001_VIEW_PV
  6
C_SOLID_M
100
AcDbLine
 10
-3.0
 20
13.25
 30
0.0
 11
-3.0
 21
11.25
 31
0.0
  0
LINE
  5
60
330
1E
100
AcDbEntity
  8
MO_001_VIEW_PV
  6
C_CENTER_L
100
AcDbLine
 10
-53.146564
 20
-50.0
 30
0.0
 11
16.00998099999999
 21
-50.0
 31
0.0
  0
LINE
  5
61
330
1E
100
AcDbEntity
  8
MO_001_VIEW_PV
  6
C_SOLID_M
100
AcDbLine
 10
0.0
 20
-50.0
 30
0.0
 11
0.0
 21
-61.5
 31
0.0
  0
LINE
  5
62
330
1E
100
AcDbEntity
  8
MO_001_VIEW_PV
  6
C_SOLID_M
100
AcDbLine
 10
-2.0
 20
-61.5
 30
0.0
 11
0.0
 21
-61.5
 31
0.0
  0
LINE
  5
63
330
1E
100
AcDbEntity
  8
MO_001_VIEW_PV
  6
C_SOLID_M
100
AcDbLine
 10
-3.0
 20
-61.0
 30
0.0
 11
-3.0
 21
-61.5
 31
0.0
  0
LINE
  5
64
330
1E
100
AcDbEntity
  8
MO_001_VIEW_PV
  6
C_SOLID_M
100
AcDbLine
 10
-3.0
 20
-61.0
 30
0.0
 11
0.0
 21
-61.0
 31
0.0
  0
LINE
  5
65
330
1E
100
AcDbEntity
  8
MO_001_VIEW_PV
  6
C_SOLID_M
100
AcDbLine
 10
-40.0
 20
-61.5
 30
0.0
 11
-3.0
 21
-61.5
 31
0.0
  0
LINE
  5
66
330
1E
100
AcDbEntity
  8
MO_001_VIEW_PV
  6
C_SOLID_M
100
AcDbLine
 10
-2.0
 20
-61.5
 30
0.0
 11
-2.0
 21
-61.0
 31
0.0
  0
LINE
  5
67
330
1E
100
AcDbEntity
  8
MO_001_VIEW_PV
  6
C_SOLID_M
100
AcDbLine
 10
-40.0
 20
-55.0
 30
0.0
 11
-40.0
 21
-61.5
 31
0.0
  0
LINE
  5
68
330
1E
100
AcDbEntity
  8
MO_001_VIEW_PV
  6
C_SOLID_M
100
AcDbLine
 10
-40.0
 20
-55.0
 30
0.0
 11
-36.69999699999999
 21
-55.0
 31
0.0
  0
LINE
  5
69
330
1E
100
AcDbEntity
  8
MO_001_VIEW_PV
  6
C_SOLID_M
100
AcDbLine
 10
-36.700028
 20
-55.000015
 30
0.0
 11
-37.000027
 21
-54.000016
 31
0.0
  0
LINE
  5
6A
330
1E
100
AcDbEntity
  8
MO_001_VIEW_PV
  6
C_SOLID_M
100
AcDbLine
 10
-37.0
 20
-55.0
 30
0.0
 11
-37.0
 21
-45.0
 31
0.0
  0
LINE
  5
6B
330
1E
100
AcDbEntity
  8
MO_001_VIEW_PV
  6
C_SOLID_M
100
AcDbLine
 10
0.0
 20
-50.0
 30
0.0
 11
0.0
 21
-38.5
 31
0.0
  0
LINE
  5
6C
330
1E
100
AcDbEntity
  8
MO_001_VIEW_PV
  6
C_SOLID_M
100
AcDbLine
 10
-2.0
 20
-38.5
 30
0.0
 11
0.0
 21
-38.5
 31
0.0
  0
LINE
  5
6D
330
1E
100
AcDbEntity
  8
MO_001_VIEW_PV
  6
C_SOLID_M
100
AcDbLine
 10
-3.0
 20
-39.0
 30
0.0
 11
-3.0
 21
-38.5
 31
0.0
  0
LINE
  5
6E
330
1E
100
AcDbEntity
  8
MO_001_VIEW_PV
  6
C_SOLID_M
100
AcDbLine
 10
-3.0
 20
-39.0
 30
0.0
 11
0.0
 21
-39.0
 31
0.0
  0
LINE
  5
6F
330
1E
100
AcDbEntity
  8
MO_001_VIEW_PV
  6
C_SOLID_M
100
AcDbLine
 10
-40.0
 20
-38.5
 30
0.0
 11
-3.0
 21
-38.5
 31
0.0
  0
LINE
  5
70
330
1E
100
AcDbEntity
  8
MO_001_VIEW_PV
  6
C_SOLID_M
100
AcDbLine
 10
-2.0
 20
-38.5
 30
0.0
 11
-2.0
 21
-39.0
 31
0.0
  0
LINE
  5
71
330
1E
100
AcDbEntity
  8
MO_001_VIEW_PV
  6
C_SOLID_M
100
AcDbLine
 10
-40.0
 20
-45.0
 30
0.0
 11
-40.0
 21
-38.5
 31
0.0
  0
LINE
  5
72
330
1E
100
AcDbEntity
  8
MO_001_VIEW_PV
  6
C_SOLID_M
100
AcDbLine
 10
-40.0
 20
-45.0
 30
0.0
 11
-36.69999699999999
 21
-45.0
 31
0.0
  0
LINE
  5
73
330
1E
100
AcDbEntity
  8
MO_001_VIEW_PV
  6
C_SOLID_M
100
AcDbLine
 10
-36.700015
 20
-45.000036
 30
0.0
 11
-37.000014
 21
-46.00003499999999
 31
0.0
  0
LINE
  5
74
330
1E
100
AcDbEntity
  8
MO_001_VIEW_PV
  6
C_CENTER_L
100
AcDbLine
 10
-30.0
 20
-13.953289
 30
0.0
 11
-30.0
 21
-10.618395
 31
0.0
  0
LINE
  5
75
330
1E
100
AcDbEntity
  8
MO_001_VIEW_PV
  6
C_SOLID_L
100
AcDbLine
 10
-31.5
 20
-12.05969999999999
 30
0.0
 11
-31.5
 21
-11.695766
 31
0.0
  0
LINE
  5
76
330
1E
100
AcDbEntity
  8
MO_001_VIEW_PV
  6
C_SOLID_L
100
AcDbLine
 10
-31.5
 20
-12.855423
 30
0.0
 11
-31.5
 21
-12.491488
 31
0.0
  0
LINE
  5
77
330
1E
100
AcDbEntity
  8
MO_001_VIEW_PV
  6
C_SOLID_M
100
AcDbLine
 10
-37.0
 20
-11.25
 30
0.0
 11
-37.0
 21
11.25
 31
0.0
  0
LINE
  5
78
330
1E
100
AcDbEntity
  8
MO_001_VIEW_PV
  6
C_SOLID_M
100
AcDbLine
 10
-95.0
 20
-11.25
 30
0.0
 11
-95.0
 21
-13.25
 31
0.0
  0
LINE
  5
79
330
1E
100
AcDbEntity
  8
MO_001_VIEW_PV
  6
C_SOLID_M
100
AcDbLine
 10
-101.5
 20
-13.25
 30
0.0
 11
-78.5
 21
-13.25
 31
0.0
  0
LINE
  5
7A
330
1E
100
AcDbEntity
  8
MO_001_VIEW_PV
  6
C_SOLID_M
100
AcDbLine
 10
-85.0
 20
-11.25
 30
0.0
 11
-85.0
 21
-13.25
 31
0.0
  0
LINE
  5
7B
330
1E
100
AcDbEntity
  8
MO_001_VIEW_PV
  6
C_SOLID_M
100
AcDbLine
 10
-101.5
 20
-13.25
 30
0.0
 11
-101.5
 21
13.25
 31
0.0
  0
LINE
  5
7C
330
1E
100
AcDbEntity
  8
MO_001_VIEW_PV
  6
C_SOLID_M
100
AcDbLine
 10
-95.0
 20
11.25
 30
0.0
 11
-95.0
 21
13.25
 31
0.0
  0
LINE
  5
7D
330
1E
100
AcDbEntity
  8
MO_001_VIEW_PV
  6
C_SOLID_M
100
AcDbLine
 10
-78.5
 20
-13.25
 30
0.0
 11
-78.5
 21
13.25
 31
0.0
  0
LINE
  5
7E
330
1E
100
AcDbEntity
  8
MO_001_VIEW_PV
  6
C_SOLID_M
100
AcDbLine
 10
-101.5
 20
13.25
 30
0.0
 11
-78.5
 21
13.25
 31
0.0
  0
LINE
  5
7F
330
1E
100
AcDbEntity
  8
MO_001_VIEW_PV
  6
C_SOLID_M
100
AcDbLine
 10
-85.0
 20
11.25
 30
0.0
 11
-85.0
 21
13.25
 31
0.0
  0
LINE
  5
80
330
1E
100
AcDbEntity
  8
MO_001_VIEW_PV
  6
C_CENTER_L
100
AcDbLine
 10
-90.0
 20
15.0
 30
0.0
 11
-90.0
 21
-15.0
 31
0.0
  0
LINE
  5
81
330
1E
100
AcDbEntity
  8
MO_001_VIEW_PV
  6
C_CENTER_L
100
AcDbLine
 10
-105.0
 20
0.0
 30
0.0
 11
-75.0
 21
0.0
 31
0.0
  0
ARC
  5
82
330
1E
100
AcDbEntity
  8
MO_001_VIEW_PV
  6
C_SOLID_M
100
AcDbCircle
 10
-2.299999
 20
10.950001
 30
0.0
 40
0.3
100
AcDbArc
 50
0.0
 51
89.99998900000001
  0
ARC
  5
83
330
1E
100
AcDbEntity
  8
MO_001_VIEW_PV
  6
C_SOLID_M
100
AcDbCircle
 10
-2.299999
 20
-10.950001
 30
0.0
 40
0.3
100
AcDbArc
 50
269.999991
 51
0.000003
  0
LINE
  5
84
330
1E
100
AcDbEntity
  8
MO_001_VIEW_PV
  6
C_CENTER_L
100
AcDbLine
 10
-10.0
 20
-53.5
 30
0.0
 11
-10.0
 21
-58.5
 31
0.0
  0
LINE
  5
85
330
1E
100
AcDbEntity
  8
MO_001_VIEW_PV
  6
C_CENTER_L
100
AcDbLine
 10
-12.5
 20
-56.0
 30
0.0
 11
-7.5
 21
-56.0
 31
0.0
  0
CIRCLE
  5
86
330
1E
100
AcDbEntity
  8
MO_001_VIEW_PV
  6
C_SOLID_L
100
AcDbCircle
 10
-10.0
 20
-56.0
 30
0.0
 40
1.5
  0
CIRCLE
  5
87
330
1E
100
AcDbEntity
  8
MO_001_VIEW_PV
  6
C_SOLID_M
100
AcDbCircle
 10
-10.0
 20
-56.0
 30
0.0
 40
1.2295
  0
LINE
  5
88
330
1E
100
AcDbEntity
  8
MO_001_VIEW_PV
  6
C_CENTER_L
100
AcDbLine
 10
-30.0
 20
-53.5
 30
0.0
 11
-30.0
 21
-58.5
 31
0.0
  0
LINE
  5
89
330
1E
100
AcDbEntity
  8
MO_001_VIEW_PV
  6
C_CENTER_L
100
AcDbLine
 10
-32.5
 20
-56.0
 30
0.0
 11
-27.5
 21
-56.0
 31
0.0
  0
CIRCLE
  5
8A
330
1E
100
AcDbEntity
  8
MO_001_VIEW_PV
  6
C_SOLID_L
100
AcDbCircle
 10
-30.0
 20
-56.0
 30
0.0
 40
1.5
  0
CIRCLE
  5
8B
330
1E
100
AcDbEntity
  8
MO_001_VIEW_PV
  6
C_SOLID_M
100
AcDbCircle
 10
-30.0
 20
-56.0
 30
0.0
 40
1.2295
  0
LINE
  5
8C
330
1E
100
AcDbEntity
  8
MO_001_VIEW_PV
  6
C_CENTER_L
100
AcDbLine
 10
-10.0
 20
-46.5
 30
0.0
 11
-10.0
 21
-41.5
 31
0.0
  0
LINE
  5
8D
330
1E
100
AcDbEntity
  8
MO_001_VIEW_PV
  6
C_CENTER_L
100
AcDbLine
 10
-12.5
 20
-44.0
 30
0.0
 11
-7.5
 21
-44.0
 31
0.0
  0
CIRCLE
  5
8E
330
1E
100
AcDbEntity
  8
MO_001_VIEW_PV
  6
C_SOLID_L
100
AcDbCircle
 10
-10.0
 20
-44.0
 30
0.0
 40
1.5
  0
CIRCLE
  5
8F
330
1E
100
AcDbEntity
  8
MO_001_VIEW_PV
  6
C_SOLID_M
100
AcDbCircle
 10
-10.0
 20
-44.0
 30
0.0
 40
1.2295
  0
LINE
  5
90
330
1E
100
AcDbEntity
  8
MO_001_VIEW_PV
  6
C_CENTER_L
100
AcDbLine
 10
-30.0
 20
-46.5
 30
0.0
 11
-30.0
 21
-41.5
 31
0.0
  0
LINE
  5
91
330
1E
100
AcDbEntity
  8
MO_001_VIEW_PV
  6
C_CENTER_L
100
AcDbLine
 10
-32.5
 20
-44.0
 30
0.0
 11
-27.5
 21
-44.0
 31
0.0
  0
CIRCLE
  5
92
330
1E
100
AcDbEntity
  8
MO_001_VIEW_PV
  6
C_SOLID_L
100
AcDbCircle
 10
-30.0
 20
-44.0
 30
0.0
 40
1.5
  0
CIRCLE
  5
93
330
1E
100
AcDbEntity
  8
MO_001_VIEW_PV
  6
C_SOLID_M
100
AcDbCircle
 10
-30.0
 20
-44.0
 30
0.0
 40
1.2295
  0
LINE
  5
94
330
1E
100
AcDbEntity
  8
MO_001_VIEW_PV
  6
C_SOLID_L
100
AcDbLine
 10
-31.2295
 20
-12.05969999999999
 30
0.0
 11
-31.2295
 21
-11.762938
 31
0.0
  0
LINE
  5
95
330
1E
100
AcDbEntity
  8
MO_001_VIEW_PV
  6
C_SOLID_L
100
AcDbLine
 10
-31.2295
 20
-12.855423
 30
0.0
 11
-31.2295
 21
-12.491488
 31
0.0
  0
LINE
  5
96
330
1E
100
AcDbEntity
  8
MO_001_VIEW_PV
  6
C_SOLID_L
100
AcDbLine
 10
-28.7705
 20
-12.05969999999999
 30
0.0
 11
-28.7705
 21
-11.695766
 31
0.0
  0
LINE
  5
97
330
1E
100
AcDbEntity
  8
MO_001_VIEW_PV
  6
C_SOLID_L
100
AcDbLine
 10
-28.7705
 20
-12.855423
 30
0.0
 11
-28.7705
 21
-12.491488
 31
0.0
  0
LINE
  5
98
330
1E
100
AcDbEntity
  8
MO_001_VIEW_PV
  6
C_SOLID_L
100
AcDbLine
 10
-28.5
 20
-12.05969999999999
 30
0.0
 11
-28.5
 21
-11.695766
 31
0.0
  0
LINE
  5
99
330
1E
100
AcDbEntity
  8
MO_001_VIEW_PV
  6
C_SOLID_L
100
AcDbLine
 10
-28.5
 20
-12.855423
 30
0.0
 11
-28.5
 21
-12.491488
 31
0.0
  0
LINE
  5
9A
330
1E
100
AcDbEntity
  8
MO_001_VIEW_PV
  6
C_CENTER_L
100
AcDbLine
 10
-8.0
 20
-13.953289
 30
0.0
 11
-8.0
 21
-10.618395
 31
0.0
  0
LINE
  5
9B
330
1E
100
AcDbEntity
  8
MO_001_VIEW_PV
  6
C_SOLID_L
100
AcDbLine
 10
-9.5
 20
-12.05969999999999
 30
0.0
 11
-9.5
 21
-11.695766
 31
0.0
  0
LINE
  5
9C
330
1E
100
AcDbEntity
  8
MO_001_VIEW_PV
  6
C_SOLID_L
100
AcDbLine
 10
-9.5
 20
-12.855423
 30
0.0
 11
-9.5
 21
-12.491488
 31
0.0
  0
LINE
  5
9D
330
1E
100
AcDbEntity
  8
MO_001_VIEW_PV
  6
C_SOLID_L
100
AcDbLine
 10
-9.229499999999999
 20
-12.05969999999999
 30
0.0
 11
-9.229499999999999
 21
-11.695766
 31
0.0
  0
LINE
  5
9E
330
1E
100
AcDbEntity
  8
MO_001_VIEW_PV
  6
C_SOLID_L
100
AcDbLine
 10
-9.229499999999999
 20
-12.855423
 30
0.0
 11
-9.229499999999999
 21
-12.491488
 31
0.0
  0
LINE
  5
9F
330
1E
100
AcDbEntity
  8
MO_001_VIEW_PV
  6
C_SOLID_L
100
AcDbLine
 10
-6.7705
 20
-12.05969999999999
 30
0.0
 11
-6.7705
 21
-11.695766
 31
0.0
  0
LINE
  5
A0
330
1E
100
AcDbEntity
  8
MO_001_VIEW_PV
  6
C_SOLID_L
100
AcDbLine
 10
-6.7705
 20
-12.855423
 30
0.0
 11
-6.7705
 21
-12.491488
 31
0.0
  0
LINE
  5
A1
330
1E
100
AcDbEntity
  8
MO_001_VIEW_PV
  6
C_SOLID_L
100
AcDbLine
 10
-6.5
 20
-12.05969999999999
 30
0.0
 11
-6.5
 21
-11.695766
 31
0.0
  0
LINE
  5
A2
330
1E
100
AcDbEntity
  8
MO_001_VIEW_PV
  6
C_SOLID_L
100
AcDbLine
 10
-6.5
 20
-12.855423
 30
0.0
 11
-6.5
 21
-12.491488
 31
0.0
  0
LINE
  5
A3
330
1E
100
AcDbEntity
  8
MO_001_VIEW_PV
  6
C_SOLID_M
100
AcDbLine
 10
-85.15000200000001
 20
11.25
 30
0.0
 11
-78.5
 21
11.25
 31
0.0
  0
LINE
  5
A4
330
1E
100
AcDbEntity
  8
MO_001_VIEW_PV
  6
C_SOLID_M
100
AcDbLine
 10
-85.0
 20
13.15
 30
0.0
 11
-95.0
 21
13.15
 31
0.0
  0
LINE
  5
A5
330
1E
100
AcDbEntity
  8
MO_001_VIEW_PV
  6
C_SOLID_M
100
AcDbLine
 10
-94.849998
 20
11.25
 30
0.0
 11
-101.5
 21
11.25
 31
0.0
  0
CIRCLE
  5
A6
330
1E
100
AcDbEntity
  8
MO_001_VIEW_PV
  6
C_SOLID_M
100
AcDbCircle
 10
-90.0
 20
0.0
 30
0.0
 40
4.5
  0
LINE
  5
A7
330
1E
100
AcDbEntity
  8
MO_001_VIEW_PV
  6
C_SOLID_M
100
AcDbLine
 10
-94.84997599999999
 20
11.249998
 30
0.0
 11
-94.999976
 21
13.149997
 31
0.0
  0
LINE
  5
A8
330
1E
100
AcDbEntity
  8
MO_001_VIEW_PV
  6
C_SOLID_M
100
AcDbLine
 10
-84.99998000000001
 20
13.149996
 30
0.0
 11
-85.14998
 21
11.249997
 31
0.0
  0
LINE
  5
A9
330
1E
100
AcDbEntity
  8
MO_001_VIEW_PV
  6
C_SOLID_M
100
AcDbLine
 10
-94.849998
 20
-11.25
 30
0.0
 11
-101.5
 21
-11.25
 31
0.0
  0
LINE
  5
AA
330
1E
100
AcDbEntity
  8
MO_001_VIEW_PV
  6
C_SOLID_M
100
AcDbLine
 10
-94.84997599999999
 20
-11.249998
 30
0.0
 11
-94.999976
 21
-13.149995
 31
0.0
  0
LINE
  5
AB
330
1E
100
AcDbEntity
  8
MO_001_VIEW_PV
  6
C_SOLID_M
100
AcDbLine
 10
-84.99998000000001
 20
-13.149995
 30
0.0
 11
-85.14998
 21
-11.249996
 31
0.0
  0
LINE
  5
AC
330
1E
100
AcDbEntity
  8
MO_001_VIEW_PV
  6
C_SOLID_M
100
AcDbLine
 10
-85.0
 20
-13.15
 30
0.0
 11
-95.0
 21
-13.15
 31
0.0
  0
LINE
  5
AD
330
1E
100
AcDbEntity
  8
MO_001_VIEW_PV
  6
C_SOLID_M
100
AcDbLine
 10
-85.15000200000001
 20
-11.25
 30
0.0
 11
-78.5
 21
-11.25
 31
0.0
  0
LINE
  5
AE
330
1E
100
AcDbEntity
  8
MO_001_VIEW_PV
  6
C_SOLID_M
100
AcDbLine
 10
-39.0
 20
-55.0
 30
0.0
 11
-39.0
 21
-45.0
 31
0.0
  0
LINE
  5
AF
330
1E
100
AcDbEntity
  8
MO_001_VIEW_PV
  6
C_SOLID_M
100
AcDbLine
 10
-39.0
 20
-11.25
 30
0.0
 11
-39.0
 21
11.25
 31
0.0
  0
LINE
  5
B0
330
1E
100
AcDbEntity
  8
MO_001_VIEW_PV
  6
C_SOLID_M
100
AcDbLine
 10
0.5
 20
-54.400002
 30
0.0
 11
0.5
 21
-52.099998
 31
0.0
  0
LINE
  5
B1
330
1E
100
AcDbEntity
  8
MO_001_VIEW_PV
  6
C_SOLID_M
100
AcDbLine
 10
0.4
 20
-54.5
 30
0.0
 11
0.0
 21
-54.5
 31
0.0
  0
LINE
  5
B2
330
1E
100
AcDbEntity
  8
MO_001_VIEW_PV
  6
C_SOLID_M
100
AcDbLine
 10
0.5
 20
-45.59999799999999
 30
0.0
 11
0.5
 21
-52.939392
 31
0.0
  0
LINE
  5
B3
330
1E
100
AcDbEntity
  8
MO_001_VIEW_PV
  6
C_SOLID_M
100
AcDbLine
 10
0.4
 20
-45.49999999999999
 30
0.0
 11
0.0
 21
-45.49999999999999
 31
0.0
  0
LINE
  5
B4
330
1E
100
AcDbEntity
  8
MO_001_VIEW_PV
  6
C_SOLID_M
100
AcDbLine
 10
0.500005
 20
-45.599994
 30
0.0
 11
0.400004
 21
-45.49999299999999
 31
0.0
  0
LINE
  5
B5
330
1E
100
AcDbEntity
  8
MO_001_VIEW_PV
  6
C_SOLID_M
100
AcDbLine
 10
0.499992
 20
-54.399992
 30
0.0
 11
0.399994
 21
-54.49999
 31
0.0
  0
LINE
  5
B6
330
1E
100
AcDbEntity
  8
MO_001_VIEW_PV
  6
C_SOLID_M
100
AcDbLine
 10
-39.400002
 20
-45.49999999999999
 30
0.0
 11
-39.0
 21
-45.49999999999999
 31
0.0
  0
LINE
  5
B7
330
1E
100
AcDbEntity
  8
MO_001_VIEW_PV
  6
C_SOLID_M
100
AcDbLine
 10
-39.5
 20
-54.400002
 30
0.0
 11
-39.5
 21
-45.59999799999999
 31
0.0
  0
LINE
  5
B8
330
1E
100
AcDbEntity
  8
MO_001_VIEW_PV
  6
C_SOLID_M
100
AcDbLine
 10
-39.400002
 20
-54.5
 30
0.0
 11
-39.0
 21
-54.5
 31
0.0
  0
LINE
  5
B9
330
1E
100
AcDbEntity
  8
MO_001_VIEW_PV
  6
C_SOLID_M
100
AcDbLine
 10
-39.499997
 20
-54.399993
 30
0.0
 11
-39.399996
 21
-54.49999399999999
 31
0.0
  0
LINE
  5
BA
330
1E
100
AcDbEntity
  8
MO_001_VIEW_PV
  6
C_SOLID_M
100
AcDbLine
 10
-39.500003
 20
-45.600003
 30
0.0
 11
-39.39999999999999
 21
-45.499999
 31
0.0
  0
LINE
  5
BB
330
1E
100
AcDbEntity
  8
MO_001_VIEW_PV
  6
C_SOLID_M
100
AcDbLine
 10
0.5
 20
-48.25
 30
0.0
 11
15.0
 21
-48.25
 31
0.0
  0
LINE
  5
BC
330
1E
100
AcDbEntity
  8
MO_001_VIEW_PV
  6
C_SOLID_M
100
AcDbLine
 10
0.5
 20
-51.75
 30
0.0
 11
15.0
 21
-51.75
 31
0.0
  0
LINE
  5
BD
330
1E
100
AcDbEntity
  8
MO_001_VIEW_PV
  6
C_SOLID_M
100
AcDbLine
 10
-51.0
 20
-48.25
 30
0.0
 11
-51.0
 21
-51.75
 31
0.0
  0
LINE
  5
BE
330
1E
100
AcDbEntity
  8
MO_001_VIEW_PV
  6
C_SOLID_M
100
AcDbLine
 10
15.0
 20
-48.25
 30
0.0
 11
15.0
 21
-51.75
 31
0.0
  0
LINE
  5
BF
330
1E
100
AcDbEntity
  8
MO_001_VIEW_PV
  6
C_SOLID_M
100
AcDbLine
 10
-51.0
 20
-48.25
 30
0.0
 11
-39.5
 21
-48.25
 31
0.0
  0
LINE
  5
C0
330
1E
100
AcDbEntity
  8
MO_001_VIEW_PV
  6
C_SOLID_M
100
AcDbLine
 10
-51.0
 20
-51.75
 30
0.0
 11
-39.5
 21
-51.75
 31
0.0
  0
LINE
  5
C1
330
1E
100
AcDbEntity
  8
MO_001_VIEW_PV
  6
C_SOLID_M
100
AcDbLine
 10
0.4
 20
-45.49999999999999
 30
0.0
 11
0.4
 21
-54.5
 31
0.0
  0
LINE
  5
C2
330
1E
100
AcDbEntity
  8
MO_001_VIEW_PV
  6
C_SOLID_M
100
AcDbLine
 10
-39.400002
 20
-45.49999999999999
 30
0.0
 11
-39.400002
 21
-54.5
 31
0.0
  0
LINE
  5
C3
330
1E
100
AcDbEntity
  8
MO_001_VIEW_PV
  6
C_SOLID_M
100
AcDbLine
 10
0.5
 20
-4.400001999999999
 30
0.0
 11
0.5
 21
-2.099997999999999
 31
0.0
  0
LINE
  5
C4
330
1E
100
AcDbEntity
  8
MO_001_VIEW_PV
  6
C_SOLID_M
100
AcDbLine
 10
0.4
 20
-4.5
 30
0.0
 11
0.0
 21
-4.5
 31
0.0
  0
LINE
  5
C5
330
1E
100
AcDbEntity
  8
MO_001_VIEW_PV
  6
C_SOLID_M
100
AcDbLine
 10
0.5
 20
4.400001999999999
 30
0.0
 11
0.5
 21
-2.939391999999999
 31
0.0
  0
LINE
  5
C6
330
1E
100
AcDbEntity
  8
MO_001_VIEW_PV
  6
C_SOLID_M
100
AcDbLine
 10
0.4
 20
4.5
 30
0.0
 11
0.0
 21
4.5
 31
0.0
  0
LINE
  5
C7
330
1E
100
AcDbEntity
  8
MO_001_VIEW_PV
  6
C_SOLID_M
100
AcDbLine
 10
0.499999
 20
4.4
 30
0.0
 11
0.399999
 21
4.500001
 31
0.0
  0
LINE
  5
C8
330
1E
100
AcDbEntity
  8
MO_001_VIEW_PV
  6
C_SOLID_M
100
AcDbLine
 10
0.5
 20
-4.4
 30
0.0
 11
0.4000020000000001
 21
-4.499998
 31
0.0
  0
LINE
  5
C9
330
1E
100
AcDbEntity
  8
MO_001_VIEW_PV
  6
C_SOLID_M
100
AcDbLine
 10
0.5
 20
1.75
 30
0.0
 11
15.0
 21
1.75
 31
0.0
  0
LINE
  5
CA
330
1E
100
AcDbEntity
  8
MO_001_VIEW_PV
  6
C_SOLID_M
100
AcDbLine
 10
0.5
 20
-1.75
 30
0.0
 11
15.0
 21
-1.75
 31
0.0
  0
LINE
  5
CB
330
1E
100
AcDbEntity
  8
MO_001_VIEW_PV
  6
C_SOLID_M
100
AcDbLine
 10
15.0
 20
1.75
 30
0.0
 11
15.0
 21
-1.75
 31
0.0
  0
LINE
  5
CC
330
1E
100
AcDbEntity
  8
MO_001_VIEW_PV
  6
C_SOLID_M
100
AcDbLine
 10
0.4
 20
4.5
 30
0.0
 11
0.4
 21
-4.5
 31
0.0
  0
LINE
  5
CD
330
1E
100
AcDbEntity
  8
MO_001_VIEW_PV
  6
C_SOLID_M
100
AcDbLine
 10
-39.400002
 20
4.5
 30
0.0
 11
-39.0
 21
4.5
 31
0.0
  0
LINE
  5
CE
330
1E
100
AcDbEntity
  8
MO_001_VIEW_PV
  6
C_SOLID_M
100
AcDbLine
 10
-39.5
 20
-4.400001999999999
 30
0.0
 11
-39.5
 21
4.400001999999999
 31
0.0
  0
LINE
  5
CF
330
1E
100
AcDbEntity
  8
MO_001_VIEW_PV
  6
C_SOLID_M
100
AcDbLine
 10
-39.400002
 20
-4.5
 30
0.0
 11
-39.0
 21
-4.5
 31
0.0
  0
LINE
  5
D0
330
1E
100
AcDbEntity
  8
MO_001_VIEW_PV
  6
C_SOLID_M
100
AcDbLine
 10
-39.5
 20
-4.399999
 30
0.0
 11
-39.399999
 21
-4.5
 31
0.0
  0
LINE
  5
D1
330
1E
100
AcDbEntity
  8
MO_001_VIEW_PV
  6
C_SOLID_M
100
AcDbLine
 10
-39.5
 20
4.399999
 30
0.0
 11
-39.399999
 21
4.5
 31
0.0
  0
LINE
  5
D2
330
1E
100
AcDbEntity
  8
MO_001_VIEW_PV
  6
C_SOLID_M
100
AcDbLine
 10
-51.0
 20
1.75
 30
0.0
 11
-51.0
 21
-1.75
 31
0.0
  0
LINE
  5
D3
330
1E
100
AcDbEntity
  8
MO_001_VIEW_PV
  6
C_DASHED_M
100
AcDbLine
 10
-55.0
 20
1.75
 30
0.0
 11
-55.0
 21
-1.75
 31
0.0
  0
LINE
  5
D4
330
1E
100
AcDbEntity
  8
MO_001_VIEW_PV
  6
C_SOLID_M
100
AcDbLine
 10
-51.0
 20
1.75
 30
0.0
 11
-39.5
 21
1.75
 31
0.0
  0
LINE
  5
D5
330
1E
100
AcDbEntity
  8
MO_001_VIEW_PV
  6
C_SOLID_M
100
AcDbLine
 10
-51.0
 20
-1.75
 30
0.0
 11
-39.5
 21
-1.75
 31
0.0
  0
LINE
  5
D6
330
1E
100
AcDbEntity
  8
MO_001_VIEW_PV
  6
C_DASHED_M
100
AcDbLine
 10
-55.0
 20
1.75
 30
0.0
 11
-53.0
 21
1.75
 31
0.0
  0
LINE
  5
D7
330
1E
100
AcDbEntity
  8
MO_001_VIEW_PV
  6
C_DASHED_M
100
AcDbLine
 10
-55.0
 20
-1.75
 30
0.0
 11
-53.0
 21
-1.75
 31
0.0
  0
LINE
  5
D8
330
1E
100
AcDbEntity
  8
MO_001_VIEW_PV
  6
C_SOLID_M
100
AcDbLine
 10
-39.400002
 20
4.5
 30
0.0
 11
-39.400002
 21
-4.5
 31
0.0
  0
LINE
  5
D9
330
1E
100
AcDbEntity
  8
MO_001_VIEW_PV
  6
C_SOLID_M
100
AcDbLine
 10
-2.0
 20
-11.0
 30
0.0
 11
-2.0
 21
11.0
 31
0.0
  0
LINE
  5
DA
330
1E
100
AcDbEntity
  8
MO_001_VIEW_PV
  6
C_SOLID_M
100
AcDbLine
 10
-36.900002
 20
-11.0
 30
0.0
 11
-36.900002
 21
11.0
 31
0.0
  0
LINE
  5
DB
330
1E
100
AcDbEntity
  8
MO_001_VIEW_PV
  6
C_SOLID_M
100
AcDbLine
 10
-15.8
 20
-11.19999999999999
 30
0.0
 11
-23.5
 21
-11.19999999999999
 31
0.0
  0
LINE
  5
DC
330
1E
100
AcDbEntity
  8
MO_001_VIEW_PV
  6
C_SOLID_M
100
AcDbLine
 10
-3.2
 20
-11.0
 30
0.0
 11
-3.2
 21
11.0
 31
0.0
  0
LINE
  5
DD
330
1E
100
AcDbEntity
  8
MO_001_VIEW_PV
  6
C_SOLID_M
100
AcDbLine
 10
-15.6
 20
-11.0
 30
0.0
 11
-15.6
 21
11.0
 31
0.0
  0
LINE
  5
DE
330
1E
100
AcDbEntity
  8
MO_001_VIEW_PV
  6
C_SOLID_M
100
AcDbLine
 10
-23.70000099999999
 20
-11.0
 30
0.0
 11
-23.70000099999999
 21
11.0
 31
0.0
  0
LINE
  5
DF
330
1E
100
AcDbEntity
  8
MO_001_VIEW_PV
  6
C_SOLID_M
100
AcDbLine
 10
-2.2
 20
-11.19999999999999
 30
0.0
 11
-3.0
 21
-11.19999999999999
 31
0.0
  0
LINE
  5
E0
330
1E
100
AcDbEntity
  8
MO_001_VIEW_PV
  6
C_SOLID_M
100
AcDbLine
 10
-36.400002
 20
-11.0
 30
0.0
 11
-36.900002
 21
-11.0
 31
0.0
  0
LINE
  5
E1
330
1E
100
AcDbEntity
  8
MO_001_VIEW_PV
  6
C_SOLID_M
100
AcDbLine
 10
-36.200001
 20
-10.8
 30
0.0
 11
-36.200001
 21
10.8
 31
0.0
  0
LINE
  5
E2
330
1E
100
AcDbEntity
  8
MO_001_VIEW_PV
  6
C_SOLID_M
100
AcDbLine
 10
-23.1
 20
-7.7
 30
0.0
 11
-23.1
 21
-6.7
 31
0.0
  0
LINE
  5
E3
330
1E
100
AcDbEntity
  8
MO_001_VIEW_PV
  6
C_SOLID_M
100
AcDbLine
 10
-3.2
 20
-6.7
 30
0.0
 11
-3.2
 21
-7.7
 31
0.0
  0
LINE
  5
E4
330
1E
100
AcDbEntity
  8
MO_001_VIEW_PV
  6
C_SOLID_M
100
AcDbLine
 10
-2.6
 20
-7.7
 30
0.0
 11
-2.6
 21
-6.7
 31
0.0
  0
LINE
  5
E5
330
1E
100
AcDbEntity
  8
MO_001_VIEW_PV
  6
C_SOLID_M
100
AcDbLine
 10
-2.6
 20
-7.7
 30
0.0
 11
-3.2
 21
-7.7
 31
0.0
  0
LINE
  5
E6
330
1E
100
AcDbEntity
  8
MO_001_VIEW_PV
  6
C_SOLID_M
100
AcDbLine
 10
-2.6
 20
-6.7
 30
0.0
 11
-3.2
 21
-6.7
 31
0.0
  0
LINE
  5
E7
330
1E
100
AcDbEntity
  8
MO_001_VIEW_PV
  6
C_SOLID_M
100
AcDbLine
 10
-23.1
 20
-7.7
 30
0.0
 11
-23.70000099999999
 21
-7.7
 31
0.0
  0
ARC
  5
E8
330
1E
100
AcDbEntity
  8
MO_001_VIEW_PV
  6
C_SOLID_M
100
AcDbCircle
 10
-2.2
 20
-11.0
 30
0.0
 40
0.2
100
AcDbArc
 50
269.999998
 51
0.00001
  0
ARC
  5
E9
330
1E
100
AcDbEntity
  8
MO_001_VIEW_PV
  6
C_SOLID_M
100
AcDbCircle
 10
-3.0
 20
-11.0
 30
0.0
 40
0.2
100
AcDbArc
 50
180.000009
 51
269.999998
  0
ARC
  5
EA
330
1E
100
AcDbEntity
  8
MO_001_VIEW_PV
  6
C_SOLID_M
100
AcDbCircle
 10
-15.8
 20
-11.0
 30
0.0
 40
0.2
100
AcDbArc
 50
269.999998
 51
0.00001
  0
ARC
  5
EB
330
1E
100
AcDbEntity
  8
MO_001_VIEW_PV
  6
C_SOLID_M
100
AcDbCircle
 10
-23.5
 20
-11.0
 30
0.0
 40
0.2
100
AcDbArc
 50
180.000009
 51
269.999998
  0
ARC
  5
EC
330
1E
100
AcDbEntity
  8
MO_001_VIEW_PV
  6
C_SOLID_M
100
AcDbCircle
 10
-36.400002
 20
-10.8
 30
0.0
 40
0.2
100
AcDbArc
 50
269.999998
 51
0.00001
  0
LINE
  5
ED
330
1E
100
AcDbEntity
  8
MO_001_VIEW_PV
  6
C_SOLID_M
100
AcDbLine
 10
-36.900002
 20
-10.5
 30
0.0
 11
-37.0
 21
-10.5
 31
0.0
  0
LINE
  5
EE
330
1E
100
AcDbEntity
  8
MO_001_VIEW_PV
  6
C_SOLID_M
100
AcDbLine
 10
-36.900002
 20
-9.5
 30
0.0
 11
-37.0
 21
-9.5
 31
0.0
  0
LINE
  5
EF
330
1E
100
AcDbEntity
  8
MO_001_VIEW_PV
  6
C_SOLID_M
100
AcDbLine
 10
-15.8
 20
11.19999999999999
 30
0.0
 11
-23.5
 21
11.19999999999999
 31
0.0
  0
LINE
  5
F0
330
1E
100
AcDbEntity
  8
MO_001_VIEW_PV
  6
C_SOLID_M
100
AcDbLine
 10
-2.2
 20
11.19999999999999
 30
0.0
 11
-3.0
 21
11.19999999999999
 31
0.0
  0
LINE
  5
F1
330
1E
100
AcDbEntity
  8
MO_001_VIEW_PV
  6
C_SOLID_M
100
AcDbLine
 10
-36.400002
 20
11.0
 30
0.0
 11
-36.900002
 21
11.0
 31
0.0
  0
ARC
  5
F2
330
1E
100
AcDbEntity
  8
MO_001_VIEW_PV
  6
C_SOLID_M
100
AcDbCircle
 10
-2.2
 20
11.0
 30
0.0
 40
0.2
100
AcDbArc
 50
0.0
 51
89.99998900000001
  0
ARC
  5
F3
330
1E
100
AcDbEntity
  8
MO_001_VIEW_PV
  6
C_SOLID_M
100
AcDbCircle
 10
-3.0
 20
11.0
 30
0.0
 40
0.2
100
AcDbArc
 50
90.00000899999999
 51
179.9999909999999
  0
ARC
  5
F4
330
1E
100
AcDbEntity
  8
MO_001_VIEW_PV
  6
C_SOLID_M
100
AcDbCircle
 10
-15.8
 20
11.0
 30
0.0
 40
0.2
100
AcDbArc
 50
0.0
 51
89.99998900000001
  0
ARC
  5
F5
330
1E
100
AcDbEntity
  8
MO_001_VIEW_PV
  6
C_SOLID_M
100
AcDbCircle
 10
-23.5
 20
11.0
 30
0.0
 40
0.2
100
AcDbArc
 50
90.00000899999999
 51
179.9999909999999
  0
ARC
  5
F6
330
1E
100
AcDbEntity
  8
MO_001_VIEW_PV
  6
C_SOLID_M
100
AcDbCircle
 10
-36.400002
 20
10.8
 30
0.0
 40
0.2
100
AcDbArc
 50
0.0
 51
89.99998900000001
  0
LINE
  5
F7
330
1E
100
AcDbEntity
  8
MO_001_VIEW_PV
  6
C_SOLID_M
100
AcDbLine
 10
-36.900002
 20
10.5
 30
0.0
 11
-37.0
 21
10.5
 31
0.0
  0
LINE
  5
F8
330
1E
100
AcDbEntity
  8
MO_001_VIEW_PV
  6
C_SOLID_M
100
AcDbLine
 10
-36.900002
 20
9.5
 30
0.0
 11
-37.0
 21
9.5
 31
0.0
  0
CIRCLE
  5
F9
330
1E
100
AcDbEntity
  8
MO_001_VIEW_PV
  6
C_SOLID_M
100
AcDbCircle
 10
-90.0
 20
0.0
 30
0.0
 40
2.0
  0
CIRCLE
  5
FA
330
1E
100
AcDbEntity
  8
MO_001_VIEW_PV
  6
C_SOLID_M
100
AcDbCircle
 10
-90.0
 20
0.0
 30
0.0
 40
2.1
  0
CIRCLE
  5
FB
330
1E
100
AcDbEntity
  8
MO_001_VIEW_PV
  6
C_SOLID_M
100
AcDbCircle
 10
-90.0
 20
0.0
 30
0.0
 40
4.4
  0
CIRCLE
  5
FC
330
1E
100
AcDbEntity
  8
MO_001_VIEW_PV
  6
C_SOLID_M
100
AcDbCircle
 10
-90.0
 20
0.0
 30
0.0
 40
4.5
  0
LINE
  5
FD
330
1E
100
AcDbEntity
  8
MO_001_VIEW_PV
  6
C_SOLID_M
100
AcDbLine
 10
-23.70000099999999
 20
10.5
 30
0.0
 11
-36.200001
 21
10.5
 31
0.0
  0
LINE
  5
FE
330
1E
100
AcDbEntity
  8
MO_001_VIEW_PV
  6
C_SOLID_M
100
AcDbLine
 10
-3.2
 20
10.5
 30
0.0
 11
-15.6
 21
10.5
 31
0.0
  0
LINE
  5
FF
330
1E
100
AcDbEntity
  8
MO_001_VIEW_PV
  6
C_SOLID_M
100
AcDbLine
 10
-23.70000099999999
 20
-10.5
 30
0.0
 11
-36.200001
 21
-10.5
 31
0.0
  0
LINE
  5
100
330
1E
100
AcDbEntity
  8
MO_001_VIEW_PV
  6
C_SOLID_M
100
AcDbLine
 10
-3.2
 20
-10.5
 30
0.0
 11
-15.6
 21
-10.5
 31
0.0
  0
LINE
  5
101
330
1E
100
AcDbEntity
  8
MO_001_VIEW_PV
  6
C_SOLID_M
100
AcDbLine
 10
-23.1
 20
-6.7
 30
0.0
 11
-23.70000099999999
 21
-6.7
 31
0.0
  0
LINE
  5
102
330
1E
100
AcDbEntity
  8
MO_001_VIEW_PV
  6
C_SOLID_M
100
AcDbLine
 10
-3.620005999999999
 20
-91.5
 30
0.0
 11
-4.100000999999999
 21
-91.5
 31
0.0
  0
LINE
  5
103
330
1E
100
AcDbEntity
  8
MO_001_VIEW_PV
  6
C_SOLID_M
100
AcDbLine
 10
-3.2
 20
-86.5
 30
0.0
 11
-4.520006999999999
 21
-86.5
 31
0.0
  0
LINE
  5
104
330
1E
100
AcDbEntity
  8
MO_001_VIEW_PV
  6
C_SOLID_M
100
AcDbLine
 10
-3.200000999999999
 20
-82.5
 30
0.0
 11
-3.200000999999999
 21
-86.5
 31
0.0
  0
LINE
  5
105
330
1E
100
AcDbEntity
  8
MO_001_VIEW_PV
  6
C_SOLID_M
100
AcDbLine
 10
-4.520008999999999
 20
-82.500002
 30
0.0
 11
-4.520006999999999
 21
-86.50000199999999
 31
0.0
  0
LINE
  5
106
330
1E
100
AcDbEntity
  8
MO_001_VIEW_PV
  6
C_SOLID_M
100
AcDbLine
 10
-3.620006999999999
 20
-86.50000099999999
 30
0.0
 11
-3.620005
 21
-91.50000099999999
 31
0.0
  0
LINE
  5
107
330
1E
100
AcDbEntity
  8
MO_001_VIEW_PV
  6
C_SOLID_M
100
AcDbLine
 10
-4.100003
 20
-86.50000099999999
 30
0.0
 11
-4.100000999999999
 21
-91.50000099999999
 31
0.0
  0
LINE
  5
108
330
1E
100
AcDbEntity
  8
MO_001_VIEW_PV
  6
C_SOLID_M
100
AcDbLine
 10
-4.520006999999999
 20
-81.5
 30
0.0
 11
-4.520006999999999
 21
-62.5
 31
0.0
  0
LINE
  5
109
330
1E
100
AcDbEntity
  8
MO_001_VIEW_PV
  6
C_SOLID_M
100
AcDbLine
 10
-3.2
 20
-81.5
 30
0.0
 11
-3.2
 21
-62.5
 31
0.0
  0
LINE
  5
10A
330
1E
100
AcDbEntity
  8
MO_001_VIEW_PV
  6
C_SOLID_M
100
AcDbLine
 10
-4.719998999999999
 20
-62.320007
 30
0.0
 11
-12.5
 21
-62.320007
 31
0.0
  0
ARC
  5
10B
330
1E
100
AcDbEntity
  8
MO_001_VIEW_PV
  6
C_SOLID_M
100
AcDbCircle
 10
-12.5
 20
-61.32000699999999
 30
0.0
 40
1.0
100
AcDbArc
 50
190.369329
 51
269.999998
  0
LINE
  5
10C
330
1E
100
AcDbEntity
  8
MO_001_VIEW_PV
  6
C_SOLID_M
100
AcDbLine
 10
-36.200001
 20
-61.82000699999999
 30
0.0
 11
-36.200001
 21
-61.5
 31
0.0
  0
LINE
  5
10D
330
1E
100
AcDbEntity
  8
MO_001_VIEW_PV
  6
C_SOLID_M
100
AcDbLine
 10
-34.67998899999999
 20
-62.320007
 30
0.0
 11
-26.900002
 21
-62.320007
 31
0.0
  0
ARC
  5
10E
330
1E
100
AcDbEntity
  8
MO_001_VIEW_PV
  6
C_SOLID_M
100
AcDbCircle
 10
-26.900002
 20
-61.32000699999999
 30
0.0
 40
1.0
100
AcDbArc
 50
270.0000039999999
 51
349.630671
  0
ARC
  5
10F
330
1E
100
AcDbEntity
  8
MO_001_VIEW_PV
  6
C_SOLID_M
100
AcDbCircle
 10
-5.2
 20
-62.5
 30
0.0
 40
2.0
100
AcDbArc
 50
0.0
 51
18.667202
  0
LINE
  5
110
330
1E
100
AcDbEntity
  8
MO_001_VIEW_PV
  6
C_SOLID_M
100
AcDbLine
 10
-3.2
 20
-61.5
 30
0.0
 11
-3.2
 21
-61.82000699999999
 31
0.0
  0
ARC
  5
111
330
1E
100
AcDbEntity
  8
MO_001_VIEW_PV
  6
C_SOLID_M
100
AcDbCircle
 10
-5.2
 20
-62.5
 30
0.0
 40
0.6799930000000001
100
AcDbArc
 50
355.0
 51
19.97746099999999
  0
LINE
  5
112
330
1E
100
AcDbEntity
  8
MO_001_VIEW_PV
  6
C_SOLID_M
100
AcDbLine
 10
-4.720006999999999
 20
-62.319986
 30
0.0
 11
-3.200002999999999
 21
-61.819987
 31
0.0
  0
ARC
  5
113
330
1E
100
AcDbEntity
  8
MO_001_VIEW_PV
  6
C_SOLID_M
100
AcDbCircle
 10
-34.200001
 20
-62.5
 30
0.0
 40
2.0
100
AcDbArc
 50
161.332797
 51
179.9999909999999
  0
LINE
  5
114
330
1E
100
AcDbEntity
  8
MO_001_VIEW_PV
  6
C_SOLID_M
100
AcDbLine
 10
-34.67998499999999
 20
-62.319979
 30
0.0
 11
-36.19999099999999
 21
-61.81998
 31
0.0
  0
ARC
  5
115
330
1E
100
AcDbEntity
  8
MO_001_VIEW_PV
  6
C_SOLID_M
100
AcDbCircle
 10
-34.200001
 20
-62.5
 30
0.0
 40
0.6799930000000001
100
AcDbArc
 50
160.022535
 51
184.99999
  0
LINE
  5
116
330
1E
100
AcDbEntity
  8
MO_001_VIEW_PV
  6
C_SOLID_M
100
AcDbLine
 10
-6.178554
 20
-81.486988
 30
0.0
 11
-4.522594999999999
 21
-62.55928100000001
 31
0.0
  0
LINE
  5
117
330
1E
100
AcDbEntity
  8
MO_001_VIEW_PV
  6
C_SOLID_M
100
AcDbLine
 10
-4.863569999999999
 20
-81.60202599999999
 30
0.0
 11
-4.520007999999999
 21
-77.675093
 31
0.0
  0
LINE
  5
118
330
1E
100
AcDbEntity
  8
MO_001_VIEW_PV
  6
C_SOLID_M
100
AcDbLine
 10
-6.151149
 20
-91.50002200000001
 30
0.0
 11
-6.629317999999999
 21
-91.45818699999999
 31
0.0
  0
LINE
  5
119
330
1E
100
AcDbEntity
  8
MO_001_VIEW_PV
  6
C_SOLID_M
100
AcDbLine
 10
-5.296964
 20
-86.555669
 30
0.0
 11
-6.611947999999999
 21
-86.44062299999999
 31
0.0
  0
LINE
  5
11A
330
1E
100
AcDbEntity
  8
MO_001_VIEW_PV
  6
C_SOLID_M
100
AcDbLine
 10
-4.950726999999999
 20
-82.59822300000001
 30
0.0
 11
-5.296965
 21
-86.555663
 31
0.0
  0
LINE
  5
11B
330
1E
100
AcDbEntity
  8
MO_001_VIEW_PV
  6
C_SOLID_M
100
AcDbLine
 10
-6.265709999999999
 20
-82.48318199999999
 30
0.0
 11
-6.611944999999999
 21
-86.44062199999998
 31
0.0
  0
LINE
  5
11C
330
1E
100
AcDbEntity
  8
MO_001_VIEW_PV
  6
C_SOLID_M
100
AcDbLine
 10
-5.715372
 20
-86.51904499999998
 30
0.0
 11
-6.151149
 21
-91.50001899999999
 31
0.0
  0
LINE
  5
11D
330
1E
100
AcDbEntity
  8
MO_001_VIEW_PV
  6
C_SOLID_M
100
AcDbLine
 10
-6.193541
 20
-86.477211
 30
0.0
 11
-6.629317999999999
 21
-91.45818400000001
 31
0.0
  0
ARC
  5
11E
330
1E
100
AcDbEntity
  8
MO_001_VIEW_PV
  6
C_SOLID_M
100
AcDbCircle
 10
-4.190005
 20
-81.78800200000001
 30
0.0
 40
0.4380010000000001
100
AcDbArc
 50
41.11213099999999
 51
138.8881129999999
  0
ARC
  5
11F
330
1E
100
AcDbEntity
  8
MO_001_VIEW_PV
  6
C_SOLID_M
100
AcDbCircle
 10
-3.530001999999999
 20
-81.21199799999999
 30
0.0
 40
0.4380010000000001
100
AcDbArc
 50
221.1123109999999
 51
318.8881079999999
  0
ARC
  5
120
330
1E
100
AcDbEntity
  8
MO_001_VIEW_PV
  6
C_SOLID_M
100
AcDbCircle
 10
-4.190005
 20
-81.21199799999999
 30
0.0
 40
0.4380010000000001
100
AcDbArc
 50
221.111887
 51
318.8878689999999
  0
ARC
  5
121
330
1E
100
AcDbEntity
  8
MO_001_VIEW_PV
  6
C_SOLID_M
100
AcDbCircle
 10
-3.530001999999999
 20
-82.21199799999999
 30
0.0
 40
0.4380010000000001
100
AcDbArc
 50
221.112133
 51
318.888118
  0
ARC
  5
122
330
1E
100
AcDbEntity
  8
MO_001_VIEW_PV
  6
C_SOLID_M
100
AcDbCircle
 10
-4.190005
 20
-82.788002
 30
0.0
 40
0.4380010000000001
100
AcDbArc
 50
41.112312
 51
138.8881129999999
  0
ARC
  5
123
330
1E
100
AcDbEntity
  8
MO_001_VIEW_PV
  6
C_SOLID_M
100
AcDbCircle
 10
-3.530001999999999
 20
-82.788002
 30
0.0
 40
0.4380010000000001
100
AcDbArc
 50
41.111889
 51
138.8878669999999
  0
ARC
  5
124
330
1E
100
AcDbEntity
  8
MO_001_VIEW_PV
  6
C_SOLID_M
100
AcDbCircle
 10
-5.874908
 20
-81.802635
 30
0.0
 40
0.4380010000000001
100
AcDbArc
 50
36.11212899999999
 51
133.888114
  0
ARC
  5
125
330
1E
100
AcDbEntity
  8
MO_001_VIEW_PV
  6
C_SOLID_M
100
AcDbCircle
 10
-5.167213999999999
 20
-81.28634599999999
 30
0.0
 40
0.4380010000000001
100
AcDbArc
 50
216.112312
 51
313.888105
  0
ARC
  5
126
330
1E
100
AcDbEntity
  8
MO_001_VIEW_PV
  6
C_SOLID_M
100
AcDbCircle
 10
-5.824707
 20
-81.22882099999999
 30
0.0
 40
0.4380010000000001
100
AcDbArc
 50
216.111888
 51
313.887866
  0
ARC
  5
127
330
1E
100
AcDbEntity
  8
MO_001_VIEW_PV
  6
C_SOLID_M
100
AcDbCircle
 10
-5.254369999999999
 20
-82.282539
 30
0.0
 40
0.4380010000000001
100
AcDbArc
 50
216.112134
 51
313.888116
  0
ARC
  5
128
330
1E
100
AcDbEntity
  8
MO_001_VIEW_PV
  6
C_SOLID_M
100
AcDbCircle
 10
-5.962064999999999
 20
-82.79882800000001
 30
0.0
 40
0.4380010000000001
100
AcDbArc
 50
36.11231
 51
133.888114
  0
ARC
  5
129
330
1E
100
AcDbEntity
  8
MO_001_VIEW_PV
  6
C_SOLID_M
100
AcDbCircle
 10
-5.304572
 20
-82.85634599999999
 30
0.0
 40
0.4380010000000001
100
AcDbArc
 50
36.111886
 51
133.887868
  0
LINE
  5
12A
330
1E
100
AcDbEntity
  8
MO_001_VIEW_PV
  6
C_SOLID_M
100
AcDbLine
 10
-35.779995
 20
-91.5
 30
0.0
 11
-35.29999899999999
 21
-91.5
 31
0.0
  0
LINE
  5
12B
330
1E
100
AcDbEntity
  8
MO_001_VIEW_PV
  6
C_SOLID_M
100
AcDbLine
 10
-36.200001
 20
-86.5
 30
0.0
 11
-34.879993
 21
-86.5
 31
0.0
  0
LINE
  5
12C
330
1E
100
AcDbEntity
  8
MO_001_VIEW_PV
  6
C_SOLID_M
100
AcDbLine
 10
-36.200007
 20
-82.50000400000001
 30
0.0
 11
-36.200007
 21
-86.50000400000001
 31
0.0
  0
LINE
  5
12D
330
1E
100
AcDbEntity
  8
MO_001_VIEW_PV
  6
C_SOLID_M
100
AcDbLine
 10
-34.879998
 20
-82.5
 30
0.0
 11
-34.88
 21
-86.5
 31
0.0
  0
LINE
  5
12E
330
1E
100
AcDbEntity
  8
MO_001_VIEW_PV
  6
C_SOLID_M
100
AcDbLine
 10
-35.780004
 20
-86.50000400000001
 30
0.0
 11
-35.78000499999999
 21
-91.50000400000001
 31
0.0
  0
LINE
  5
12F
330
1E
100
AcDbEntity
  8
MO_001_VIEW_PV
  6
C_SOLID_M
100
AcDbLine
 10
-35.30000799999999
 20
-86.50000400000001
 30
0.0
 11
-35.300009
 21
-91.50000400000001
 31
0.0
  0
LINE
  5
130
330
1E
100
AcDbEntity
  8
MO_001_VIEW_PV
  6
C_SOLID_M
100
AcDbLine
 10
-34.879993
 20
-81.5
 30
0.0
 11
-34.879993
 21
-62.5
 31
0.0
  0
LINE
  5
131
330
1E
100
AcDbEntity
  8
MO_001_VIEW_PV
  6
C_SOLID_M
100
AcDbLine
 10
-36.200001
 20
-81.5
 30
0.0
 11
-36.200001
 21
-62.5
 31
0.0
  0
LINE
  5
132
330
1E
100
AcDbEntity
  8
MO_001_VIEW_PV
  6
C_SOLID_M
100
AcDbLine
 10
-33.22144999999999
 20
-81.48698600000001
 30
0.0
 11
-34.877408
 21
-62.559286
 31
0.0
  0
LINE
  5
133
330
1E
100
AcDbEntity
  8
MO_001_VIEW_PV
  6
C_SOLID_M
100
AcDbLine
 10
-34.536431
 20
-81.60202199999998
 30
0.0
 11
-34.879992
 21
-77.67509
 31
0.0
  0
LINE
  5
134
330
1E
100
AcDbEntity
  8
MO_001_VIEW_PV
  6
C_SOLID_M
100
AcDbLine
 10
-33.248855
 20
-91.500014
 30
0.0
 11
-32.77068599999999
 21
-91.458179
 31
0.0
  0
LINE
  5
135
330
1E
100
AcDbEntity
  8
MO_001_VIEW_PV
  6
C_SOLID_M
100
AcDbLine
 10
-34.10304199999999
 20
-86.55564599999999
 30
0.0
 11
-32.788057
 21
-86.44060000000001
 31
0.0
  0
LINE
  5
136
330
1E
100
AcDbEntity
  8
MO_001_VIEW_PV
  6
C_SOLID_M
100
AcDbLine
 10
-34.44926999999999
 20
-82.59819499999998
 30
0.0
 11
-34.10303199999999
 21
-86.55561199999999
 31
0.0
  0
LINE
  5
137
330
1E
100
AcDbEntity
  8
MO_001_VIEW_PV
  6
C_SOLID_M
100
AcDbLine
 10
-33.134289
 20
-82.48316
 30
0.0
 11
-32.78805399999999
 21
-86.440569
 31
0.0
  0
LINE
  5
138
330
1E
100
AcDbEntity
  8
MO_001_VIEW_PV
  6
C_SOLID_M
100
AcDbLine
 10
-33.68462499999999
 20
-86.519039
 30
0.0
 11
-33.24884799999999
 21
-91.50001299999999
 31
0.0
  0
LINE
  5
139
330
1E
100
AcDbEntity
  8
MO_001_VIEW_PV
  6
C_SOLID_M
100
AcDbLine
 10
-33.206457
 20
-86.47719
 30
0.0
 11
-32.770679
 21
-91.45817800000001
 31
0.0
  0
ARC
  5
13A
330
1E
100
AcDbEntity
  8
MO_001_VIEW_PV
  6
C_SOLID_M
100
AcDbCircle
 10
-35.86999099999999
 20
-81.78800200000001
 30
0.0
 40
0.4380010000000001
100
AcDbArc
 50
41.11213499999999
 51
138.8881129999999
  0
ARC
  5
13B
330
1E
100
AcDbEntity
  8
MO_001_VIEW_PV
  6
C_SOLID_M
100
AcDbCircle
 10
-35.209988
 20
-81.21199799999999
 30
0.0
 40
0.4380010000000001
100
AcDbArc
 50
221.1123109999999
 51
318.888111
  0
ARC
  5
13C
330
1E
100
AcDbEntity
  8
MO_001_VIEW_PV
  6
C_SOLID_M
100
AcDbCircle
 10
-35.86999099999999
 20
-81.21199799999999
 30
0.0
 40
0.4380010000000001
100
AcDbArc
 50
221.111887
 51
318.8878649999999
  0
ARC
  5
13D
330
1E
100
AcDbEntity
  8
MO_001_VIEW_PV
  6
C_SOLID_M
100
AcDbCircle
 10
-35.209988
 20
-82.21199799999999
 30
0.0
 40
0.4380010000000001
100
AcDbArc
 50
221.112133
 51
318.888111
  0
ARC
  5
13E
330
1E
100
AcDbEntity
  8
MO_001_VIEW_PV
  6
C_SOLID_M
100
AcDbCircle
 10
-35.86999099999999
 20
-82.788002
 30
0.0
 40
0.4380010000000001
100
AcDbArc
 50
41.112312
 51
138.8881129999999
  0
ARC
  5
13F
330
1E
100
AcDbEntity
  8
MO_001_VIEW_PV
  6
C_SOLID_M
100
AcDbCircle
 10
-35.209988
 20
-82.788002
 30
0.0
 40
0.4380010000000001
100
AcDbArc
 50
41.111889
 51
138.8878669999999
  0
ARC
  5
140
330
1E
100
AcDbEntity
  8
MO_001_VIEW_PV
  6
C_SOLID_M
100
AcDbCircle
 10
-34.182583
 20
-81.86016100000001
 30
0.0
 40
0.4380010000000001
100
AcDbArc
 50
46.112134
 51
143.888112
  0
ARC
  5
141
330
1E
100
AcDbEntity
  8
MO_001_VIEW_PV
  6
C_SOLID_M
100
AcDbCircle
 10
-33.575294
 20
-81.22882800000001
 30
0.0
 40
0.4380010000000001
100
AcDbArc
 50
226.11231
 51
323.8881
  0
ARC
  5
142
330
1E
100
AcDbEntity
  8
MO_001_VIEW_PV
  6
C_SOLID_M
100
AcDbCircle
 10
-34.232788
 20
-81.28634599999999
 30
0.0
 40
0.4380010000000001
100
AcDbArc
 50
226.1118859999999
 51
323.887868
  0
ARC
  5
143
330
1E
100
AcDbEntity
  8
MO_001_VIEW_PV
  6
C_SOLID_M
100
AcDbCircle
 10
-33.48814
 20
-82.22502099999999
 30
0.0
 40
0.4380010000000001
100
AcDbArc
 50
226.1121319999999
 51
323.888114
  0
ARC
  5
144
330
1E
100
AcDbEntity
  8
MO_001_VIEW_PV
  6
C_SOLID_M
100
AcDbCircle
 10
-34.095432
 20
-82.85634599999999
 30
0.0
 40
0.4380010000000001
100
AcDbArc
 50
46.112311
 51
143.888112
  0
ARC
  5
145
330
1E
100
AcDbEntity
  8
MO_001_VIEW_PV
  6
C_SOLID_M
100
AcDbCircle
 10
-33.437939
 20
-82.79882800000001
 30
0.0
 40
0.4380010000000001
100
AcDbArc
 50
46.111888
 51
143.887866
  0
LINE
  5
146
330
1E
100
AcDbEntity
  8
MO_001_VIEW_PV
  6
C_SOLID_L
100
AcDbLine
 10
-33.39954399999999
 20
-91.5
 30
0.0
 11
-6.000458
 21
-91.5
 31
0.0
  0
ARC
  5
147
330
1E
100
AcDbEntity
  8
MO_001_VIEW_PV
  6
C_SOLID_M
100
AcDbCircle
 10
-90.0
 20
0.0
 30
0.0
 40
12.320007
100
AcDbArc
 50
158.977721
 51
201.022275
  0
LINE
  5
148
330
1E
100
AcDbEntity
  8
MO_001_VIEW_PV
  6
C_SOLID_M
100
AcDbLine
 10
-111.136534
 20
-0.384938
 30
0.0
 11
-102.320028
 21
-0.000001
 31
0.0
  0
LINE
  5
149
330
1E
100
AcDbEntity
  8
MO_001_VIEW_PV
  6
C_SOLID_M
100
AcDbLine
 10
-111.078956
 20
-1.703688999999999
 30
0.0
 11
-102.2493099999999
 21
-1.318178
 31
0.0
  0
LINE
  5
14A
330
1E
100
AcDbEntity
  8
MO_001_VIEW_PV
  6
C_SOLID_M
100
AcDbLine
 10
-111.195865
 20
1.708795
 30
0.0
 11
-102.2493099999999
 21
1.318179999999999
 31
0.0
  0
LINE
  5
14B
330
1E
100
AcDbEntity
  8
MO_001_VIEW_PV
  6
C_SOLID_M
100
AcDbLine
 10
-111.253442
 20
0.390044
 30
0.0
 11
-102.320028
 21
0.000002
 31
0.0
  0
ARC
  5
14C
330
1E
100
AcDbEntity
  8
MO_001_VIEW_PV
  6
C_SOLID_M
100
AcDbCircle
 10
-111.409851
 20
-0.7271880000000001
 30
0.0
 40
0.4380010000000001
100
AcDbArc
 50
313.6121319999999
 51
51.388113
  0
ARC
  5
14D
330
1E
100
AcDbEntity
  8
MO_001_VIEW_PV
  6
C_SOLID_M
100
AcDbCircle
 10
-110.8056179999999
 20
-1.361438999999999
 30
0.0
 40
0.4380010000000001
100
AcDbArc
 50
133.612311
 51
231.388122
  0
ARC
  5
14E
330
1E
100
AcDbEntity
  8
MO_001_VIEW_PV
  6
C_SOLID_M
100
AcDbCircle
 10
-110.834412
 20
-0.702063
 30
0.0
 40
0.4380010000000001
100
AcDbArc
 50
133.611887
 51
231.3878759999999
  0
ARC
  5
14F
330
1E
100
AcDbEntity
  8
MO_001_VIEW_PV
  6
C_SOLID_M
100
AcDbCircle
 10
-111.4979709999999
 20
1.391666999999999
 30
0.0
 40
0.4380010000000001
100
AcDbArc
 50
308.6121289999999
 51
46.388114
  0
ARC
  5
150
330
1E
100
AcDbEntity
  8
MO_001_VIEW_PV
  6
C_SOLID_M
100
AcDbCircle
 10
-110.951309
 20
0.707166
 30
0.0
 40
0.4380010000000001
100
AcDbArc
 50
128.612298
 51
226.388095
  0
ARC
  5
151
330
1E
100
AcDbEntity
  8
MO_001_VIEW_PV
  6
C_SOLID_M
100
AcDbCircle
 10
-110.9225159999999
 20
1.366543
 30
0.0
 40
0.4380010000000001
100
AcDbArc
 50
128.6118879999999
 51
226.3878629999999
  0
LINE
  5
152
330
1E
100
AcDbEntity
  8
MO_001_VIEW_PV
  6
C_SOLID_L
100
AcDbLine
 10
3.0
 20
-78.0
 30
0.0
 11
44.692223
 21
-78.0
 31
0.0
  0
LINE
  5
153
330
1E
100
AcDbEntity
  8
MO_001_VIEW_PV
  6
C_SOLID_L
100
AcDbLine
 10
-42.0
 20
-78.0
 30
0.0
 11
-83.431931
 21
-78.0
 31
0.0
  0
LINE
  5
154
330
1E
100
AcDbEntity
  8
MO_001_VIEW_PV
  6
C_SOLID_L
100
AcDbLine
 10
-69.77262900000001
 20
-33.0
 30
0.0
 11
-41.00000399999999
 21
-33.0
 31
0.0
  0
TEXT
  5
155
330
1E
100
AcDbEntity
  8
MO_001_VIEW_PV
  6
C_SOLID_L
100
AcDbText
 10
-73.351466
 20
14.41950199999999
 30
0.0
 40
3.0
  1
ストロ－ク
100
AcDbText
  0
TEXT
  5
156
330
1E
100
AcDbEntity
  8
MO_001_VIEW_PV
  6
C_SOLID_L
100
AcDbText
 10
-103.488281
 20
-110.0835939999999
 30
0.0
 40
4.167187
  1
SH2LC1140
100
AcDbText
  0
TEXT
  5
157
330
1E
100
AcDbEntity
  8
MO_001_VIEW_PV
  6
C_SOLID_L
100
AcDbText
 10
-10.60011499999999
 20
-96.88005099999999
 30
0.0
 40
3.0
  1
プッシュ側
100
AcDbText
  0
TEXT
  5
158
330
1E
100
AcDbEntity
  8
MO_001_VIEW_PV
  6
C_SOLID_L
100
AcDbText
 10
-10.60011499999999
 20
-101.380051
 30
0.0
 40
3.0
  1
コイル
100
AcDbText
  0
TEXT
  5
159
330
1E
100
AcDbEntity
  8
MO_001_VIEW_PV
  6
C_SOLID_L
100
AcDbText
 10
-38.840243
 20
-96.88005099999999
 30
0.0
 40
3.0
  1
プル側
100
AcDbText
  0
TEXT
  5
15A
330
1E
100
AcDbEntity
  8
MO_001_VIEW_PV
  6
C_SOLID_L
100
AcDbText
 10
-38.840243
 20
-101.380051
 30
0.0
 40
3.0
  1
コイル
100
AcDbText
  0
TEXT
  5
15B
330
1E
100
AcDbEntity
  8
MO_001_VIEW_PV
  6
C_SOLID_L
100
AcDbText
 10
3.688862999999999
 20
-81.75
 30
0.0
 40
3.0
  1
（白、黒）
100
AcDbText
  0
TEXT
  5
15C
330
1E
100
AcDbEntity
  8
MO_001_VIEW_PV
  6
C_SOLID_L
100
AcDbText
 10
3.688862999999999
 20
-72.75
 30
0.0
 40
3.0
  1
リ－ド線
100
AcDbText
  0
TEXT
  5
15D
330
1E
100
AcDbEntity
  8
MO_001_VIEW_PV
  6
C_SOLID_L
100
AcDbText
 10
3.688862999999999
 20
-77.25
 30
0.0
 40
3.0
  1
UL1007 AWG.26
100
AcDbText
  0
TEXT
  5
15E
330
1E
100
AcDbEntity
  8
MO_001_VIEW_PV
  6
C_SOLID_L
100
AcDbText
 10
-56.571429
 20
-81.75
 30
0.0
 40
3.0
  1
（赤、黒）
100
AcDbText
  0
TEXT
  5
15F
330
1E
100
AcDbEntity
  8
MO_001_VIEW_PV
  6
C_SOLID_L
100
AcDbText
 10
-80.571429
 20
-72.75
 30
0.0
 40
3.0
  1
リ－ド線
100
AcDbText
  0
TEXT
  5
160
330
1E
100
AcDbEntity
  8
MO_001_VIEW_PV
  6
C_SOLID_L
100
AcDbText
 10
-80.571429
 20
-77.25
 30
0.0
 40
3.0
  1
UL1007 AWG.26
100
AcDbText
  0
TEXT
  5
161
330
1E
100
AcDbEntity
  8
MO_001_VIEW_PV
  6
C_SOLID_L
100
AcDbText
 10
13.51171899999999
 20
-107.083594
 30
0.0
 40
4.167187
  1
図はプッシュ側コイルの励磁時を示す
100
AcDbText
  0
TEXT
  5
162
330
1E
100
AcDbEntity
  8
MO_001_VIEW_PV
  6
C_SOLID_L
100
AcDbText
 10
13.51171899999999
 20
-101.0835939999999
 30
0.0
 40
4.167187
  1
単位：mm
100
AcDbText
  0
TEXT
  5
163
330
1E
100
AcDbEntity
  8
MO_001_VIEW_PV
  6
C_SOLID_L
100
AcDbText
 10
13.51171899999999
 20
-113.0835939999999
 30
0.0
 40
4.167187
  1
ストロ－ク：4mm%%P0.3
100
AcDbText
  0
TEXT
  5
164
330
1E
100
AcDbEntity
  8
MO_001_VIEW_PV
  6
C_SOLID_L
100
AcDbText
 10
-68.57142900000001
 20
-32.25
 30
0.0
 40
3.0
  1
4-M3 P0.5
100
AcDbText
  0
DIMENSION
  5
166
330
1E
100
AcDbEntity
  8
MO_001_VIEW_PV
  6
C_SOLID_M
100
AcDbDimension
  2
*D0
 10
-20.0
 20
24.0
 30
0.0
 11
-20.0
 21
24.0
 31
0.0
  3
STANDARD
100
AcDbAlignedDimension
 13
-40.0
 23
13.25
 33
0.0
 14
0.0
 24
12.25
 34
0.0
100
AcDbRotatedDimension
  0
DIMENSION
  5
168
330
1E
100
AcDbEntity
  8
MO_001_VIEW_PV
  6
C_SOLID_M
100
AcDbDimension
  2
*D1
 10
7.5
 20
24.0
 30
0.0
 11
7.5
 21
24.0
 31
0.0
  3
STANDARD
100
AcDbAlignedDimension
 13
15.0
 23
1.75
 33
0.0
 14
0.0
 24
12.25
 34
0.0
100
AcDbRotatedDimension
  0
DIMENSION
  5
16A
330
1E
100
AcDbEntity
  8
MO_001_VIEW_PV
  6
C_SOLID_M
100
AcDbDimension
  2
*D2
 10
-59.15519699999999
 20
24.0
 30
0.0
 11
-59.15519699999999
 21
24.0
 31
0.0
  3
STANDARD
100
AcDbAlignedDimension
 13
-51.0
 23
1.75
 33
0.0
 14
-40.0
 24
13.25
 34
0.0
100
AcDbRotatedDimension
  0
DIMENSION
  5
16C
330
1E
100
AcDbEntity
  8
MO_001_VIEW_PV
  6
C_SOLID_M
100
AcDbDimension
  2
*D3
 10
-67.29198499999999
 20
18.0
 30
0.0
 11
-67.29198499999999
 21
18.0
 31
0.0
  3
STANDARD
100
AcDbAlignedDimension
 13
-51.0
 23
1.75
 33
0.0
 14
-55.0
 24
1.75
 34
0.0
100
AcDbRotatedDimension
  0
DIMENSION
  5
16E
330
1E
100
AcDbEntity
  8
MO_001_VIEW_PV
  6
C_SOLID_M
100
AcDbDimension
  2
*D4
 10
-90.0
 20
-21.0
 30
0.0
 11
-90.0
 21
-21.0
 31
0.0
  3
STANDARD
100
AcDbAlignedDimension
 13
-78.5
 23
-13.25
 33
0.0
 14
-101.5
 24
-13.25
 34
0.0
100
AcDbRotatedDimension
  0
DIMENSION
  5
170
330
1E
100
AcDbEntity
  8
MO_001_VIEW_PV
  6
C_SOLID_M
100
AcDbDimension
  2
*D5
 10
-69.0
 20
0.0
 30
0.0
 11
-69.0
 21
0.0
 31
0.0
  3
STANDARD
100
AcDbAlignedDimension
 13
-78.5
 23
13.25
 33
0.0
 14
-78.5
 24
-13.25
 34
0.0
 50
89.999523
100
AcDbRotatedDimension
  0
DIMENSION
  5
172
330
1E
100
AcDbEntity
  8
MO_001_VIEW_PV
  6
C_SOLID_M
100
AcDbDimension
  2
*D6
 10
27.0
 20
15.0
 30
0.0
 11
27.0
 21
15.0
 31
0.0
  3
STANDARD
100
AcDbAlignedDimension
 13
15.0
 23
1.75
 33
0.0
 14
15.0
 24
-1.75
 34
0.0
 50
270.012145
100
AcDbRotatedDimension
  0
DIMENSION
  5
174
330
1E
100
AcDbEntity
  8
MO_001_VIEW_PV
  6
C_SOLID_M
100
AcDbDimension
  2
*D7
 10
-48.0
 20
-22.22895799999999
 30
0.0
 11
-48.0
 21
-22.22895799999999
 31
0.0
  1
t2
  3
STANDARD
100
AcDbAlignedDimension
 13
-40.0
 23
-13.25
 33
0.0
 14
-40.0
 24
-11.25
 34
0.0
 50
89.98785500000002
100
AcDbRotatedDimension
  0
DIMENSION
  5
176
330
1E
100
AcDbEntity
  8
MO_001_VIEW_PV
  6
C_SOLID_M
100
AcDbDimension
  2
*D8
 10
-60.0
 20
-12.63816499999999
 30
0.0
 11
-60.0
 21
-12.63816499999999
 31
0.0
  3
STANDARD
100
AcDbAlignedDimension
 13
-51.0
 23
-1.75
 33
0.0
 14
-51.0
 24
1.75
 34
0.0
 50
89.98785500000002
100
AcDbRotatedDimension
  0
DIMENSION
  5
178
330
1E
100
AcDbEntity
  8
MO_001_VIEW_PV
  6
C_SOLID_M
100
AcDbDimension
  2
*D9
 10
12.0
 20
-21.0
 30
0.0
 11
12.0
 21
-21.0
 31
0.0
  1
(0.5)
  3
STANDARD
100
AcDbAlignedDimension
 13
0.5
 23
-2.939391999999999
 33
0.0
 14
0.0
 24
-12.25
 34
0.0
 50
179.97571
100
AcDbRotatedDimension
  0
DIMENSION
  5
17A
330
1E
100
AcDbEntity
  8
MO_001_VIEW_PV
  6
C_SOLID_M
100
AcDbDimension
  2
*D10
 10
-21.0
 20
-30.0
 30
0.0
 11
-21.0
 21
-30.0
 31
0.0
  3
STANDARD
100
AcDbAlignedDimension
 13
-10.0
 23
-41.5
 33
0.0
 14
-30.0
 24
-41.5
 34
0.0
100
AcDbRotatedDimension
  0
DIMENSION
  5
17C
330
1E
100
AcDbEntity
  8
MO_001_VIEW_PV
  6
C_SOLID_M
100
AcDbDimension
  2
*D11
 10
9.0
 20
-30.0
 30
0.0
 11
9.0
 21
-30.0
 31
0.0
  3
STANDARD
100
AcDbAlignedDimension
 13
-10.0
 23
-41.5
 33
0.0
 14
0.0
 24
-38.5
 34
0.0
100
AcDbRotatedDimension
  0
DIMENSION
  5
17E
330
1E
100
AcDbEntity
  8
MO_001_VIEW_PV
  6
C_SOLID_M
100
AcDbDimension
  2
*D12
 10
21.0
 20
-34.50010699999999
 30
0.0
 11
21.0
 21
-34.50010699999999
 31
0.0
  3
STANDARD
100
AcDbAlignedDimension
 13
-7.5
 23
-44.0
 33
0.0
 14
-7.5
 24
-56.0
 34
0.0
 50
89.999523
100
AcDbRotatedDimension
  0
DIMENSION
  5
180
330
1E
100
AcDbEntity
  8
MO_001_VIEW_PV
  6
C_SOLID_M
100
AcDbDimension
  2
*D13
 10
-22.33287
 20
-76.5
 30
0.0
 11
-22.33287
 21
-76.5
 31
0.0
  1
長さ250以上
  3
STANDARD
100
AcDbAlignedDimension
 13
-3.0
 23
-61.5
 33
0.0
 14
-6.000458
 24
-91.5
 34
0.0
 50
89.999523
100
AcDbRotatedDimension
  0
LINE
  5
181
330
1E
100
AcDbEntity
  8
MO_001_VIEW_PV
  6
C_SOLID_L
100
AcDbLine
 10
-31.060668
 20
-42.93936
 30
0.0
 11
-41.000015
 21
-33.000012
 31
0.0
  0
POLYLINE
  5
182
330
1E
100
AcDbEntity
  8
MO_001_VIEW_PV
  6
C_SOLID_L
100
AcDb2dPolyline
 66
     1
 10
0.0
 20
0.0
 30
0.0
 70
     1
  0
VERTEX
  5
237
330
182
100
AcDbEntity
  8
MO_001_VIEW_PV
  6
C_SOLID_L
100
AcDbVertex
100
AcDb2dVertex
 10
-33.819637
 20
-41.005601
 30
0.0
  0
VERTEX
  5
238
330
182
100
AcDbEntity
  8
MO_001_VIEW_PV
  6
C_SOLID_L
100
AcDbVertex
100
AcDb2dVertex
 10
-31.419878
 20
-42.58015
 30
0.0
  0
VERTEX
  5
239
330
182
100
AcDbEntity
  8
MO_001_VIEW_PV
  6
C_SOLID_L
100
AcDbVertex
100
AcDb2dVertex
 10
-32.994427
 20
-40.180391
 30
0.0
  0
SEQEND
  5
23A
330
182
100
AcDbEntity
  8
MO_001_VIEW_PV
  6
C_SOLID_L
  0
LINE
  5
187
330
1E
100
AcDbEntity
  8
MO_001_VIEW_PV
  6
C_SOLID_L
100
AcDbLine
 10
-36.20000499999999
 20
-72.200006
 30
0.0
 11
-42.000006
 21
-78.000004
 31
0.0
  0
POLYLINE
  5
188
330
1E
100
AcDbEntity
  8
MO_001_VIEW_PV
  6
C_SOLID_L
100
AcDb2dPolyline
 66
     1
 10
0.0
 20
0.0
 30
0.0
 70
     1
  0
VERTEX
  5
23B
330
188
100
AcDbEntity
  8
MO_001_VIEW_PV
  6
C_SOLID_L
100
AcDbVertex
100
AcDb2dVertex
 10
-38.133765
 20
-74.95897499999999
 30
0.0
  0
VERTEX
  5
23C
330
188
100
AcDbEntity
  8
MO_001_VIEW_PV
  6
C_SOLID_L
100
AcDbVertex
100
AcDb2dVertex
 10
-36.559215
 20
-72.559216
 30
0.0
  0
VERTEX
  5
23D
330
188
100
AcDbEntity
  8
MO_001_VIEW_PV
  6
C_SOLID_L
100
AcDbVertex
100
AcDb2dVertex
 10
-38.95897399999999
 20
-74.133764
 30
0.0
  0
SEQEND
  5
23E
330
188
100
AcDbEntity
  8
MO_001_VIEW_PV
  6
C_SOLID_L
  0
LINE
  5
18D
330
1E
100
AcDbEntity
  8
MO_001_VIEW_PV
  6
C_SOLID_L
100
AcDbLine
 10
-3.199997999999999
 20
-71.80000200000001
 30
0.0
 11
3.000004
 21
-77.999994
 31
0.0
  0
POLYLINE
  5
18E
330
1E
100
AcDbEntity
  8
MO_001_VIEW_PV
  6
C_SOLID_L
100
AcDb2dPolyline
 66
     1
 10
0.0
 20
0.0
 30
0.0
 70
     1
  0
VERTEX
  5
23F
330
18E
100
AcDbEntity
  8
MO_001_VIEW_PV
  6
C_SOLID_L
100
AcDbVertex
100
AcDb2dVertex
 10
-0.4410270000000001
 20
-73.73375899999999
 30
0.0
  0
VERTEX
  5
240
330
18E
100
AcDbEntity
  8
MO_001_VIEW_PV
  6
C_SOLID_L
100
AcDbVertex
100
AcDb2dVertex
 10
-2.840786999999999
 20
-72.159212
 30
0.0
  0
VERTEX
  5
241
330
18E
100
AcDbEntity
  8
MO_001_VIEW_PV
  6
C_SOLID_L
100
AcDbVertex
100
AcDb2dVertex
 10
-1.266236
 20
-74.55897
 30
0.0
  0
SEQEND
  5
242
330
18E
100
AcDbEntity
  8
MO_001_VIEW_PV
  6
C_SOLID_L
  0
ENDSEC
  0
SECTION
  2
OBJECTS
  0
DICTIONARY
  5
1A
330
0
100
AcDbDictionary
  3
ACAD_GROUP
350
1B
  3
ACAD_MLINESTYLE
350
1C
  3
ACAD_LAYOUT
350
22D
  3
ACAD_PLOTSETTINGS
350
22E
1001
ACAD
1000
TREAT_AS_HARD
1070
     0
  0
DICTIONARY
  5
233
330
1E
100
AcDbDictionary
  3
ACAD_LAYOUTSELFREF
350
234
  0
DICTIONARY
  5
235
330
1F
100
AcDbDictionary
  3
ACAD_LAYOUTSELFREF
350
236
  0
DICTIONARY
  5
1B
102
{ACAD_REACTORS
330
1A
102
}
330
1A
100
AcDbDictionary
1001
ACAD
1000
TREAT_AS_HARD
1070
     0
  0
DICTIONARY
  5
1C
102
{ACAD_REACTORS
330
1A
102
}
330
1A
100
AcDbDictionary
  3
STANDARD
350
1D
1001
ACAD
1000
TREAT_AS_HARD
1070
     0
  0
DICTIONARY
  5
22D
102
{ACAD_REACTORS
330
1A
102
}
330
1A
100
AcDbDictionary
1001
ACAD
1000
TREAT_AS_HARD
1070
     0
  0
DICTIONARY
  5
22E
102
{ACAD_REACTORS
330
1A
102
}
330
1A
100
AcDbDictionary
1001
ACAD
1000
TREAT_AS_HARD
1070
     0
  0
XRECORD
  5
234
102
{ACAD_REACTORS
330
233
102
}
330
233
100
AcDbXrecord
340
1E
  0
XRECORD
  5
236
102
{ACAD_REACTORS
330
235
102
}
330
235
100
AcDbXrecord
340
1F
  0
MLINESTYLE
  5
1D
102
{ACAD_REACTORS
330
1C
102
}
330
1C
100
AcDbMlineStyle
  2
STANDARD
 70
     0
  3

 62
     0
 51
90.0
 52
90.0
 71
     2
 49
0.5
 62
   256
  6
BYLAYER
 49
-0.5
 62
   256
  6
BYLAYER
  0
ENDSEC
  0
EOF
