  0
SECTION
  2
HEADER
  9
$ACADVER
  1
AC1012
  9
$DWGCODEPAGE
  3
dos932
  9
$INSBASE
 10
0.0
 20
0.0
 30
0.0
  9
$EXTMIN
 10
-63.00464143138771
 20
-53.08743351744684
 30
-0.0015258207003583
  9
$EXTMAX
 10
89.39678173515956
 20
28.12812238738456
 30
0.0000000349246037
  9
$LIMMIN
 10
-63.0
 20
-56.20898399999999
  9
$LIMMAX
 10
89.102028
 20
30.0
  9
$ORTHOMODE
 70
     0
  9
$REGENMODE
 70
     1
  9
$FILLMODE
 70
     1
  9
$QTEXTMODE
 70
     0
  9
$MIRRTEXT
 70
     1
  9
$DRAGMODE
 70
     2
  9
$LTSCALE
 40
1.0
  9
$OSMODE
 70
    37
  9
$ATTMODE
 70
     1
  9
$TEXTSIZE
 40
4.1672
  9
$TRACEWID
 40
0.05
  9
$TEXTSTYLE
  7
STANDARD
  9
$CLAYER
  8
0
  9
$CELTYPE
  6
CONTINUOUS
  9
$CECOLOR
 62
   256
  9
$CELTSCALE
 40
1.0
  9
$DELOBJ
 70
     1
  9
$DISPSILH
 70
     0
  9
$DIMSCALE
 40
1.0
  9
$DIMASZ
 40
0.18
  9
$DIMEXO
 40
0.0625
  9
$DIMDLI
 40
0.38
  9
$DIMRND
 40
0.0
  9
$DIMDLE
 40
0.0
  9
$DIMEXE
 40
0.18
  9
$DIMTP
 40
0.0
  9
$DIMTM
 40
0.0
  9
$DIMTXT
 40
0.18
  9
$DIMCEN
 40
0.09
  9
$DIMTSZ
 40
0.0
  9
$DIMTOL
 70
     0
  9
$DIMLIM
 70
     0
  9
$DIMTIH
 70
     1
  9
$DIMTOH
 70
     1
  9
$DIMSE1
 70
     0
  9
$DIMSE2
 70
     0
  9
$DIMTAD
 70
     0
  9
$DIMZIN
 70
     0
  9
$DIMBLK
  1

  9
$DIMASO
 70
     1
  9
$DIMSHO
 70
     1
  9
$DIMPOST
  1

  9
$DIMAPOST
  1

  9
$DIMALT
 70
     0
  9
$DIMALTD
 70
     2
  9
$DIMALTF
 40
25.4
  9
$DIMLFAC
 40
1.0
  9
$DIMTOFL
 70
     0
  9
$DIMTVP
 40
0.0
  9
$DIMTIX
 70
     0
  9
$DIMSOXD
 70
     0
  9
$DIMSAH
 70
     0
  9
$DIMBLK1
  1

  9
$DIMBLK2
  1

  9
$DIMSTYLE
  2
STANDARD
  9
$DIMCLRD
 70
     0
  9
$DIMCLRE
 70
     0
  9
$DIMCLRT
 70
     0
  9
$DIMTFAC
 40
1.0
  9
$DIMGAP
 40
0.09
  9
$DIMJUST
 70
     0
  9
$DIMSD1
 70
     0
  9
$DIMSD2
 70
     0
  9
$DIMTOLJ
 70
     1
  9
$DIMTZIN
 70
     0
  9
$DIMALTZ
 70
     0
  9
$DIMALTTZ
 70
     0
  9
$DIMFIT
 70
     3
  9
$DIMUPT
 70
     0
  9
$DIMUNIT
 70
     2
  9
$DIMDEC
 70
     4
  9
$DIMTDEC
 70
     4
  9
$DIMALTU
 70
     2
  9
$DIMALTTD
 70
     2
  9
$DIMTXSTY
  7
STANDARD
  9
$DIMAUNIT
 70
     0
  9
$LUNITS
 70
     2
  9
$LUPREC
 70
     6
  9
$SKETCHINC
 40
0.1
  9
$FILLETRAD
 40
0.0
  9
$AUNITS
 70
     0
  9
$AUPREC
 70
     4
  9
$MENU
  1
acad
  9
$ELEVATION
 40
0.0
  9
$PELEVATION
 40
0.0
  9
$THICKNESS
 40
0.0
  9
$LIMCHECK
 70
     0
  9
$BLIPMODE
 70
     0
  9
$CHAMFERA
 40
0.0
  9
$CHAMFERB
 40
0.0
  9
$CHAMFERC
 40
0.0
  9
$CHAMFERD
 40
0.0
  9
$SKPOLY
 70
     0
  9
$TDCREATE
 40
2376126.114256134
  9
$TDUPDATE
 40
2451667.421579745
  9
$TDINDWG
 40
0.0009230324
  9
$TDUSRTIMER
 40
0.0009230324
  9
$USRTIMER
 70
     1
  9
$ANGBASE
 50
0.0
  9
$ANGDIR
 70
     0
  9
$PDMODE
 70
     0
  9
$PDSIZE
 40
0.0
  9
$PLINEWID
 40
0.0
  9
$COORDS
 70
     1
  9
$SPLFRAME
 70
     0
  9
$SPLINETYPE
 70
     6
  9
$SPLINESEGS
 70
     8
  9
$ATTDIA
 70
     0
  9
$ATTREQ
 70
     1
  9
$HANDLING
 70
 10241
  9
$HANDSEED
  5
14F
  9
$SURFTAB1
 70
     6
  9
$SURFTAB2
 70
     6
  9
$SURFTYPE
 70
     6
  9
$SURFU
 70
     6
  9
$SURFV
 70
     6
  9
$UCSNAME
  2
MO_001_VIEW_PV_P
  9
$UCSORG
 10
0.0
 20
0.0
 30
0.0
  9
$UCSXDIR
 10
1.0
 20
0.0
 30
0.0
  9
$UCSYDIR
 10
-0.0000000002051034
 20
1.0
 30
0.0
  9
$PUCSNAME
  2

  9
$PUCSORG
 10
0.0
 20
0.0
 30
0.0
  9
$PUCSXDIR
 10
1.0
 20
0.0
 30
0.0
  9
$PUCSYDIR
 10
0.0
 20
1.0
 30
0.0
  9
$USERI1
 70
     0
  9
$USERI2
 70
     0
  9
$USERI3
 70
     0
  9
$USERI4
 70
     0
  9
$USERI5
 70
     0
  9
$USERR1
 40
0.0
  9
$USERR2
 40
0.0
  9
$USERR3
 40
0.0
  9
$USERR4
 40
0.0
  9
$USERR5
 40
0.0
  9
$WORLDVIEW
 70
     1
  9
$SHADEDGE
 70
     3
  9
$SHADEDIF
 70
    70
  9
$TILEMODE
 70
     1
  9
$MAXACTVP
 70
    16
  9
$PINSBASE
 10
0.0
 20
0.0
 30
0.0
  9
$PLIMCHECK
 70
     0
  9
$PEXTMIN
 10
-63.0
 20
-56.20898399999999
 30
1.000000000000000E+20
  9
$PEXTMAX
 10
89.102028
 20
30.0
 30
-1.000000000000000E+20
  9
$PLIMMIN
 10
0.0
 20
0.0
  9
$PLIMMAX
 10
12.0
 20
9.0
  9
$UNITMODE
 70
     0
  9
$VISRETAIN
 70
     0
  9
$PLINEGEN
 70
     0
  9
$PSLTSCALE
 70
     1
  9
$TREEDEPTH
 70
  3020
  9
$PICKSTYLE
 70
     1
  9
$CMLSTYLE
  2
STANDARD
  9
$CMLJUST
 70
     0
  9
$CMLSCALE
 40
1.0
  9
$SAVEIMAGES
 70
     1
  0
ENDSEC
  0
SECTION
  2
CLASSES
  0
CLASS
  1
ACDBDICTIONARYWDFLT
  2
AcDbDictionaryWithDefault
  3
AutoCAD 2000
 90
    32768
280
     0
281
     0
  0
CLASS
  1
ACDBPLACEHOLDER
  2
AcDbPlaceHolder
  3
AutoCAD 2000
 90
    32768
280
     0
281
     0
  0
CLASS
  1
LAYOUT
  2
AcDbLayout
  3
AutoCAD 2000
 90
    32768
280
     0
281
     0
  0
CLASS
  1
LONG_TRANSACTION
  2
AcDbLongTransaction
  3
AutoCAD 2000
 90
    32768
280
     0
281
     0
  0
CLASS
  1
LWPOLYLINE
  2
AcDbPolyline
  3
AutoCAD 2000
 90
    32768
280
     0
281
     1
  0
CLASS
  1
HATCH
  2
AcDbHatch
  3
AutoCAD 2000
 90
    32768
280
     0
281
     1
  0
CLASS
  1
XRECORD
  2
AcDbXrecord
  3
AutoCAD 2000
 90
    32768
280
     0
281
     0
  0
ENDSEC
  0
SECTION
  2
TABLES
  0
TABLE
  2
VPORT
  5
7
330
0
100
AcDbSymbolTable
 70
     2
  0
VPORT
  5
142
330
7
100
AcDbSymbolTableRecord
100
AcDbViewportTableRecord
  2
*ACTIVE
 70
     0
 10
0.0
 20
0.0
 11
1.0
 21
1.0
 12
16.13163401805633
 22
-16.57449952440994
 13
0.0
 23
0.0
 14
6.349999999999999
 24
6.349999999999999
 15
6.349999999999999
 25
6.349999999999999
 16
0.0
 26
0.0
 36
1.0
 17
0.0
 27
0.0
 37
0.0
 40
173.5003760096748
 41
1.691964285714285
 42
50.0
 43
0.0
 44
0.0
 50
0.0
 51
0.0
 71
     0
 72
   100
 73
     1
 74
     1
 75
     0
 76
     0
 77
     0
 78
     0
  0
ENDTAB
  0
TABLE
  2
LTYPE
  5
4
330
0
100
AcDbSymbolTable
 70
    37
  0
LTYPE
  5
12
330
4
100
AcDbSymbolTableRecord
100
AcDbLinetypeTableRecord
  2
BYBLOCK
 70
     0
  3

 72
    65
 73
     0
 40
0.0
  0
LTYPE
  5
13
330
4
100
AcDbSymbolTableRecord
100
AcDbLinetypeTableRecord
  2
BYLAYER
 70
     0
  3

 72
    65
 73
     0
 40
0.0
  0
LTYPE
  5
14
330
4
100
AcDbSymbolTableRecord
100
AcDbLinetypeTableRecord
  2
CONTINUOUS
 70
     0
  3
DXF Default line type
 72
    65
 73
     0
 40
0.0
  0
LTYPE
  5
20
330
4
100
AcDbSymbolTableRecord
100
AcDbLinetypeTableRecord
  2
DASHED
 70
     0
  3
DXF Dashed
 72
    65
 73
     2
 40
0.75
 49
0.5
 74
     0
 49
-0.25
 74
     0
  0
LTYPE
  5
21
330
4
100
AcDbSymbolTableRecord
100
AcDbLinetypeTableRecord
  2
HIDDEN
 70
     0
  3
DXF Hidden
 72
    65
 73
     2
 40
0.375
 49
0.25
 74
     0
 49
-0.125
 74
     0
  0
LTYPE
  5
22
330
4
100
AcDbSymbolTableRecord
100
AcDbLinetypeTableRecord
  2
CENTER
 70
     0
  3
DXF Center
 72
    65
 73
     4
 40
2.0
 49
1.25
 74
     0
 49
-0.25
 74
     0
 49
0.25
 74
     0
 49
-0.25
 74
     0
  0
LTYPE
  5
23
330
4
100
AcDbSymbolTableRecord
100
AcDbLinetypeTableRecord
  2
PHANTOM
 70
     0
  3
DXF Phantom
 72
    65
 73
     6
 40
2.5
 49
1.25
 74
     0
 49
-0.25
 74
     0
 49
0.25
 74
     0
 49
-0.25
 74
     0
 49
0.25
 74
     0
 49
-0.25
 74
     0
  0
LTYPE
  5
24
330
4
100
AcDbSymbolTableRecord
100
AcDbLinetypeTableRecord
  2
DOT
 70
     0
  3
DXF DOT
 72
    65
 73
     2
 40
0.25
 49
0.0
 74
     0
 49
-0.25
 74
     0
  0
LTYPE
  5
25
330
4
100
AcDbSymbolTableRecord
100
AcDbLinetypeTableRecord
  2
DASHDOT
 70
     0
  3
DXF Dash Dot
 72
    65
 73
     4
 40
1.0
 49
0.5
 74
     0
 49
-0.25
 74
     0
 49
0.0
 74
     0
 49
-0.25
 74
     0
  0
LTYPE
  5
26
330
4
100
AcDbSymbolTableRecord
100
AcDbLinetypeTableRecord
  2
BORDER
 70
     0
  3
DXF Border
 72
    65
 73
     6
 40
1.75
 49
0.5
 74
     0
 49
-0.25
 74
     0
 49
0.5
 74
     0
 49
-0.25
 74
     0
 49
0.0
 74
     0
 49
-0.25
 74
     0
  0
LTYPE
  5
27
330
4
100
AcDbSymbolTableRecord
100
AcDbLinetypeTableRecord
  2
DIVIDE
 70
     0
  3
DXF Divide
 72
    65
 73
     6
 40
1.25
 49
0.5
 74
     0
 49
-0.25
 74
     0
 49
0.0
 74
     0
 49
-0.25
 74
     0
 49
0.0
 74
     0
 49
-0.25
 74
     0
  0
LTYPE
  5
28
330
4
100
AcDbSymbolTableRecord
100
AcDbLinetypeTableRecord
  2
C_SOLID_L
 70
     0
  3
CADAM Solid Light
 72
    65
 73
     0
 40
0.0
  0
LTYPE
  5
29
330
4
100
AcDbSymbolTableRecord
100
AcDbLinetypeTableRecord
  2
C_SOLID_M
 70
     0
  3
CADAM Solid Medium
 72
    65
 73
     0
 40
0.0
  0
LTYPE
  5
2A
330
4
100
AcDbSymbolTableRecord
100
AcDbLinetypeTableRecord
  2
C_SOLID_H
 70
     0
  3
CADAM Solid Heavy
 72
    65
 73
     0
 40
0.0
  0
LTYPE
  5
2B
330
4
100
AcDbSymbolTableRecord
100
AcDbLinetypeTableRecord
  2
C_DASHED_L
 70
     0
  3
CADAM Dashed Light
 72
    65
 73
     2
 40
0.375
 49
0.25
 74
     0
 49
-0.125
 74
     0
  0
LTYPE
  5
2C
330
4
100
AcDbSymbolTableRecord
100
AcDbLinetypeTableRecord
  2
C_DASHED_M
 70
     0
  3
CADAM Dashed Medium
 72
    65
 73
     2
 40
0.5
 49
0.375
 74
     0
 49
-0.125
 74
     0
  0
LTYPE
  5
2D
330
4
100
AcDbSymbolTableRecord
100
AcDbLinetypeTableRecord
  2
C_CENTER_L
 70
     0
  3
CADAM Center Light
 72
    65
 73
     4
 40
2.0
 49
1.25
 74
     0
 49
-0.25
 74
     0
 49
0.25
 74
     0
 49
-0.25
 74
     0
  0
LTYPE
  5
2E
330
4
100
AcDbSymbolTableRecord
100
AcDbLinetypeTableRecord
  2
C_PHANTOM_L
 70
     0
  3
CADAM Phantom Light
 72
    65
 73
     6
 40
2.5
 49
1.25
 74
     0
 49
-0.25
 74
     0
 49
0.25
 74
     0
 49
-0.25
 74
     0
 49
0.25
 74
     0
 49
-0.25
 74
     0
  0
LTYPE
  5
2F
330
4
100
AcDbSymbolTableRecord
100
AcDbLinetypeTableRecord
  2
C_BREAK_M
 70
     0
  3
CADAM Break Medium
 72
    65
 73
     4
 40
1.0
 49
0.5
 74
     0
 49
-0.25
 74
     0
 49
0.0
 74
     0
 49
-0.25
 74
     0
  0
LTYPE
  5
30
330
4
100
AcDbSymbolTableRecord
100
AcDbLinetypeTableRecord
  2
C_NC
 70
     0
  3
CADAM NC
 72
    65
 73
     0
 40
0.0
  0
LTYPE
  5
31
330
4
100
AcDbSymbolTableRecord
100
AcDbLinetypeTableRecord
  2
DSH1
 70
     0
  3
CADAM Style2 Type 1 Dashed Line
 72
    65
 73
     2
 40
0.075
 49
0.04
 74
     0
 49
-0.035
 74
     0
  0
LTYPE
  5
32
330
4
100
AcDbSymbolTableRecord
100
AcDbLinetypeTableRecord
  2
DSH2
 70
     0
  3
CADAM Style2 Type 2 Dashed Line
 72
    65
 73
     2
 40
0.15
 49
0.11
 74
     0
 49
-0.04
 74
     0
  0
LTYPE
  5
33
330
4
100
AcDbSymbolTableRecord
100
AcDbLinetypeTableRecord
  2
DSH3
 70
     0
  3
CADAM Style2 Type 3 Dashed Line
 72
    65
 73
     2
 40
0.2
 49
0.15
 74
     0
 49
-0.05
 74
     0
  0
LTYPE
  5
34
330
4
100
AcDbSymbolTableRecord
100
AcDbLinetypeTableRecord
  2
DSH4
 70
     0
  3
CADAM Style2 Type 4 Dashed Line
 72
    65
 73
     2
 40
0.36
 49
0.28
 74
     0
 49
-0.08
 74
     0
  0
LTYPE
  5
35
330
4
100
AcDbSymbolTableRecord
100
AcDbLinetypeTableRecord
  2
DSH5
 70
     0
  3
CADAM Style2 Type 5 Dashed Line
 72
    65
 73
     2
 40
0.47
 49
0.39
 74
     0
 49
-0.08
 74
     0
  0
LTYPE
  5
36
330
4
100
AcDbSymbolTableRecord
100
AcDbLinetypeTableRecord
  2
DSH6
 70
     0
  3
CADAM Style2 Type 6 Dashed Line
 72
    65
 73
     2
 40
0.9
 49
0.8100000000000001
 74
     0
 49
-0.09
 74
     0
  0
LTYPE
  5
37
330
4
100
AcDbSymbolTableRecord
100
AcDbLinetypeTableRecord
  2
PL1
 70
     0
  3
Style 2 Type 1 Phantom Line
 72
    65
 73
     6
 40
1.0
 49
0.6
 74
     0
 49
-0.08
 74
     0
 49
0.08
 74
     0
 49
-0.08
 74
     0
 49
0.08
 74
     0
 49
-0.08
 74
     0
  0
LTYPE
  5
38
330
4
100
AcDbSymbolTableRecord
100
AcDbLinetypeTableRecord
  2
PL2
 70
     0
  3
Style 2 Type 2 Phantom Line
 72
    65
 73
     6
 40
1.08
 49
0.6
 74
     0
 49
-0.08
 74
     0
 49
0.12
 74
     0
 49
-0.08
 74
     0
 49
0.12
 74
     0
 49
-0.08
 74
     0
  0
LTYPE
  5
39
330
4
100
AcDbSymbolTableRecord
100
AcDbLinetypeTableRecord
  2
PL3
 70
     0
  3
Style 2 Type 3 Phantom Line
 72
    65
 73
     6
 40
2.0
 49
1.439999999999999
 74
     0
 49
-0.08
 74
     0
 49
0.16
 74
     0
 49
-0.08
 74
     0
 49
0.16
 74
     0
 49
-0.08
 74
     0
  0
LTYPE
  5
3A
330
4
100
AcDbSymbolTableRecord
100
AcDbLinetypeTableRecord
  2
CL1
 70
     0
  3
CADAM Style 2 Type 1 Center Line
 72
    65
 73
     4
 40
0.7
 49
0.45
 74
     0
 49
-0.06
 74
     0
 49
0.13
 74
     0
 49
-0.06
 74
     0
  0
LTYPE
  5
3B
330
4
100
AcDbSymbolTableRecord
100
AcDbLinetypeTableRecord
  2
CL2
 70
     0
  3
CADAM Style 2 Type 2 Center Line
 72
    65
 73
     4
 40
1.199999999999999
 49
1.01
 74
     0
 49
-0.06
 74
     0
 49
0.11
 74
     0
 49
-0.06
 74
     0
  0
LTYPE
  5
3C
330
4
100
AcDbSymbolTableRecord
100
AcDbLinetypeTableRecord
  2
CL3
 70
     0
  3
CADAM Style 2 Type 3 Center Line
 72
    65
 73
     4
 40
1.199999999999999
 49
0.98
 74
     0
 49
-0.06
 74
     0
 49
0.1
 74
     0
 49
-0.06
 74
     0
  0
LTYPE
  5
3D
330
4
100
AcDbSymbolTableRecord
100
AcDbLinetypeTableRecord
  2
CL4
 70
     0
  3
CADAM Style 2 Type 4 Center Line
 72
    65
 73
     4
 40
2.2
 49
1.929999999999999
 74
     0
 49
-0.07
 74
     0
 49
0.13
 74
     0
 49
-0.07
 74
     0
  0
LTYPE
  5
3E
330
4
100
AcDbSymbolTableRecord
100
AcDbLinetypeTableRecord
  2
CL5
 70
     0
  3
CADAM Style 2 Type 5 Center Line
 72
    65
 73
     4
 40
2.2
 49
1.879999999999999
 74
     0
 49
-0.07
 74
     0
 49
0.18
 74
     0
 49
-0.07
 74
     0
  0
LTYPE
  5
3F
330
4
100
AcDbSymbolTableRecord
100
AcDbLinetypeTableRecord
  2
SBK1
 70
     0
  3
CADAM Style 2 Type 1 SetBack Line
 72
    65
 73
     8
 40
2.7
 49
0.1
 74
     0
 49
-0.08
 74
     0
 49
0.1
 74
     0
 49
-0.8
 74
     0
 49
0.0
 74
     0
 49
0.0
 74
     0
 49
0.0
 74
     0
 49
0.0
 74
     0
  0
LTYPE
  5
40
330
4
100
AcDbSymbolTableRecord
100
AcDbLinetypeTableRecord
  2
SBK2
 70
     0
  3
CADAM Style 2 Type 2 SetBack Line
 72
    65
 73
     8
 40
3.709999999999999
 49
0.13
 74
     0
 49
-0.08
 74
     0
 49
0.13
 74
     0
 49
-0.8
 74
     0
 49
0.0
 74
     0
 49
0.0
 74
     0
 49
0.0
 74
     0
 49
0.0
 74
     0
  0
LTYPE
  5
41
330
4
100
AcDbSymbolTableRecord
100
AcDbLinetypeTableRecord
  2
STCH
 70
     0
  3
CADAM Style2 Stitch Line
 72
    65
 73
     2
 40
0.25
 49
0.0
 74
     0
 49
-0.25
 74
     0
  0
LTYPE
  5
42
330
4
100
AcDbSymbolTableRecord
100
AcDbLinetypeTableRecord
  2
MTCH
 70
     0
  3
CADAM Style2 Match Line
 72
    65
 73
     6
 40
2.0
 49
1.439999999999999
 74
     0
 49
-0.8
 74
     0
 49
0.16
 74
     0
 49
-0.08
 74
     0
 49
0.16
 74
     0
 49
-0.08
 74
     0
  0
LTYPE
  5
43
330
4
100
AcDbSymbolTableRecord
100
AcDbLinetypeTableRecord
  2
SLD
 70
     0
  3
CADAM Solid_EXT2
 72
    65
 73
     0
 40
0.0
  0
ENDTAB
  0
TABLE
  2
LAYER
  5
2
330
0
100
AcDbSymbolTable
 70
     7
  0
LAYER
  5
15
330
2
100
AcDbSymbolTableRecord
100
AcDbLayerTableRecord
  2
0
 70
     0
 62
     7
  6
CONTINUOUS
  0
LAYER
  5
44
330
2
100
AcDbSymbolTableRecord
100
AcDbLayerTableRecord
  2
MO_001_NOSHOW
 70
     1
 62
     7
  6
CONTINUOUS
  0
LAYER
  5
45
330
2
100
AcDbSymbolTableRecord
100
AcDbLayerTableRecord
  2
MO_001_VIEW_PV
 70
     0
 62
     7
  6
CONTINUOUS
  0
LAYER
  5
46
330
2
100
AcDbSymbolTableRecord
100
AcDbLayerTableRecord
  2
OVERLAY_MAP
 70
     1
 62
     7
  6
CONTINUOUS
  0
LAYER
  5
47
330
2
100
AcDbSymbolTableRecord
100
AcDbLayerTableRecord
  2
DITTOS
 70
     0
 62
     7
  6
CONTINUOUS
  0
LAYER
  5
48
330
2
100
AcDbSymbolTableRecord
100
AcDbLayerTableRecord
  2
SYMBOLS
 70
     0
 62
     7
  6
CONTINUOUS
  0
LAYER
  5
49
330
2
100
AcDbSymbolTableRecord
100
AcDbLayerTableRecord
  2
SETS
 70
     0
 62
     7
  6
CONTINUOUS
  0
ENDTAB
  0
TABLE
  2
STYLE
  5
3
330
0
100
AcDbSymbolTable
 70
     1
  0
STYLE
  5
18
330
3
100
AcDbSymbolTableRecord
100
AcDbTextStyleTableRecord
  2
STANDARD
 70
     0
 40
4.1672
 41
1.0
 50
0.0
 71
     0
 42
4.1672
  3
monotxt
  4
BIGFONT
  0
ENDTAB
  0
TABLE
  2
VIEW
  5
5
330
0
100
AcDbSymbolTable
 70
     0
  0
ENDTAB
  0
TABLE
  2
UCS
  5
6
330
0
100
AcDbSymbolTable
 70
     1
  0
UCS
  5
4A
330
6
100
AcDbSymbolTableRecord
100
AcDbUCSTableRecord
  2
MO_001_VIEW_PV_P
 70
     0
 10
0.0
 20
0.0
 30
0.0
 11
1.0
 21
0.0
 31
0.0
 12
-0.0000000002051034
 22
1.0
 32
0.0
  0
ENDTAB
  0
TABLE
  2
APPID
  5
8
330
0
100
AcDbSymbolTable
 70
     1
  0
APPID
  5
17
330
8
100
AcDbSymbolTableRecord
100
AcDbRegAppTableRecord
  2
ACAD
 70
     0
  0
ENDTAB
  0
TABLE
  2
DIMSTYLE
  5
9
330
0
100
AcDbSymbolTable
 70
     1
  0
DIMSTYLE
105
19
102
{ACAD_REACTORS
330
E3
330
E5
330
E7
330
E9
330
EB
330
ED
102
}
330
9
100
AcDbSymbolTableRecord
100
AcDbDimStyleTableRecord
  2
STANDARD
 70
     0
  3

  4

  5

  6

  7

 40
1.0
 41
0.18
 42
0.0625
 43
0.38
 44
0.18
 45
0.0
 46
0.0
 47
0.0
 48
0.0
140
0.18
141
0.09
142
0.0
143
25.4
144
1.0
145
0.0
146
1.0
147
0.09
 71
     0
 72
     0
 73
     1
 74
     1
 75
     0
 76
     0
 77
     0
 78
     0
170
     0
171
     2
172
     0
173
     0
174
     0
175
     0
176
     0
177
     0
178
     0
270
     2
271
     4
272
     4
273
     2
274
     2
340
18
275
     0
280
     0
281
     0
282
     0
283
     1
284
     0
285
     0
286
     0
287
     3
288
     0
  0
ENDTAB
  0
TABLE
  2
BLOCK_RECORD
  5
C
330
0
100
AcDbSymbolTable
 70
     6
  0
BLOCK_RECORD
  5
1E
102
{ACAD_XDICTIONARY
360
143
102
}
330
C
100
AcDbSymbolTableRecord
100
AcDbBlockTableRecord
  2
*MODEL_SPACE
  0
BLOCK_RECORD
  5
1F
102
{ACAD_XDICTIONARY
360
145
102
}
330
C
100
AcDbSymbolTableRecord
100
AcDbBlockTableRecord
  2
*PAPER_SPACE
  0
BLOCK_RECORD
  5
E2
330
C
100
AcDbSymbolTableRecord
100
AcDbBlockTableRecord
  2
*D0
  0
BLOCK_RECORD
  5
E4
330
C
100
AcDbSymbolTableRecord
100
AcDbBlockTableRecord
  2
*D1
  0
BLOCK_RECORD
  5
E6
330
C
100
AcDbSymbolTableRecord
100
AcDbBlockTableRecord
  2
*D2
  0
BLOCK_RECORD
  5
E8
330
C
100
AcDbSymbolTableRecord
100
AcDbBlockTableRecord
  2
*D3
  0
BLOCK_RECORD
  5
EA
330
C
100
AcDbSymbolTableRecord
100
AcDbBlockTableRecord
  2
*D4
  0
BLOCK_RECORD
  5
EC
330
C
100
AcDbSymbolTableRecord
100
AcDbBlockTableRecord
  2
*D5
  0
ENDTAB
  0
ENDSEC
  0
SECTION
  2
BLOCKS
  0
BLOCK
  5
E
330
1E
100
AcDbEntity
  8
0
100
AcDbBlockBegin
  2
*MODEL_SPACE
 70
     0
 10
0.0
 20
0.0
 30
0.0
  3
*MODEL_SPACE
  1

  0
ENDBLK
  5
F
330
1E
100
AcDbEntity
  8
0
100
AcDbBlockEnd
  0
BLOCK
  5
10
330
1F
100
AcDbEntity
 67
     1
  8
0
100
AcDbBlockBegin
  2
*PAPER_SPACE
 70
     0
 10
0.0
 20
0.0
 30
0.0
  3
*PAPER_SPACE
  1

  0
ENDBLK
  5
11
330
1F
100
AcDbEntity
 67
     1
  8
0
100
AcDbBlockEnd
  0
BLOCK
  5
FA
330
E2
100
AcDbEntity
  8
0
100
AcDbBlockBegin
  2
*D0
 70
     1
 10
0.0
 20
0.0
 30
0.0
  3
*D0
  1

  0
TEXT
  5
FB
330
E2
100
AcDbEntity
  8
MO_001_VIEW_PV
  6
BYBLOCK
100
AcDbText
 10
-9.585714999999998
 20
26.625
 30
0.0
 40
1.5
  1
%%P0.4
100
AcDbText
  0
TEXT
  5
FC
330
E2
100
AcDbEntity
  8
MO_001_VIEW_PV
  6
BYBLOCK
100
AcDbText
 10
-21.371429
 20
24.75
 30
0.0
 40
3.0
  1
25.6
100
AcDbText
  0
LINE
  5
FD
330
E2
100
AcDbEntity
  8
MO_001_VIEW_PV
  6
BYBLOCK
100
AcDbLine
 10
-25.6
 20
24.0
 30
0.0
 11
0.0
 21
24.0
 31
0.0
  0
SOLID
  5
FE
330
E2
100
AcDbEntity
  8
MO_001_VIEW_PV
  6
BYBLOCK
100
AcDbTrace
 10
-22.28174
 20
24.583512
 30
0.0
 11
-25.09199999999999
 21
24.0
 31
0.0
 12
-22.28174
 22
23.416488
 32
0.0
 13
-22.28174
 23
23.416488
 33
0.0
  0
SOLID
  5
FF
330
E2
100
AcDbEntity
  8
MO_001_VIEW_PV
  6
BYBLOCK
100
AcDbTrace
 10
-3.318259999999999
 20
23.416488
 30
0.0
 11
-0.508
 21
24.0
 31
0.0
 12
-3.318259999999999
 22
24.583512
 32
0.0
 13
-3.318259999999999
 23
24.583512
 33
0.0
  0
LINE
  5
100
330
E2
100
AcDbEntity
  8
MO_001_VIEW_PV
  6
BYBLOCK
100
AcDbLine
 10
-25.6
 20
22.565151
 30
0.0
 11
-25.6
 21
26.285999
 31
0.0
  0
LINE
  5
101
330
E2
100
AcDbEntity
  8
MO_001_VIEW_PV
  6
BYBLOCK
100
AcDbLine
 10
0.0
 20
8.5
 30
0.0
 11
0.0
 21
26.285999
 31
0.0
  0
LINE
  5
102
330
E2
100
AcDbEntity
  8
MO_001_VIEW_PV
  6
BYBLOCK
100
AcDbLine
 10
-25.6
 20
1.3
 30
0.0
 11
-25.6
 21
17.334141
 31
0.0
  0
ENDBLK
  5
103
330
E2
100
AcDbEntity
  8
0
100
AcDbBlockEnd
  0
BLOCK
  5
104
330
E4
100
AcDbEntity
  8
0
100
AcDbBlockBegin
  2
*D1
 70
     1
 10
0.0
 20
0.0
 30
0.0
  3
*D1
  1

  0
TEXT
  5
105
330
E4
100
AcDbEntity
  8
MO_001_VIEW_PV
  6
BYBLOCK
100
AcDbText
 10
-35.57142899999999
 20
18.75
 30
0.0
 40
3.0
  1
17.5以下
100
AcDbText
  0
LINE
  5
106
330
E4
100
AcDbEntity
  8
MO_001_VIEW_PV
  6
BYBLOCK
100
AcDbLine
 10
-16.89999999999999
 20
18.0
 30
0.0
 11
0.0
 21
18.0
 31
0.0
  0
SOLID
  5
107
330
E4
100
AcDbEntity
  8
MO_001_VIEW_PV
  6
BYBLOCK
100
AcDbTrace
 10
-13.581739
 20
18.58351199999999
 30
0.0
 11
-16.39199999999999
 21
18.0
 31
0.0
 12
-13.581739
 22
17.416488
 32
0.0
 13
-13.581739
 23
17.416488
 33
0.0
  0
SOLID
  5
108
330
E4
100
AcDbEntity
  8
MO_001_VIEW_PV
  6
BYBLOCK
100
AcDbTrace
 10
-3.318259999999999
 20
17.416488
 30
0.0
 11
-0.508
 21
18.0
 31
0.0
 12
-3.318259999999999
 22
18.58351199999999
 32
0.0
 13
-3.318259999999999
 23
18.58351199999999
 33
0.0
  0
LINE
  5
109
330
E4
100
AcDbEntity
  8
MO_001_VIEW_PV
  6
BYBLOCK
100
AcDbLine
 10
-16.89999999999999
 20
8.0
 30
0.0
 11
-16.89999999999999
 21
20.285999
 31
0.0
  0
LINE
  5
10A
330
E4
100
AcDbEntity
  8
MO_001_VIEW_PV
  6
BYBLOCK
100
AcDbLine
 10
0.0
 20
8.5
 30
0.0
 11
0.0
 21
20.285999
 31
0.0
  0
LINE
  5
10B
330
E4
100
AcDbEntity
  8
MO_001_VIEW_PV
  6
BYBLOCK
100
AcDbLine
 10
-36.535713
 20
18.0
 30
0.0
 11
-16.89999999999999
 21
18.0
 31
0.0
  0
ENDBLK
  5
10C
330
E4
100
AcDbEntity
  8
0
100
AcDbBlockEnd
  0
BLOCK
  5
10D
330
E6
100
AcDbEntity
  8
0
100
AcDbBlockBegin
  2
*D2
 70
     1
 10
0.0
 20
0.0
 30
0.0
  3
*D2
  1

  0
TEXT
  5
10E
330
E6
100
AcDbEntity
  8
MO_001_VIEW_PV
  6
BYBLOCK
100
AcDbText
 10
24.214286
 20
20.625
 30
0.0
 40
1.5
  1
%%P0.3
100
AcDbText
  0
TEXT
  5
10F
330
E6
100
AcDbEntity
  8
MO_001_VIEW_PV
  6
BYBLOCK
100
AcDbText
 10
12.428571
 20
18.75
 30
0.0
 40
3.0
  1
10.2
100
AcDbText
  0
LINE
  5
110
330
E6
100
AcDbEntity
  8
MO_001_VIEW_PV
  6
BYBLOCK
100
AcDbLine
 10
10.19999899999999
 20
18.0
 30
0.0
 11
0.0
 21
18.0
 31
0.0
  0
SOLID
  5
111
330
E6
100
AcDbEntity
  8
MO_001_VIEW_PV
  6
BYBLOCK
100
AcDbTrace
 10
6.881738999999999
 20
17.416488
 30
0.0
 11
9.691999
 21
18.0
 31
0.0
 12
6.881738999999999
 22
18.58351199999999
 32
0.0
 13
6.881738999999999
 23
18.58351199999999
 33
0.0
  0
SOLID
  5
112
330
E6
100
AcDbEntity
  8
MO_001_VIEW_PV
  6
BYBLOCK
100
AcDbTrace
 10
3.318259999999999
 20
18.58351199999999
 30
0.0
 11
0.508
 21
18.0
 31
0.0
 12
3.318259999999999
 22
17.416488
 32
0.0
 13
3.318259999999999
 23
17.416488
 33
0.0
  0
LINE
  5
113
330
E6
100
AcDbEntity
  8
MO_001_VIEW_PV
  6
BYBLOCK
100
AcDbLine
 10
10.19999899999999
 20
1.300000999999999
 30
0.0
 11
10.19999899999999
 21
20.285999
 31
0.0
  0
LINE
  5
114
330
E6
100
AcDbEntity
  8
MO_001_VIEW_PV
  6
BYBLOCK
100
AcDbLine
 10
0.0
 20
8.5
 30
0.0
 11
0.0
 21
20.285999
 31
0.0
  0
LINE
  5
115
330
E6
100
AcDbEntity
  8
MO_001_VIEW_PV
  6
BYBLOCK
100
AcDbLine
 10
30.535715
 20
18.0
 30
0.0
 11
10.19999899999999
 21
18.0
 31
0.0
  0
ENDBLK
  5
116
330
E6
100
AcDbEntity
  8
0
100
AcDbBlockEnd
  0
BLOCK
  5
117
330
E8
100
AcDbEntity
  8
0
100
AcDbBlockBegin
  2
*D3
 70
     1
 10
0.0
 20
0.0
 30
0.0
  3
*D3
  1

  0
TEXT
  5
118
330
E8
100
AcDbEntity
  8
MO_001_VIEW_PV
  6
BYBLOCK
100
AcDbText
 10
67.994886
 20
24.75
 30
0.0
 40
3.0
  1
%%C19.3以下
100
AcDbText
  0
LINE
  5
119
330
E8
100
AcDbEntity
  8
MO_001_VIEW_PV
  6
BYBLOCK
100
AcDbLine
 10
47.599998
 20
24.0
 30
0.0
 11
66.400009
 21
24.0
 31
0.0
  0
SOLID
  5
11A
330
E8
100
AcDbEntity
  8
MO_001_VIEW_PV
  6
BYBLOCK
100
AcDbTrace
 10
50.91825899999999
 20
24.583512
 30
0.0
 11
48.10799799999999
 21
24.0
 31
0.0
 12
50.91825899999999
 22
23.416488
 32
0.0
 13
50.91825899999999
 23
23.416488
 33
0.0
  0
SOLID
  5
11B
330
E8
100
AcDbEntity
  8
MO_001_VIEW_PV
  6
BYBLOCK
100
AcDbTrace
 10
63.081749
 20
23.416488
 30
0.0
 11
65.892009
 21
24.0
 31
0.0
 12
63.081749
 22
24.583512
 32
0.0
 13
63.081749
 23
24.583512
 33
0.0
  0
LINE
  5
11C
330
E8
100
AcDbEntity
  8
MO_001_VIEW_PV
  6
BYBLOCK
100
AcDbLine
 10
47.599998
 20
0.0
 30
0.0
 11
47.599998
 21
26.285999
 31
0.0
  0
LINE
  5
11D
330
E8
100
AcDbEntity
  8
MO_001_VIEW_PV
  6
BYBLOCK
100
AcDbLine
 10
66.400009
 20
0.0
 30
0.0
 11
66.400009
 21
26.285999
 31
0.0
  0
LINE
  5
11E
330
E8
100
AcDbEntity
  8
MO_001_VIEW_PV
  6
BYBLOCK
100
AcDbLine
 10
66.400009
 20
24.0
 30
0.0
 11
89.102028
 21
24.0
 31
0.0
  0
ENDBLK
  5
11F
330
E8
100
AcDbEntity
  8
0
100
AcDbBlockEnd
  0
BLOCK
  5
120
330
EA
100
AcDbEntity
  8
0
100
AcDbBlockBegin
  2
*D4
 70
     1
 10
0.0
 20
0.0
 30
0.0
  3
*D4
  1

  0
LINE
  5
121
330
EA
100
AcDbEntity
  8
MO_001_VIEW_PV
  6
BYBLOCK
100
AcDbLine
 10
50.75
 20
18.0
 30
0.0
 11
63.25
 21
18.0
 31
0.0
  0
SOLID
  5
122
330
EA
100
AcDbEntity
  8
MO_001_VIEW_PV
  6
BYBLOCK
100
AcDbTrace
 10
54.06825999999999
 20
18.58351199999999
 30
0.0
 11
51.258
 21
18.0
 31
0.0
 12
54.06825999999999
 22
17.416488
 32
0.0
 13
54.06825999999999
 23
17.416488
 33
0.0
  0
SOLID
  5
123
330
EA
100
AcDbEntity
  8
MO_001_VIEW_PV
  6
BYBLOCK
100
AcDbTrace
 10
59.93174
 20
17.416488
 30
0.0
 11
62.742
 21
18.0
 31
0.0
 12
59.93174
 22
18.58351199999999
 32
0.0
 13
59.93174
 23
18.58351199999999
 33
0.0
  0
LINE
  5
124
330
EA
100
AcDbEntity
  8
MO_001_VIEW_PV
  6
BYBLOCK
100
AcDbLine
 10
50.75
 20
2.5
 30
0.0
 11
50.75
 21
20.285999
 31
0.0
  0
LINE
  5
125
330
EA
100
AcDbEntity
  8
MO_001_VIEW_PV
  6
BYBLOCK
100
AcDbLine
 10
63.25
 20
2.5
 30
0.0
 11
63.25
 21
20.285999
 31
0.0
  0
TEXT
  5
126
330
EA
100
AcDbEntity
  8
MO_001_VIEW_PV
  6
BYBLOCK
100
AcDbText
 10
79.180289
 20
20.625
 30
0.0
 40
1.5
  1
%%P0.2
100
AcDbText
  0
TEXT
  5
127
330
EA
100
AcDbEntity
  8
MO_001_VIEW_PV
  6
BYBLOCK
100
AcDbText
 10
67.394575
 20
18.75
 30
0.0
 40
3.0
  1
12.5
100
AcDbText
  0
LINE
  5
128
330
EA
100
AcDbEntity
  8
MO_001_VIEW_PV
  6
BYBLOCK
100
AcDbLine
 10
63.25
 20
18.0
 30
0.0
 11
85.50171699999999
 21
18.0
 31
0.0
  0
ENDBLK
  5
129
330
EA
100
AcDbEntity
  8
0
100
AcDbBlockEnd
  0
BLOCK
  5
12A
330
EC
100
AcDbEntity
  8
0
100
AcDbBlockBegin
  2
*D5
 70
     1
 10
0.0
 20
0.0
 30
0.0
  3
*D5
  1

  0
TEXT
  5
12B
330
EC
100
AcDbEntity
  8
MO_001_VIEW_PV
  6
BYBLOCK
100
AcDbText
 10
17.99999899999999
 20
8.464285999999999
 30
0.0
 40
1.5
  1
%%P0.03
 50
90.0
100
AcDbText
  0
TEXT
  5
12C
330
EC
100
AcDbEntity
  8
MO_001_VIEW_PV
  6
BYBLOCK
100
AcDbText
 10
21.0
 20
2.678570999999999
 30
0.0
 40
3.0
  1
%%C3
 50
90.0
100
AcDbText
  0
LINE
  5
12D
330
EC
100
AcDbEntity
  8
MO_001_VIEW_PV
  6
BYBLOCK
100
AcDbLine
 10
24.0
 20
-1.5
 30
0.0
 11
24.0
 21
1.5
 31
0.0
  0
LINE
  5
12E
330
EC
100
AcDbEntity
  8
MO_001_VIEW_PV
  6
BYBLOCK
100
AcDbLine
 10
24.0
 20
-1.5
 30
0.0
 11
24.0
 21
-7.849999999999999
 31
0.0
  0
LINE
  5
12F
330
EC
100
AcDbEntity
  8
MO_001_VIEW_PV
  6
BYBLOCK
100
AcDbLine
 10
24.0
 20
1.5
 30
0.0
 11
24.0
 21
7.849999999999999
 31
0.0
  0
SOLID
  5
130
330
EC
100
AcDbEntity
  8
MO_001_VIEW_PV
  6
BYBLOCK
100
AcDbTrace
 10
24.583512
 20
-4.818259999999999
 30
0.0
 11
24.0
 21
-2.008
 31
0.0
 12
23.416488
 22
-4.818259999999999
 32
0.0
 13
23.416488
 23
-4.818259999999999
 33
0.0
  0
SOLID
  5
131
330
EC
100
AcDbEntity
  8
MO_001_VIEW_PV
  6
BYBLOCK
100
AcDbTrace
 10
23.416488
 20
4.818259999999999
 30
0.0
 11
24.0
 21
2.008
 31
0.0
 12
24.583512
 22
4.818259999999999
 32
0.0
 13
24.583512
 23
4.818259999999999
 33
0.0
  0
LINE
  5
132
330
EC
100
AcDbEntity
  8
MO_001_VIEW_PV
  6
BYBLOCK
100
AcDbLine
 10
9.999997999999999
 20
-1.5
 30
0.0
 11
26.285999
 21
-1.5
 31
0.0
  0
LINE
  5
133
330
EC
100
AcDbEntity
  8
MO_001_VIEW_PV
  6
BYBLOCK
100
AcDbLine
 10
9.999997999999999
 20
1.5
 30
0.0
 11
26.285999
 21
1.5
 31
0.0
  0
LINE
  5
134
330
EC
100
AcDbEntity
  8
MO_001_VIEW_PV
  6
BYBLOCK
100
AcDbLine
 10
24.0
 20
1.5
 30
0.0
 11
24.0
 21
16.285715
 31
0.0
  0
ENDBLK
  5
135
330
EC
100
AcDbEntity
  8
0
100
AcDbBlockEnd
  0
ENDSEC
  0
SECTION
  2
ENTITIES
  0
TEXT
  5
4B
330
1E
100
AcDbEntity
  8
OVERLAY_MAP
  6
C_SOLID_L
100
AcDbText
 10
0.0
 20
6.349999999999999
 30
0.0
 40
4.1672
  1
Model Overlay Name
100
AcDbText
  0
TEXT
  5
4C
330
1E
100
AcDbEntity
  8
OVERLAY_MAP
  6
C_SOLID_L
100
AcDbText
 10
126.999998
 20
0.0
 30
0.0
 40
4.1672
  1
Number
100
AcDbText
  0
TEXT
  5
4D
330
1E
100
AcDbEntity
  8
OVERLAY_MAP
  6
C_SOLID_L
100
AcDbText
 10
177.7999969999999
 20
0.0
 30
0.0
 40
4.1672
  1
File Text
100
AcDbText
  0
TEXT
  5
4E
330
1E
100
AcDbEntity
  8
OVERLAY_MAP
  6
C_SOLID_L
100
AcDbText
 10
0.0
 20
-6.349999999999999
 30
0.0
 40
4.1672
  1
sm 0lc  
100
AcDbText
  0
TEXT
  5
4F
330
1E
100
AcDbEntity
  8
OVERLAY_MAP
  6
C_SOLID_L
100
AcDbText
 10
126.999998
 20
-6.349999999999999
 30
0.0
 40
4.1672
  1
001
100
AcDbText
  0
TEXT
  5
50
330
1E
100
AcDbEntity
  8
OVERLAY_MAP
  6
C_SOLID_L
100
AcDbText
 10
177.7999969999999
 20
-6.349999999999999
 30
0.0
 40
4.1672
  1
                                                                   00118
100
AcDbText
  0
LINE
  5
51
330
1E
100
AcDbEntity
  8
MO_001_VIEW_PV
  6
C_SOLID_M
100
AcDbLine
 10
-16.1
 20
7.599999
 30
0.0
 11
-16.1
 21
-7.599999
 31
0.0
  0
LINE
  5
52
330
1E
100
AcDbEntity
  8
MO_001_VIEW_PV
  6
C_CENTER_L
100
AcDbLine
 10
-26.66876
 20
0.0
 30
0.0
 11
10.87535899999999
 21
0.0
 31
0.0
  0
LINE
  5
53
330
1E
100
AcDbEntity
  8
MO_001_VIEW_PV
  6
C_SOLID_M
100
AcDbLine
 10
-16.200001
 20
8.0
 30
0.0
 11
-16.200001
 21
-8.0
 31
0.0
  0
LINE
  5
54
330
1E
100
AcDbEntity
  8
MO_001_VIEW_PV
  6
C_CENTER_L
100
AcDbLine
 10
-48.0
 20
15.0
 30
0.0
 11
-48.0
 21
-15.0
 31
0.0
  0
LINE
  5
55
330
1E
100
AcDbEntity
  8
MO_001_VIEW_PV
  6
C_CENTER_L
100
AcDbLine
 10
-63.0
 20
0.0
 30
0.0
 11
-33.0
 21
0.0
 31
0.0
  0
LINE
  5
56
330
1E
100
AcDbEntity
  8
MO_001_VIEW_PV
  6
C_CENTER_L
100
AcDbLine
 10
57.0
 20
11.913316
 30
0.0
 11
57.0
 21
-11.99136799999999
 31
0.0
  0
LINE
  5
57
330
1E
100
AcDbEntity
  8
MO_001_VIEW_PV
  6
C_CENTER_L
100
AcDbLine
 10
44.911842
 20
0.0
 30
0.0
 11
68.956314
 21
0.0
 31
0.0
  0
ARC
  5
58
330
1E
100
AcDbEntity
  8
MO_001_VIEW_PV
  6
C_SOLID_M
100
AcDbCircle
 10
57.0
 20
0.0
 30
0.0
 40
8.349999999999999
100
AcDbArc
 50
281.047139
 51
259.2320159999999
  0
LINE
  5
59
330
1E
100
AcDbEntity
  8
MO_001_VIEW_PV
  6
C_SOLID_M
100
AcDbLine
 10
59.099991
 20
-5.599999999999999
 30
0.0
 11
59.099991
 21
-8.081614999999999
 31
0.0
  0
LINE
  5
5A
330
1E
100
AcDbEntity
  8
MO_001_VIEW_PV
  6
C_SOLID_M
100
AcDbLine
 10
54.900002
 20
-5.599999999999999
 30
0.0
 11
54.900002
 21
-8.081614999999999
 31
0.0
  0
LINE
  5
5B
330
1E
100
AcDbEntity
  8
MO_001_VIEW_PV
  6
C_SOLID_M
100
AcDbLine
 10
54.900002
 20
-5.599999999999999
 30
0.0
 11
59.099991
 21
-5.599999999999999
 31
0.0
  0
ARC
  5
5C
330
1E
100
AcDbEntity
  8
MO_001_VIEW_PV
  6
C_SOLID_M
100
AcDbCircle
 10
57.0
 20
0.0
 30
0.0
 40
8.25
100
AcDbArc
 50
284.7466419999999
 51
255.253349
  0
CIRCLE
  5
5D
330
1E
100
AcDbEntity
  8
MO_001_VIEW_PV
  6
C_SOLID_L
100
AcDbCircle
 10
63.25
 20
0.0
 30
0.0
 40
1.3
  0
CIRCLE
  5
5E
330
1E
100
AcDbEntity
  8
MO_001_VIEW_PV
  6
C_SOLID_M
100
AcDbCircle
 10
63.25
 20
0.0
 30
0.0
 40
0.85
  0
LINE
  5
5F
330
1E
100
AcDbEntity
  8
MO_001_VIEW_PV
  6
C_CENTER_L
100
AcDbLine
 10
63.25
 20
2.5
 30
0.0
 11
63.25
 21
-2.5
 31
0.0
  0
CIRCLE
  5
60
330
1E
100
AcDbEntity
  8
MO_001_VIEW_PV
  6
C_SOLID_M
100
AcDbCircle
 10
50.75
 20
0.0
 30
0.0
 40
0.85
  0
CIRCLE
  5
61
330
1E
100
AcDbEntity
  8
MO_001_VIEW_PV
  6
C_SOLID_L
100
AcDbCircle
 10
50.75
 20
0.0
 30
0.0
 40
1.3
  0
LINE
  5
62
330
1E
100
AcDbEntity
  8
MO_001_VIEW_PV
  6
C_CENTER_L
100
AcDbLine
 10
50.75
 20
2.5
 30
0.0
 11
50.75
 21
-2.5
 31
0.0
  0
LINE
  5
63
330
1E
100
AcDbEntity
  8
MO_001_VIEW_PV
  6
C_SOLID_M
100
AcDbLine
 10
4.070003999999999
 20
-14.59009599999999
 30
0.0
 11
4.070003999999999
 21
-10.740396
 31
0.0
  0
LINE
  5
64
330
1E
100
AcDbEntity
  8
MO_001_VIEW_PV
  6
C_SOLID_M
100
AcDbLine
 10
5.529994999999999
 20
-14.59009599999999
 30
0.0
 11
5.529994999999999
 21
-10.740396
 31
0.0
  0
ARC
  5
65
330
1E
100
AcDbEntity
  8
MO_001_VIEW_PV
  6
C_SOLID_M
100
AcDbCircle
 10
4.434994
 20
-14.870163
 30
0.0
 40
0.4600680000000001
100
AcDbArc
 50
37.49937399999999
 51
142.500573
  0
ARC
  5
66
330
1E
100
AcDbEntity
  8
MO_001_VIEW_PV
  6
C_SOLID_M
100
AcDbCircle
 10
4.434994
 20
-14.31002799999999
 30
0.0
 40
0.4600680000000001
100
AcDbArc
 50
217.499441
 51
322.500598
  0
ARC
  5
67
330
1E
100
AcDbEntity
  8
MO_001_VIEW_PV
  6
C_SOLID_M
100
AcDbCircle
 10
5.164997
 20
-14.31002799999999
 30
0.0
 40
0.4600680000000001
100
AcDbArc
 50
217.4995779999999
 51
322.501145
  0
LINE
  5
68
330
1E
100
AcDbEntity
  8
MO_001_VIEW_PV
  6
C_SOLID_M
100
AcDbLine
 10
5.529994999999999
 20
-24.090097
 30
0.0
 11
5.529994999999999
 21
-15.590094
 31
0.0
  0
LINE
  5
69
330
1E
100
AcDbEntity
  8
MO_001_VIEW_PV
  6
C_SOLID_M
100
AcDbLine
 10
4.070003999999999
 20
-24.090097
 30
0.0
 11
4.070003999999999
 21
-15.590094
 31
0.0
  0
ARC
  5
6A
330
1E
100
AcDbEntity
  8
MO_001_VIEW_PV
  6
C_SOLID_M
100
AcDbCircle
 10
5.165005
 20
-15.870165
 30
0.0
 40
0.4600680000000001
100
AcDbArc
 50
37.499429
 51
142.500627
  0
ARC
  5
6B
330
1E
100
AcDbEntity
  8
MO_001_VIEW_PV
  6
C_SOLID_M
100
AcDbCircle
 10
5.165005
 20
-15.31003
 30
0.0
 40
0.4600680000000001
100
AcDbArc
 50
217.4994
 51
322.5005569999999
  0
ARC
  5
6C
330
1E
100
AcDbEntity
  8
MO_001_VIEW_PV
  6
C_SOLID_M
100
AcDbCircle
 10
4.435001
 20
-15.870165
 30
0.0
 40
0.4600680000000001
100
AcDbArc
 50
37.499579
 51
142.501146
  0
LINE
  5
6D
330
1E
100
AcDbEntity
  8
MO_001_VIEW_PV
  6
C_SOLID_M
100
AcDbLine
 10
4.070003999999999
 20
-24.090097
 30
0.0
 11
5.529994999999999
 21
-24.090097
 31
0.0
  0
LINE
  5
6E
330
1E
100
AcDbEntity
  8
MO_001_VIEW_PV
  6
C_SOLID_M
100
AcDbLine
 10
5.049998999999999
 20
-24.090097
 30
0.0
 11
5.049998999999999
 21
-29.090096
 31
0.0
  0
LINE
  5
6F
330
1E
100
AcDbEntity
  8
MO_001_VIEW_PV
  6
C_SOLID_M
100
AcDbLine
 10
4.549998999999999
 20
-24.090097
 30
0.0
 11
4.549998999999999
 21
-29.090096
 31
0.0
  0
LINE
  5
70
330
1E
100
AcDbEntity
  8
MO_001_VIEW_PV
  6
C_SOLID_M
100
AcDbLine
 10
4.549998999999999
 20
-29.090096
 30
0.0
 11
5.049998999999999
 21
-29.090096
 31
0.0
  0
ARC
  5
71
330
1E
100
AcDbEntity
  8
MO_001_VIEW_PV
  6
C_SOLID_M
100
AcDbCircle
 10
0.529995
 20
-10.740396
 30
0.0
 40
3.540008999999999
100
AcDbArc
 50
0.0
 51
89.99998900000001
  0
ARC
  5
72
330
1E
100
AcDbEntity
  8
MO_001_VIEW_PV
  6
C_SOLID_M
100
AcDbCircle
 10
0.529995
 20
-10.740396
 30
0.0
 40
5.0
100
AcDbArc
 50
0.0
 51
89.99998900000001
  0
LINE
  5
73
330
1E
100
AcDbEntity
  8
MO_001_VIEW_PV
  6
C_SOLID_M
100
AcDbLine
 10
-0.1
 20
-7.200388
 30
0.0
 11
0.529995
 21
-7.200388
 31
0.0
  0
LINE
  5
74
330
1E
100
AcDbEntity
  8
MO_001_VIEW_PV
  6
C_SOLID_M
100
AcDbLine
 10
-0.1
 20
-5.740395999999999
 30
0.0
 11
0.529995
 21
-5.740395999999999
 31
0.0
  0
LINE
  5
75
330
1E
100
AcDbEntity
  8
MO_001_VIEW_PV
  6
C_SOLID_M
100
AcDbLine
 10
57.070007
 20
-14.69009599999999
 30
0.0
 11
57.070007
 21
-8.380599999999999
 31
0.0
  0
LINE
  5
76
330
1E
100
AcDbEntity
  8
MO_001_VIEW_PV
  6
C_SOLID_M
100
AcDbLine
 10
58.529999
 20
-14.69009599999999
 30
0.0
 11
58.529999
 21
-8.380599999999999
 31
0.0
  0
ARC
  5
77
330
1E
100
AcDbEntity
  8
MO_001_VIEW_PV
  6
C_SOLID_M
100
AcDbCircle
 10
57.434998
 20
-14.970163
 30
0.0
 40
0.4600680000000001
100
AcDbArc
 50
37.49937399999999
 51
142.500573
  0
ARC
  5
78
330
1E
100
AcDbEntity
  8
MO_001_VIEW_PV
  6
C_SOLID_M
100
AcDbCircle
 10
57.434998
 20
-14.410028
 30
0.0
 40
0.4600680000000001
100
AcDbArc
 50
217.499441
 51
322.500598
  0
ARC
  5
79
330
1E
100
AcDbEntity
  8
MO_001_VIEW_PV
  6
C_SOLID_M
100
AcDbCircle
 10
58.165009
 20
-14.410028
 30
0.0
 40
0.4600680000000001
100
AcDbArc
 50
217.4995779999999
 51
322.501145
  0
LINE
  5
7A
330
1E
100
AcDbEntity
  8
MO_001_VIEW_PV
  6
C_SOLID_M
100
AcDbLine
 10
58.529999
 20
-24.190098
 30
0.0
 11
58.529999
 21
-15.690094
 31
0.0
  0
LINE
  5
7B
330
1E
100
AcDbEntity
  8
MO_001_VIEW_PV
  6
C_SOLID_M
100
AcDbLine
 10
57.070007
 20
-24.190098
 30
0.0
 11
57.070007
 21
-15.690094
 31
0.0
  0
ARC
  5
7C
330
1E
100
AcDbEntity
  8
MO_001_VIEW_PV
  6
C_SOLID_M
100
AcDbCircle
 10
58.165009
 20
-15.970165
 30
0.0
 40
0.4600680000000001
100
AcDbArc
 50
37.499429
 51
142.500627
  0
ARC
  5
7D
330
1E
100
AcDbEntity
  8
MO_001_VIEW_PV
  6
C_SOLID_M
100
AcDbCircle
 10
58.165009
 20
-15.41002999999999
 30
0.0
 40
0.4600680000000001
100
AcDbArc
 50
217.4994
 51
322.5005569999999
  0
ARC
  5
7E
330
1E
100
AcDbEntity
  8
MO_001_VIEW_PV
  6
C_SOLID_M
100
AcDbCircle
 10
57.435013
 20
-15.970165
 30
0.0
 40
0.4600680000000001
100
AcDbArc
 50
37.499579
 51
142.501146
  0
LINE
  5
7F
330
1E
100
AcDbEntity
  8
MO_001_VIEW_PV
  6
C_SOLID_M
100
AcDbLine
 10
57.070007
 20
-24.190098
 30
0.0
 11
58.529999
 21
-24.190098
 31
0.0
  0
LINE
  5
80
330
1E
100
AcDbEntity
  8
MO_001_VIEW_PV
  6
C_SOLID_M
100
AcDbLine
 10
58.050003
 20
-24.190098
 30
0.0
 11
58.050003
 21
-29.190096
 31
0.0
  0
LINE
  5
81
330
1E
100
AcDbEntity
  8
MO_001_VIEW_PV
  6
C_SOLID_M
100
AcDbLine
 10
57.550003
 20
-24.190098
 30
0.0
 11
57.550003
 21
-29.190096
 31
0.0
  0
LINE
  5
82
330
1E
100
AcDbEntity
  8
MO_001_VIEW_PV
  6
C_SOLID_M
100
AcDbLine
 10
57.550003
 20
-29.190096
 30
0.0
 11
58.050003
 21
-29.190096
 31
0.0
  0
ARC
  5
83
330
1E
100
AcDbEntity
  8
MO_001_VIEW_PV
  6
C_SOLID_M
100
AcDbCircle
 10
55.834991
 20
-14.410028
 30
0.0
 40
0.4600680000000001
100
AcDbArc
 50
217.499441
 51
322.500598
  0
ARC
  5
84
330
1E
100
AcDbEntity
  8
MO_001_VIEW_PV
  6
C_SOLID_M
100
AcDbCircle
 10
55.834991
 20
-14.970163
 30
0.0
 40
0.4600680000000001
100
AcDbArc
 50
37.49937399999999
 51
142.500573
  0
ARC
  5
85
330
1E
100
AcDbEntity
  8
MO_001_VIEW_PV
  6
C_SOLID_M
100
AcDbCircle
 10
56.56500199999999
 20
-14.410028
 30
0.0
 40
0.4600680000000001
100
AcDbArc
 50
217.4995779999999
 51
322.501145
  0
ARC
  5
86
330
1E
100
AcDbEntity
  8
MO_001_VIEW_PV
  6
C_SOLID_M
100
AcDbCircle
 10
56.56500199999999
 20
-15.970165
 30
0.0
 40
0.4600680000000001
100
AcDbArc
 50
37.499429
 51
142.500627
  0
ARC
  5
87
330
1E
100
AcDbEntity
  8
MO_001_VIEW_PV
  6
C_SOLID_M
100
AcDbCircle
 10
56.56500199999999
 20
-15.41002999999999
 30
0.0
 40
0.4600680000000001
100
AcDbArc
 50
217.4994
 51
322.5005569999999
  0
ARC
  5
88
330
1E
100
AcDbEntity
  8
MO_001_VIEW_PV
  6
C_SOLID_M
100
AcDbCircle
 10
55.835007
 20
-15.970165
 30
0.0
 40
0.4600680000000001
100
AcDbArc
 50
37.499579
 51
142.501146
  0
LINE
  5
89
330
1E
100
AcDbEntity
  8
MO_001_VIEW_PV
  6
C_SOLID_M
100
AcDbLine
 10
55.470016
 20
-24.190098
 30
0.0
 11
55.470016
 21
-15.690094
 31
0.0
  0
LINE
  5
8A
330
1E
100
AcDbEntity
  8
MO_001_VIEW_PV
  6
C_SOLID_M
100
AcDbLine
 10
56.930008
 20
-24.190098
 30
0.0
 11
56.930008
 21
-15.690094
 31
0.0
  0
LINE
  5
8B
330
1E
100
AcDbEntity
  8
MO_001_VIEW_PV
  6
C_SOLID_M
100
AcDbLine
 10
56.930008
 20
-24.190098
 30
0.0
 11
55.470016
 21
-24.190098
 31
0.0
  0
LINE
  5
8C
330
1E
100
AcDbEntity
  8
MO_001_VIEW_PV
  6
C_SOLID_M
100
AcDbLine
 10
55.950012
 20
-24.190098
 30
0.0
 11
55.950012
 21
-29.190096
 31
0.0
  0
LINE
  5
8D
330
1E
100
AcDbEntity
  8
MO_001_VIEW_PV
  6
C_SOLID_M
100
AcDbLine
 10
56.450012
 20
-24.190098
 30
0.0
 11
56.450012
 21
-29.190096
 31
0.0
  0
LINE
  5
8E
330
1E
100
AcDbEntity
  8
MO_001_VIEW_PV
  6
C_SOLID_M
100
AcDbLine
 10
56.450012
 20
-29.190096
 30
0.0
 11
55.950012
 21
-29.190096
 31
0.0
  0
ARC
  5
8F
330
1E
100
AcDbEntity
  8
MO_001_VIEW_PV
  6
C_SOLID_M
100
AcDbCircle
 10
57.0
 20
0.0
 30
0.0
 40
8.349999999999999
100
AcDbArc
 50
269.519623
 51
270.482018
  0
LINE
  5
90
330
1E
100
AcDbEntity
  8
MO_001_VIEW_PV
  6
C_SOLID_M
100
AcDbLine
 10
-48.320007
 20
-14.69009599999999
 30
0.0
 11
-48.320007
 21
-9.394550999999999
 31
0.0
  0
LINE
  5
91
330
1E
100
AcDbEntity
  8
MO_001_VIEW_PV
  6
C_SOLID_M
100
AcDbLine
 10
-49.779999
 20
-14.69009599999999
 30
0.0
 11
-49.779999
 21
-9.229928999999998
 31
0.0
  0
ARC
  5
92
330
1E
100
AcDbEntity
  8
MO_001_VIEW_PV
  6
C_SOLID_M
100
AcDbCircle
 10
-48.684998
 20
-14.970163
 30
0.0
 40
0.4600680000000001
100
AcDbArc
 50
37.499429
 51
142.500627
  0
ARC
  5
93
330
1E
100
AcDbEntity
  8
MO_001_VIEW_PV
  6
C_SOLID_M
100
AcDbCircle
 10
-48.684998
 20
-14.410028
 30
0.0
 40
0.4600680000000001
100
AcDbArc
 50
217.4994
 51
322.5005569999999
  0
ARC
  5
94
330
1E
100
AcDbEntity
  8
MO_001_VIEW_PV
  6
C_SOLID_M
100
AcDbCircle
 10
-49.41500900000001
 20
-14.410028
 30
0.0
 40
0.4600680000000001
100
AcDbArc
 50
217.498854
 51
322.500421
  0
LINE
  5
95
330
1E
100
AcDbEntity
  8
MO_001_VIEW_PV
  6
C_SOLID_M
100
AcDbLine
 10
-49.779999
 20
-24.190098
 30
0.0
 11
-49.779999
 21
-15.690094
 31
0.0
  0
LINE
  5
96
330
1E
100
AcDbEntity
  8
MO_001_VIEW_PV
  6
C_SOLID_M
100
AcDbLine
 10
-48.320007
 20
-24.190098
 30
0.0
 11
-48.320007
 21
-15.690094
 31
0.0
  0
ARC
  5
97
330
1E
100
AcDbEntity
  8
MO_001_VIEW_PV
  6
C_SOLID_M
100
AcDbCircle
 10
-49.41500900000001
 20
-15.970165
 30
0.0
 40
0.4600680000000001
100
AcDbArc
 50
37.49937399999999
 51
142.500573
  0
ARC
  5
98
330
1E
100
AcDbEntity
  8
MO_001_VIEW_PV
  6
C_SOLID_M
100
AcDbCircle
 10
-49.41500900000001
 20
-15.41002999999999
 30
0.0
 40
0.4600680000000001
100
AcDbArc
 50
217.499441
 51
322.500598
  0
ARC
  5
99
330
1E
100
AcDbEntity
  8
MO_001_VIEW_PV
  6
C_SOLID_M
100
AcDbCircle
 10
-48.685013
 20
-15.970165
 30
0.0
 40
0.4600680000000001
100
AcDbArc
 50
37.49885499999999
 51
142.5004219999999
  0
LINE
  5
9A
330
1E
100
AcDbEntity
  8
MO_001_VIEW_PV
  6
C_SOLID_M
100
AcDbLine
 10
-48.320007
 20
-24.190098
 30
0.0
 11
-49.779999
 21
-24.190098
 31
0.0
  0
LINE
  5
9B
330
1E
100
AcDbEntity
  8
MO_001_VIEW_PV
  6
C_SOLID_M
100
AcDbLine
 10
-49.300003
 20
-24.190098
 30
0.0
 11
-49.300003
 21
-29.190096
 31
0.0
  0
LINE
  5
9C
330
1E
100
AcDbEntity
  8
MO_001_VIEW_PV
  6
C_SOLID_M
100
AcDbLine
 10
-48.800003
 20
-24.190098
 30
0.0
 11
-48.800003
 21
-29.190096
 31
0.0
  0
LINE
  5
9D
330
1E
100
AcDbEntity
  8
MO_001_VIEW_PV
  6
C_SOLID_M
100
AcDbLine
 10
-48.800003
 20
-29.190096
 30
0.0
 11
-49.300003
 21
-29.190096
 31
0.0
  0
LINE
  5
9E
330
1E
100
AcDbEntity
  8
MO_001_VIEW_PV
  6
C_SOLID_M
100
AcDbLine
 10
-46.220001
 20
-14.69009599999999
 30
0.0
 11
-46.220001
 21
-9.229928999999998
 31
0.0
  0
LINE
  5
9F
330
1E
100
AcDbEntity
  8
MO_001_VIEW_PV
  6
C_SOLID_M
100
AcDbLine
 10
-47.67999299999999
 20
-14.69009599999999
 30
0.0
 11
-47.67999299999999
 21
-9.394550999999999
 31
0.0
  0
ARC
  5
A0
330
1E
100
AcDbEntity
  8
MO_001_VIEW_PV
  6
C_SOLID_M
100
AcDbCircle
 10
-46.58497599999999
 20
-14.410028
 30
0.0
 40
0.4600680000000001
100
AcDbArc
 50
217.4994
 51
322.5005569999999
  0
ARC
  5
A1
330
1E
100
AcDbEntity
  8
MO_001_VIEW_PV
  6
C_SOLID_M
100
AcDbCircle
 10
-46.58497599999999
 20
-14.970163
 30
0.0
 40
0.4600680000000001
100
AcDbArc
 50
37.499429
 51
142.500627
  0
ARC
  5
A2
330
1E
100
AcDbEntity
  8
MO_001_VIEW_PV
  6
C_SOLID_M
100
AcDbCircle
 10
-47.314987
 20
-14.410028
 30
0.0
 40
0.4600680000000001
100
AcDbArc
 50
217.498854
 51
322.500421
  0
ARC
  5
A3
330
1E
100
AcDbEntity
  8
MO_001_VIEW_PV
  6
C_SOLID_M
100
AcDbCircle
 10
-47.314987
 20
-15.970165
 30
0.0
 40
0.4600680000000001
100
AcDbArc
 50
37.49937399999999
 51
142.500573
  0
ARC
  5
A4
330
1E
100
AcDbEntity
  8
MO_001_VIEW_PV
  6
C_SOLID_M
100
AcDbCircle
 10
-47.314987
 20
-15.41002999999999
 30
0.0
 40
0.4600680000000001
100
AcDbArc
 50
217.499441
 51
322.500598
  0
ARC
  5
A5
330
1E
100
AcDbEntity
  8
MO_001_VIEW_PV
  6
C_SOLID_M
100
AcDbCircle
 10
-46.58499099999999
 20
-15.970165
 30
0.0
 40
0.4600680000000001
100
AcDbArc
 50
37.49885499999999
 51
142.5004219999999
  0
LINE
  5
A6
330
1E
100
AcDbEntity
  8
MO_001_VIEW_PV
  6
C_SOLID_M
100
AcDbLine
 10
-46.220001
 20
-24.190098
 30
0.0
 11
-46.220001
 21
-15.690094
 31
0.0
  0
LINE
  5
A7
330
1E
100
AcDbEntity
  8
MO_001_VIEW_PV
  6
C_SOLID_M
100
AcDbLine
 10
-47.67999299999999
 20
-24.190098
 30
0.0
 11
-47.67999299999999
 21
-15.690094
 31
0.0
  0
LINE
  5
A8
330
1E
100
AcDbEntity
  8
MO_001_VIEW_PV
  6
C_SOLID_M
100
AcDbLine
 10
-47.67999299999999
 20
-24.190098
 30
0.0
 11
-46.220001
 21
-24.190098
 31
0.0
  0
LINE
  5
A9
330
1E
100
AcDbEntity
  8
MO_001_VIEW_PV
  6
C_SOLID_M
100
AcDbLine
 10
-46.69999699999999
 20
-24.190098
 30
0.0
 11
-46.69999699999999
 21
-29.190096
 31
0.0
  0
LINE
  5
AA
330
1E
100
AcDbEntity
  8
MO_001_VIEW_PV
  6
C_SOLID_M
100
AcDbLine
 10
-47.19999699999999
 20
-24.190098
 30
0.0
 11
-47.19999699999999
 21
-29.190096
 31
0.0
  0
LINE
  5
AB
330
1E
100
AcDbEntity
  8
MO_001_VIEW_PV
  6
C_SOLID_M
100
AcDbLine
 10
-47.19999699999999
 20
-29.190096
 30
0.0
 11
-46.69999699999999
 21
-29.190096
 31
0.0
  0
LINE
  5
AC
330
1E
100
AcDbEntity
  8
MO_001_VIEW_PV
  6
C_SOLID_M
100
AcDbLine
 10
-14.3
 20
9.4
 30
0.0
 11
-0.1
 21
9.4
 31
0.0
  0
LINE
  5
AD
330
1E
100
AcDbEntity
  8
MO_001_VIEW_PV
  6
C_SOLID_M
100
AcDbLine
 10
-14.3
 20
-9.4
 30
0.0
 11
-0.1
 21
-9.4
 31
0.0
  0
ARC
  5
AE
330
1E
100
AcDbEntity
  8
MO_001_VIEW_PV
  6
C_SOLID_M
100
AcDbCircle
 10
-14.3
 20
7.599999
 30
0.0
 40
1.8
100
AcDbArc
 50
90.000002
 51
180.000005
  0
ARC
  5
AF
330
1E
100
AcDbEntity
  8
MO_001_VIEW_PV
  6
C_SOLID_M
100
AcDbCircle
 10
-14.3
 20
-7.599999
 30
0.0
 40
1.8
100
AcDbArc
 50
180.000009
 51
269.999998
  0
LINE
  5
B0
330
1E
100
AcDbEntity
  8
MO_001_VIEW_PV
  6
C_SOLID_M
100
AcDbLine
 10
-0.1
 20
9.4
 30
0.0
 11
-0.1
 21
-9.4
 31
0.0
  0
LINE
  5
B1
330
1E
100
AcDbEntity
  8
MO_001_VIEW_PV
  6
C_SOLID_M
100
AcDbLine
 10
0.0
 20
8.5
 30
0.0
 11
0.0
 21
-8.5
 31
0.0
  0
LINE
  5
B2
330
1E
100
AcDbEntity
  8
MO_001_VIEW_PV
  6
C_SOLID_M
100
AcDbLine
 10
-0.1
 20
8.600000999999998
 30
0.0
 11
0.0
 21
8.500000999999999
 31
0.0
  0
LINE
  5
B3
330
1E
100
AcDbEntity
  8
MO_001_VIEW_PV
  6
C_SOLID_M
100
AcDbLine
 10
-0.1
 20
-8.600000999999998
 30
0.0
 11
0.0
 21
-8.500000999999999
 31
0.0
  0
LINE
  5
B4
330
1E
100
AcDbEntity
  8
MO_001_VIEW_PV
  6
C_SOLID_M
100
AcDbLine
 10
-16.200001
 20
7.0
 30
0.0
 11
-16.1
 21
7.0
 31
0.0
  0
LINE
  5
B5
330
1E
100
AcDbEntity
  8
MO_001_VIEW_PV
  6
C_SOLID_M
100
AcDbLine
 10
-16.200001
 20
-7.0
 30
0.0
 11
-16.1
 21
-7.0
 31
0.0
  0
LINE
  5
B6
330
1E
100
AcDbEntity
  8
MO_001_VIEW_PV
  6
C_SOLID_M
100
AcDbLine
 10
-16.89999999999999
 20
8.0
 30
0.0
 11
-16.89999999999999
 21
-8.0
 31
0.0
  0
LINE
  5
B7
330
1E
100
AcDbEntity
  8
MO_001_VIEW_PV
  6
C_SOLID_M
100
AcDbLine
 10
-16.89999999999999
 20
8.0
 30
0.0
 11
-16.200001
 21
8.0
 31
0.0
  0
LINE
  5
B8
330
1E
100
AcDbEntity
  8
MO_001_VIEW_PV
  6
C_SOLID_M
100
AcDbLine
 10
-16.89999999999999
 20
-8.0
 30
0.0
 11
-16.200001
 21
-8.0
 31
0.0
  0
LINE
  5
B9
330
1E
100
AcDbEntity
  8
MO_001_VIEW_PV
  6
C_SOLID_M
100
AcDbLine
 10
10.19999899999999
 20
1.300000999999999
 30
0.0
 11
10.19999899999999
 21
-1.3
 31
0.0
  0
LINE
  5
BA
330
1E
100
AcDbEntity
  8
MO_001_VIEW_PV
  6
C_SOLID_M
100
AcDbLine
 10
-25.6
 20
1.3
 30
0.0
 11
-25.6
 21
-1.3
 31
0.0
  0
LINE
  5
BB
330
1E
100
AcDbEntity
  8
MO_001_VIEW_PV
  6
C_SOLID_M
100
AcDbLine
 10
0.0
 20
1.5
 30
0.0
 11
9.999997999999999
 21
1.5
 31
0.0
  0
LINE
  5
BC
330
1E
100
AcDbEntity
  8
MO_001_VIEW_PV
  6
C_SOLID_M
100
AcDbLine
 10
0.0
 20
-1.5
 30
0.0
 11
9.999997999999999
 21
-1.5
 31
0.0
  0
LINE
  5
BD
330
1E
100
AcDbEntity
  8
MO_001_VIEW_PV
  6
C_SOLID_M
100
AcDbLine
 10
-25.4
 20
1.5
 30
0.0
 11
-25.6
 21
1.3
 31
0.0
  0
LINE
  5
BE
330
1E
100
AcDbEntity
  8
MO_001_VIEW_PV
  6
C_SOLID_M
100
AcDbLine
 10
-25.4
 20
-1.5
 30
0.0
 11
-25.6
 21
-1.3
 31
0.0
  0
LINE
  5
BF
330
1E
100
AcDbEntity
  8
MO_001_VIEW_PV
  6
C_SOLID_M
100
AcDbLine
 10
10.000002
 20
1.500002
 30
0.0
 11
10.200001
 21
1.300004
 31
0.0
  0
LINE
  5
C0
330
1E
100
AcDbEntity
  8
MO_001_VIEW_PV
  6
C_SOLID_M
100
AcDbLine
 10
10.2
 20
-1.3
 30
0.0
 11
10.000001
 21
-1.500000999999999
 31
0.0
  0
LINE
  5
C1
330
1E
100
AcDbEntity
  8
MO_001_VIEW_PV
  6
C_SOLID_M
100
AcDbLine
 10
9.999997999999999
 20
1.5
 30
0.0
 11
9.999997999999999
 21
-1.5
 31
0.0
  0
LINE
  5
C2
330
1E
100
AcDbEntity
  8
MO_001_VIEW_PV
  6
C_SOLID_M
100
AcDbLine
 10
-25.400002
 20
1.5
 30
0.0
 11
-25.400002
 21
-1.5
 31
0.0
  0
LINE
  5
C3
330
1E
100
AcDbEntity
  8
MO_001_VIEW_PV
  6
C_SOLID_M
100
AcDbLine
 10
-25.400002
 20
1.5
 30
0.0
 11
-16.89999999999999
 21
1.5
 31
0.0
  0
LINE
  5
C4
330
1E
100
AcDbEntity
  8
MO_001_VIEW_PV
  6
C_SOLID_M
100
AcDbLine
 10
-25.400002
 20
-1.5
 30
0.0
 11
-16.89999999999999
 21
-1.5
 31
0.0
  0
ARC
  5
C5
330
1E
100
AcDbEntity
  8
MO_001_VIEW_PV
  6
C_SOLID_M
100
AcDbCircle
 10
57.0
 20
0.0
 30
0.0
 40
9.4
100
AcDbArc
 50
279.367472
 51
260.632533
  0
ARC
  5
C6
330
1E
100
AcDbEntity
  8
MO_001_VIEW_PV
  6
C_SOLID_M
100
AcDbCircle
 10
57.0
 20
0.0
 30
0.0
 40
9.4
100
AcDbArc
 50
269.5732809999999
 51
270.42672
  0
CIRCLE
  5
C7
330
1E
100
AcDbEntity
  8
MO_001_VIEW_PV
  6
C_SOLID_M
100
AcDbCircle
 10
57.0
 20
0.0
 30
0.0
 40
1.5
  0
CIRCLE
  5
C8
330
1E
100
AcDbEntity
  8
MO_001_VIEW_PV
  6
C_SOLID_M
100
AcDbCircle
 10
57.0
 20
0.0
 30
0.0
 40
1.3
  0
CIRCLE
  5
C9
330
1E
100
AcDbEntity
  8
MO_001_VIEW_PV
  6
C_SOLID_M
100
AcDbCircle
 10
-48.0
 20
0.0
 30
0.0
 40
1.5
  0
CIRCLE
  5
CA
330
1E
100
AcDbEntity
  8
MO_001_VIEW_PV
  6
C_SOLID_M
100
AcDbCircle
 10
-48.0
 20
0.0
 30
0.0
 40
1.3
  0
CIRCLE
  5
CB
330
1E
100
AcDbEntity
  8
MO_001_VIEW_PV
  6
C_SOLID_M
100
AcDbCircle
 10
-48.0
 20
0.0
 30
0.0
 40
8.0
  0
CIRCLE
  5
CC
330
1E
100
AcDbEntity
  8
MO_001_VIEW_PV
  6
C_SOLID_M
100
AcDbCircle
 10
-48.0
 20
0.0
 30
0.0
 40
9.4
  0
LINE
  5
CD
330
1E
100
AcDbEntity
  8
MO_001_VIEW_PV
  6
C_SOLID_M
100
AcDbLine
 10
59.0
 20
-5.849999999999999
 30
0.0
 11
59.0
 21
-8.106942
 31
0.0
  0
LINE
  5
CE
330
1E
100
AcDbEntity
  8
MO_001_VIEW_PV
  6
C_SOLID_M
100
AcDbLine
 10
55.0
 20
-5.849999999999999
 30
0.0
 11
55.0
 21
-8.106942
 31
0.0
  0
LINE
  5
CF
330
1E
100
AcDbEntity
  8
MO_001_VIEW_PV
  6
C_SOLID_M
100
AcDbLine
 10
58.599991
 20
-6.349999999999999
 30
0.0
 11
58.599991
 21
-8.195273
 31
0.0
  0
LINE
  5
D0
330
1E
100
AcDbEntity
  8
MO_001_VIEW_PV
  6
C_SOLID_M
100
AcDbLine
 10
55.400002
 20
-6.349999999999999
 30
0.0
 11
55.400002
 21
-8.195273
 31
0.0
  0
LINE
  5
D1
330
1E
100
AcDbEntity
  8
MO_001_VIEW_PV
  6
C_SOLID_M
100
AcDbLine
 10
55.0
 20
-5.849999999999999
 30
0.0
 11
59.0
 21
-5.849999999999999
 31
0.0
  0
LINE
  5
D2
330
1E
100
AcDbEntity
  8
MO_001_VIEW_PV
  6
C_SOLID_M
100
AcDbLine
 10
55.400002
 20
-6.349999999999999
 30
0.0
 11
58.599991
 21
-6.349999999999999
 31
0.0
  0
ARC
  5
D3
330
1E
100
AcDbEntity
  8
MO_001_VIEW_PV
  6
C_SOLID_M
100
AcDbCircle
 10
59.070007
 20
-8.380599999999999
 30
0.0
 40
2.0
100
AcDbArc
 50
103.7378619999999
 51
180.000005
  0
ARC
  5
D4
330
1E
100
AcDbEntity
  8
MO_001_VIEW_PV
  6
C_SOLID_M
100
AcDbCircle
 10
59.070007
 20
-8.380599999999999
 30
0.0
 40
0.540009
100
AcDbArc
 50
150.5020159999999
 51
180.000005
  0
ARC
  5
D5
330
1E
100
AcDbEntity
  8
MO_001_VIEW_PV
  6
C_SOLID_M
100
AcDbCircle
 10
54.92999300000001
 20
-8.380599999999999
 30
0.0
 40
2.0
100
AcDbArc
 50
0.0
 51
76.26213599999999
  0
ARC
  5
D6
330
1E
100
AcDbEntity
  8
MO_001_VIEW_PV
  6
C_SOLID_M
100
AcDbCircle
 10
54.92999300000001
 20
-8.380599999999999
 30
0.0
 40
0.540009
100
AcDbArc
 50
0.0
 51
29.49798499999999
  0
LINE
  5
D7
330
1E
100
AcDbEntity
  8
MO_001_VIEW_PV
  6
C_SOLID_M
100
AcDbLine
 10
55.470001
 20
-14.69009599999999
 30
0.0
 11
55.470001
 21
-8.380599999999999
 31
0.0
  0
LINE
  5
D8
330
1E
100
AcDbEntity
  8
MO_001_VIEW_PV
  6
C_SOLID_M
100
AcDbLine
 10
56.929993
 20
-14.69009599999999
 30
0.0
 11
56.929993
 21
-8.380599999999999
 31
0.0
  0
LINE
  5
D9
330
1E
100
AcDbEntity
  8
MO_001_VIEW_PV
  6
C_SOLID_L
100
AcDbLine
 10
9.299636999999998
 20
-15.0
 30
0.0
 11
46.73075899999999
 21
-15.0
 31
0.0
  0
LINE
  5
DA
330
1E
100
AcDbEntity
  8
MO_001_VIEW_PV
  6
C_SOLID_L
100
AcDbLine
 10
5.503106999999999
 20
-32.0
 30
0.0
 11
48.507233
 21
-32.0
 31
0.0
  0
TEXT
  5
DB
330
1E
100
AcDbEntity
  8
MO_001_VIEW_PV
  6
C_SOLID_L
100
AcDbText
 10
-46.488281
 20
-53.083594
 30
0.0
 40
4.167187
  1
0LC SmalPushPull
100
AcDbText
  0
TEXT
  5
DC
330
1E
100
AcDbEntity
  8
MO_001_VIEW_PV
  6
C_SOLID_L
100
AcDbText
 10
49.511719
 20
-47.08359399999999
 30
0.0
 40
4.167187
  1
単位：mm
100
AcDbText
  0
TEXT
  5
DD
330
1E
100
AcDbEntity
  8
MO_001_VIEW_PV
  6
C_SOLID_L
100
AcDbText
 10
8.217286999999998
 20
-31.231478
 30
0.0
 40
3.0
  1
長さ250以上
100
AcDbText
  0
TEXT
  5
DE
330
1E
100
AcDbEntity
  8
MO_001_VIEW_PV
  6
C_SOLID_L
100
AcDbText
 10
4.645094999999999
 20
-35.972481
 30
0.0
 40
3.0
  1
(UL-1430 AWG28)
100
AcDbText
  0
TEXT
  5
DF
330
1E
100
AcDbEntity
  8
MO_001_VIEW_PV
  6
C_SOLID_L
100
AcDbText
 10
10.271749
 20
-18.624189
 30
0.0
 40
3.0
  1
深さ2.0
100
AcDbText
  0
TEXT
  5
E0
330
1E
100
AcDbEntity
  8
MO_001_VIEW_PV
  6
C_SOLID_L
100
AcDbText
 10
10.680456
 20
-14.455374
 30
0.0
 40
3.0
  1
2-M2.6 P0.45
100
AcDbText
  0
TEXT
  5
E1
330
1E
100
AcDbEntity
  8
MO_001_VIEW_PV
  6
C_SOLID_L
100
AcDbText
 10
49.511719
 20
-53.083594
 30
0.0
 40
4.167187
  1
図は励磁時を示す
100
AcDbText
  0
DIMENSION
  5
E3
330
1E
100
AcDbEntity
  8
MO_001_VIEW_PV
  6
C_SOLID_M
100
AcDbDimension
  2
*D0
 10
-12.8
 20
24.0
 30
0.0
 11
-12.8
 21
24.0
 31
0.0
  3
STANDARD
100
AcDbAlignedDimension
 13
0.0
 23
8.5
 33
0.0
 14
-25.6
 24
1.3
 34
0.0
100
AcDbRotatedDimension
  0
DIMENSION
  5
E5
330
1E
100
AcDbEntity
  8
MO_001_VIEW_PV
  6
C_SOLID_M
100
AcDbDimension
  2
*D1
 10
-27.0
 20
18.0
 30
0.0
 11
-27.0
 21
18.0
 31
0.0
  1
17.5以下
  3
STANDARD
100
AcDbAlignedDimension
 13
0.0
 23
8.5
 33
0.0
 14
-16.89999999999999
 24
8.0
 34
0.0
100
AcDbRotatedDimension
  0
DIMENSION
  5
E7
330
1E
100
AcDbEntity
  8
MO_001_VIEW_PV
  6
C_SOLID_M
100
AcDbDimension
  2
*D2
 10
21.0
 20
18.0
 30
0.0
 11
21.0
 21
18.0
 31
0.0
  3
STANDARD
100
AcDbAlignedDimension
 13
0.0
 23
8.5
 33
0.0
 14
10.19999899999999
 24
1.300000999999999
 34
0.0
100
AcDbRotatedDimension
  0
DIMENSION
  5
E9
330
1E
100
AcDbEntity
  8
MO_001_VIEW_PV
  6
C_SOLID_M
100
AcDbDimension
  2
*D3
 10
78.066315
 20
24.0
 30
0.0
 11
78.066315
 21
24.0
 31
0.0
  1
%%C19.3以下
  3
STANDARD
100
AcDbAlignedDimension
 13
66.400009
 23
0.0
 33
0.0
 14
47.599998
 24
0.0
 34
0.0
100
AcDbRotatedDimension
  0
DIMENSION
  5
EB
330
1E
100
AcDbEntity
  8
MO_001_VIEW_PV
  6
C_SOLID_M
100
AcDbDimension
  2
*D4
 10
75.966003
 20
18.0
 30
0.0
 11
75.966003
 21
18.0
 31
0.0
  3
STANDARD
100
AcDbAlignedDimension
 13
63.25
 23
2.5
 33
0.0
 14
50.75
 24
2.5
 34
0.0
100
AcDbRotatedDimension
  0
DIMENSION
  5
ED
330
1E
100
AcDbEntity
  8
MO_001_VIEW_PV
  6
C_SOLID_M
100
AcDbDimension
  2
*D5
 10
24.0
 20
9.0
 30
0.0
 11
24.0
 21
9.0
 31
0.0
  3
STANDARD
100
AcDbAlignedDimension
 13
9.999997999999999
 23
-1.5
 33
0.0
 14
9.999997999999999
 24
1.5
 34
0.0
 50
89.98785500000002
100
AcDbRotatedDimension
  0
LINE
  5
EE
330
1E
100
AcDbEntity
  8
MO_001_VIEW_PV
  6
C_SOLID_L
100
AcDbLine
 10
50.413531
 20
-1.255702
 30
0.0
 11
46.73076
 21
-14.99999899999999
 31
0.0
  0
POLYLINE
  5
EF
330
1E
100
AcDbEntity
  8
MO_001_VIEW_PV
  6
C_SOLID_L
100
AcDb2dPolyline
 66
     1
 10
0.0
 20
0.0
 30
0.0
 70
     1
  0
VERTEX
  5
147
330
EF
100
AcDbEntity
  8
MO_001_VIEW_PV
  6
C_SOLID_L
100
AcDbVertex
100
AcDb2dVertex
 10
50.118331
 20
-4.611919
 30
0.0
  0
VERTEX
  5
148
330
EF
100
AcDbEntity
  8
MO_001_VIEW_PV
  6
C_SOLID_L
100
AcDbVertex
100
AcDb2dVertex
 10
50.282051
 20
-1.746391999999999
 30
0.0
  0
VERTEX
  5
149
330
EF
100
AcDbEntity
  8
MO_001_VIEW_PV
  6
C_SOLID_L
100
AcDbVertex
100
AcDb2dVertex
 10
48.991073
 20
-4.309871
 30
0.0
  0
SEQEND
  5
14A
330
EF
100
AcDbEntity
  8
MO_001_VIEW_PV
  6
C_SOLID_L
  0
LINE
  5
F4
330
1E
100
AcDbEntity
  8
MO_001_VIEW_PV
  6
C_SOLID_L
100
AcDbLine
 10
55.470022
 20
-19.940104
 30
0.0
 11
48.50723699999999
 21
-32.000002
 31
0.0
  0
POLYLINE
  5
F5
330
1E
100
AcDbEntity
  8
MO_001_VIEW_PV
  6
C_SOLID_L
100
AcDb2dPolyline
 66
     1
 10
0.0
 20
0.0
 30
0.0
 70
     1
  0
VERTEX
  5
14B
330
F5
100
AcDbEntity
  8
MO_001_VIEW_PV
  6
C_SOLID_L
100
AcDbVertex
100
AcDb2dVertex
 10
54.316228
 20
-23.105557
 30
0.0
  0
VERTEX
  5
14C
330
F5
100
AcDbEntity
  8
MO_001_VIEW_PV
  6
C_SOLID_L
100
AcDbVertex
100
AcDb2dVertex
 10
55.216022
 20
-20.380045
 30
0.0
  0
VERTEX
  5
14D
330
F5
100
AcDbEntity
  8
MO_001_VIEW_PV
  6
C_SOLID_L
100
AcDbVertex
100
AcDb2dVertex
 10
53.305556
 20
-22.522046
 30
0.0
  0
SEQEND
  5
14E
330
F5
100
AcDbEntity
  8
MO_001_VIEW_PV
  6
C_SOLID_L
  0
ENDSEC
  0
SECTION
  2
OBJECTS
  0
DICTIONARY
  5
1A
330
0
100
AcDbDictionary
  3
ACAD_GROUP
350
1B
  3
ACAD_MLINESTYLE
350
1C
  3
ACAD_LAYOUT
350
13D
  3
ACAD_PLOTSETTINGS
350
13E
1001
ACAD
1000
TREAT_AS_HARD
1070
     0
  0
DICTIONARY
  5
143
330
1E
100
AcDbDictionary
  3
ACAD_LAYOUTSELFREF
350
144
  0
DICTIONARY
  5
145
330
1F
100
AcDbDictionary
  3
ACAD_LAYOUTSELFREF
350
146
  0
DICTIONARY
  5
1B
102
{ACAD_REACTORS
330
1A
102
}
330
1A
100
AcDbDictionary
1001
ACAD
1000
TREAT_AS_HARD
1070
     0
  0
DICTIONARY
  5
1C
102
{ACAD_REACTORS
330
1A
102
}
330
1A
100
AcDbDictionary
  3
STANDARD
350
1D
1001
ACAD
1000
TREAT_AS_HARD
1070
     0
  0
DICTIONARY
  5
13D
102
{ACAD_REACTORS
330
1A
102
}
330
1A
100
AcDbDictionary
1001
ACAD
1000
TREAT_AS_HARD
1070
     0
  0
DICTIONARY
  5
13E
102
{ACAD_REACTORS
330
1A
102
}
330
1A
100
AcDbDictionary
1001
ACAD
1000
TREAT_AS_HARD
1070
     0
  0
XRECORD
  5
144
102
{ACAD_REACTORS
330
143
102
}
330
143
100
AcDbXrecord
340
1E
  0
XRECORD
  5
146
102
{ACAD_REACTORS
330
145
102
}
330
145
100
AcDbXrecord
340
1F
  0
MLINESTYLE
  5
1D
102
{ACAD_REACTORS
330
1C
102
}
330
1C
100
AcDbMlineStyle
  2
STANDARD
 70
     0
  3

 62
     0
 51
90.0
 52
90.0
 71
     2
 49
0.5
 62
   256
  6
BYLAYER
 49
-0.5
 62
   256
  6
BYLAYER
  0
ENDSEC
  0
EOF
