  0
SECTION
  2
HEADER
  9
$ACADVER
  1
AC1012
  9
$DWGCODEPAGE
  3
dos932
  9
$INSBASE
 10
0.0
 20
0.0
 30
0.0
  9
$EXTMIN
 10
-74.04208066112897
 20
-56.50203892622326
 30
-0.0015258207003583
  9
$EXTMAX
 10
134.6420956328312
 20
40.13024355147473
 30
0.0000000349246037
  9
$LIMMIN
 10
-74.035713
 20
-60.25
  9
$LIMMAX
 10
134.635727
 20
53.83562900000001
  9
$ORTHOMODE
 70
     0
  9
$REGENMODE
 70
     1
  9
$FILLMODE
 70
     1
  9
$QTEXTMODE
 70
     0
  9
$MIRRTEXT
 70
     1
  9
$DRAGMODE
 70
     2
  9
$LTSCALE
 40
1.0
  9
$OSMODE
 70
    37
  9
$ATTMODE
 70
     1
  9
$TEXTSIZE
 40
4.1672
  9
$TRACEWID
 40
0.05
  9
$TEXTSTYLE
  7
STANDARD
  9
$CLAYER
  8
0
  9
$CELTYPE
  6
CONTINUOUS
  9
$CECOLOR
 62
   256
  9
$CELTSCALE
 40
1.0
  9
$DELOBJ
 70
     1
  9
$DISPSILH
 70
     0
  9
$DIMSCALE
 40
1.0
  9
$DIMASZ
 40
0.18
  9
$DIMEXO
 40
0.0625
  9
$DIMDLI
 40
0.38
  9
$DIMRND
 40
0.0
  9
$DIMDLE
 40
0.0
  9
$DIMEXE
 40
0.18
  9
$DIMTP
 40
0.0
  9
$DIMTM
 40
0.0
  9
$DIMTXT
 40
0.18
  9
$DIMCEN
 40
0.09
  9
$DIMTSZ
 40
0.0
  9
$DIMTOL
 70
     0
  9
$DIMLIM
 70
     0
  9
$DIMTIH
 70
     1
  9
$DIMTOH
 70
     1
  9
$DIMSE1
 70
     0
  9
$DIMSE2
 70
     0
  9
$DIMTAD
 70
     0
  9
$DIMZIN
 70
     0
  9
$DIMBLK
  1

  9
$DIMASO
 70
     1
  9
$DIMSHO
 70
     1
  9
$DIMPOST
  1

  9
$DIMAPOST
  1

  9
$DIMALT
 70
     0
  9
$DIMALTD
 70
     2
  9
$DIMALTF
 40
25.4
  9
$DIMLFAC
 40
1.0
  9
$DIMTOFL
 70
     0
  9
$DIMTVP
 40
0.0
  9
$DIMTIX
 70
     0
  9
$DIMSOXD
 70
     0
  9
$DIMSAH
 70
     0
  9
$DIMBLK1
  1

  9
$DIMBLK2
  1

  9
$DIMSTYLE
  2
STANDARD
  9
$DIMCLRD
 70
     0
  9
$DIMCLRE
 70
     0
  9
$DIMCLRT
 70
     0
  9
$DIMTFAC
 40
1.0
  9
$DIMGAP
 40
0.09
  9
$DIMJUST
 70
     0
  9
$DIMSD1
 70
     0
  9
$DIMSD2
 70
     0
  9
$DIMTOLJ
 70
     1
  9
$DIMTZIN
 70
     0
  9
$DIMALTZ
 70
     0
  9
$DIMALTTZ
 70
     0
  9
$DIMFIT
 70
     3
  9
$DIMUPT
 70
     0
  9
$DIMUNIT
 70
     2
  9
$DIMDEC
 70
     4
  9
$DIMTDEC
 70
     4
  9
$DIMALTU
 70
     2
  9
$DIMALTTD
 70
     2
  9
$DIMTXSTY
  7
STANDARD
  9
$DIMAUNIT
 70
     0
  9
$LUNITS
 70
     2
  9
$LUPREC
 70
     6
  9
$SKETCHINC
 40
0.1
  9
$FILLETRAD
 40
0.0
  9
$AUNITS
 70
     0
  9
$AUPREC
 70
     4
  9
$MENU
  1
acad
  9
$ELEVATION
 40
0.0
  9
$PELEVATION
 40
0.0
  9
$THICKNESS
 40
0.0
  9
$LIMCHECK
 70
     0
  9
$BLIPMODE
 70
     0
  9
$CHAMFERA
 40
0.0
  9
$CHAMFERB
 40
0.0
  9
$CHAMFERC
 40
0.0
  9
$CHAMFERD
 40
0.0
  9
$SKPOLY
 70
     0
  9
$TDCREATE
 40
2376126.114283807
  9
$TDUPDATE
 40
2451667.432630324
  9
$TDINDWG
 40
0.0009763889
  9
$TDUSRTIMER
 40
0.0009763889
  9
$USRTIMER
 70
     1
  9
$ANGBASE
 50
0.0
  9
$ANGDIR
 70
     0
  9
$PDMODE
 70
     0
  9
$PDSIZE
 40
0.0
  9
$PLINEWID
 40
0.0
  9
$COORDS
 70
     1
  9
$SPLFRAME
 70
     0
  9
$SPLINETYPE
 70
     6
  9
$SPLINESEGS
 70
     8
  9
$ATTDIA
 70
     0
  9
$ATTREQ
 70
     1
  9
$HANDLING
 70
 10241
  9
$HANDSEED
  5
1EA
  9
$SURFTAB1
 70
     6
  9
$SURFTAB2
 70
     6
  9
$SURFTYPE
 70
     6
  9
$SURFU
 70
     6
  9
$SURFV
 70
     6
  9
$UCSNAME
  2
MO_001_VIEW_PV_P
  9
$UCSORG
 10
0.0
 20
0.0
 30
0.0
  9
$UCSXDIR
 10
1.0
 20
0.0
 30
0.0
  9
$UCSYDIR
 10
-0.0000000002051034
 20
1.0
 30
0.0
  9
$PUCSNAME
  2

  9
$PUCSORG
 10
0.0
 20
0.0
 30
0.0
  9
$PUCSXDIR
 10
1.0
 20
0.0
 30
0.0
  9
$PUCSYDIR
 10
0.0
 20
1.0
 30
0.0
  9
$USERI1
 70
     0
  9
$USERI2
 70
     0
  9
$USERI3
 70
     0
  9
$USERI4
 70
     0
  9
$USERI5
 70
     0
  9
$USERR1
 40
0.0
  9
$USERR2
 40
0.0
  9
$USERR3
 40
0.0
  9
$USERR4
 40
0.0
  9
$USERR5
 40
0.0
  9
$WORLDVIEW
 70
     1
  9
$SHADEDGE
 70
     3
  9
$SHADEDIF
 70
    70
  9
$TILEMODE
 70
     1
  9
$MAXACTVP
 70
    16
  9
$PINSBASE
 10
0.0
 20
0.0
 30
0.0
  9
$PLIMCHECK
 70
     0
  9
$PEXTMIN
 10
-74.035713
 20
-60.25
 30
1.000000000000000E+20
  9
$PEXTMAX
 10
134.635727
 20
53.83562900000001
 30
-1.000000000000000E+20
  9
$PLIMMIN
 10
0.0
 20
0.0
  9
$PLIMMAX
 10
12.0
 20
9.0
  9
$UNITMODE
 70
     0
  9
$VISRETAIN
 70
     0
  9
$PLINEGEN
 70
     0
  9
$PSLTSCALE
 70
     1
  9
$TREEDEPTH
 70
  3020
  9
$PICKSTYLE
 70
     1
  9
$CMLSTYLE
  2
STANDARD
  9
$CMLJUST
 70
     0
  9
$CMLSCALE
 40
1.0
  9
$SAVEIMAGES
 70
     1
  0
ENDSEC
  0
SECTION
  2
CLASSES
  0
CLASS
  1
ACDBDICTIONARYWDFLT
  2
AcDbDictionaryWithDefault
  3
AutoCAD 2000
 90
    32768
280
     0
281
     0
  0
CLASS
  1
ACDBPLACEHOLDER
  2
AcDbPlaceHolder
  3
AutoCAD 2000
 90
    32768
280
     0
281
     0
  0
CLASS
  1
LAYOUT
  2
AcDbLayout
  3
AutoCAD 2000
 90
    32768
280
     0
281
     0
  0
CLASS
  1
LONG_TRANSACTION
  2
AcDbLongTransaction
  3
AutoCAD 2000
 90
    32768
280
     0
281
     0
  0
CLASS
  1
LWPOLYLINE
  2
AcDbPolyline
  3
AutoCAD 2000
 90
    32768
280
     0
281
     1
  0
CLASS
  1
HATCH
  2
AcDbHatch
  3
AutoCAD 2000
 90
    32768
280
     0
281
     1
  0
CLASS
  1
XRECORD
  2
AcDbXrecord
  3
AutoCAD 2000
 90
    32768
280
     0
281
     0
  0
ENDSEC
  0
SECTION
  2
TABLES
  0
TABLE
  2
VPORT
  5
7
330
0
100
AcDbSymbolTable
 70
     2
  0
VPORT
  5
1D5
330
7
100
AcDbSymbolTableRecord
100
AcDbViewportTableRecord
  2
*ACTIVE
 70
     0
 10
0.0
 20
0.0
 11
1.0
 21
1.0
 12
30.30000602052828
 22
-3.207186366048247
 13
0.0
 23
0.0
 14
6.349999999999999
 24
6.349999999999999
 15
6.349999999999999
 25
6.349999999999999
 16
0.0
 26
0.0
 36
1.0
 17
0.0
 27
0.0
 37
0.0
 40
178.2583704519339
 41
1.691964285714285
 42
50.0
 43
0.0
 44
0.0
 50
0.0
 51
0.0
 71
     0
 72
   100
 73
     1
 74
     1
 75
     0
 76
     0
 77
     0
 78
     0
  0
ENDTAB
  0
TABLE
  2
LTYPE
  5
4
330
0
100
AcDbSymbolTable
 70
    37
  0
LTYPE
  5
12
330
4
100
AcDbSymbolTableRecord
100
AcDbLinetypeTableRecord
  2
BYBLOCK
 70
     0
  3

 72
    65
 73
     0
 40
0.0
  0
LTYPE
  5
13
330
4
100
AcDbSymbolTableRecord
100
AcDbLinetypeTableRecord
  2
BYLAYER
 70
     0
  3

 72
    65
 73
     0
 40
0.0
  0
LTYPE
  5
14
330
4
100
AcDbSymbolTableRecord
100
AcDbLinetypeTableRecord
  2
CONTINUOUS
 70
     0
  3
DXF Default line type
 72
    65
 73
     0
 40
0.0
  0
LTYPE
  5
20
330
4
100
AcDbSymbolTableRecord
100
AcDbLinetypeTableRecord
  2
DASHED
 70
     0
  3
DXF Dashed
 72
    65
 73
     2
 40
0.75
 49
0.5
 74
     0
 49
-0.25
 74
     0
  0
LTYPE
  5
21
330
4
100
AcDbSymbolTableRecord
100
AcDbLinetypeTableRecord
  2
HIDDEN
 70
     0
  3
DXF Hidden
 72
    65
 73
     2
 40
0.375
 49
0.25
 74
     0
 49
-0.125
 74
     0
  0
LTYPE
  5
22
330
4
100
AcDbSymbolTableRecord
100
AcDbLinetypeTableRecord
  2
CENTER
 70
     0
  3
DXF Center
 72
    65
 73
     4
 40
2.0
 49
1.25
 74
     0
 49
-0.25
 74
     0
 49
0.25
 74
     0
 49
-0.25
 74
     0
  0
LTYPE
  5
23
330
4
100
AcDbSymbolTableRecord
100
AcDbLinetypeTableRecord
  2
PHANTOM
 70
     0
  3
DXF Phantom
 72
    65
 73
     6
 40
2.5
 49
1.25
 74
     0
 49
-0.25
 74
     0
 49
0.25
 74
     0
 49
-0.25
 74
     0
 49
0.25
 74
     0
 49
-0.25
 74
     0
  0
LTYPE
  5
24
330
4
100
AcDbSymbolTableRecord
100
AcDbLinetypeTableRecord
  2
DOT
 70
     0
  3
DXF DOT
 72
    65
 73
     2
 40
0.25
 49
0.0
 74
     0
 49
-0.25
 74
     0
  0
LTYPE
  5
25
330
4
100
AcDbSymbolTableRecord
100
AcDbLinetypeTableRecord
  2
DASHDOT
 70
     0
  3
DXF Dash Dot
 72
    65
 73
     4
 40
1.0
 49
0.5
 74
     0
 49
-0.25
 74
     0
 49
0.0
 74
     0
 49
-0.25
 74
     0
  0
LTYPE
  5
26
330
4
100
AcDbSymbolTableRecord
100
AcDbLinetypeTableRecord
  2
BORDER
 70
     0
  3
DXF Border
 72
    65
 73
     6
 40
1.75
 49
0.5
 74
     0
 49
-0.25
 74
     0
 49
0.5
 74
     0
 49
-0.25
 74
     0
 49
0.0
 74
     0
 49
-0.25
 74
     0
  0
LTYPE
  5
27
330
4
100
AcDbSymbolTableRecord
100
AcDbLinetypeTableRecord
  2
DIVIDE
 70
     0
  3
DXF Divide
 72
    65
 73
     6
 40
1.25
 49
0.5
 74
     0
 49
-0.25
 74
     0
 49
0.0
 74
     0
 49
-0.25
 74
     0
 49
0.0
 74
     0
 49
-0.25
 74
     0
  0
LTYPE
  5
28
330
4
100
AcDbSymbolTableRecord
100
AcDbLinetypeTableRecord
  2
C_SOLID_L
 70
     0
  3
CADAM Solid Light
 72
    65
 73
     0
 40
0.0
  0
LTYPE
  5
29
330
4
100
AcDbSymbolTableRecord
100
AcDbLinetypeTableRecord
  2
C_SOLID_M
 70
     0
  3
CADAM Solid Medium
 72
    65
 73
     0
 40
0.0
  0
LTYPE
  5
2A
330
4
100
AcDbSymbolTableRecord
100
AcDbLinetypeTableRecord
  2
C_SOLID_H
 70
     0
  3
CADAM Solid Heavy
 72
    65
 73
     0
 40
0.0
  0
LTYPE
  5
2B
330
4
100
AcDbSymbolTableRecord
100
AcDbLinetypeTableRecord
  2
C_DASHED_L
 70
     0
  3
CADAM Dashed Light
 72
    65
 73
     2
 40
0.375
 49
0.25
 74
     0
 49
-0.125
 74
     0
  0
LTYPE
  5
2C
330
4
100
AcDbSymbolTableRecord
100
AcDbLinetypeTableRecord
  2
C_DASHED_M
 70
     0
  3
CADAM Dashed Medium
 72
    65
 73
     2
 40
0.5
 49
0.375
 74
     0
 49
-0.125
 74
     0
  0
LTYPE
  5
2D
330
4
100
AcDbSymbolTableRecord
100
AcDbLinetypeTableRecord
  2
C_CENTER_L
 70
     0
  3
CADAM Center Light
 72
    65
 73
     4
 40
2.0
 49
1.25
 74
     0
 49
-0.25
 74
     0
 49
0.25
 74
     0
 49
-0.25
 74
     0
  0
LTYPE
  5
2E
330
4
100
AcDbSymbolTableRecord
100
AcDbLinetypeTableRecord
  2
C_PHANTOM_L
 70
     0
  3
CADAM Phantom Light
 72
    65
 73
     6
 40
2.5
 49
1.25
 74
     0
 49
-0.25
 74
     0
 49
0.25
 74
     0
 49
-0.25
 74
     0
 49
0.25
 74
     0
 49
-0.25
 74
     0
  0
LTYPE
  5
2F
330
4
100
AcDbSymbolTableRecord
100
AcDbLinetypeTableRecord
  2
C_BREAK_M
 70
     0
  3
CADAM Break Medium
 72
    65
 73
     4
 40
1.0
 49
0.5
 74
     0
 49
-0.25
 74
     0
 49
0.0
 74
     0
 49
-0.25
 74
     0
  0
LTYPE
  5
30
330
4
100
AcDbSymbolTableRecord
100
AcDbLinetypeTableRecord
  2
C_NC
 70
     0
  3
CADAM NC
 72
    65
 73
     0
 40
0.0
  0
LTYPE
  5
31
330
4
100
AcDbSymbolTableRecord
100
AcDbLinetypeTableRecord
  2
DSH1
 70
     0
  3
CADAM Style2 Type 1 Dashed Line
 72
    65
 73
     2
 40
0.075
 49
0.04
 74
     0
 49
-0.035
 74
     0
  0
LTYPE
  5
32
330
4
100
AcDbSymbolTableRecord
100
AcDbLinetypeTableRecord
  2
DSH2
 70
     0
  3
CADAM Style2 Type 2 Dashed Line
 72
    65
 73
     2
 40
0.15
 49
0.11
 74
     0
 49
-0.04
 74
     0
  0
LTYPE
  5
33
330
4
100
AcDbSymbolTableRecord
100
AcDbLinetypeTableRecord
  2
DSH3
 70
     0
  3
CADAM Style2 Type 3 Dashed Line
 72
    65
 73
     2
 40
0.2
 49
0.15
 74
     0
 49
-0.05
 74
     0
  0
LTYPE
  5
34
330
4
100
AcDbSymbolTableRecord
100
AcDbLinetypeTableRecord
  2
DSH4
 70
     0
  3
CADAM Style2 Type 4 Dashed Line
 72
    65
 73
     2
 40
0.36
 49
0.28
 74
     0
 49
-0.08
 74
     0
  0
LTYPE
  5
35
330
4
100
AcDbSymbolTableRecord
100
AcDbLinetypeTableRecord
  2
DSH5
 70
     0
  3
CADAM Style2 Type 5 Dashed Line
 72
    65
 73
     2
 40
0.47
 49
0.39
 74
     0
 49
-0.08
 74
     0
  0
LTYPE
  5
36
330
4
100
AcDbSymbolTableRecord
100
AcDbLinetypeTableRecord
  2
DSH6
 70
     0
  3
CADAM Style2 Type 6 Dashed Line
 72
    65
 73
     2
 40
0.9
 49
0.8100000000000001
 74
     0
 49
-0.09
 74
     0
  0
LTYPE
  5
37
330
4
100
AcDbSymbolTableRecord
100
AcDbLinetypeTableRecord
  2
PL1
 70
     0
  3
Style 2 Type 1 Phantom Line
 72
    65
 73
     6
 40
1.0
 49
0.6
 74
     0
 49
-0.08
 74
     0
 49
0.08
 74
     0
 49
-0.08
 74
     0
 49
0.08
 74
     0
 49
-0.08
 74
     0
  0
LTYPE
  5
38
330
4
100
AcDbSymbolTableRecord
100
AcDbLinetypeTableRecord
  2
PL2
 70
     0
  3
Style 2 Type 2 Phantom Line
 72
    65
 73
     6
 40
1.08
 49
0.6
 74
     0
 49
-0.08
 74
     0
 49
0.12
 74
     0
 49
-0.08
 74
     0
 49
0.12
 74
     0
 49
-0.08
 74
     0
  0
LTYPE
  5
39
330
4
100
AcDbSymbolTableRecord
100
AcDbLinetypeTableRecord
  2
PL3
 70
     0
  3
Style 2 Type 3 Phantom Line
 72
    65
 73
     6
 40
2.0
 49
1.439999999999999
 74
     0
 49
-0.08
 74
     0
 49
0.16
 74
     0
 49
-0.08
 74
     0
 49
0.16
 74
     0
 49
-0.08
 74
     0
  0
LTYPE
  5
3A
330
4
100
AcDbSymbolTableRecord
100
AcDbLinetypeTableRecord
  2
CL1
 70
     0
  3
CADAM Style 2 Type 1 Center Line
 72
    65
 73
     4
 40
0.7
 49
0.45
 74
     0
 49
-0.06
 74
     0
 49
0.13
 74
     0
 49
-0.06
 74
     0
  0
LTYPE
  5
3B
330
4
100
AcDbSymbolTableRecord
100
AcDbLinetypeTableRecord
  2
CL2
 70
     0
  3
CADAM Style 2 Type 2 Center Line
 72
    65
 73
     4
 40
1.199999999999999
 49
1.01
 74
     0
 49
-0.06
 74
     0
 49
0.11
 74
     0
 49
-0.06
 74
     0
  0
LTYPE
  5
3C
330
4
100
AcDbSymbolTableRecord
100
AcDbLinetypeTableRecord
  2
CL3
 70
     0
  3
CADAM Style 2 Type 3 Center Line
 72
    65
 73
     4
 40
1.199999999999999
 49
0.98
 74
     0
 49
-0.06
 74
     0
 49
0.1
 74
     0
 49
-0.06
 74
     0
  0
LTYPE
  5
3D
330
4
100
AcDbSymbolTableRecord
100
AcDbLinetypeTableRecord
  2
CL4
 70
     0
  3
CADAM Style 2 Type 4 Center Line
 72
    65
 73
     4
 40
2.2
 49
1.929999999999999
 74
     0
 49
-0.07
 74
     0
 49
0.13
 74
     0
 49
-0.07
 74
     0
  0
LTYPE
  5
3E
330
4
100
AcDbSymbolTableRecord
100
AcDbLinetypeTableRecord
  2
CL5
 70
     0
  3
CADAM Style 2 Type 5 Center Line
 72
    65
 73
     4
 40
2.2
 49
1.879999999999999
 74
     0
 49
-0.07
 74
     0
 49
0.18
 74
     0
 49
-0.07
 74
     0
  0
LTYPE
  5
3F
330
4
100
AcDbSymbolTableRecord
100
AcDbLinetypeTableRecord
  2
SBK1
 70
     0
  3
CADAM Style 2 Type 1 SetBack Line
 72
    65
 73
     8
 40
2.7
 49
0.1
 74
     0
 49
-0.08
 74
     0
 49
0.1
 74
     0
 49
-0.8
 74
     0
 49
0.0
 74
     0
 49
0.0
 74
     0
 49
0.0
 74
     0
 49
0.0
 74
     0
  0
LTYPE
  5
40
330
4
100
AcDbSymbolTableRecord
100
AcDbLinetypeTableRecord
  2
SBK2
 70
     0
  3
CADAM Style 2 Type 2 SetBack Line
 72
    65
 73
     8
 40
3.709999999999999
 49
0.13
 74
     0
 49
-0.08
 74
     0
 49
0.13
 74
     0
 49
-0.8
 74
     0
 49
0.0
 74
     0
 49
0.0
 74
     0
 49
0.0
 74
     0
 49
0.0
 74
     0
  0
LTYPE
  5
41
330
4
100
AcDbSymbolTableRecord
100
AcDbLinetypeTableRecord
  2
STCH
 70
     0
  3
CADAM Style2 Stitch Line
 72
    65
 73
     2
 40
0.25
 49
0.0
 74
     0
 49
-0.25
 74
     0
  0
LTYPE
  5
42
330
4
100
AcDbSymbolTableRecord
100
AcDbLinetypeTableRecord
  2
MTCH
 70
     0
  3
CADAM Style2 Match Line
 72
    65
 73
     6
 40
2.0
 49
1.439999999999999
 74
     0
 49
-0.8
 74
     0
 49
0.16
 74
     0
 49
-0.08
 74
     0
 49
0.16
 74
     0
 49
-0.08
 74
     0
  0
LTYPE
  5
43
330
4
100
AcDbSymbolTableRecord
100
AcDbLinetypeTableRecord
  2
SLD
 70
     0
  3
CADAM Solid_EXT2
 72
    65
 73
     0
 40
0.0
  0
ENDTAB
  0
TABLE
  2
LAYER
  5
2
330
0
100
AcDbSymbolTable
 70
     7
  0
LAYER
  5
15
330
2
100
AcDbSymbolTableRecord
100
AcDbLayerTableRecord
  2
0
 70
     0
 62
     7
  6
CONTINUOUS
  0
LAYER
  5
44
330
2
100
AcDbSymbolTableRecord
100
AcDbLayerTableRecord
  2
MO_001_NOSHOW
 70
     1
 62
     7
  6
CONTINUOUS
  0
LAYER
  5
45
330
2
100
AcDbSymbolTableRecord
100
AcDbLayerTableRecord
  2
MO_001_VIEW_PV
 70
     0
 62
     7
  6
CONTINUOUS
  0
LAYER
  5
46
330
2
100
AcDbSymbolTableRecord
100
AcDbLayerTableRecord
  2
OVERLAY_MAP
 70
     1
 62
     7
  6
CONTINUOUS
  0
LAYER
  5
47
330
2
100
AcDbSymbolTableRecord
100
AcDbLayerTableRecord
  2
DITTOS
 70
     0
 62
     7
  6
CONTINUOUS
  0
LAYER
  5
48
330
2
100
AcDbSymbolTableRecord
100
AcDbLayerTableRecord
  2
SYMBOLS
 70
     0
 62
     7
  6
CONTINUOUS
  0
LAYER
  5
49
330
2
100
AcDbSymbolTableRecord
100
AcDbLayerTableRecord
  2
SETS
 70
     0
 62
     7
  6
CONTINUOUS
  0
ENDTAB
  0
TABLE
  2
STYLE
  5
3
330
0
100
AcDbSymbolTable
 70
     1
  0
STYLE
  5
18
330
3
100
AcDbSymbolTableRecord
100
AcDbTextStyleTableRecord
  2
STANDARD
 70
     0
 40
4.1672
 41
1.0
 50
0.0
 71
     0
 42
4.1672
  3
monotxt
  4
BIGFONT
  0
ENDTAB
  0
TABLE
  2
VIEW
  5
5
330
0
100
AcDbSymbolTable
 70
     0
  0
ENDTAB
  0
TABLE
  2
UCS
  5
6
330
0
100
AcDbSymbolTable
 70
     1
  0
UCS
  5
4A
330
6
100
AcDbSymbolTableRecord
100
AcDbUCSTableRecord
  2
MO_001_VIEW_PV_P
 70
     0
 10
0.0
 20
0.0
 30
0.0
 11
1.0
 21
0.0
 31
0.0
 12
-0.0000000002051034
 22
1.0
 32
0.0
  0
ENDTAB
  0
TABLE
  2
APPID
  5
8
330
0
100
AcDbSymbolTable
 70
     1
  0
APPID
  5
17
330
8
100
AcDbSymbolTableRecord
100
AcDbRegAppTableRecord
  2
ACAD
 70
     0
  0
ENDTAB
  0
TABLE
  2
DIMSTYLE
  5
9
330
0
100
AcDbSymbolTable
 70
     1
  0
DIMSTYLE
105
19
102
{ACAD_REACTORS
330
EA
330
EC
330
EE
330
F0
330
F2
330
F4
330
F6
330
F8
330
FA
330
FC
330
FE
330
100
330
102
330
104
330
112
330
114
102
}
330
9
100
AcDbSymbolTableRecord
100
AcDbDimStyleTableRecord
  2
STANDARD
 70
     0
  3

  4

  5

  6

  7

 40
1.0
 41
0.18
 42
0.0625
 43
0.38
 44
0.18
 45
0.0
 46
0.0
 47
0.0
 48
0.0
140
0.18
141
0.09
142
0.0
143
25.4
144
1.0
145
0.0
146
1.0
147
0.09
 71
     0
 72
     0
 73
     1
 74
     1
 75
     0
 76
     0
 77
     0
 78
     0
170
     0
171
     2
172
     0
173
     0
174
     0
175
     0
176
     0
177
     0
178
     0
270
     2
271
     4
272
     4
273
     2
274
     2
340
18
275
     0
280
     0
281
     0
282
     0
283
     1
284
     0
285
     0
286
     0
287
     3
288
     0
  0
ENDTAB
  0
TABLE
  2
BLOCK_RECORD
  5
C
330
0
100
AcDbSymbolTable
 70
    16
  0
BLOCK_RECORD
  5
1E
102
{ACAD_XDICTIONARY
360
1D6
102
}
330
C
100
AcDbSymbolTableRecord
100
AcDbBlockTableRecord
  2
*MODEL_SPACE
  0
BLOCK_RECORD
  5
1F
102
{ACAD_XDICTIONARY
360
1D8
102
}
330
C
100
AcDbSymbolTableRecord
100
AcDbBlockTableRecord
  2
*PAPER_SPACE
  0
BLOCK_RECORD
  5
E9
330
C
100
AcDbSymbolTableRecord
100
AcDbBlockTableRecord
  2
*D0
  0
BLOCK_RECORD
  5
EB
330
C
100
AcDbSymbolTableRecord
100
AcDbBlockTableRecord
  2
*D1
  0
BLOCK_RECORD
  5
ED
330
C
100
AcDbSymbolTableRecord
100
AcDbBlockTableRecord
  2
*D2
  0
BLOCK_RECORD
  5
EF
330
C
100
AcDbSymbolTableRecord
100
AcDbBlockTableRecord
  2
*D3
  0
BLOCK_RECORD
  5
F1
330
C
100
AcDbSymbolTableRecord
100
AcDbBlockTableRecord
  2
*D4
  0
BLOCK_RECORD
  5
F3
330
C
100
AcDbSymbolTableRecord
100
AcDbBlockTableRecord
  2
*D5
  0
BLOCK_RECORD
  5
F5
330
C
100
AcDbSymbolTableRecord
100
AcDbBlockTableRecord
  2
*D6
  0
BLOCK_RECORD
  5
F7
330
C
100
AcDbSymbolTableRecord
100
AcDbBlockTableRecord
  2
*D7
  0
BLOCK_RECORD
  5
F9
330
C
100
AcDbSymbolTableRecord
100
AcDbBlockTableRecord
  2
*D8
  0
BLOCK_RECORD
  5
FB
330
C
100
AcDbSymbolTableRecord
100
AcDbBlockTableRecord
  2
*D9
  0
BLOCK_RECORD
  5
FD
330
C
100
AcDbSymbolTableRecord
100
AcDbBlockTableRecord
  2
*D10
  0
BLOCK_RECORD
  5
FF
330
C
100
AcDbSymbolTableRecord
100
AcDbBlockTableRecord
  2
*D11
  0
BLOCK_RECORD
  5
101
330
C
100
AcDbSymbolTableRecord
100
AcDbBlockTableRecord
  2
*D12
  0
BLOCK_RECORD
  5
103
330
C
100
AcDbSymbolTableRecord
100
AcDbBlockTableRecord
  2
*D13
  0
BLOCK_RECORD
  5
111
330
C
100
AcDbSymbolTableRecord
100
AcDbBlockTableRecord
  2
*D14
  0
BLOCK_RECORD
  5
113
330
C
100
AcDbSymbolTableRecord
100
AcDbBlockTableRecord
  2
*D15
  0
ENDTAB
  0
ENDSEC
  0
SECTION
  2
BLOCKS
  0
BLOCK
  5
E
330
1E
100
AcDbEntity
  8
0
100
AcDbBlockBegin
  2
*MODEL_SPACE
 70
     0
 10
0.0
 20
0.0
 30
0.0
  3
*MODEL_SPACE
  1

  0
ENDBLK
  5
F
330
1E
100
AcDbEntity
  8
0
100
AcDbBlockEnd
  0
BLOCK
  5
10
330
1F
100
AcDbEntity
 67
     1
  8
0
100
AcDbBlockBegin
  2
*PAPER_SPACE
 70
     0
 10
0.0
 20
0.0
 30
0.0
  3
*PAPER_SPACE
  1

  0
ENDBLK
  5
11
330
1F
100
AcDbEntity
 67
     1
  8
0
100
AcDbBlockEnd
  0
BLOCK
  5
121
330
E9
100
AcDbEntity
  8
0
100
AcDbBlockBegin
  2
*D0
 70
     1
 10
0.0
 20
0.0
 30
0.0
  3
*D0
  1

  0
LINE
  5
122
330
E9
100
AcDbEntity
  8
MO_001_NOSHOW
  6
BYBLOCK
100
AcDbLine
 10
0.0
 20
47.83562899999999
 30
0.0
 11
-51.099998
 21
47.83562899999999
 31
0.0
  0
SOLID
  5
123
330
E9
100
AcDbEntity
  8
MO_001_NOSHOW
  6
BYBLOCK
100
AcDbTrace
 10
-3.318259999999999
 20
47.252117
 30
0.0
 11
-0.508
 21
47.83562899999999
 31
0.0
 12
-3.318259999999999
 22
48.41914
 32
0.0
 13
-3.318259999999999
 23
48.41914
 33
0.0
  0
SOLID
  5
124
330
E9
100
AcDbEntity
  8
MO_001_NOSHOW
  6
BYBLOCK
100
AcDbTrace
 10
-47.781738
 20
48.41914
 30
0.0
 11
-50.591998
 21
47.83562899999999
 31
0.0
 12
-47.781738
 22
47.252117
 32
0.0
 13
-47.781738
 23
47.252117
 33
0.0
  0
LINE
  5
125
330
E9
100
AcDbEntity
  8
MO_001_NOSHOW
  6
BYBLOCK
100
AcDbLine
 10
0.0
 20
12.19999999999999
 30
0.0
 11
0.0
 21
50.121628
 31
0.0
  0
LINE
  5
126
330
E9
100
AcDbEntity
  8
MO_001_NOSHOW
  6
BYBLOCK
100
AcDbLine
 10
-51.099998
 20
12.7
 30
0.0
 11
-51.099998
 21
50.121628
 31
0.0
  0
TEXT
  5
127
330
E9
100
AcDbEntity
  8
MO_001_NOSHOW
  6
BYBLOCK
100
AcDbText
 10
-31.121428
 20
48.58562899999999
 30
0.0
 40
3.0
  1
51.1
100
AcDbText
  0
ENDBLK
  5
128
330
E9
100
AcDbEntity
  8
0
100
AcDbBlockEnd
  0
BLOCK
  5
129
330
EB
100
AcDbEntity
  8
0
100
AcDbBlockBegin
  2
*D1
 70
     1
 10
0.0
 20
0.0
 30
0.0
  3
*D1
  1

  0
LINE
  5
12A
330
EB
100
AcDbEntity
  8
MO_001_NOSHOW
  6
BYBLOCK
100
AcDbLine
 10
9.5
 20
31.741966
 30
0.0
 11
0.0
 21
31.741966
 31
0.0
  0
LINE
  5
12B
330
EB
100
AcDbEntity
  8
MO_001_NOSHOW
  6
BYBLOCK
100
AcDbLine
 10
9.5
 20
31.741966
 30
0.0
 11
15.84999999999999
 21
31.741966
 31
0.0
  0
LINE
  5
12C
330
EB
100
AcDbEntity
  8
MO_001_NOSHOW
  6
BYBLOCK
100
AcDbLine
 10
0.0
 20
31.741966
 30
0.0
 11
-6.349999999999999
 21
31.741966
 31
0.0
  0
SOLID
  5
12D
330
EB
100
AcDbEntity
  8
MO_001_NOSHOW
  6
BYBLOCK
100
AcDbTrace
 10
12.81826
 20
32.325478
 30
0.0
 11
10.00799999999999
 21
31.741966
 31
0.0
 12
12.81826
 22
31.158455
 32
0.0
 13
12.81826
 23
31.158455
 33
0.0
  0
SOLID
  5
12E
330
EB
100
AcDbEntity
  8
MO_001_NOSHOW
  6
BYBLOCK
100
AcDbTrace
 10
-3.318259999999999
 20
31.158455
 30
0.0
 11
-0.508
 21
31.741966
 31
0.0
 12
-3.318259999999999
 22
32.325478
 32
0.0
 13
-3.318259999999999
 23
32.325478
 33
0.0
  0
LINE
  5
12F
330
EB
100
AcDbEntity
  8
MO_001_NOSHOW
  6
BYBLOCK
100
AcDbLine
 10
9.5
 20
7.5
 30
0.0
 11
9.5
 21
34.027966
 31
0.0
  0
LINE
  5
130
330
EB
100
AcDbEntity
  8
MO_001_NOSHOW
  6
BYBLOCK
100
AcDbLine
 10
0.0
 20
12.19999999999999
 30
0.0
 11
0.0
 21
34.027966
 31
0.0
  0
TEXT
  5
131
330
EB
100
AcDbEntity
  8
MO_001_NOSHOW
  6
BYBLOCK
100
AcDbText
 10
0.678571
 20
32.49196599999999
 30
0.0
 40
3.0
  1
9.5
100
AcDbText
  0
LINE
  5
132
330
EB
100
AcDbEntity
  8
MO_001_NOSHOW
  6
BYBLOCK
100
AcDbLine
 10
9.785714
 20
31.741966
 30
0.0
 11
9.5
 21
31.741966
 31
0.0
  0
LINE
  5
133
330
EB
100
AcDbEntity
  8
MO_001_NOSHOW
  6
BYBLOCK
100
AcDbLine
 10
0.0
 20
31.741966
 30
0.0
 11
-0.285714
 21
31.741966
 31
0.0
  0
ENDBLK
  5
134
330
EB
100
AcDbEntity
  8
0
100
AcDbBlockEnd
  0
BLOCK
  5
135
330
ED
100
AcDbEntity
  8
0
100
AcDbBlockBegin
  2
*D2
 70
     1
 10
0.0
 20
0.0
 30
0.0
  3
*D2
  1

  0
LINE
  5
136
330
ED
100
AcDbEntity
  8
MO_001_NOSHOW
  6
BYBLOCK
100
AcDbLine
 10
92.69999699999999
 20
38.175457
 30
0.0
 11
67.300003
 21
38.175457
 31
0.0
  0
SOLID
  5
137
330
ED
100
AcDbEntity
  8
MO_001_NOSHOW
  6
BYBLOCK
100
AcDbTrace
 10
89.381737
 20
37.591945
 30
0.0
 11
92.191997
 21
38.175457
 31
0.0
 12
89.381737
 22
38.758969
 32
0.0
 13
89.381737
 23
38.758969
 33
0.0
  0
SOLID
  5
138
330
ED
100
AcDbEntity
  8
MO_001_NOSHOW
  6
BYBLOCK
100
AcDbTrace
 10
70.61826299999999
 20
38.758969
 30
0.0
 11
67.808003
 21
38.175457
 31
0.0
 12
70.61826299999999
 22
37.591945
 32
0.0
 13
70.61826299999999
 23
37.591945
 33
0.0
  0
LINE
  5
139
330
ED
100
AcDbEntity
  8
MO_001_NOSHOW
  6
BYBLOCK
100
AcDbLine
 10
92.69999699999999
 20
0.0
 30
0.0
 11
92.69999699999999
 21
40.461456
 31
0.0
  0
LINE
  5
13A
330
ED
100
AcDbEntity
  8
MO_001_NOSHOW
  6
BYBLOCK
100
AcDbLine
 10
67.300003
 20
0.0
 30
0.0
 11
67.300003
 21
40.461456
 31
0.0
  0
TEXT
  5
13B
330
ED
100
AcDbEntity
  8
MO_001_NOSHOW
  6
BYBLOCK
100
AcDbText
 10
74.42857099999999
 20
38.925457
 30
0.0
 40
3.0
  1
25.4
100
AcDbText
  0
ENDBLK
  5
13C
330
ED
100
AcDbEntity
  8
0
100
AcDbBlockEnd
  0
BLOCK
  5
13D
330
EF
100
AcDbEntity
  8
0
100
AcDbBlockBegin
  2
*D3
 70
     1
 10
0.0
 20
0.0
 30
0.0
  3
*D3
  1

  0
LINE
  5
13E
330
EF
100
AcDbEntity
  8
MO_001_NOSHOW
  6
BYBLOCK
100
AcDbLine
 10
68.5
 20
30.02694699999999
 30
0.0
 11
45.49999999999999
 21
30.02694699999999
 31
0.0
  0
SOLID
  5
13F
330
EF
100
AcDbEntity
  8
MO_001_NOSHOW
  6
BYBLOCK
100
AcDbTrace
 10
65.18174000000001
 20
29.443435
 30
0.0
 11
67.992
 21
30.02694699999999
 31
0.0
 12
65.18174000000001
 22
30.610459
 32
0.0
 13
65.18174000000001
 23
30.610459
 33
0.0
  0
SOLID
  5
140
330
EF
100
AcDbEntity
  8
MO_001_NOSHOW
  6
BYBLOCK
100
AcDbTrace
 10
48.81826
 20
30.610459
 30
0.0
 11
46.008
 21
30.02694699999999
 31
0.0
 12
48.81826
 22
29.443435
 32
0.0
 13
48.81826
 23
29.443435
 33
0.0
  0
LINE
  5
141
330
EF
100
AcDbEntity
  8
MO_001_NOSHOW
  6
BYBLOCK
100
AcDbLine
 10
68.5
 20
6.639528
 30
0.0
 11
68.5
 21
32.312946
 31
0.0
  0
LINE
  5
142
330
EF
100
AcDbEntity
  8
MO_001_NOSHOW
  6
BYBLOCK
100
AcDbLine
 10
45.49999999999999
 20
6.63953
 30
0.0
 11
45.49999999999999
 21
32.312946
 31
0.0
  0
TEXT
  5
143
330
EF
100
AcDbEntity
  8
MO_001_NOSHOW
  6
BYBLOCK
100
AcDbText
 10
54.428571
 20
30.77694699999999
 30
0.0
 40
3.0
  1
23
100
AcDbText
  0
ENDBLK
  5
144
330
EF
100
AcDbEntity
  8
0
100
AcDbBlockEnd
  0
BLOCK
  5
145
330
F1
100
AcDbEntity
  8
0
100
AcDbBlockBegin
  2
*D4
 70
     1
 10
0.0
 20
0.0
 30
0.0
  3
*D4
  1

  0
LINE
  5
146
330
F1
100
AcDbEntity
  8
MO_001_NOSHOW
  6
BYBLOCK
100
AcDbLine
 10
80.0
 20
24.87956
 30
0.0
 11
72.099998
 21
24.87956
 31
0.0
  0
LINE
  5
147
330
F1
100
AcDbEntity
  8
MO_001_NOSHOW
  6
BYBLOCK
100
AcDbLine
 10
80.0
 20
24.87956
 30
0.0
 11
86.34999999999999
 21
24.87956
 31
0.0
  0
LINE
  5
148
330
F1
100
AcDbEntity
  8
MO_001_NOSHOW
  6
BYBLOCK
100
AcDbLine
 10
72.099998
 20
24.87956
 30
0.0
 11
65.749999
 21
24.87956
 31
0.0
  0
SOLID
  5
149
330
F1
100
AcDbEntity
  8
MO_001_NOSHOW
  6
BYBLOCK
100
AcDbTrace
 10
83.31825999999999
 20
25.463072
 30
0.0
 11
80.508
 21
24.87956
 31
0.0
 12
83.31825999999999
 22
24.296049
 32
0.0
 13
83.31825999999999
 23
24.296049
 33
0.0
  0
SOLID
  5
14A
330
F1
100
AcDbEntity
  8
MO_001_NOSHOW
  6
BYBLOCK
100
AcDbTrace
 10
68.781738
 20
24.296049
 30
0.0
 11
71.591998
 21
24.87956
 31
0.0
 12
68.781738
 22
25.463072
 32
0.0
 13
68.781738
 23
25.463072
 33
0.0
  0
LINE
  5
14B
330
F1
100
AcDbEntity
  8
MO_001_NOSHOW
  6
BYBLOCK
100
AcDbLine
 10
80.0
 20
17.486698
 30
0.0
 11
80.0
 21
27.16556
 31
0.0
  0
LINE
  5
14C
330
F1
100
AcDbEntity
  8
MO_001_NOSHOW
  6
BYBLOCK
100
AcDbLine
 10
72.099998
 20
4.311611
 30
0.0
 11
72.099998
 21
27.16556
 31
0.0
  0
TEXT
  5
14D
330
F1
100
AcDbEntity
  8
MO_001_NOSHOW
  6
BYBLOCK
100
AcDbText
 10
71.978574
 20
25.629561
 30
0.0
 40
3.0
  1
7.9
100
AcDbText
  0
LINE
  5
14E
330
F1
100
AcDbEntity
  8
MO_001_NOSHOW
  6
BYBLOCK
100
AcDbLine
 10
81.08571600000001
 20
24.87956
 30
0.0
 11
80.0
 21
24.87956
 31
0.0
  0
LINE
  5
14F
330
F1
100
AcDbEntity
  8
MO_001_NOSHOW
  6
BYBLOCK
100
AcDbLine
 10
72.099998
 20
24.87956
 30
0.0
 11
71.01429
 21
24.87956
 31
0.0
  0
ENDBLK
  5
150
330
F1
100
AcDbEntity
  8
0
100
AcDbBlockEnd
  0
BLOCK
  5
151
330
F3
100
AcDbEntity
  8
0
100
AcDbBlockBegin
  2
*D5
 70
     1
 10
0.0
 20
0.0
 30
0.0
  3
*D5
  1

  0
TEXT
  5
152
330
F3
100
AcDbEntity
  8
MO_001_VIEW_PV
  6
BYBLOCK
100
AcDbText
 10
-64.285714
 20
32.625
 30
0.0
 40
1.5
  1
%%P0.3
100
AcDbText
  0
TEXT
  5
153
330
F3
100
AcDbEntity
  8
MO_001_VIEW_PV
  6
BYBLOCK
100
AcDbText
 10
-73.07142900000001
 20
30.75
 30
0.0
 40
3.0
  1
4.4
100
AcDbText
  0
LINE
  5
154
330
F3
100
AcDbEntity
  8
MO_001_VIEW_PV
  6
BYBLOCK
100
AcDbLine
 10
-56.499996
 20
30.0
 30
0.0
 11
-52.099998
 21
30.0
 31
0.0
  0
LINE
  5
155
330
F3
100
AcDbEntity
  8
MO_001_VIEW_PV
  6
BYBLOCK
100
AcDbLine
 10
-56.499996
 20
30.0
 30
0.0
 11
-62.84999599999999
 21
30.0
 31
0.0
  0
LINE
  5
156
330
F3
100
AcDbEntity
  8
MO_001_VIEW_PV
  6
BYBLOCK
100
AcDbLine
 10
-52.099998
 20
30.0
 30
0.0
 11
-45.749999
 21
30.0
 31
0.0
  0
SOLID
  5
157
330
F3
100
AcDbEntity
  8
MO_001_VIEW_PV
  6
BYBLOCK
100
AcDbTrace
 10
-59.818256
 20
29.416488
 30
0.0
 11
-57.00799599999999
 21
30.0
 31
0.0
 12
-59.818256
 22
30.583512
 32
0.0
 13
-59.818256
 23
30.583512
 33
0.0
  0
SOLID
  5
158
330
F3
100
AcDbEntity
  8
MO_001_VIEW_PV
  6
BYBLOCK
100
AcDbTrace
 10
-48.78173799999999
 20
30.583512
 30
0.0
 11
-51.59199799999999
 21
30.0
 31
0.0
 12
-48.78173799999999
 22
29.416488
 32
0.0
 13
-48.78173799999999
 23
29.416488
 33
0.0
  0
LINE
  5
159
330
F3
100
AcDbEntity
  8
MO_001_VIEW_PV
  6
BYBLOCK
100
AcDbLine
 10
-56.499996
 20
5.0
 30
0.0
 11
-56.499996
 21
32.28599899999999
 31
0.0
  0
LINE
  5
15A
330
F3
100
AcDbEntity
  8
MO_001_VIEW_PV
  6
BYBLOCK
100
AcDbLine
 10
-52.099998
 20
12.19999999999999
 30
0.0
 11
-52.099998
 21
32.28599899999999
 31
0.0
  0
LINE
  5
15B
330
F3
100
AcDbEntity
  8
MO_001_VIEW_PV
  6
BYBLOCK
100
AcDbLine
 10
-74.035713
 20
30.0
 30
0.0
 11
-56.499996
 21
30.0
 31
0.0
  0
ENDBLK
  5
15C
330
F3
100
AcDbEntity
  8
0
100
AcDbBlockEnd
  0
BLOCK
  5
15D
330
F5
100
AcDbEntity
  8
0
100
AcDbBlockBegin
  2
*D6
 70
     1
 10
0.0
 20
0.0
 30
0.0
  3
*D6
  1

  0
TEXT
  5
15E
330
F5
100
AcDbEntity
  8
MO_001_VIEW_PV
  6
BYBLOCK
100
AcDbText
 10
-26.785714
 20
32.625
 30
0.0
 40
1.5
  1
%%P0.5
100
AcDbText
  0
TEXT
  5
15F
330
F5
100
AcDbEntity
  8
MO_001_VIEW_PV
  6
BYBLOCK
100
AcDbText
 10
-32.57142899999999
 20
30.75
 30
0.0
 40
3.0
  1
52
100
AcDbText
  0
LINE
  5
160
330
F5
100
AcDbEntity
  8
MO_001_VIEW_PV
  6
BYBLOCK
100
AcDbLine
 10
-52.099998
 20
30.0
 30
0.0
 11
0.0
 21
30.0
 31
0.0
  0
SOLID
  5
161
330
F5
100
AcDbEntity
  8
MO_001_VIEW_PV
  6
BYBLOCK
100
AcDbTrace
 10
-48.78173799999999
 20
30.583512
 30
0.0
 11
-51.59199799999999
 21
30.0
 31
0.0
 12
-48.78173799999999
 22
29.416488
 32
0.0
 13
-48.78173799999999
 23
29.416488
 33
0.0
  0
SOLID
  5
162
330
F5
100
AcDbEntity
  8
MO_001_VIEW_PV
  6
BYBLOCK
100
AcDbTrace
 10
-3.318259999999999
 20
29.416488
 30
0.0
 11
-0.508
 21
30.0
 31
0.0
 12
-3.318259999999999
 22
30.583512
 32
0.0
 13
-3.318259999999999
 23
30.583512
 33
0.0
  0
LINE
  5
163
330
F5
100
AcDbEntity
  8
MO_001_VIEW_PV
  6
BYBLOCK
100
AcDbLine
 10
-52.099998
 20
12.19999999999999
 30
0.0
 11
-52.099998
 21
32.28599899999999
 31
0.0
  0
LINE
  5
164
330
F5
100
AcDbEntity
  8
MO_001_VIEW_PV
  6
BYBLOCK
100
AcDbLine
 10
0.0
 20
12.19999999999999
 30
0.0
 11
0.0
 21
32.28599899999999
 31
0.0
  0
ENDBLK
  5
165
330
F5
100
AcDbEntity
  8
0
100
AcDbBlockEnd
  0
BLOCK
  5
166
330
F7
100
AcDbEntity
  8
0
100
AcDbBlockBegin
  2
*D7
 70
     1
 10
0.0
 20
0.0
 30
0.0
  3
*D7
  1

  0
TEXT
  5
167
330
F7
100
AcDbEntity
  8
MO_001_VIEW_PV
  6
BYBLOCK
100
AcDbText
 10
36.214286
 20
32.625
 30
0.0
 40
1.5
  1
%%P0.6
100
AcDbText
  0
TEXT
  5
168
330
F7
100
AcDbEntity
  8
MO_001_VIEW_PV
  6
BYBLOCK
100
AcDbText
 10
30.428571
 20
30.75
 30
0.0
 40
3.0
  1
20
100
AcDbText
  0
LINE
  5
169
330
F7
100
AcDbEntity
  8
MO_001_VIEW_PV
  6
BYBLOCK
100
AcDbLine
 10
9.5
 20
30.0
 30
0.0
 11
29.400003
 21
30.0
 31
0.0
  0
SOLID
  5
16A
330
F7
100
AcDbEntity
  8
MO_001_VIEW_PV
  6
BYBLOCK
100
AcDbTrace
 10
12.81826
 20
30.583512
 30
0.0
 11
10.00799999999999
 21
30.0
 31
0.0
 12
12.81826
 22
29.416488
 32
0.0
 13
12.81826
 23
29.416488
 33
0.0
  0
SOLID
  5
16B
330
F7
100
AcDbEntity
  8
MO_001_VIEW_PV
  6
BYBLOCK
100
AcDbTrace
 10
26.08174299999999
 20
29.416488
 30
0.0
 11
28.892003
 21
30.0
 31
0.0
 12
26.08174299999999
 22
30.583512
 32
0.0
 13
26.08174299999999
 23
30.583512
 33
0.0
  0
LINE
  5
16C
330
F7
100
AcDbEntity
  8
MO_001_VIEW_PV
  6
BYBLOCK
100
AcDbLine
 10
9.5
 20
7.5
 30
0.0
 11
9.5
 21
32.28599899999999
 31
0.0
  0
LINE
  5
16D
330
F7
100
AcDbEntity
  8
MO_001_VIEW_PV
  6
BYBLOCK
100
AcDbLine
 10
29.400003
 20
1.5
 30
0.0
 11
29.400003
 21
32.28599899999999
 31
0.0
  0
LINE
  5
16E
330
F7
100
AcDbEntity
  8
MO_001_VIEW_PV
  6
BYBLOCK
100
AcDbLine
 10
29.400003
 20
30.0
 30
0.0
 11
42.53571299999999
 21
30.0
 31
0.0
  0
ENDBLK
  5
16F
330
F7
100
AcDbEntity
  8
0
100
AcDbBlockEnd
  0
BLOCK
  5
170
330
F9
100
AcDbEntity
  8
0
100
AcDbBlockBegin
  2
*D8
 70
     1
 10
0.0
 20
0.0
 30
0.0
  3
*D8
  1

  0
TEXT
  5
171
330
F9
100
AcDbEntity
  8
MO_001_VIEW_PV
  6
BYBLOCK
100
AcDbText
 10
62.832885
 20
32.625
 30
0.0
 40
1.5
  1
%%P0.4
100
AcDbText
  0
TEXT
  5
172
330
F9
100
AcDbEntity
  8
MO_001_VIEW_PV
  6
BYBLOCK
100
AcDbText
 10
48.04717
 20
30.75
 30
0.0
 40
3.0
  1
%%C25.4
100
AcDbText
  0
LINE
  5
173
330
F9
100
AcDbEntity
  8
MO_001_VIEW_PV
  6
BYBLOCK
100
AcDbLine
 10
44.300003
 20
30.0
 30
0.0
 11
69.69999699999999
 21
30.0
 31
0.0
  0
SOLID
  5
174
330
F9
100
AcDbEntity
  8
MO_001_VIEW_PV
  6
BYBLOCK
100
AcDbTrace
 10
47.618263
 20
30.583512
 30
0.0
 11
44.808003
 21
30.0
 31
0.0
 12
47.618263
 22
29.416488
 32
0.0
 13
47.618263
 23
29.416488
 33
0.0
  0
SOLID
  5
175
330
F9
100
AcDbEntity
  8
MO_001_VIEW_PV
  6
BYBLOCK
100
AcDbTrace
 10
66.381737
 20
29.416488
 30
0.0
 11
69.191997
 21
30.0
 31
0.0
 12
66.381737
 22
30.583512
 32
0.0
 13
66.381737
 23
30.583512
 33
0.0
  0
LINE
  5
176
330
F9
100
AcDbEntity
  8
MO_001_VIEW_PV
  6
BYBLOCK
100
AcDbLine
 10
44.300003
 20
0.0
 30
0.0
 11
44.300003
 21
32.28599899999999
 31
0.0
  0
LINE
  5
177
330
F9
100
AcDbEntity
  8
MO_001_VIEW_PV
  6
BYBLOCK
100
AcDbLine
 10
69.69999699999999
 20
0.0
 30
0.0
 11
69.69999699999999
 21
32.28599899999999
 31
0.0
  0
ENDBLK
  5
178
330
F9
100
AcDbEntity
  8
0
100
AcDbBlockEnd
  0
BLOCK
  5
179
330
FB
100
AcDbEntity
  8
0
100
AcDbBlockBegin
  2
*D9
 70
     1
 10
0.0
 20
0.0
 30
0.0
  3
*D9
  1

  0
LINE
  5
17A
330
FB
100
AcDbEntity
  8
MO_001_VIEW_PV
  6
BYBLOCK
100
AcDbLine
 10
45.49999999999999
 20
24.0
 30
0.0
 11
68.5
 21
24.0
 31
0.0
  0
SOLID
  5
17B
330
FB
100
AcDbEntity
  8
MO_001_VIEW_PV
  6
BYBLOCK
100
AcDbTrace
 10
48.81826
 20
24.583512
 30
0.0
 11
46.008
 21
24.0
 31
0.0
 12
48.81826
 22
23.416488
 32
0.0
 13
48.81826
 23
23.416488
 33
0.0
  0
SOLID
  5
17C
330
FB
100
AcDbEntity
  8
MO_001_VIEW_PV
  6
BYBLOCK
100
AcDbTrace
 10
65.18174000000001
 20
23.416488
 30
0.0
 11
67.992
 21
24.0
 31
0.0
 12
65.18174000000001
 22
24.583512
 32
0.0
 13
65.18174000000001
 23
24.583512
 33
0.0
  0
LINE
  5
17D
330
FB
100
AcDbEntity
  8
MO_001_VIEW_PV
  6
BYBLOCK
100
AcDbLine
 10
45.49999999999999
 20
6.63953
 30
0.0
 11
45.49999999999999
 21
26.285999
 31
0.0
  0
LINE
  5
17E
330
FB
100
AcDbEntity
  8
MO_001_VIEW_PV
  6
BYBLOCK
100
AcDbLine
 10
68.5
 20
6.639528
 30
0.0
 11
68.5
 21
26.285999
 31
0.0
  0
TEXT
  5
17F
330
FB
100
AcDbEntity
  8
MO_001_VIEW_PV
  6
BYBLOCK
100
AcDbText
 10
57.214286
 20
26.625
 30
0.0
 40
1.5
  1
%%P0.2
100
AcDbText
  0
TEXT
  5
180
330
FB
100
AcDbEntity
  8
MO_001_VIEW_PV
  6
BYBLOCK
100
AcDbText
 10
51.428571
 20
24.75
 30
0.0
 40
3.0
  1
23
100
AcDbText
  0
ENDBLK
  5
181
330
FB
100
AcDbEntity
  8
0
100
AcDbBlockEnd
  0
BLOCK
  5
182
330
FD
100
AcDbEntity
  8
0
100
AcDbBlockBegin
  2
*D10
 70
     1
 10
0.0
 20
0.0
 30
0.0
  3
*D10
  1

  0
LINE
  5
183
330
FD
100
AcDbEntity
  8
MO_001_VIEW_PV
  6
BYBLOCK
100
AcDbLine
 10
57.0
 20
18.0
 30
0.0
 11
64.900002
 21
18.0
 31
0.0
  0
LINE
  5
184
330
FD
100
AcDbEntity
  8
MO_001_VIEW_PV
  6
BYBLOCK
100
AcDbLine
 10
57.0
 20
18.0
 30
0.0
 11
50.65
 21
18.0
 31
0.0
  0
LINE
  5
185
330
FD
100
AcDbEntity
  8
MO_001_VIEW_PV
  6
BYBLOCK
100
AcDbLine
 10
64.900002
 20
18.0
 30
0.0
 11
71.250001
 21
18.0
 31
0.0
  0
SOLID
  5
186
330
FD
100
AcDbEntity
  8
MO_001_VIEW_PV
  6
BYBLOCK
100
AcDbTrace
 10
53.68174
 20
17.416488
 30
0.0
 11
56.492
 21
18.0
 31
0.0
 12
53.68174
 22
18.58351199999999
 32
0.0
 13
53.68174
 23
18.58351199999999
 33
0.0
  0
SOLID
  5
187
330
FD
100
AcDbEntity
  8
MO_001_VIEW_PV
  6
BYBLOCK
100
AcDbTrace
 10
68.218262
 20
18.58351199999999
 30
0.0
 11
65.40800199999999
 21
18.0
 31
0.0
 12
68.218262
 22
17.416488
 32
0.0
 13
68.218262
 23
17.416488
 33
0.0
  0
LINE
  5
188
330
FD
100
AcDbEntity
  8
MO_001_VIEW_PV
  6
BYBLOCK
100
AcDbLine
 10
57.0
 20
17.486698
 30
0.0
 11
57.0
 21
20.285999
 31
0.0
  0
LINE
  5
189
330
FD
100
AcDbEntity
  8
MO_001_VIEW_PV
  6
BYBLOCK
100
AcDbLine
 10
64.900002
 20
4.311611
 30
0.0
 11
64.900002
 21
20.285999
 31
0.0
  0
TEXT
  5
18A
330
FD
100
AcDbEntity
  8
MO_001_VIEW_PV
  6
BYBLOCK
100
AcDbText
 10
79.40309
 20
20.625
 30
0.0
 40
1.5
  1
%%P0.2
100
AcDbText
  0
TEXT
  5
18B
330
FD
100
AcDbEntity
  8
MO_001_VIEW_PV
  6
BYBLOCK
100
AcDbText
 10
70.617376
 20
18.75
 30
0.0
 40
3.0
  1
7.9
100
AcDbText
  0
LINE
  5
18C
330
FD
100
AcDbEntity
  8
MO_001_VIEW_PV
  6
BYBLOCK
100
AcDbLine
 10
64.900002
 20
18.0
 30
0.0
 11
85.72451800000001
 21
18.0
 31
0.0
  0
ENDBLK
  5
18D
330
FD
100
AcDbEntity
  8
0
100
AcDbBlockEnd
  0
BLOCK
  5
18E
330
FF
100
AcDbEntity
  8
0
100
AcDbBlockBegin
  2
*D11
 70
     1
 10
0.0
 20
0.0
 30
0.0
  3
*D11
  1

  0
TEXT
  5
18F
330
FF
100
AcDbEntity
  8
MO_001_VIEW_PV
  6
BYBLOCK
100
AcDbText
 10
33.375
 20
11.46428599999999
 30
0.0
 40
1.5
  1
%%P0.05
 50
90.0
100
AcDbText
  0
TEXT
  5
190
330
FF
100
AcDbEntity
  8
MO_001_VIEW_PV
  6
BYBLOCK
100
AcDbText
 10
35.25
 20
5.678570999999999
 30
0.0
 40
3.0
  1
%%C3
 50
90.0
100
AcDbText
  0
LINE
  5
191
330
FF
100
AcDbEntity
  8
MO_001_VIEW_PV
  6
BYBLOCK
100
AcDbLine
 10
36.0
 20
1.5
 30
0.0
 11
36.0
 21
-1.5
 31
0.0
  0
LINE
  5
192
330
FF
100
AcDbEntity
  8
MO_001_VIEW_PV
  6
BYBLOCK
100
AcDbLine
 10
36.0
 20
1.5
 30
0.0
 11
36.0
 21
7.849999999999999
 31
0.0
  0
LINE
  5
193
330
FF
100
AcDbEntity
  8
MO_001_VIEW_PV
  6
BYBLOCK
100
AcDbLine
 10
36.0
 20
-1.5
 30
0.0
 11
36.0
 21
-7.849999999999999
 31
0.0
  0
SOLID
  5
194
330
FF
100
AcDbEntity
  8
MO_001_VIEW_PV
  6
BYBLOCK
100
AcDbTrace
 10
35.416488
 20
4.818259999999999
 30
0.0
 11
36.0
 21
2.008
 31
0.0
 12
36.583512
 22
4.818259999999999
 32
0.0
 13
36.583512
 23
4.818259999999999
 33
0.0
  0
SOLID
  5
195
330
FF
100
AcDbEntity
  8
MO_001_VIEW_PV
  6
BYBLOCK
100
AcDbTrace
 10
36.583512
 20
-4.818259999999999
 30
0.0
 11
36.0
 21
-2.008
 31
0.0
 12
35.416488
 22
-4.818259999999999
 32
0.0
 13
35.416488
 23
-4.818259999999999
 33
0.0
  0
LINE
  5
196
330
FF
100
AcDbEntity
  8
MO_001_VIEW_PV
  6
BYBLOCK
100
AcDbLine
 10
29.400003
 20
1.5
 30
0.0
 11
38.285999
 21
1.5
 31
0.0
  0
LINE
  5
197
330
FF
100
AcDbEntity
  8
MO_001_VIEW_PV
  6
BYBLOCK
100
AcDbLine
 10
29.400003
 20
-1.5
 30
0.0
 11
38.285999
 21
-1.5
 31
0.0
  0
LINE
  5
198
330
FF
100
AcDbEntity
  8
MO_001_VIEW_PV
  6
BYBLOCK
100
AcDbLine
 10
36.0
 20
19.285713
 30
0.0
 11
36.0
 21
1.5
 31
0.0
  0
ENDBLK
  5
199
330
FF
100
AcDbEntity
  8
0
100
AcDbBlockEnd
  0
BLOCK
  5
19A
330
101
100
AcDbEntity
  8
0
100
AcDbBlockBegin
  2
*D12
 70
     1
 10
0.0
 20
0.0
 30
0.0
  3
*D12
  1

  0
TEXT
  5
19B
330
101
100
AcDbEntity
  8
MO_001_VIEW_PV
  6
BYBLOCK
100
AcDbText
 10
-68.625
 20
19.71428599999999
 30
0.0
 40
1.5
  1
%%P0.3
 50
90.0
100
AcDbText
  0
TEXT
  5
19C
330
101
100
AcDbEntity
  8
MO_001_VIEW_PV
  6
BYBLOCK
100
AcDbText
 10
-66.75
 20
10.928571
 30
0.0
 40
3.0
  1
%%C16
 50
90.0
100
AcDbText
  0
LINE
  5
19D
330
101
100
AcDbEntity
  8
MO_001_VIEW_PV
  6
BYBLOCK
100
AcDbLine
 10
-66.0
 20
8.0
 30
0.0
 11
-66.0
 21
-8.0
 31
0.0
  0
SOLID
  5
19E
330
101
100
AcDbEntity
  8
MO_001_VIEW_PV
  6
BYBLOCK
100
AcDbTrace
 10
-65.416488
 20
4.68174
 30
0.0
 11
-66.0
 21
7.492
 31
0.0
 12
-66.583512
 22
4.68174
 32
0.0
 13
-66.583512
 23
4.68174
 33
0.0
  0
SOLID
  5
19F
330
101
100
AcDbEntity
  8
MO_001_VIEW_PV
  6
BYBLOCK
100
AcDbTrace
 10
-66.583512
 20
-4.68174
 30
0.0
 11
-66.0
 21
-7.492
 31
0.0
 12
-65.416488
 22
-4.68174
 32
0.0
 13
-65.416488
 23
-4.68174
 33
0.0
  0
LINE
  5
1A0
330
101
100
AcDbEntity
  8
MO_001_VIEW_PV
  6
BYBLOCK
100
AcDbLine
 10
-53.299999
 20
8.0
 30
0.0
 11
-68.28600300000001
 21
8.0
 31
0.0
  0
LINE
  5
1A1
330
101
100
AcDbEntity
  8
MO_001_VIEW_PV
  6
BYBLOCK
100
AcDbLine
 10
-53.299999
 20
-8.0
 30
0.0
 11
-68.28600300000001
 21
-8.0
 31
0.0
  0
LINE
  5
1A2
330
101
100
AcDbEntity
  8
MO_001_VIEW_PV
  6
BYBLOCK
100
AcDbLine
 10
-66.0
 20
26.035713
 30
0.0
 11
-66.0
 21
8.0
 31
0.0
  0
ENDBLK
  5
1A3
330
101
100
AcDbEntity
  8
0
100
AcDbBlockEnd
  0
BLOCK
  5
1A4
330
103
100
AcDbEntity
  8
0
100
AcDbBlockBegin
  2
*D13
 70
     1
 10
0.0
 20
0.0
 30
0.0
  3
*D13
  1

  0
LINE
  5
1A5
330
103
100
AcDbEntity
  8
MO_001_VIEW_PV
  6
BYBLOCK
100
AcDbLine
 10
4.75
 20
30.0
 30
0.0
 11
8.214102
 21
36.0
 31
0.0
  0
SOLID
  5
1A6
330
103
100
AcDbEntity
  8
MO_001_VIEW_PV
  6
BYBLOCK
100
AcDbTrace
 10
5.903794999999999
 20
33.165453
 30
0.0
 11
5.003999999999999
 21
30.43994099999999
 31
0.0
 12
6.914466
 22
32.581942
 32
0.0
 13
6.914466
 23
32.581942
 33
0.0
  0
LINE
  5
1A7
330
103
100
AcDbEntity
  8
MO_001_VIEW_PV
  6
BYBLOCK
100
AcDbLine
 10
8.214102
 20
36.0
 30
0.0
 11
26.035715
 21
36.0
 31
0.0
  0
TEXT
  5
1A8
330
103
100
AcDbEntity
  8
MO_001_VIEW_PV
  6
BYBLOCK
100
AcDbText
 10
19.71428599999999
 20
38.625
 30
0.0
 40
1.5
  1
%%P0.2
100
AcDbText
  0
TEXT
  5
1A9
330
103
100
AcDbEntity
  8
MO_001_VIEW_PV
  6
BYBLOCK
100
AcDbText
 10
10.928571
 20
36.75
 30
0.0
 40
3.0
  1
9.5
100
AcDbText
  0
LINE
  5
1AA
330
103
100
AcDbEntity
  8
MO_001_VIEW_PV
  6
BYBLOCK
100
AcDbLine
 10
0.0
 20
30.0
 30
0.0
 11
9.5
 21
30.0
 31
0.0
  0
LINE
  5
1AB
330
103
100
AcDbEntity
  8
MO_001_VIEW_PV
  6
BYBLOCK
100
AcDbLine
 10
0.0
 20
30.0
 30
0.0
 11
-6.349999999999999
 21
30.0
 31
0.0
  0
LINE
  5
1AC
330
103
100
AcDbEntity
  8
MO_001_VIEW_PV
  6
BYBLOCK
100
AcDbLine
 10
9.5
 20
30.0
 30
0.0
 11
15.84999999999999
 21
30.0
 31
0.0
  0
SOLID
  5
1AD
330
103
100
AcDbEntity
  8
MO_001_VIEW_PV
  6
BYBLOCK
100
AcDbTrace
 10
-3.318259999999999
 20
29.416488
 30
0.0
 11
-0.508
 21
30.0
 31
0.0
 12
-3.318259999999999
 22
30.583512
 32
0.0
 13
-3.318259999999999
 23
30.583512
 33
0.0
  0
SOLID
  5
1AE
330
103
100
AcDbEntity
  8
MO_001_VIEW_PV
  6
BYBLOCK
100
AcDbTrace
 10
12.81826
 20
30.583512
 30
0.0
 11
10.00799999999999
 21
30.0
 31
0.0
 12
12.81826
 22
29.416488
 32
0.0
 13
12.81826
 23
29.416488
 33
0.0
  0
LINE
  5
1AF
330
103
100
AcDbEntity
  8
MO_001_VIEW_PV
  6
BYBLOCK
100
AcDbLine
 10
0.0
 20
12.19999999999999
 30
0.0
 11
0.0
 21
32.28599899999999
 31
0.0
  0
LINE
  5
1B0
330
103
100
AcDbEntity
  8
MO_001_VIEW_PV
  6
BYBLOCK
100
AcDbLine
 10
9.5
 20
7.5
 30
0.0
 11
9.5
 21
32.28599899999999
 31
0.0
  0
ENDBLK
  5
1B1
330
103
100
AcDbEntity
  8
0
100
AcDbBlockEnd
  0
BLOCK
  5
1B2
330
111
100
AcDbEntity
  8
0
100
AcDbBlockBegin
  2
*D14
 70
     1
 10
0.0
 20
0.0
 30
0.0
  3
*D14
  1

  0
TEXT
  5
1B3
330
111
100
AcDbEntity
  8
MO_001_VIEW_PV
  6
BYBLOCK
100
AcDbText
 10
128.314284
 20
8.625
 30
0.0
 40
1.5
  1
%%P0.1
100
AcDbText
  0
TEXT
  5
1B4
330
111
100
AcDbEntity
  8
MO_001_VIEW_PV
  6
BYBLOCK
100
AcDbText
 10
116.52857
 20
6.75
 30
0.0
 40
3.0
  1
17.1
100
AcDbText
  0
LINE
  5
1B5
330
111
100
AcDbEntity
  8
MO_001_VIEW_PV
  6
BYBLOCK
100
AcDbLine
 10
95.0
 20
6.0
 30
0.0
 11
112.099998
 21
6.0
 31
0.0
  0
LINE
  5
1B6
330
111
100
AcDbEntity
  8
MO_001_VIEW_PV
  6
BYBLOCK
100
AcDbLine
 10
95.0
 20
6.0
 30
0.0
 11
88.65
 21
6.0
 31
0.0
  0
LINE
  5
1B7
330
111
100
AcDbEntity
  8
MO_001_VIEW_PV
  6
BYBLOCK
100
AcDbLine
 10
112.099998
 20
6.0
 30
0.0
 11
118.449998
 21
6.0
 31
0.0
  0
SOLID
  5
1B8
330
111
100
AcDbEntity
  8
MO_001_VIEW_PV
  6
BYBLOCK
100
AcDbTrace
 10
91.68174
 20
5.416487999999999
 30
0.0
 11
94.49200000000001
 21
6.0
 31
0.0
 12
91.68174
 22
6.583511999999999
 32
0.0
 13
91.68174
 23
6.583511999999999
 33
0.0
  0
SOLID
  5
1B9
330
111
100
AcDbEntity
  8
MO_001_VIEW_PV
  6
BYBLOCK
100
AcDbTrace
 10
115.418259
 20
6.583511999999999
 30
0.0
 11
112.6079979999999
 21
6.0
 31
0.0
 12
115.418259
 22
5.416487999999999
 32
0.0
 13
115.418259
 23
5.416487999999999
 33
0.0
  0
LINE
  5
1BA
330
111
100
AcDbEntity
  8
MO_001_VIEW_PV
  6
BYBLOCK
100
AcDbLine
 10
95.0
 20
-18.0
 30
0.0
 11
95.0
 21
8.285999
 31
0.0
  0
LINE
  5
1BB
330
111
100
AcDbEntity
  8
MO_001_VIEW_PV
  6
BYBLOCK
100
AcDbLine
 10
112.099998
 20
-13.66294899999999
 30
0.0
 11
112.099998
 21
8.285999
 31
0.0
  0
LINE
  5
1BC
330
111
100
AcDbEntity
  8
MO_001_VIEW_PV
  6
BYBLOCK
100
AcDbLine
 10
112.099998
 20
6.0
 30
0.0
 11
134.635712
 21
6.0
 31
0.0
  0
ENDBLK
  5
1BD
330
111
100
AcDbEntity
  8
0
100
AcDbBlockEnd
  0
BLOCK
  5
1BE
330
113
100
AcDbEntity
  8
0
100
AcDbBlockBegin
  2
*D15
 70
     1
 10
0.0
 20
0.0
 30
0.0
  3
*D15
  1

  0
LINE
  5
1BF
330
113
100
AcDbEntity
  8
MO_001_VIEW_PV
  6
BYBLOCK
100
AcDbLine
 10
112.099998
 20
0.0
 30
0.0
 11
104.099998
 21
0.0
 31
0.0
  0
LINE
  5
1C0
330
113
100
AcDbEntity
  8
MO_001_VIEW_PV
  6
BYBLOCK
100
AcDbLine
 10
112.099998
 20
0.0
 30
0.0
 11
118.449998
 21
0.0
 31
0.0
  0
LINE
  5
1C1
330
113
100
AcDbEntity
  8
MO_001_VIEW_PV
  6
BYBLOCK
100
AcDbLine
 10
104.099998
 20
0.0
 30
0.0
 11
97.749999
 21
0.0
 31
0.0
  0
SOLID
  5
1C2
330
113
100
AcDbEntity
  8
MO_001_VIEW_PV
  6
BYBLOCK
100
AcDbTrace
 10
115.418259
 20
0.583512
 30
0.0
 11
112.6079979999999
 21
0.0
 31
0.0
 12
115.418259
 22
-0.583512
 32
0.0
 13
115.418259
 23
-0.583512
 33
0.0
  0
SOLID
  5
1C3
330
113
100
AcDbEntity
  8
MO_001_VIEW_PV
  6
BYBLOCK
100
AcDbTrace
 10
100.781738
 20
-0.583512
 30
0.0
 11
103.591998
 21
0.0
 31
0.0
 12
100.781738
 22
0.583512
 32
0.0
 13
100.781738
 23
0.583512
 33
0.0
  0
LINE
  5
1C4
330
113
100
AcDbEntity
  8
MO_001_VIEW_PV
  6
BYBLOCK
100
AcDbLine
 10
112.099998
 20
-13.66294899999999
 30
0.0
 11
112.099998
 21
2.285999
 31
0.0
  0
LINE
  5
1C5
330
113
100
AcDbEntity
  8
MO_001_VIEW_PV
  6
BYBLOCK
100
AcDbLine
 10
104.099998
 20
-6.9
 30
0.0
 11
104.099998
 21
2.285999
 31
0.0
  0
TEXT
  5
1C6
330
113
100
AcDbEntity
  8
MO_001_VIEW_PV
  6
BYBLOCK
100
AcDbText
 10
116.6924419999999
 20
0.75
 30
0.0
 40
3.0
  1
(8)
100
AcDbText
  0
LINE
  5
1C7
330
113
100
AcDbEntity
  8
MO_001_VIEW_PV
  6
BYBLOCK
100
AcDbLine
 10
125.799583
 20
0.0
 30
0.0
 11
112.099998
 21
0.0
 31
0.0
  0
ENDBLK
  5
1C8
330
113
100
AcDbEntity
  8
0
100
AcDbBlockEnd
  0
ENDSEC
  0
SECTION
  2
ENTITIES
  0
TEXT
  5
4B
330
1E
100
AcDbEntity
  8
OVERLAY_MAP
  6
C_SOLID_L
100
AcDbText
 10
0.0
 20
6.349999999999999
 30
0.0
 40
4.1672
  1
Model Overlay Name
100
AcDbText
  0
TEXT
  5
4C
330
1E
100
AcDbEntity
  8
OVERLAY_MAP
  6
C_SOLID_L
100
AcDbText
 10
126.999998
 20
0.0
 30
0.0
 40
4.1672
  1
Number
100
AcDbText
  0
TEXT
  5
4D
330
1E
100
AcDbEntity
  8
OVERLAY_MAP
  6
C_SOLID_L
100
AcDbText
 10
177.7999969999999
 20
0.0
 30
0.0
 40
4.1672
  1
File Text
100
AcDbText
  0
TEXT
  5
4E
330
1E
100
AcDbEntity
  8
OVERLAY_MAP
  6
C_SOLID_L
100
AcDbText
 10
0.0
 20
-6.349999999999999
 30
0.0
 40
4.1672
  1
tb s100push 
100
AcDbText
  0
TEXT
  5
4F
330
1E
100
AcDbEntity
  8
OVERLAY_MAP
  6
C_SOLID_L
100
AcDbText
 10
126.999998
 20
-6.349999999999999
 30
0.0
 40
4.1672
  1
001
100
AcDbText
  0
TEXT
  5
50
330
1E
100
AcDbEntity
  8
OVERLAY_MAP
  6
C_SOLID_L
100
AcDbText
 10
177.7999969999999
 20
-6.349999999999999
 30
0.0
 40
4.1672
  1
                                                                   00118
100
AcDbText
  0
LINE
  5
51
330
1E
100
AcDbEntity
  8
MO_001_VIEW_PV
  6
C_SOLID_M
100
AcDbLine
 10
0.0
 20
12.19999999999999
 30
0.0
 11
0.0
 21
-12.19999999999999
 31
0.0
  0
LINE
  5
52
330
1E
100
AcDbEntity
  8
MO_001_VIEW_PV
  6
C_CENTER_L
100
AcDbLine
 10
32.221466
 20
0.0
 30
0.0
 11
-59.593662
 21
0.0
 31
0.0
  0
LINE
  5
53
330
1E
100
AcDbEntity
  8
MO_001_VIEW_PV
  6
C_CENTER_L
100
AcDbLine
 10
72.079376
 20
0.0
 30
0.0
 11
42.0
 21
0.0
 31
0.0
  0
LINE
  5
54
330
1E
100
AcDbEntity
  8
MO_001_VIEW_PV
  6
C_SOLID_M
100
AcDbLine
 10
-0.3
 20
12.5
 30
0.0
 11
-1.0
 21
12.5
 31
0.0
  0
LINE
  5
55
330
1E
100
AcDbEntity
  8
MO_001_VIEW_PV
  6
C_SOLID_M
100
AcDbLine
 10
-0.3
 20
-12.5
 30
0.0
 11
-1.0
 21
-12.5
 31
0.0
  0
LINE
  5
56
330
1E
100
AcDbEntity
  8
MO_001_VIEW_PV
  6
C_SOLID_M
100
AcDbLine
 10
-1.0
 20
12.7
 30
0.0
 11
-1.0
 21
-12.7
 31
0.0
  0
LINE
  5
57
330
1E
100
AcDbEntity
  8
MO_001_VIEW_PV
  6
C_SOLID_M
100
AcDbLine
 10
0.0
 20
12.19999999999999
 30
0.0
 11
-0.3
 21
12.5
 31
0.0
  0
LINE
  5
58
330
1E
100
AcDbEntity
  8
MO_001_VIEW_PV
  6
C_SOLID_M
100
AcDbLine
 10
0.0
 20
-12.19999999999999
 30
0.0
 11
-0.3
 21
-12.5
 31
0.0
  0
LINE
  5
59
330
1E
100
AcDbEntity
  8
MO_001_VIEW_PV
  6
C_SOLID_M
100
AcDbLine
 10
-51.099998
 20
12.7
 30
0.0
 11
-51.099998
 21
-12.7
 31
0.0
  0
LINE
  5
5A
330
1E
100
AcDbEntity
  8
MO_001_VIEW_PV
  6
C_SOLID_M
100
AcDbLine
 10
-1.0
 20
12.7
 30
0.0
 11
-51.099998
 21
12.7
 31
0.0
  0
LINE
  5
5B
330
1E
100
AcDbEntity
  8
MO_001_VIEW_PV
  6
C_SOLID_M
100
AcDbLine
 10
-1.0
 20
-12.7
 30
0.0
 11
-51.099998
 21
-12.7
 31
0.0
  0
LINE
  5
5C
330
1E
100
AcDbEntity
  8
MO_001_VIEW_PV
  6
C_SOLID_M
100
AcDbLine
 10
9.5
 20
7.5
 30
0.0
 11
9.5
 21
-7.5
 31
0.0
  0
LINE
  5
5D
330
1E
100
AcDbEntity
  8
MO_001_VIEW_PV
  6
C_SOLID_M
100
AcDbLine
 10
2.25
 20
9.0
 30
0.0
 11
0.0
 21
9.0
 31
0.0
  0
LINE
  5
5E
330
1E
100
AcDbEntity
  8
MO_001_VIEW_PV
  6
C_SOLID_M
100
AcDbLine
 10
2.25
 20
-9.0
 30
0.0
 11
0.0
 21
-9.0
 31
0.0
  0
LINE
  5
5F
330
1E
100
AcDbEntity
  8
MO_001_VIEW_PV
  6
C_SOLID_M
100
AcDbLine
 10
2.25
 20
7.5
 30
0.0
 11
1.5
 21
7.5
 31
0.0
  0
LINE
  5
60
330
1E
100
AcDbEntity
  8
MO_001_VIEW_PV
  6
C_SOLID_M
100
AcDbLine
 10
2.25
 20
-7.5
 30
0.0
 11
1.5
 21
-7.5
 31
0.0
  0
LINE
  5
61
330
1E
100
AcDbEntity
  8
MO_001_VIEW_PV
  6
C_SOLID_M
100
AcDbLine
 10
8.0
 20
9.0
 30
0.0
 11
8.0
 21
-9.0
 31
0.0
  0
LINE
  5
62
330
1E
100
AcDbEntity
  8
MO_001_VIEW_PV
  6
C_SOLID_M
100
AcDbLine
 10
9.5
 20
-7.5
 30
0.0
 11
8.0
 21
-9.0
 31
0.0
  0
LINE
  5
63
330
1E
100
AcDbEntity
  8
MO_001_VIEW_PV
  6
C_SOLID_M
100
AcDbLine
 10
9.5
 20
7.5
 30
0.0
 11
8.0
 21
9.0
 31
0.0
  0
LINE
  5
64
330
1E
100
AcDbEntity
  8
MO_001_VIEW_PV
  6
C_SOLID_M
100
AcDbLine
 10
-0.3
 20
12.5
 30
0.0
 11
-0.3
 21
-12.5
 31
0.0
  0
LINE
  5
65
330
1E
100
AcDbEntity
  8
MO_001_VIEW_PV
  6
C_SOLID_M
100
AcDbLine
 10
2.25
 20
9.959292999999998
 30
0.0
 11
2.25
 21
-9.959292999999998
 31
0.0
  0
LINE
  5
66
330
1E
100
AcDbEntity
  8
MO_001_VIEW_PV
  6
C_SOLID_M
100
AcDbLine
 10
7.25
 20
9.959292999999998
 30
0.0
 11
7.25
 21
-9.959292999999998
 31
0.0
  0
LINE
  5
67
330
1E
100
AcDbEntity
  8
MO_001_VIEW_PV
  6
C_CENTER_L
100
AcDbLine
 10
57.0
 20
17.486698
 30
0.0
 11
57.0
 21
-17.577118
 31
0.0
  0
LINE
  5
68
330
1E
100
AcDbEntity
  8
MO_001_VIEW_PV
  6
C_SOLID_M
100
AcDbLine
 10
45.49999999999999
 20
6.63953
 30
0.0
 11
45.49999999999999
 21
-6.639528
 31
0.0
  0
LINE
  5
69
330
1E
100
AcDbEntity
  8
MO_001_VIEW_PV
  6
C_SOLID_M
100
AcDbLine
 10
68.5
 20
6.639528
 30
0.0
 11
68.5
 21
-6.639528
 31
0.0
  0
LINE
  5
6A
330
1E
100
AcDbEntity
  8
MO_001_VIEW_PV
  6
C_SOLID_M
100
AcDbLine
 10
56.999999
 20
-13.279056
 30
0.0
 11
45.499998
 21
-6.639528
 31
0.0
  0
LINE
  5
6B
330
1E
100
AcDbEntity
  8
MO_001_VIEW_PV
  6
C_SOLID_M
100
AcDbLine
 10
68.499999
 20
6.639528
 30
0.0
 11
56.999998
 21
13.279056
 31
0.0
  0
LINE
  5
6C
330
1E
100
AcDbEntity
  8
MO_001_VIEW_PV
  6
C_SOLID_M
100
AcDbLine
 10
45.499998
 20
6.63953
 30
0.0
 11
56.999998
 21
13.27905799999999
 31
0.0
  0
LINE
  5
6D
330
1E
100
AcDbEntity
  8
MO_001_VIEW_PV
  6
C_SOLID_M
100
AcDbLine
 10
56.999995
 20
-13.27905799999999
 30
0.0
 11
68.499999
 21
-6.639528
 31
0.0
  0
CIRCLE
  5
6E
330
1E
100
AcDbEntity
  8
MO_001_VIEW_PV
  6
C_SOLID_M
100
AcDbCircle
 10
57.0
 20
0.000001
 30
0.0
 40
11.50000099999999
  0
CIRCLE
  5
6F
330
1E
100
AcDbEntity
  8
MO_001_VIEW_PV
  6
C_SOLID_M
100
AcDbCircle
 10
57.0
 20
0.000001
 30
0.0
 40
9.0
  0
LINE
  5
70
330
1E
100
AcDbEntity
  8
MO_001_VIEW_PV
  6
C_SOLID_M
100
AcDbLine
 10
6.360471999999999
 20
13.27905799999999
 30
0.0
 11
3.139527999999999
 21
13.27905799999999
 31
0.0
  0
LINE
  5
71
330
1E
100
AcDbEntity
  8
MO_001_VIEW_PV
  6
C_SOLID_M
100
AcDbLine
 10
6.360473
 20
6.63953
 30
0.0
 11
3.139527
 21
6.63953
 31
0.0
  0
LINE
  5
72
330
1E
100
AcDbEntity
  8
MO_001_VIEW_PV
  6
C_SOLID_M
100
AcDbLine
 10
6.360473
 20
-6.639528
 30
0.0
 11
3.139527
 21
-6.639528
 31
0.0
  0
LINE
  5
73
330
1E
100
AcDbEntity
  8
MO_001_VIEW_PV
  6
C_SOLID_M
100
AcDbLine
 10
6.360473
 20
-13.279057
 30
0.0
 11
3.139527999999999
 21
-13.279057
 31
0.0
  0
ARC
  5
74
330
1E
100
AcDbEntity
  8
MO_001_VIEW_PV
  6
C_SOLID_M
100
AcDbCircle
 10
0.610468
 20
9.959292999999998
 30
0.0
 40
6.639532
100
AcDbArc
 50
330.0000299999999
 51
29.999991
  0
ARC
  5
75
330
1E
100
AcDbEntity
  8
MO_001_VIEW_PV
  6
C_SOLID_M
100
AcDbCircle
 10
-17.97385
 20
0.000001
 30
0.0
 40
25.22384999999999
100
AcDbArc
 50
344.738538
 51
15.261465
  0
ARC
  5
76
330
1E
100
AcDbEntity
  8
MO_001_VIEW_PV
  6
C_SOLID_M
100
AcDbCircle
 10
27.47384999999999
 20
0.000001
 30
0.0
 40
25.22384999999999
100
AcDbArc
 50
164.738535
 51
195.261462
  0
ARC
  5
77
330
1E
100
AcDbEntity
  8
MO_001_VIEW_PV
  6
C_SOLID_M
100
AcDbCircle
 10
8.889532
 20
9.959292999999998
 30
0.0
 40
6.639532
100
AcDbArc
 50
150.000011
 51
209.999972
  0
ARC
  5
78
330
1E
100
AcDbEntity
  8
MO_001_VIEW_PV
  6
C_SOLID_M
100
AcDbCircle
 10
8.889532
 20
-9.959292999999998
 30
0.0
 40
6.639532
100
AcDbArc
 50
150.000025
 51
209.999985
  0
ARC
  5
79
330
1E
100
AcDbEntity
  8
MO_001_VIEW_PV
  6
C_SOLID_M
100
AcDbCircle
 10
0.610468
 20
-9.959292999999998
 30
0.0
 40
6.639532
100
AcDbArc
 50
330.000016
 51
29.999977
  0
LINE
  5
7A
330
1E
100
AcDbEntity
  8
MO_001_VIEW_PV
  6
C_SOLID_M
100
AcDbLine
 10
8.0
 20
9.0
 30
0.0
 11
7.25
 21
9.0
 31
0.0
  0
LINE
  5
7B
330
1E
100
AcDbEntity
  8
MO_001_VIEW_PV
  6
C_SOLID_M
100
AcDbLine
 10
9.5
 20
7.5
 30
0.0
 11
7.25
 21
7.5
 31
0.0
  0
LINE
  5
7C
330
1E
100
AcDbEntity
  8
MO_001_VIEW_PV
  6
C_SOLID_M
100
AcDbLine
 10
9.5
 20
-7.5
 30
0.0
 11
7.25
 21
-7.5
 31
0.0
  0
LINE
  5
7D
330
1E
100
AcDbEntity
  8
MO_001_VIEW_PV
  6
C_SOLID_M
100
AcDbLine
 10
8.0
 20
-9.0
 30
0.0
 11
7.25
 21
-9.0
 31
0.0
  0
ARC
  5
7E
330
1E
100
AcDbEntity
  8
MO_001_VIEW_PV
  6
C_SOLID_M
100
AcDbCircle
 10
57.0
 20
0.000001
 30
0.0
 40
12.19999999999999
100
AcDbArc
 50
100.496835
 51
139.503171
  0
ARC
  5
7F
330
1E
100
AcDbEntity
  8
MO_001_VIEW_PV
  6
C_SOLID_M
100
AcDbCircle
 10
57.0
 20
0.000001
 30
0.0
 40
12.499999
100
AcDbArc
 50
96.92610100000001
 51
143.073899
  0
ARC
  5
80
330
1E
100
AcDbEntity
  8
MO_001_VIEW_PV
  6
C_SOLID_M
100
AcDbCircle
 10
57.0
 20
0.000001
 30
0.0
 40
12.699999
100
AcDbArc
 50
94.892324
 51
145.1076689999999
  0
ARC
  5
81
330
1E
100
AcDbEntity
  8
MO_001_VIEW_PV
  6
C_SOLID_M
100
AcDbCircle
 10
57.0
 20
0.000001
 30
0.0
 40
12.19999999999999
100
AcDbArc
 50
340.4968269999999
 51
19.50317699999999
  0
ARC
  5
82
330
1E
100
AcDbEntity
  8
MO_001_VIEW_PV
  6
C_SOLID_M
100
AcDbCircle
 10
57.0
 20
0.000001
 30
0.0
 40
12.699999
100
AcDbArc
 50
334.892315
 51
25.107688
  0
ARC
  5
83
330
1E
100
AcDbEntity
  8
MO_001_VIEW_PV
  6
C_SOLID_M
100
AcDbCircle
 10
57.0
 20
0.000001
 30
0.0
 40
12.499999
100
AcDbArc
 50
336.9261
 51
23.073904
  0
ARC
  5
84
330
1E
100
AcDbEntity
  8
MO_001_VIEW_PV
  6
C_SOLID_M
100
AcDbCircle
 10
57.0
 20
0.000001
 30
0.0
 40
12.19999999999999
100
AcDbArc
 50
40.496803
 51
79.50319
  0
ARC
  5
85
330
1E
100
AcDbEntity
  8
MO_001_VIEW_PV
  6
C_SOLID_M
100
AcDbCircle
 10
57.0
 20
0.000001
 30
0.0
 40
12.499999
100
AcDbArc
 50
36.926076
 51
83.07391700000001
  0
ARC
  5
86
330
1E
100
AcDbEntity
  8
MO_001_VIEW_PV
  6
C_SOLID_M
100
AcDbCircle
 10
57.0
 20
0.000001
 30
0.0
 40
12.699999
100
AcDbArc
 50
34.892305
 51
85.107695
  0
ARC
  5
87
330
1E
100
AcDbEntity
  8
MO_001_VIEW_PV
  6
C_SOLID_M
100
AcDbCircle
 10
57.0
 20
0.000001
 30
0.0
 40
12.699999
100
AcDbArc
 50
274.892325
 51
325.107668
  0
ARC
  5
88
330
1E
100
AcDbEntity
  8
MO_001_VIEW_PV
  6
C_SOLID_M
100
AcDbCircle
 10
57.0
 20
0.000001
 30
0.0
 40
12.499999
100
AcDbArc
 50
276.9261029999999
 51
323.073897
  0
ARC
  5
89
330
1E
100
AcDbEntity
  8
MO_001_VIEW_PV
  6
C_SOLID_M
100
AcDbCircle
 10
57.0
 20
0.000001
 30
0.0
 40
12.19999999999999
100
AcDbArc
 50
280.496837
 51
319.50317
  0
ARC
  5
8A
330
1E
100
AcDbEntity
  8
MO_001_VIEW_PV
  6
C_SOLID_M
100
AcDbCircle
 10
57.0
 20
0.000001
 30
0.0
 40
12.19999999999999
100
AcDbArc
 50
220.496829
 51
259.5031649999999
  0
ARC
  5
8B
330
1E
100
AcDbEntity
  8
MO_001_VIEW_PV
  6
C_SOLID_M
100
AcDbCircle
 10
57.0
 20
0.000001
 30
0.0
 40
12.499999
100
AcDbArc
 50
216.926101
 51
263.073899
  0
ARC
  5
8C
330
1E
100
AcDbEntity
  8
MO_001_VIEW_PV
  6
C_SOLID_M
100
AcDbCircle
 10
57.0
 20
0.000001
 30
0.0
 40
12.699999
100
AcDbArc
 50
214.892331
 51
265.1076759999999
  0
ARC
  5
8D
330
1E
100
AcDbEntity
  8
MO_001_VIEW_PV
  6
C_SOLID_M
100
AcDbCircle
 10
57.0
 20
0.000001
 30
0.0
 40
12.699999
100
AcDbArc
 50
154.892325
 51
205.107685
  0
ARC
  5
8E
330
1E
100
AcDbEntity
  8
MO_001_VIEW_PV
  6
C_SOLID_M
100
AcDbCircle
 10
57.0
 20
0.000001
 30
0.0
 40
12.19999999999999
100
AcDbArc
 50
160.496823
 51
199.503187
  0
ARC
  5
8F
330
1E
100
AcDbEntity
  8
MO_001_VIEW_PV
  6
C_SOLID_M
100
AcDbCircle
 10
57.0
 20
0.000001
 30
0.0
 40
12.499999
100
AcDbArc
 50
156.926082
 51
203.073914
  0
LINE
  5
90
330
1E
100
AcDbEntity
  8
MO_001_VIEW_PV
  6
C_SOLID_M
100
AcDbLine
 10
51.5
 20
0.000001
 30
0.0
 11
51.107635
 21
0.000001
 31
0.0
  0
LINE
  5
91
330
1E
100
AcDbEntity
  8
MO_001_VIEW_PV
  6
C_SOLID_M
100
AcDbLine
 10
62.89236500000001
 20
0.000001
 30
0.0
 11
62.5
 21
0.000001
 31
0.0
  0
LINE
  5
92
330
1E
100
AcDbEntity
  8
MO_001_VIEW_PV
  6
C_SOLID_M
100
AcDbLine
 10
-53.299999
 20
8.0
 30
0.0
 11
-52.299999
 21
8.0
 31
0.0
  0
LINE
  5
93
330
1E
100
AcDbEntity
  8
MO_001_VIEW_PV
  6
C_SOLID_M
100
AcDbLine
 10
-53.299999
 20
-8.0
 30
0.0
 11
-52.299999
 21
-8.0
 31
0.0
  0
LINE
  5
94
330
1E
100
AcDbEntity
  8
MO_001_VIEW_PV
  6
C_SOLID_M
100
AcDbLine
 10
-53.299999
 20
8.0
 30
0.0
 11
-53.299999
 21
-8.0
 31
0.0
  0
LINE
  5
95
330
1E
100
AcDbEntity
  8
MO_001_VIEW_PV
  6
C_SOLID_M
100
AcDbLine
 10
-54.099998
 20
8.0
 30
0.0
 11
-54.099998
 21
-6.300055999999999
 31
0.0
  0
LINE
  5
96
330
1E
100
AcDbEntity
  8
MO_001_VIEW_PV
  6
C_SOLID_M
100
AcDbLine
 10
-54.099998
 20
8.0
 30
0.0
 11
-53.299999
 21
8.0
 31
0.0
  0
LINE
  5
97
330
1E
100
AcDbEntity
  8
MO_001_VIEW_PV
  6
C_SOLID_M
100
AcDbLine
 10
-54.099998
 20
-6.300055999999999
 30
0.0
 11
-53.299999
 21
-6.300055999999999
 31
0.0
  0
LINE
  5
98
330
1E
100
AcDbEntity
  8
MO_001_VIEW_PV
  6
C_SOLID_M
100
AcDbLine
 10
-53.299999
 20
8.0
 30
0.0
 11
-53.299999
 21
-6.300055999999999
 31
0.0
  0
LINE
  5
99
330
1E
100
AcDbEntity
  8
MO_001_VIEW_PV
  6
C_SOLID_M
100
AcDbLine
 10
-55.999996
 20
5.5
 30
0.0
 11
-54.099998
 21
5.5
 31
0.0
  0
LINE
  5
9A
330
1E
100
AcDbEntity
  8
MO_001_VIEW_PV
  6
C_SOLID_M
100
AcDbLine
 10
-55.999996
 20
-5.5
 30
0.0
 11
-54.099998
 21
-5.5
 31
0.0
  0
LINE
  5
9B
330
1E
100
AcDbEntity
  8
MO_001_VIEW_PV
  6
C_SOLID_M
100
AcDbLine
 10
1.5
 20
9.0
 30
0.0
 11
1.5
 21
-9.0
 31
0.0
  0
LINE
  5
9C
330
1E
100
AcDbEntity
  8
MO_001_VIEW_PV
  6
C_SOLID_M
100
AcDbLine
 10
1.5
 20
7.5
 30
0.0
 11
0.0
 21
8.366025999999999
 31
0.0
  0
LINE
  5
9D
330
1E
100
AcDbEntity
  8
MO_001_VIEW_PV
  6
C_SOLID_M
100
AcDbLine
 10
1.5
 20
-7.5
 30
0.0
 11
0.0
 21
-8.366025999999999
 31
0.0
  0
LINE
  5
9E
330
1E
100
AcDbEntity
  8
MO_001_VIEW_PV
  6
C_SOLID_M
100
AcDbLine
 10
-52.099998
 20
12.19999999999999
 30
0.0
 11
-52.099998
 21
-12.200001
 31
0.0
  0
LINE
  5
9F
330
1E
100
AcDbEntity
  8
MO_001_VIEW_PV
  6
C_SOLID_M
100
AcDbLine
 10
-51.799999
 20
12.5
 30
0.0
 11
-51.099998
 21
12.5
 31
0.0
  0
LINE
  5
A0
330
1E
100
AcDbEntity
  8
MO_001_VIEW_PV
  6
C_SOLID_M
100
AcDbLine
 10
-51.799999
 20
-12.5
 30
0.0
 11
-51.099998
 21
-12.5
 31
0.0
  0
LINE
  5
A1
330
1E
100
AcDbEntity
  8
MO_001_VIEW_PV
  6
C_SOLID_M
100
AcDbLine
 10
-51.799999
 20
12.5
 30
0.0
 11
-51.799999
 21
-12.5
 31
0.0
  0
LINE
  5
A2
330
1E
100
AcDbEntity
  8
MO_001_VIEW_PV
  6
C_SOLID_M
100
AcDbLine
 10
-52.1
 20
12.200002
 30
0.0
 11
-51.800001
 21
12.500001
 31
0.0
  0
LINE
  5
A3
330
1E
100
AcDbEntity
  8
MO_001_VIEW_PV
  6
C_SOLID_M
100
AcDbLine
 10
-51.799998
 20
-12.499999
 30
0.0
 11
-52.09999899999999
 21
-12.199999
 31
0.0
  0
LINE
  5
A4
330
1E
100
AcDbEntity
  8
MO_001_VIEW_PV
  6
C_SOLID_M
100
AcDbLine
 10
-56.499996
 20
5.0
 30
0.0
 11
-56.499996
 21
-5.0
 31
0.0
  0
LINE
  5
A5
330
1E
100
AcDbEntity
  8
MO_001_VIEW_PV
  6
C_SOLID_M
100
AcDbLine
 10
-56.49999799999999
 20
4.999998999999999
 30
0.0
 11
-55.999997
 21
5.5
 31
0.0
  0
LINE
  5
A6
330
1E
100
AcDbEntity
  8
MO_001_VIEW_PV
  6
C_SOLID_M
100
AcDbLine
 10
-56.49999799999999
 20
-4.999998999999999
 30
0.0
 11
-55.999997
 21
-5.5
 31
0.0
  0
LINE
  5
A7
330
1E
100
AcDbEntity
  8
MO_001_VIEW_PV
  6
C_SOLID_M
100
AcDbLine
 10
-55.999996
 20
5.5
 30
0.0
 11
-55.999996
 21
-5.5
 31
0.0
  0
CIRCLE
  5
A8
330
1E
100
AcDbEntity
  8
MO_001_VIEW_PV
  6
C_SOLID_M
100
AcDbCircle
 10
57.0
 20
0.000001
 30
0.0
 40
7.499999
  0
LINE
  5
A9
330
1E
100
AcDbEntity
  8
MO_001_VIEW_PV
  6
C_SOLID_M
100
AcDbLine
 10
64.900002
 20
4.311611
 30
0.0
 11
64.900002
 21
-4.311608
 31
0.0
  0
LINE
  5
AA
330
1E
100
AcDbEntity
  8
MO_001_VIEW_PV
  6
C_SOLID_M
100
AcDbLine
 10
29.400003
 20
1.5
 30
0.0
 11
29.400003
 21
-1.5
 31
0.0
  0
LINE
  5
AB
330
1E
100
AcDbEntity
  8
MO_001_VIEW_PV
  6
C_SOLID_M
100
AcDbLine
 10
9.5
 20
1.5
 30
0.0
 11
29.400003
 21
1.5
 31
0.0
  0
LINE
  5
AC
330
1E
100
AcDbEntity
  8
MO_001_VIEW_PV
  6
C_SOLID_M
100
AcDbLine
 10
9.5
 20
-1.5
 30
0.0
 11
29.400003
 21
-1.5
 31
0.0
  0
CIRCLE
  5
AD
330
1E
100
AcDbEntity
  8
MO_001_VIEW_PV
  6
C_SOLID_M
100
AcDbCircle
 10
57.0
 20
0.0
 30
0.0
 40
1.5
  0
CIRCLE
  5
AE
330
1E
100
AcDbEntity
  8
MO_001_VIEW_PV
  6
C_SOLID_M
100
AcDbCircle
 10
57.0
 20
0.0
 30
0.0
 40
1.8
  0
CIRCLE
  5
AF
330
1E
100
AcDbEntity
  8
MO_001_VIEW_PV
  6
C_SOLID_M
100
AcDbCircle
 10
57.0
 20
0.0
 30
0.0
 40
2.1
  0
LINE
  5
B0
330
1E
100
AcDbEntity
  8
MO_001_VIEW_PV
  6
C_SOLID_M
100
AcDbLine
 10
-57.85529399999999
 20
-15.081481
 30
0.0
 11
-55.133155
 21
-12.359343
 31
0.0
  0
LINE
  5
B1
330
1E
100
AcDbEntity
  8
MO_001_VIEW_PV
  6
C_SOLID_M
100
AcDbLine
 10
-58.887669
 20
-14.049117
 30
0.0
 11
-56.165525
 21
-11.326973
 31
0.0
  0
ARC
  5
B2
330
1E
100
AcDbEntity
  8
MO_001_VIEW_PV
  6
C_SOLID_M
100
AcDbCircle
 10
-58.31143199999999
 20
-15.02144
 30
0.0
 40
0.4600680000000001
100
AcDbArc
 50
352.4994229999999
 51
97.50062900000001
  0
ARC
  5
B3
330
1E
100
AcDbEntity
  8
MO_001_VIEW_PV
  6
C_SOLID_M
100
AcDbCircle
 10
-57.915352
 20
-14.62536499999999
 30
0.0
 40
0.4600680000000001
100
AcDbArc
 50
172.499405
 51
277.500559
  0
ARC
  5
B4
330
1E
100
AcDbEntity
  8
MO_001_VIEW_PV
  6
C_SOLID_M
100
AcDbCircle
 10
-58.431541
 20
-14.10917399999999
 30
0.0
 40
0.4600680000000001
100
AcDbArc
 50
172.498859
 51
277.5004229999999
  0
LINE
  5
B5
330
1E
100
AcDbEntity
  8
MO_001_VIEW_PV
  6
C_SOLID_M
100
AcDbLine
 10
-65.60519000000001
 20
-20.766629
 30
0.0
 11
-59.594777
 21
-14.756221
 31
0.0
  0
LINE
  5
B6
330
1E
100
AcDbEntity
  8
MO_001_VIEW_PV
  6
C_SOLID_M
100
AcDbLine
 10
-64.57282099999999
 20
-21.798999
 30
0.0
 11
-58.56240500000001
 21
-15.788589
 31
0.0
  0
ARC
  5
B7
330
1E
100
AcDbEntity
  8
MO_001_VIEW_PV
  6
C_SOLID_M
100
AcDbCircle
 10
-59.53472900000001
 20
-15.21235
 30
0.0
 40
0.4600680000000001
100
AcDbArc
 50
352.499368
 51
97.500575
  0
ARC
  5
B8
330
1E
100
AcDbEntity
  8
MO_001_VIEW_PV
  6
C_SOLID_M
100
AcDbCircle
 10
-59.13865699999999
 20
-14.816276
 30
0.0
 40
0.4600680000000001
100
AcDbArc
 50
172.499446
 51
277.500614
  0
ARC
  5
B9
330
1E
100
AcDbEntity
  8
MO_001_VIEW_PV
  6
C_SOLID_M
100
AcDbCircle
 10
-59.018539
 20
-15.72854099999999
 30
0.0
 40
0.4600680000000001
100
AcDbArc
 50
352.498849
 51
97.50042399999999
  0
LINE
  5
BA
330
1E
100
AcDbEntity
  8
MO_001_VIEW_PV
  6
C_SOLID_M
100
AcDbLine
 10
-64.572813
 20
-21.798996
 30
0.0
 11
-65.605183
 21
-20.766626
 31
0.0
  0
LINE
  5
BB
330
1E
100
AcDbEntity
  8
MO_001_VIEW_PV
  6
C_SOLID_M
100
AcDbLine
 10
-68.398259
 20
-25.044623
 30
0.0
 11
-68.85080600000001
 21
-24.592076
 31
0.0
  0
ARC
  5
BC
330
1E
100
AcDbEntity
  8
MO_001_VIEW_PV
  6
C_SOLID_M
100
AcDbCircle
 10
-52.629993
 20
-14.862504
 30
0.0
 40
3.540008999999999
100
AcDbArc
 50
90.00000899999999
 51
135.0
  0
ARC
  5
BD
330
1E
100
AcDbEntity
  8
MO_001_VIEW_PV
  6
C_SOLID_M
100
AcDbCircle
 10
-52.629993
 20
-14.862504
 30
0.0
 40
5.0
100
AcDbArc
 50
90.00000899999999
 51
135.0
  0
LINE
  5
BE
330
1E
100
AcDbEntity
  8
MO_001_VIEW_PV
  6
C_SOLID_M
100
AcDbLine
 10
-52.099998
 20
-11.322495
 30
0.0
 11
-52.629993
 21
-11.322495
 31
0.0
  0
LINE
  5
BF
330
1E
100
AcDbEntity
  8
MO_001_VIEW_PV
  6
C_SOLID_M
100
AcDbLine
 10
-52.099998
 20
-9.862503999999999
 30
0.0
 11
-53.48718299999999
 21
-9.862503999999999
 31
0.0
  0
LINE
  5
C0
330
1E
100
AcDbEntity
  8
MO_001_VIEW_PV
  6
C_SOLID_L
100
AcDbLine
 10
16.285254
 20
-24.0
 30
0.0
 11
41.80948599999999
 21
-24.0
 31
0.0
  0
LINE
  5
C1
330
1E
100
AcDbEntity
  8
MO_001_VIEW_PV
  6
C_SOLID_L
100
AcDbLine
 10
-48.868908
 20
-32.0
 30
0.0
 11
-6.202926999999999
 21
-32.0
 31
0.0
  0
LINE
  5
C2
330
1E
100
AcDbEntity
  8
MO_001_VIEW_PV
  6
C_SOLID_M
100
AcDbLine
 10
-59.51615799999999
 20
-14.100984
 30
0.0
 11
-58.15186
 21
-13.313307
 31
0.0
  0
LINE
  5
C3
330
1E
100
AcDbEntity
  8
MO_001_VIEW_PV
  6
C_SOLID_M
100
AcDbLine
 10
-60.24615999999999
 20
-12.836598
 30
0.0
 11
-56.48718
 21
-10.66635099999999
 31
0.0
  0
ARC
  5
C4
330
1E
100
AcDbEntity
  8
MO_001_VIEW_PV
  6
C_SOLID_M
100
AcDbCircle
 10
-59.941216
 20
-13.924931
 30
0.0
 40
0.4600680000000001
100
AcDbArc
 50
337.499422
 51
82.50063199999999
  0
ARC
  5
C5
330
1E
100
AcDbEntity
  8
MO_001_VIEW_PV
  6
C_SOLID_M
100
AcDbCircle
 10
-59.45612
 20
-13.64486499999999
 30
0.0
 40
0.4600680000000001
100
AcDbArc
 50
157.499408
 51
262.500562
  0
ARC
  5
C6
330
1E
100
AcDbEntity
  8
MO_001_VIEW_PV
  6
C_SOLID_M
100
AcDbCircle
 10
-59.821121
 20
-13.01266299999999
 30
0.0
 40
0.4600680000000001
100
AcDbArc
 50
157.498862
 51
262.500426
  0
LINE
  5
C7
330
1E
100
AcDbEntity
  8
MO_001_VIEW_PV
  6
C_SOLID_M
100
AcDbLine
 10
-67.60739
 20
-17.086598
 30
0.0
 11
-61.11218199999999
 21
-13.336591
 31
0.0
  0
LINE
  5
C8
330
1E
100
AcDbEntity
  8
MO_001_VIEW_PV
  6
C_SOLID_M
100
AcDbLine
 10
-66.87739499999999
 20
-18.350988
 30
0.0
 11
-60.38218399999999
 21
-14.600979
 31
0.0
  0
ARC
  5
C9
330
1E
100
AcDbEntity
  8
MO_001_VIEW_PV
  6
C_SOLID_M
100
AcDbCircle
 10
-61.17224100000001
 20
-13.792723
 30
0.0
 40
0.4600680000000001
100
AcDbArc
 50
337.499368
 51
82.500578
  0
ARC
  5
CA
330
1E
100
AcDbEntity
  8
MO_001_VIEW_PV
  6
C_SOLID_M
100
AcDbCircle
 10
-60.687153
 20
-13.512655
 30
0.0
 40
0.4600680000000001
100
AcDbArc
 50
157.4994489999999
 51
262.5006169999999
  0
ARC
  5
CB
330
1E
100
AcDbEntity
  8
MO_001_VIEW_PV
  6
C_SOLID_M
100
AcDbCircle
 10
-60.80724
 20
-14.424925
 30
0.0
 40
0.4600680000000001
100
AcDbArc
 50
337.498848
 51
82.50042699999999
  0
LINE
  5
CC
330
1E
100
AcDbEntity
  8
MO_001_VIEW_PV
  6
C_SOLID_M
100
AcDbLine
 10
-66.877387
 20
-18.350986
 30
0.0
 11
-67.60738299999999
 21
-17.086596
 31
0.0
  0
LINE
  5
CD
330
1E
100
AcDbEntity
  8
MO_001_VIEW_PV
  6
C_SOLID_M
100
AcDbLine
 10
-71.41251
 20
-20.495922
 30
0.0
 11
-71.73250999999999
 21
-19.941667
 31
0.0
  0
ARC
  5
CE
330
1E
100
AcDbEntity
  8
MO_001_VIEW_PV
  6
C_SOLID_M
100
AcDbCircle
 10
-53.48718299999999
 20
-15.862504
 30
0.0
 40
6.0
100
AcDbArc
 50
89.99998900000001
 51
120.0000169999999
  0
LINE
  5
CF
330
1E
100
AcDbEntity
  8
MO_001_VIEW_PV
  6
C_SOLID_M
100
AcDbLine
 10
-67.082392
 20
-17.99592099999999
 30
0.0
 11
-71.41251
 21
-20.49592099999999
 31
0.0
  0
LINE
  5
D0
330
1E
100
AcDbEntity
  8
MO_001_VIEW_PV
  6
C_SOLID_M
100
AcDbLine
 10
-67.40239200000001
 20
-17.441666
 30
0.0
 11
-71.73250999999999
 21
-19.941666
 31
0.0
  0
LINE
  5
D1
330
1E
100
AcDbEntity
  8
MO_001_VIEW_PV
  6
C_SOLID_M
100
AcDbLine
 10
-64.862734
 20
-21.509086
 30
0.0
 11
-68.398265
 21
-25.044623
 31
0.0
  0
LINE
  5
D2
330
1E
100
AcDbEntity
  8
MO_001_VIEW_PV
  6
C_SOLID_M
100
AcDbLine
 10
-65.315282
 20
-21.056539
 30
0.0
 11
-68.850813
 21
-24.592076
 31
0.0
  0
LINE
  5
D3
330
1E
100
AcDbEntity
  8
MO_001_VIEW_PV
  6
C_SOLID_M
100
AcDbLine
 10
-52.299999
 20
8.0
 30
0.0
 11
-52.299999
 21
-8.0
 31
0.0
  0
LINE
  5
D4
330
1E
100
AcDbEntity
  8
MO_001_VIEW_PV
  6
C_SOLID_M
100
AcDbLine
 10
-52.299999
 20
5.5
 30
0.0
 11
-52.099998
 21
5.5
 31
0.0
  0
LINE
  5
D5
330
1E
100
AcDbEntity
  8
MO_001_VIEW_PV
  6
C_SOLID_M
100
AcDbLine
 10
-52.299999
 20
-5.5
 30
0.0
 11
-52.099998
 21
-5.5
 31
0.0
  0
LINE
  5
D6
330
1E
100
AcDbEntity
  8
MO_001_VIEW_PV
  6
C_CENTER_L
100
AcDbLine
 10
115.199997
 20
-18.0
 30
0.0
 11
93.0
 21
-18.0
 31
0.0
  0
LINE
  5
D7
330
1E
100
AcDbEntity
  8
MO_001_VIEW_PV
  6
C_CENTER_L
100
AcDbLine
 10
104.099998
 20
-6.9
 30
0.0
 11
104.099998
 21
-29.09999799999999
 31
0.0
  0
LINE
  5
D8
330
1E
100
AcDbEntity
  8
MO_001_VIEW_PV
  6
C_SOLID_M
100
AcDbLine
 10
98.599998
 20
-18.0
 30
0.0
 11
98.207634
 21
-18.0
 31
0.0
  0
LINE
  5
D9
330
1E
100
AcDbEntity
  8
MO_001_VIEW_PV
  6
C_SOLID_M
100
AcDbLine
 10
109.9923629999999
 20
-18.0
 30
0.0
 11
109.5999979999999
 21
-18.0
 31
0.0
  0
LINE
  5
DA
330
1E
100
AcDbEntity
  8
MO_001_VIEW_PV
  6
C_SOLID_M
100
AcDbLine
 10
112.099998
 20
-13.66294899999999
 30
0.0
 11
112.099998
 21
-22.337051
 31
0.0
  0
ARC
  5
DB
330
1E
100
AcDbEntity
  8
MO_001_VIEW_PV
  6
C_SOLID_M
100
AcDbCircle
 10
104.099998
 20
-18.0
 30
0.0
 40
9.099999999999999
100
AcDbArc
 50
28.463507
 51
331.5364809999999
  0
LINE
  5
DC
330
1E
100
AcDbEntity
  8
MO_001_VIEW_PV
  6
C_SOLID_L
100
AcDbLine
 10
91.97563499999999
 20
-38.999997
 30
0.0
 11
99.54999
 21
-25.88083
 31
0.0
  0
LINE
  5
DD
330
1E
100
AcDbEntity
  8
MO_001_VIEW_PV
  6
C_SOLID_L
100
AcDbLine
 10
91.975639
 20
-39.0
 30
0.0
 11
116.060951
 21
-39.0
 31
0.0
  0
TEXT
  5
DE
330
1E
100
AcDbEntity
  8
MO_001_VIEW_PV
  6
C_SOLID_L
100
AcDbText
 10
-43.488281
 20
-50.08359399999999
 30
0.0
 40
4.167187
  1
S-100 Push
100
AcDbText
  0
TEXT
  5
DF
330
1E
100
AcDbEntity
  8
MO_001_VIEW_PV
  6
C_SOLID_L
100
AcDbText
 10
49.214286
 20
-50.5
 30
0.0
 40
5.0
  1
単位：mm
100
AcDbText
  0
TEXT
  5
E0
330
1E
100
AcDbEntity
  8
MO_001_VIEW_PV
  6
C_SOLID_L
100
AcDbText
 10
-47.658869
 20
-31.364113
 30
0.0
 40
3.0
  1
長さ150以上
100
AcDbText
  0
TEXT
  5
E1
330
1E
100
AcDbEntity
  8
MO_001_VIEW_PV
  6
C_SOLID_L
100
AcDbText
 10
-48.241335
 20
-36.08858099999999
 30
0.0
 40
3.0
  1
(UL1430 AWG24)
100
AcDbText
  0
TEXT
  5
E2
330
1E
100
AcDbEntity
  8
MO_001_VIEW_PV
  6
C_SOLID_L
100
AcDbText
 10
17.51181799999999
 20
-23.323647
 30
0.0
 40
3.0
  1
M18 P1.5
100
AcDbText
  0
TEXT
  5
E3
330
1E
100
AcDbEntity
  8
MO_001_VIEW_PV
  6
C_SOLID_L
100
AcDbText
 10
111.814284
 20
-35.625
 30
0.0
 40
1.5
  1
%%P0.1
100
AcDbText
  0
TEXT
  5
E4
330
1E
100
AcDbEntity
  8
MO_001_VIEW_PV
  6
C_SOLID_L
100
AcDbText
 10
97.02857000000001
 20
-37.5
 30
0.0
 40
3.0
  1
%%C18.2
100
AcDbText
  0
TEXT
  5
E5
330
1E
100
AcDbEntity
  8
MO_001_VIEW_PV
  6
C_SOLID_L
100
AcDbText
 10
20.838621
 20
-34.45577999999999
 30
0.0
 40
3.0
  1
M18 P1.5の不完全
100
AcDbText
  0
TEXT
  5
E6
330
1E
100
AcDbEntity
  8
MO_001_VIEW_PV
  6
C_SOLID_L
100
AcDbText
 10
20.838621
 20
-38.95578
 30
0.0
 40
3.0
  1
ネジ部 1.5以下
100
AcDbText
  0
TEXT
  5
E7
330
1E
100
AcDbEntity
  8
MO_001_VIEW_PV
  6
C_SOLID_L
100
AcDbText
 10
94.214286
 20
-50.5
 30
0.0
 40
5.0
  1
取付け穴
100
AcDbText
  0
TEXT
  5
E8
330
1E
100
AcDbEntity
  8
MO_001_VIEW_PV
  6
C_SOLID_L
100
AcDbText
 10
49.214286
 20
-56.5
 30
0.0
 40
5.0
  1
図は励磁時を示す
100
AcDbText
  0
DIMENSION
  5
EA
330
1E
100
AcDbEntity
  8
MO_001_NOSHOW
  6
C_SOLID_M
100
AcDbDimension
  2
*D0
 10
-25.549999
 20
47.83562899999999
 30
0.0
 11
-25.549999
 21
47.83562899999999
 31
0.0
  1
51.1
  3
STANDARD
100
AcDbAlignedDimension
 13
-51.099998
 23
12.7
 33
0.0
 14
0.0
 24
12.19999999999999
 34
0.0
100
AcDbRotatedDimension
  0
DIMENSION
  5
EC
330
1E
100
AcDbEntity
  8
MO_001_NOSHOW
  6
C_SOLID_M
100
AcDbDimension
  2
*D1
 10
4.75
 20
31.741966
 30
0.0
 11
4.75
 21
31.741966
 31
0.0
  1
9.5
  3
STANDARD
100
AcDbAlignedDimension
 13
0.0
 23
12.19999999999999
 33
0.0
 14
9.5
 24
7.5
 34
0.0
100
AcDbRotatedDimension
  0
DIMENSION
  5
EE
330
1E
100
AcDbEntity
  8
MO_001_NOSHOW
  6
C_SOLID_M
100
AcDbDimension
  2
*D2
 10
80.0
 20
38.175457
 30
0.0
 11
80.0
 21
38.175457
 31
0.0
  1
25.4
  3
STANDARD
100
AcDbAlignedDimension
 13
67.300003
 23
0.0
 33
0.0
 14
92.69999699999999
 24
0.0
 34
0.0
100
AcDbRotatedDimension
  0
DIMENSION
  5
F0
330
1E
100
AcDbEntity
  8
MO_001_NOSHOW
  6
C_SOLID_M
100
AcDbDimension
  2
*D3
 10
57.0
 20
30.02694699999999
 30
0.0
 11
57.0
 21
30.02694699999999
 31
0.0
  1
23
  3
STANDARD
100
AcDbAlignedDimension
 13
45.49999999999999
 23
6.63953
 33
0.0
 14
68.5
 24
6.639528
 34
0.0
100
AcDbRotatedDimension
  0
DIMENSION
  5
F2
330
1E
100
AcDbEntity
  8
MO_001_NOSHOW
  6
C_SOLID_M
100
AcDbDimension
  2
*D4
 10
76.050003
 20
24.87956
 30
0.0
 11
76.050003
 21
24.87956
 31
0.0
  1
7.9
  3
STANDARD
100
AcDbAlignedDimension
 13
72.099998
 23
4.311611
 33
0.0
 14
80.0
 24
17.486698
 34
0.0
100
AcDbRotatedDimension
  0
DIMENSION
  5
F4
330
1E
100
AcDbEntity
  8
MO_001_VIEW_PV
  6
C_SOLID_M
100
AcDbDimension
  2
*D5
 10
-66.0
 20
30.0
 30
0.0
 11
-66.0
 21
30.0
 31
0.0
  3
STANDARD
100
AcDbAlignedDimension
 13
-52.099998
 23
12.19999999999999
 33
0.0
 14
-56.499996
 24
5.0
 34
0.0
100
AcDbRotatedDimension
  0
DIMENSION
  5
F6
330
1E
100
AcDbEntity
  8
MO_001_VIEW_PV
  6
C_SOLID_M
100
AcDbDimension
  2
*D6
 10
-27.0
 20
30.0
 30
0.0
 11
-27.0
 21
30.0
 31
0.0
  3
STANDARD
100
AcDbAlignedDimension
 13
-52.099998
 23
12.19999999999999
 33
0.0
 14
0.0
 24
12.19999999999999
 34
0.0
100
AcDbRotatedDimension
  0
DIMENSION
  5
F8
330
1E
100
AcDbEntity
  8
MO_001_VIEW_PV
  6
C_SOLID_M
100
AcDbDimension
  2
*D7
 10
36.0
 20
30.0
 30
0.0
 11
36.0
 21
30.0
 31
0.0
  3
STANDARD
100
AcDbAlignedDimension
 13
29.400003
 23
1.5
 33
0.0
 14
9.5
 24
7.5
 34
0.0
100
AcDbRotatedDimension
  0
DIMENSION
  5
FA
330
1E
100
AcDbEntity
  8
MO_001_VIEW_PV
  6
C_SOLID_M
100
AcDbDimension
  2
*D8
 10
58.11859899999999
 20
30.0
 30
0.0
 11
58.11859899999999
 21
30.0
 31
0.0
  3
STANDARD
100
AcDbAlignedDimension
 13
69.69999699999999
 23
0.0
 33
0.0
 14
44.300003
 24
0.0
 34
0.0
100
AcDbRotatedDimension
  0
DIMENSION
  5
FC
330
1E
100
AcDbEntity
  8
MO_001_VIEW_PV
  6
C_SOLID_M
100
AcDbDimension
  2
*D9
 10
57.0
 20
24.0
 30
0.0
 11
57.0
 21
24.0
 31
0.0
  3
STANDARD
100
AcDbAlignedDimension
 13
68.5
 23
6.639528
 33
0.0
 14
45.49999999999999
 24
6.63953
 34
0.0
100
AcDbRotatedDimension
  0
DIMENSION
  5
FE
330
1E
100
AcDbEntity
  8
MO_001_VIEW_PV
  6
C_SOLID_M
100
AcDbDimension
  2
*D10
 10
77.688805
 20
18.0
 30
0.0
 11
77.688805
 21
18.0
 31
0.0
  3
STANDARD
100
AcDbAlignedDimension
 13
64.900002
 23
4.311611
 33
0.0
 14
57.0
 24
17.486698
 34
0.0
100
AcDbRotatedDimension
  0
DIMENSION
  5
100
330
1E
100
AcDbEntity
  8
MO_001_VIEW_PV
  6
C_SOLID_M
100
AcDbDimension
  2
*D11
 10
36.0
 20
12.0
 30
0.0
 11
36.0
 21
12.0
 31
0.0
  3
STANDARD
100
AcDbAlignedDimension
 13
29.400003
 23
-1.5
 33
0.0
 14
29.400003
 24
1.5
 34
0.0
 50
89.999523
100
AcDbRotatedDimension
  0
DIMENSION
  5
102
330
1E
100
AcDbEntity
  8
MO_001_VIEW_PV
  6
C_SOLID_M
100
AcDbDimension
  2
*D12
 10
-66.0
 20
18.0
 30
0.0
 11
-66.0
 21
18.0
 31
0.0
  3
STANDARD
100
AcDbAlignedDimension
 13
-53.299999
 23
-8.0
 33
0.0
 14
-53.299999
 24
8.0
 34
0.0
 50
89.999523
100
AcDbRotatedDimension
  0
DIMENSION
  5
104
330
1E
100
AcDbEntity
  8
MO_001_VIEW_PV
  6
C_SOLID_M
100
AcDbDimension
  2
*D13
 10
18.0
 20
36.0
 30
0.0
 11
18.0
 21
36.0
 31
0.0
  3
STANDARD
100
AcDbAlignedDimension
 13
0.0
 23
12.19999999999999
 33
0.0
 14
9.5
 24
7.5
 34
0.0
100
AcDbRotatedDimension
  0
LINE
  5
105
330
1E
100
AcDbEntity
  8
MO_001_VIEW_PV
  6
C_SOLID_L
100
AcDbLine
 10
7.625
 20
-9.0
 30
0.0
 11
16.285253
 21
-23.999999
 31
0.0
  0
POLYLINE
  5
106
330
1E
100
AcDbEntity
  8
MO_001_VIEW_PV
  6
C_SOLID_L
100
AcDb2dPolyline
 66
     1
 10
0.0
 20
0.0
 30
0.0
 70
     1
  0
VERTEX
  5
1DA
330
106
100
AcDbEntity
  8
MO_001_VIEW_PV
  6
C_SOLID_L
100
AcDbVertex
100
AcDb2dVertex
 10
9.789466
 20
-11.581941
 30
0.0
  0
VERTEX
  5
1DB
330
106
100
AcDbEntity
  8
MO_001_VIEW_PV
  6
C_SOLID_L
100
AcDbVertex
100
AcDb2dVertex
 10
7.878999999999999
 20
-9.439941000000001
 30
0.0
  0
VERTEX
  5
1DC
330
106
100
AcDbEntity
  8
MO_001_VIEW_PV
  6
C_SOLID_L
100
AcDbVertex
100
AcDb2dVertex
 10
8.778793999999999
 20
-12.16545299999999
 30
0.0
  0
SEQEND
  5
1DD
330
106
100
AcDbEntity
  8
MO_001_VIEW_PV
  6
C_SOLID_L
  0
LINE
  5
10B
330
1E
100
AcDbEntity
  8
MO_001_VIEW_PV
  6
C_SOLID_L
100
AcDbLine
 10
-61.567613
 20
-18.793794
 30
0.0
 11
-48.868909
 21
-32.0
 31
0.0
  0
POLYLINE
  5
10C
330
1E
100
AcDbEntity
  8
MO_001_VIEW_PV
  6
C_SOLID_L
100
AcDb2dPolyline
 66
     1
 10
0.0
 20
0.0
 30
0.0
 70
     1
  0
VERTEX
  5
1DE
330
10C
100
AcDbEntity
  8
MO_001_VIEW_PV
  6
C_SOLID_L
100
AcDbVertex
100
AcDb2dVertex
 10
-58.84705
 20
-20.78122299999999
 30
0.0
  0
VERTEX
  5
1DF
330
10C
100
AcDbEntity
  8
MO_001_VIEW_PV
  6
C_SOLID_L
100
AcDbVertex
100
AcDb2dVertex
 10
-61.215507
 20
-19.159971
 30
0.0
  0
VERTEX
  5
1E0
330
10C
100
AcDbEntity
  8
MO_001_VIEW_PV
  6
C_SOLID_L
100
AcDbVertex
100
AcDb2dVertex
 10
-59.688265
 20
-21.590111
 30
0.0
  0
SEQEND
  5
1E1
330
10C
100
AcDbEntity
  8
MO_001_VIEW_PV
  6
C_SOLID_L
  0
DIMENSION
  5
112
330
1E
100
AcDbEntity
  8
MO_001_VIEW_PV
  6
C_SOLID_M
100
AcDbDimension
  2
*D14
 10
125.099998
 20
6.0
 30
0.0
 11
125.099998
 21
6.0
 31
0.0
  3
STANDARD
100
AcDbAlignedDimension
 13
112.099998
 23
-13.66294899999999
 33
0.0
 14
95.0
 24
-18.0
 34
0.0
100
AcDbRotatedDimension
  0
DIMENSION
  5
114
330
1E
100
AcDbEntity
  8
MO_001_VIEW_PV
  6
C_SOLID_M
100
AcDbDimension
  2
*D15
 10
120.7638699999999
 20
0.0
 30
0.0
 11
120.7638699999999
 21
0.0
 31
0.0
  1
(8)
  3
STANDARD
100
AcDbAlignedDimension
 13
104.099998
 23
-6.9
 33
0.0
 14
112.099998
 24
-13.66294899999999
 34
0.0
100
AcDbRotatedDimension
  0
LINE
  5
115
330
1E
100
AcDbEntity
  8
MO_001_VIEW_PV
  6
C_SOLID_L
100
AcDbLine
 10
99.54999
 20
-25.88083
 30
0.0
 11
104.09999
 21
-17.99999899999999
 31
0.0
  0
POLYLINE
  5
116
330
1E
100
AcDbEntity
  8
MO_001_VIEW_PV
  6
C_SOLID_L
100
AcDb2dPolyline
 66
     1
 10
0.0
 20
0.0
 30
0.0
 70
     1
  0
VERTEX
  5
1E2
330
116
100
AcDbEntity
  8
MO_001_VIEW_PV
  6
C_SOLID_L
100
AcDbVertex
100
AcDb2dVertex
 10
100.7037839999999
 20
-22.715377
 30
0.0
  0
VERTEX
  5
1E3
330
116
100
AcDbEntity
  8
MO_001_VIEW_PV
  6
C_SOLID_L
100
AcDbVertex
100
AcDb2dVertex
 10
99.80399
 20
-25.440889
 30
0.0
  0
VERTEX
  5
1E4
330
116
100
AcDbEntity
  8
MO_001_VIEW_PV
  6
C_SOLID_L
100
AcDbVertex
100
AcDb2dVertex
 10
101.714456
 20
-23.298888
 30
0.0
  0
SEQEND
  5
1E5
330
116
100
AcDbEntity
  8
MO_001_VIEW_PV
  6
C_SOLID_L
  0
LINE
  5
11B
330
1E
100
AcDbEntity
  8
MO_001_VIEW_PV
  6
C_SOLID_L
100
AcDbLine
 10
108.649989
 20
-10.11916899999999
 30
0.0
 11
104.09999
 21
-17.99999899999999
 31
0.0
  0
POLYLINE
  5
11C
330
1E
100
AcDbEntity
  8
MO_001_VIEW_PV
  6
C_SOLID_L
100
AcDb2dPolyline
 66
     1
 10
0.0
 20
0.0
 30
0.0
 70
     1
  0
VERTEX
  5
1E6
330
11C
100
AcDbEntity
  8
MO_001_VIEW_PV
  6
C_SOLID_L
100
AcDbVertex
100
AcDb2dVertex
 10
107.496195
 20
-13.284622
 30
0.0
  0
VERTEX
  5
1E7
330
11C
100
AcDbEntity
  8
MO_001_VIEW_PV
  6
C_SOLID_L
100
AcDbVertex
100
AcDb2dVertex
 10
108.3959889999999
 20
-10.55911
 30
0.0
  0
VERTEX
  5
1E8
330
11C
100
AcDbEntity
  8
MO_001_VIEW_PV
  6
C_SOLID_L
100
AcDbVertex
100
AcDb2dVertex
 10
106.485523
 20
-12.701111
 30
0.0
  0
SEQEND
  5
1E9
330
11C
100
AcDbEntity
  8
MO_001_VIEW_PV
  6
C_SOLID_L
  0
ENDSEC
  0
SECTION
  2
OBJECTS
  0
DICTIONARY
  5
1A
330
0
100
AcDbDictionary
  3
ACAD_GROUP
350
1B
  3
ACAD_MLINESTYLE
350
1C
  3
ACAD_LAYOUT
350
1D0
  3
ACAD_PLOTSETTINGS
350
1D1
1001
ACAD
1000
TREAT_AS_HARD
1070
     0
  0
DICTIONARY
  5
1D6
330
1E
100
AcDbDictionary
  3
ACAD_LAYOUTSELFREF
350
1D7
  0
DICTIONARY
  5
1D8
330
1F
100
AcDbDictionary
  3
ACAD_LAYOUTSELFREF
350
1D9
  0
DICTIONARY
  5
1B
102
{ACAD_REACTORS
330
1A
102
}
330
1A
100
AcDbDictionary
1001
ACAD
1000
TREAT_AS_HARD
1070
     0
  0
DICTIONARY
  5
1C
102
{ACAD_REACTORS
330
1A
102
}
330
1A
100
AcDbDictionary
  3
STANDARD
350
1D
1001
ACAD
1000
TREAT_AS_HARD
1070
     0
  0
DICTIONARY
  5
1D0
102
{ACAD_REACTORS
330
1A
102
}
330
1A
100
AcDbDictionary
1001
ACAD
1000
TREAT_AS_HARD
1070
     0
  0
DICTIONARY
  5
1D1
102
{ACAD_REACTORS
330
1A
102
}
330
1A
100
AcDbDictionary
1001
ACAD
1000
TREAT_AS_HARD
1070
     0
  0
XRECORD
  5
1D7
102
{ACAD_REACTORS
330
1D6
102
}
330
1D6
100
AcDbXrecord
340
1E
  0
XRECORD
  5
1D9
102
{ACAD_REACTORS
330
1D8
102
}
330
1D8
100
AcDbXrecord
340
1F
  0
MLINESTYLE
  5
1D
102
{ACAD_REACTORS
330
1C
102
}
330
1C
100
AcDbMlineStyle
  2
STANDARD
 70
     0
  3

 62
     0
 51
90.0
 52
90.0
 71
     2
 49
0.5
 62
   256
  6
BYLAYER
 49
-0.5
 62
   256
  6
BYLAYER
  0
ENDSEC
  0
EOF
