  0
SECTION
  2
HEADER
  9
$ACADVER
  1
AC1012
  9
$DWGCODEPAGE
  3
dos932
  9
$INSBASE
 10
0.0
 20
0.0
 30
0.0
  9
$EXTMIN
 10
-97.50668698100362
 20
-56.5000569687109
 30
-0.0015258207003583
  9
$EXTMAX
 10
121.6424000014338
 20
44.13070321761852
 30
0.0000000349246037
  9
$LIMMIN
 10
-97.5
 20
-60.25
  9
$LIMMAX
 10
121.635712
 20
46.0
  9
$ORTHOMODE
 70
     0
  9
$REGENMODE
 70
     1
  9
$FILLMODE
 70
     1
  9
$QTEXTMODE
 70
     0
  9
$MIRRTEXT
 70
     1
  9
$DRAGMODE
 70
     2
  9
$LTSCALE
 40
1.0
  9
$OSMODE
 70
    37
  9
$ATTMODE
 70
     1
  9
$TEXTSIZE
 40
4.1672
  9
$TRACEWID
 40
0.05
  9
$TEXTSTYLE
  7
STANDARD
  9
$CLAYER
  8
0
  9
$CELTYPE
  6
CONTINUOUS
  9
$CECOLOR
 62
   256
  9
$CELTSCALE
 40
1.0
  9
$DELOBJ
 70
     1
  9
$DISPSILH
 70
     0
  9
$DIMSCALE
 40
1.0
  9
$DIMASZ
 40
0.18
  9
$DIMEXO
 40
0.0625
  9
$DIMDLI
 40
0.38
  9
$DIMRND
 40
0.0
  9
$DIMDLE
 40
0.0
  9
$DIMEXE
 40
0.18
  9
$DIMTP
 40
0.0
  9
$DIMTM
 40
0.0
  9
$DIMTXT
 40
0.18
  9
$DIMCEN
 40
0.09
  9
$DIMTSZ
 40
0.0
  9
$DIMTOL
 70
     0
  9
$DIMLIM
 70
     0
  9
$DIMTIH
 70
     1
  9
$DIMTOH
 70
     1
  9
$DIMSE1
 70
     0
  9
$DIMSE2
 70
     0
  9
$DIMTAD
 70
     0
  9
$DIMZIN
 70
     0
  9
$DIMBLK
  1

  9
$DIMASO
 70
     1
  9
$DIMSHO
 70
     1
  9
$DIMPOST
  1

  9
$DIMAPOST
  1

  9
$DIMALT
 70
     0
  9
$DIMALTD
 70
     2
  9
$DIMALTF
 40
25.4
  9
$DIMLFAC
 40
1.0
  9
$DIMTOFL
 70
     0
  9
$DIMTVP
 40
0.0
  9
$DIMTIX
 70
     0
  9
$DIMSOXD
 70
     0
  9
$DIMSAH
 70
     0
  9
$DIMBLK1
  1

  9
$DIMBLK2
  1

  9
$DIMSTYLE
  2
STANDARD
  9
$DIMCLRD
 70
     0
  9
$DIMCLRE
 70
     0
  9
$DIMCLRT
 70
     0
  9
$DIMTFAC
 40
1.0
  9
$DIMGAP
 40
0.09
  9
$DIMJUST
 70
     0
  9
$DIMSD1
 70
     0
  9
$DIMSD2
 70
     0
  9
$DIMTOLJ
 70
     1
  9
$DIMTZIN
 70
     0
  9
$DIMALTZ
 70
     0
  9
$DIMALTTZ
 70
     0
  9
$DIMFIT
 70
     3
  9
$DIMUPT
 70
     0
  9
$DIMUNIT
 70
     2
  9
$DIMDEC
 70
     4
  9
$DIMTDEC
 70
     4
  9
$DIMALTU
 70
     2
  9
$DIMALTTD
 70
     2
  9
$DIMTXSTY
  7
STANDARD
  9
$DIMAUNIT
 70
     0
  9
$LUNITS
 70
     2
  9
$LUPREC
 70
     6
  9
$SKETCHINC
 40
0.1
  9
$FILLETRAD
 40
0.0
  9
$AUNITS
 70
     0
  9
$AUPREC
 70
     4
  9
$MENU
  1
acad
  9
$ELEVATION
 40
0.0
  9
$PELEVATION
 40
0.0
  9
$THICKNESS
 40
0.0
  9
$LIMCHECK
 70
     0
  9
$BLIPMODE
 70
     0
  9
$CHAMFERA
 40
0.0
  9
$CHAMFERB
 40
0.0
  9
$CHAMFERC
 40
0.0
  9
$CHAMFERD
 40
0.0
  9
$SKPOLY
 70
     0
  9
$TDCREATE
 40
2376126.114256099
  9
$TDUPDATE
 40
2451667.433677430
  9
$TDINDWG
 40
0.0009516204
  9
$TDUSRTIMER
 40
0.0009516204
  9
$USRTIMER
 70
     1
  9
$ANGBASE
 50
0.0
  9
$ANGDIR
 70
     0
  9
$PDMODE
 70
     0
  9
$PDSIZE
 40
0.0
  9
$PLINEWID
 40
0.0
  9
$COORDS
 70
     1
  9
$SPLFRAME
 70
     0
  9
$SPLINETYPE
 70
     6
  9
$SPLINESEGS
 70
     8
  9
$ATTDIA
 70
     0
  9
$ATTREQ
 70
     1
  9
$HANDLING
 70
 10241
  9
$HANDSEED
  5
246
  9
$SURFTAB1
 70
     6
  9
$SURFTAB2
 70
     6
  9
$SURFTYPE
 70
     6
  9
$SURFU
 70
     6
  9
$SURFV
 70
     6
  9
$UCSNAME
  2
MO_001_VIEW_PV_P
  9
$UCSORG
 10
0.0
 20
0.0
 30
0.0
  9
$UCSXDIR
 10
1.0
 20
0.0
 30
0.0
  9
$UCSYDIR
 10
-0.0000000002051034
 20
1.0
 30
0.0
  9
$PUCSNAME
  2

  9
$PUCSORG
 10
0.0
 20
0.0
 30
0.0
  9
$PUCSXDIR
 10
1.0
 20
0.0
 30
0.0
  9
$PUCSYDIR
 10
0.0
 20
1.0
 30
0.0
  9
$USERI1
 70
     0
  9
$USERI2
 70
     0
  9
$USERI3
 70
     0
  9
$USERI4
 70
     0
  9
$USERI5
 70
     0
  9
$USERR1
 40
0.0
  9
$USERR2
 40
0.0
  9
$USERR3
 40
0.0
  9
$USERR4
 40
0.0
  9
$USERR5
 40
0.0
  9
$WORLDVIEW
 70
     1
  9
$SHADEDGE
 70
     3
  9
$SHADEDIF
 70
    70
  9
$TILEMODE
 70
     1
  9
$MAXACTVP
 70
    16
  9
$PINSBASE
 10
0.0
 20
0.0
 30
0.0
  9
$PLIMCHECK
 70
     0
  9
$PEXTMIN
 10
-97.5
 20
-60.25
 30
1.000000000000000E+20
  9
$PEXTMAX
 10
121.635712
 20
46.0
 30
-1.000000000000000E+20
  9
$PLIMMIN
 10
0.0
 20
0.0
  9
$PLIMMAX
 10
12.0
 20
9.0
  9
$UNITMODE
 70
     0
  9
$VISRETAIN
 70
     0
  9
$PLINEGEN
 70
     0
  9
$PSLTSCALE
 70
     1
  9
$TREEDEPTH
 70
  3020
  9
$PICKSTYLE
 70
     1
  9
$CMLSTYLE
  2
STANDARD
  9
$CMLJUST
 70
     0
  9
$CMLSCALE
 40
1.0
  9
$SAVEIMAGES
 70
     1
  0
ENDSEC
  0
SECTION
  2
CLASSES
  0
CLASS
  1
ACDBDICTIONARYWDFLT
  2
AcDbDictionaryWithDefault
  3
AutoCAD 2000
 90
    32768
280
     0
281
     0
  0
CLASS
  1
ACDBPLACEHOLDER
  2
AcDbPlaceHolder
  3
AutoCAD 2000
 90
    32768
280
     0
281
     0
  0
CLASS
  1
LAYOUT
  2
AcDbLayout
  3
AutoCAD 2000
 90
    32768
280
     0
281
     0
  0
CLASS
  1
LONG_TRANSACTION
  2
AcDbLongTransaction
  3
AutoCAD 2000
 90
    32768
280
     0
281
     0
  0
CLASS
  1
LWPOLYLINE
  2
AcDbPolyline
  3
AutoCAD 2000
 90
    32768
280
     0
281
     1
  0
CLASS
  1
HATCH
  2
AcDbHatch
  3
AutoCAD 2000
 90
    32768
280
     0
281
     1
  0
CLASS
  1
XRECORD
  2
AcDbXrecord
  3
AutoCAD 2000
 90
    32768
280
     0
281
     0
  0
ENDSEC
  0
SECTION
  2
TABLES
  0
TABLE
  2
VPORT
  5
7
330
0
100
AcDbSymbolTable
 70
     2
  0
VPORT
  5
1FD
330
7
100
AcDbSymbolTableRecord
100
AcDbViewportTableRecord
  2
*ACTIVE
 70
     0
 10
0.0
 20
0.0
 11
1.0
 21
1.0
 12
14.99496164339183
 22
-7.125000909478089
 13
0.0
 23
0.0
 14
6.349999999999999
 24
6.349999999999999
 15
6.349999999999999
 25
6.349999999999999
 16
0.0
 26
0.0
 36
1.0
 17
0.0
 27
0.0
 37
0.0
 40
173.0005220049804
 41
1.691964285714285
 42
50.0
 43
0.0
 44
0.0
 50
0.0
 51
0.0
 71
     0
 72
   100
 73
     1
 74
     1
 75
     0
 76
     0
 77
     0
 78
     0
  0
ENDTAB
  0
TABLE
  2
LTYPE
  5
4
330
0
100
AcDbSymbolTable
 70
    37
  0
LTYPE
  5
12
330
4
100
AcDbSymbolTableRecord
100
AcDbLinetypeTableRecord
  2
BYBLOCK
 70
     0
  3

 72
    65
 73
     0
 40
0.0
  0
LTYPE
  5
13
330
4
100
AcDbSymbolTableRecord
100
AcDbLinetypeTableRecord
  2
BYLAYER
 70
     0
  3

 72
    65
 73
     0
 40
0.0
  0
LTYPE
  5
14
330
4
100
AcDbSymbolTableRecord
100
AcDbLinetypeTableRecord
  2
CONTINUOUS
 70
     0
  3
DXF Default line type
 72
    65
 73
     0
 40
0.0
  0
LTYPE
  5
20
330
4
100
AcDbSymbolTableRecord
100
AcDbLinetypeTableRecord
  2
DASHED
 70
     0
  3
DXF Dashed
 72
    65
 73
     2
 40
0.75
 49
0.5
 74
     0
 49
-0.25
 74
     0
  0
LTYPE
  5
21
330
4
100
AcDbSymbolTableRecord
100
AcDbLinetypeTableRecord
  2
HIDDEN
 70
     0
  3
DXF Hidden
 72
    65
 73
     2
 40
0.375
 49
0.25
 74
     0
 49
-0.125
 74
     0
  0
LTYPE
  5
22
330
4
100
AcDbSymbolTableRecord
100
AcDbLinetypeTableRecord
  2
CENTER
 70
     0
  3
DXF Center
 72
    65
 73
     4
 40
2.0
 49
1.25
 74
     0
 49
-0.25
 74
     0
 49
0.25
 74
     0
 49
-0.25
 74
     0
  0
LTYPE
  5
23
330
4
100
AcDbSymbolTableRecord
100
AcDbLinetypeTableRecord
  2
PHANTOM
 70
     0
  3
DXF Phantom
 72
    65
 73
     6
 40
2.5
 49
1.25
 74
     0
 49
-0.25
 74
     0
 49
0.25
 74
     0
 49
-0.25
 74
     0
 49
0.25
 74
     0
 49
-0.25
 74
     0
  0
LTYPE
  5
24
330
4
100
AcDbSymbolTableRecord
100
AcDbLinetypeTableRecord
  2
DOT
 70
     0
  3
DXF DOT
 72
    65
 73
     2
 40
0.25
 49
0.0
 74
     0
 49
-0.25
 74
     0
  0
LTYPE
  5
25
330
4
100
AcDbSymbolTableRecord
100
AcDbLinetypeTableRecord
  2
DASHDOT
 70
     0
  3
DXF Dash Dot
 72
    65
 73
     4
 40
1.0
 49
0.5
 74
     0
 49
-0.25
 74
     0
 49
0.0
 74
     0
 49
-0.25
 74
     0
  0
LTYPE
  5
26
330
4
100
AcDbSymbolTableRecord
100
AcDbLinetypeTableRecord
  2
BORDER
 70
     0
  3
DXF Border
 72
    65
 73
     6
 40
1.75
 49
0.5
 74
     0
 49
-0.25
 74
     0
 49
0.5
 74
     0
 49
-0.25
 74
     0
 49
0.0
 74
     0
 49
-0.25
 74
     0
  0
LTYPE
  5
27
330
4
100
AcDbSymbolTableRecord
100
AcDbLinetypeTableRecord
  2
DIVIDE
 70
     0
  3
DXF Divide
 72
    65
 73
     6
 40
1.25
 49
0.5
 74
     0
 49
-0.25
 74
     0
 49
0.0
 74
     0
 49
-0.25
 74
     0
 49
0.0
 74
     0
 49
-0.25
 74
     0
  0
LTYPE
  5
28
330
4
100
AcDbSymbolTableRecord
100
AcDbLinetypeTableRecord
  2
C_SOLID_L
 70
     0
  3
CADAM Solid Light
 72
    65
 73
     0
 40
0.0
  0
LTYPE
  5
29
330
4
100
AcDbSymbolTableRecord
100
AcDbLinetypeTableRecord
  2
C_SOLID_M
 70
     0
  3
CADAM Solid Medium
 72
    65
 73
     0
 40
0.0
  0
LTYPE
  5
2A
330
4
100
AcDbSymbolTableRecord
100
AcDbLinetypeTableRecord
  2
C_SOLID_H
 70
     0
  3
CADAM Solid Heavy
 72
    65
 73
     0
 40
0.0
  0
LTYPE
  5
2B
330
4
100
AcDbSymbolTableRecord
100
AcDbLinetypeTableRecord
  2
C_DASHED_L
 70
     0
  3
CADAM Dashed Light
 72
    65
 73
     2
 40
0.375
 49
0.25
 74
     0
 49
-0.125
 74
     0
  0
LTYPE
  5
2C
330
4
100
AcDbSymbolTableRecord
100
AcDbLinetypeTableRecord
  2
C_DASHED_M
 70
     0
  3
CADAM Dashed Medium
 72
    65
 73
     2
 40
0.5
 49
0.375
 74
     0
 49
-0.125
 74
     0
  0
LTYPE
  5
2D
330
4
100
AcDbSymbolTableRecord
100
AcDbLinetypeTableRecord
  2
C_CENTER_L
 70
     0
  3
CADAM Center Light
 72
    65
 73
     4
 40
2.0
 49
1.25
 74
     0
 49
-0.25
 74
     0
 49
0.25
 74
     0
 49
-0.25
 74
     0
  0
LTYPE
  5
2E
330
4
100
AcDbSymbolTableRecord
100
AcDbLinetypeTableRecord
  2
C_PHANTOM_L
 70
     0
  3
CADAM Phantom Light
 72
    65
 73
     6
 40
2.5
 49
1.25
 74
     0
 49
-0.25
 74
     0
 49
0.25
 74
     0
 49
-0.25
 74
     0
 49
0.25
 74
     0
 49
-0.25
 74
     0
  0
LTYPE
  5
2F
330
4
100
AcDbSymbolTableRecord
100
AcDbLinetypeTableRecord
  2
C_BREAK_M
 70
     0
  3
CADAM Break Medium
 72
    65
 73
     4
 40
1.0
 49
0.5
 74
     0
 49
-0.25
 74
     0
 49
0.0
 74
     0
 49
-0.25
 74
     0
  0
LTYPE
  5
30
330
4
100
AcDbSymbolTableRecord
100
AcDbLinetypeTableRecord
  2
C_NC
 70
     0
  3
CADAM NC
 72
    65
 73
     0
 40
0.0
  0
LTYPE
  5
31
330
4
100
AcDbSymbolTableRecord
100
AcDbLinetypeTableRecord
  2
DSH1
 70
     0
  3
CADAM Style2 Type 1 Dashed Line
 72
    65
 73
     2
 40
0.075
 49
0.04
 74
     0
 49
-0.035
 74
     0
  0
LTYPE
  5
32
330
4
100
AcDbSymbolTableRecord
100
AcDbLinetypeTableRecord
  2
DSH2
 70
     0
  3
CADAM Style2 Type 2 Dashed Line
 72
    65
 73
     2
 40
0.15
 49
0.11
 74
     0
 49
-0.04
 74
     0
  0
LTYPE
  5
33
330
4
100
AcDbSymbolTableRecord
100
AcDbLinetypeTableRecord
  2
DSH3
 70
     0
  3
CADAM Style2 Type 3 Dashed Line
 72
    65
 73
     2
 40
0.2
 49
0.15
 74
     0
 49
-0.05
 74
     0
  0
LTYPE
  5
34
330
4
100
AcDbSymbolTableRecord
100
AcDbLinetypeTableRecord
  2
DSH4
 70
     0
  3
CADAM Style2 Type 4 Dashed Line
 72
    65
 73
     2
 40
0.36
 49
0.28
 74
     0
 49
-0.08
 74
     0
  0
LTYPE
  5
35
330
4
100
AcDbSymbolTableRecord
100
AcDbLinetypeTableRecord
  2
DSH5
 70
     0
  3
CADAM Style2 Type 5 Dashed Line
 72
    65
 73
     2
 40
0.47
 49
0.39
 74
     0
 49
-0.08
 74
     0
  0
LTYPE
  5
36
330
4
100
AcDbSymbolTableRecord
100
AcDbLinetypeTableRecord
  2
DSH6
 70
     0
  3
CADAM Style2 Type 6 Dashed Line
 72
    65
 73
     2
 40
0.9
 49
0.8100000000000001
 74
     0
 49
-0.09
 74
     0
  0
LTYPE
  5
37
330
4
100
AcDbSymbolTableRecord
100
AcDbLinetypeTableRecord
  2
PL1
 70
     0
  3
Style 2 Type 1 Phantom Line
 72
    65
 73
     6
 40
1.0
 49
0.6
 74
     0
 49
-0.08
 74
     0
 49
0.08
 74
     0
 49
-0.08
 74
     0
 49
0.08
 74
     0
 49
-0.08
 74
     0
  0
LTYPE
  5
38
330
4
100
AcDbSymbolTableRecord
100
AcDbLinetypeTableRecord
  2
PL2
 70
     0
  3
Style 2 Type 2 Phantom Line
 72
    65
 73
     6
 40
1.08
 49
0.6
 74
     0
 49
-0.08
 74
     0
 49
0.12
 74
     0
 49
-0.08
 74
     0
 49
0.12
 74
     0
 49
-0.08
 74
     0
  0
LTYPE
  5
39
330
4
100
AcDbSymbolTableRecord
100
AcDbLinetypeTableRecord
  2
PL3
 70
     0
  3
Style 2 Type 3 Phantom Line
 72
    65
 73
     6
 40
2.0
 49
1.439999999999999
 74
     0
 49
-0.08
 74
     0
 49
0.16
 74
     0
 49
-0.08
 74
     0
 49
0.16
 74
     0
 49
-0.08
 74
     0
  0
LTYPE
  5
3A
330
4
100
AcDbSymbolTableRecord
100
AcDbLinetypeTableRecord
  2
CL1
 70
     0
  3
CADAM Style 2 Type 1 Center Line
 72
    65
 73
     4
 40
0.7
 49
0.45
 74
     0
 49
-0.06
 74
     0
 49
0.13
 74
     0
 49
-0.06
 74
     0
  0
LTYPE
  5
3B
330
4
100
AcDbSymbolTableRecord
100
AcDbLinetypeTableRecord
  2
CL2
 70
     0
  3
CADAM Style 2 Type 2 Center Line
 72
    65
 73
     4
 40
1.199999999999999
 49
1.01
 74
     0
 49
-0.06
 74
     0
 49
0.11
 74
     0
 49
-0.06
 74
     0
  0
LTYPE
  5
3C
330
4
100
AcDbSymbolTableRecord
100
AcDbLinetypeTableRecord
  2
CL3
 70
     0
  3
CADAM Style 2 Type 3 Center Line
 72
    65
 73
     4
 40
1.199999999999999
 49
0.98
 74
     0
 49
-0.06
 74
     0
 49
0.1
 74
     0
 49
-0.06
 74
     0
  0
LTYPE
  5
3D
330
4
100
AcDbSymbolTableRecord
100
AcDbLinetypeTableRecord
  2
CL4
 70
     0
  3
CADAM Style 2 Type 4 Center Line
 72
    65
 73
     4
 40
2.2
 49
1.929999999999999
 74
     0
 49
-0.07
 74
     0
 49
0.13
 74
     0
 49
-0.07
 74
     0
  0
LTYPE
  5
3E
330
4
100
AcDbSymbolTableRecord
100
AcDbLinetypeTableRecord
  2
CL5
 70
     0
  3
CADAM Style 2 Type 5 Center Line
 72
    65
 73
     4
 40
2.2
 49
1.879999999999999
 74
     0
 49
-0.07
 74
     0
 49
0.18
 74
     0
 49
-0.07
 74
     0
  0
LTYPE
  5
3F
330
4
100
AcDbSymbolTableRecord
100
AcDbLinetypeTableRecord
  2
SBK1
 70
     0
  3
CADAM Style 2 Type 1 SetBack Line
 72
    65
 73
     8
 40
2.7
 49
0.1
 74
     0
 49
-0.08
 74
     0
 49
0.1
 74
     0
 49
-0.8
 74
     0
 49
0.0
 74
     0
 49
0.0
 74
     0
 49
0.0
 74
     0
 49
0.0
 74
     0
  0
LTYPE
  5
40
330
4
100
AcDbSymbolTableRecord
100
AcDbLinetypeTableRecord
  2
SBK2
 70
     0
  3
CADAM Style 2 Type 2 SetBack Line
 72
    65
 73
     8
 40
3.709999999999999
 49
0.13
 74
     0
 49
-0.08
 74
     0
 49
0.13
 74
     0
 49
-0.8
 74
     0
 49
0.0
 74
     0
 49
0.0
 74
     0
 49
0.0
 74
     0
 49
0.0
 74
     0
  0
LTYPE
  5
41
330
4
100
AcDbSymbolTableRecord
100
AcDbLinetypeTableRecord
  2
STCH
 70
     0
  3
CADAM Style2 Stitch Line
 72
    65
 73
     2
 40
0.25
 49
0.0
 74
     0
 49
-0.25
 74
     0
  0
LTYPE
  5
42
330
4
100
AcDbSymbolTableRecord
100
AcDbLinetypeTableRecord
  2
MTCH
 70
     0
  3
CADAM Style2 Match Line
 72
    65
 73
     6
 40
2.0
 49
1.439999999999999
 74
     0
 49
-0.8
 74
     0
 49
0.16
 74
     0
 49
-0.08
 74
     0
 49
0.16
 74
     0
 49
-0.08
 74
     0
  0
LTYPE
  5
43
330
4
100
AcDbSymbolTableRecord
100
AcDbLinetypeTableRecord
  2
SLD
 70
     0
  3
CADAM Solid_EXT2
 72
    65
 73
     0
 40
0.0
  0
ENDTAB
  0
TABLE
  2
LAYER
  5
2
330
0
100
AcDbSymbolTable
 70
     7
  0
LAYER
  5
15
330
2
100
AcDbSymbolTableRecord
100
AcDbLayerTableRecord
  2
0
 70
     0
 62
     7
  6
CONTINUOUS
  0
LAYER
  5
44
330
2
100
AcDbSymbolTableRecord
100
AcDbLayerTableRecord
  2
MO_001_NOSHOW
 70
     1
 62
     7
  6
CONTINUOUS
  0
LAYER
  5
45
330
2
100
AcDbSymbolTableRecord
100
AcDbLayerTableRecord
  2
MO_001_VIEW_PV
 70
     0
 62
     7
  6
CONTINUOUS
  0
LAYER
  5
46
330
2
100
AcDbSymbolTableRecord
100
AcDbLayerTableRecord
  2
OVERLAY_MAP
 70
     1
 62
     7
  6
CONTINUOUS
  0
LAYER
  5
47
330
2
100
AcDbSymbolTableRecord
100
AcDbLayerTableRecord
  2
DITTOS
 70
     0
 62
     7
  6
CONTINUOUS
  0
LAYER
  5
48
330
2
100
AcDbSymbolTableRecord
100
AcDbLayerTableRecord
  2
SYMBOLS
 70
     0
 62
     7
  6
CONTINUOUS
  0
LAYER
  5
49
330
2
100
AcDbSymbolTableRecord
100
AcDbLayerTableRecord
  2
SETS
 70
     0
 62
     7
  6
CONTINUOUS
  0
ENDTAB
  0
TABLE
  2
STYLE
  5
3
330
0
100
AcDbSymbolTable
 70
     1
  0
STYLE
  5
18
330
3
100
AcDbSymbolTableRecord
100
AcDbTextStyleTableRecord
  2
STANDARD
 70
     0
 40
4.1672
 41
1.0
 50
0.0
 71
     0
 42
4.1672
  3
monotxt
  4
BIGFONT
  0
ENDTAB
  0
TABLE
  2
VIEW
  5
5
330
0
100
AcDbSymbolTable
 70
     0
  0
ENDTAB
  0
TABLE
  2
UCS
  5
6
330
0
100
AcDbSymbolTable
 70
     1
  0
UCS
  5
4A
330
6
100
AcDbSymbolTableRecord
100
AcDbUCSTableRecord
  2
MO_001_VIEW_PV_P
 70
     0
 10
0.0
 20
0.0
 30
0.0
 11
1.0
 21
0.0
 31
0.0
 12
-0.0000000002051034
 22
1.0
 32
0.0
  0
ENDTAB
  0
TABLE
  2
APPID
  5
8
330
0
100
AcDbSymbolTable
 70
     1
  0
APPID
  5
17
330
8
100
AcDbSymbolTableRecord
100
AcDbRegAppTableRecord
  2
ACAD
 70
     0
  0
ENDTAB
  0
TABLE
  2
DIMSTYLE
  5
9
330
0
100
AcDbSymbolTable
 70
     1
  0
DIMSTYLE
105
19
102
{ACAD_REACTORS
330
13E
330
140
330
142
330
144
330
146
330
148
330
14A
330
14C
330
154
330
156
330
164
330
166
102
}
330
9
100
AcDbSymbolTableRecord
100
AcDbDimStyleTableRecord
  2
STANDARD
 70
     0
  3

  4

  5

  6

  7

 40
1.0
 41
0.18
 42
0.0625
 43
0.38
 44
0.18
 45
0.0
 46
0.0
 47
0.0
 48
0.0
140
0.18
141
0.09
142
0.0
143
25.4
144
1.0
145
0.0
146
1.0
147
0.09
 71
     0
 72
     0
 73
     1
 74
     1
 75
     0
 76
     0
 77
     0
 78
     0
170
     0
171
     2
172
     0
173
     0
174
     0
175
     0
176
     0
177
     0
178
     0
270
     2
271
     4
272
     4
273
     2
274
     2
340
18
275
     0
280
     0
281
     0
282
     0
283
     1
284
     0
285
     0
286
     0
287
     3
288
     0
  0
ENDTAB
  0
TABLE
  2
BLOCK_RECORD
  5
C
330
0
100
AcDbSymbolTable
 70
    12
  0
BLOCK_RECORD
  5
1E
102
{ACAD_XDICTIONARY
360
1FE
102
}
330
C
100
AcDbSymbolTableRecord
100
AcDbBlockTableRecord
  2
*MODEL_SPACE
  0
BLOCK_RECORD
  5
1F
102
{ACAD_XDICTIONARY
360
200
102
}
330
C
100
AcDbSymbolTableRecord
100
AcDbBlockTableRecord
  2
*PAPER_SPACE
  0
BLOCK_RECORD
  5
13D
330
C
100
AcDbSymbolTableRecord
100
AcDbBlockTableRecord
  2
*D0
  0
BLOCK_RECORD
  5
13F
330
C
100
AcDbSymbolTableRecord
100
AcDbBlockTableRecord
  2
*D1
  0
BLOCK_RECORD
  5
141
330
C
100
AcDbSymbolTableRecord
100
AcDbBlockTableRecord
  2
*D2
  0
BLOCK_RECORD
  5
143
330
C
100
AcDbSymbolTableRecord
100
AcDbBlockTableRecord
  2
*D3
  0
BLOCK_RECORD
  5
145
330
C
100
AcDbSymbolTableRecord
100
AcDbBlockTableRecord
  2
*D4
  0
BLOCK_RECORD
  5
147
330
C
100
AcDbSymbolTableRecord
100
AcDbBlockTableRecord
  2
*D5
  0
BLOCK_RECORD
  5
149
330
C
100
AcDbSymbolTableRecord
100
AcDbBlockTableRecord
  2
*D6
  0
BLOCK_RECORD
  5
14B
330
C
100
AcDbSymbolTableRecord
100
AcDbBlockTableRecord
  2
*D7
  0
BLOCK_RECORD
  5
153
330
C
100
AcDbSymbolTableRecord
100
AcDbBlockTableRecord
  2
*D8
  0
BLOCK_RECORD
  5
155
330
C
100
AcDbSymbolTableRecord
100
AcDbBlockTableRecord
  2
*D9
  0
BLOCK_RECORD
  5
163
330
C
100
AcDbSymbolTableRecord
100
AcDbBlockTableRecord
  2
*D10
  0
BLOCK_RECORD
  5
165
330
C
100
AcDbSymbolTableRecord
100
AcDbBlockTableRecord
  2
*D11
  0
ENDTAB
  0
ENDSEC
  0
SECTION
  2
BLOCKS
  0
BLOCK
  5
E
330
1E
100
AcDbEntity
  8
0
100
AcDbBlockBegin
  2
*MODEL_SPACE
 70
     0
 10
0.0
 20
0.0
 30
0.0
  3
*MODEL_SPACE
  1

  0
ENDBLK
  5
F
330
1E
100
AcDbEntity
  8
0
100
AcDbBlockEnd
  0
BLOCK
  5
10
330
1F
100
AcDbEntity
 67
     1
  8
0
100
AcDbBlockBegin
  2
*PAPER_SPACE
 70
     0
 10
0.0
 20
0.0
 30
0.0
  3
*PAPER_SPACE
  1

  0
ENDBLK
  5
11
330
1F
100
AcDbEntity
 67
     1
  8
0
100
AcDbBlockEnd
  0
BLOCK
  5
173
330
13D
100
AcDbEntity
  8
0
100
AcDbBlockBegin
  2
*D0
 70
     1
 10
0.0
 20
0.0
 30
0.0
  3
*D0
  1

  0
LINE
  5
174
330
13D
100
AcDbEntity
  8
MO_001_VIEW_PV
  6
BYBLOCK
100
AcDbLine
 10
0.0
 20
40.0
 30
0.0
 11
30.0
 21
40.0
 31
0.0
  0
SOLID
  5
175
330
13D
100
AcDbEntity
  8
MO_001_VIEW_PV
  6
BYBLOCK
100
AcDbTrace
 10
3.318259999999999
 20
40.58351199999999
 30
0.0
 11
0.508
 21
40.0
 31
0.0
 12
3.318259999999999
 22
39.416488
 32
0.0
 13
3.318259999999999
 23
39.416488
 33
0.0
  0
SOLID
  5
176
330
13D
100
AcDbEntity
  8
MO_001_VIEW_PV
  6
BYBLOCK
100
AcDbTrace
 10
26.68174
 20
39.416488
 30
0.0
 11
29.49199999999999
 21
40.0
 31
0.0
 12
26.68174
 22
40.58351199999999
 32
0.0
 13
26.68174
 23
40.58351199999999
 33
0.0
  0
LINE
  5
177
330
13D
100
AcDbEntity
  8
MO_001_VIEW_PV
  6
BYBLOCK
100
AcDbLine
 10
0.0
 20
12.19999999999999
 30
0.0
 11
0.0
 21
42.28599899999999
 31
0.0
  0
LINE
  5
178
330
13D
100
AcDbEntity
  8
MO_001_VIEW_PV
  6
BYBLOCK
100
AcDbLine
 10
30.0
 20
12.4
 30
0.0
 11
30.0
 21
42.28599899999999
 31
0.0
  0
TEXT
  5
179
330
13D
100
AcDbEntity
  8
MO_001_VIEW_PV
  6
BYBLOCK
100
AcDbText
 10
16.321669
 20
42.625
 30
0.0
 40
1.5
  1
%%P0.5
100
AcDbText
  0
TEXT
  5
17A
330
13D
100
AcDbEntity
  8
MO_001_VIEW_PV
  6
BYBLOCK
100
AcDbText
 10
10.53595499999999
 20
40.75
 30
0.0
 40
3.0
  1
30
100
AcDbText
  0
ENDBLK
  5
17B
330
13D
100
AcDbEntity
  8
0
100
AcDbBlockEnd
  0
BLOCK
  5
17C
330
13F
100
AcDbEntity
  8
0
100
AcDbBlockBegin
  2
*D1
 70
     1
 10
0.0
 20
0.0
 30
0.0
  3
*D1
  1

  0
TEXT
  5
17D
330
13F
100
AcDbEntity
  8
MO_001_VIEW_PV
  6
BYBLOCK
100
AcDbText
 10
14.358161
 20
26.625
 30
0.0
 40
1.5
  1
%%P0.2
100
AcDbText
  0
TEXT
  5
17E
330
13F
100
AcDbEntity
  8
MO_001_VIEW_PV
  6
BYBLOCK
100
AcDbText
 10
5.572446
 20
24.75
 30
0.0
 40
3.0
  1
9.5
100
AcDbText
  0
LINE
  5
17F
330
13F
100
AcDbEntity
  8
MO_001_VIEW_PV
  6
BYBLOCK
100
AcDbLine
 10
-9.5
 20
24.0
 30
0.0
 11
0.0
 21
24.0
 31
0.0
  0
LINE
  5
180
330
13F
100
AcDbEntity
  8
MO_001_VIEW_PV
  6
BYBLOCK
100
AcDbLine
 10
-9.5
 20
24.0
 30
0.0
 11
-15.84999999999999
 21
24.0
 31
0.0
  0
LINE
  5
181
330
13F
100
AcDbEntity
  8
MO_001_VIEW_PV
  6
BYBLOCK
100
AcDbLine
 10
0.0
 20
24.0
 30
0.0
 11
6.349999999999999
 21
24.0
 31
0.0
  0
SOLID
  5
182
330
13F
100
AcDbEntity
  8
MO_001_VIEW_PV
  6
BYBLOCK
100
AcDbTrace
 10
-12.81826
 20
23.416488
 30
0.0
 11
-10.00799999999999
 21
24.0
 31
0.0
 12
-12.81826
 22
24.583512
 32
0.0
 13
-12.81826
 23
24.583512
 33
0.0
  0
SOLID
  5
183
330
13F
100
AcDbEntity
  8
MO_001_VIEW_PV
  6
BYBLOCK
100
AcDbTrace
 10
3.318259999999999
 20
24.583512
 30
0.0
 11
0.508
 21
24.0
 31
0.0
 12
3.318259999999999
 22
23.416488
 32
0.0
 13
3.318259999999999
 23
23.416488
 33
0.0
  0
LINE
  5
184
330
13F
100
AcDbEntity
  8
MO_001_VIEW_PV
  6
BYBLOCK
100
AcDbLine
 10
-9.5
 20
7.5
 30
0.0
 11
-9.5
 21
26.285999
 31
0.0
  0
LINE
  5
185
330
13F
100
AcDbEntity
  8
MO_001_VIEW_PV
  6
BYBLOCK
100
AcDbLine
 10
0.0
 20
12.19999999999999
 30
0.0
 11
0.0
 21
26.285999
 31
0.0
  0
LINE
  5
186
330
13F
100
AcDbEntity
  8
MO_001_VIEW_PV
  6
BYBLOCK
100
AcDbLine
 10
0.0
 20
24.0
 30
0.0
 11
20.67959
 21
24.0
 31
0.0
  0
ENDBLK
  5
187
330
13F
100
AcDbEntity
  8
0
100
AcDbBlockEnd
  0
BLOCK
  5
188
330
141
100
AcDbEntity
  8
0
100
AcDbBlockBegin
  2
*D2
 70
     1
 10
0.0
 20
0.0
 30
0.0
  3
*D2
  1

  0
TEXT
  5
189
330
141
100
AcDbEntity
  8
MO_001_VIEW_PV
  6
BYBLOCK
100
AcDbText
 10
-75.285714
 20
42.625
 30
0.0
 40
1.5
  1
%%P0.4
100
AcDbText
  0
TEXT
  5
18A
330
141
100
AcDbEntity
  8
MO_001_VIEW_PV
  6
BYBLOCK
100
AcDbText
 10
-90.07142900000001
 20
40.75
 30
0.0
 40
3.0
  1
%%C25.4
100
AcDbText
  0
LINE
  5
18B
330
141
100
AcDbEntity
  8
MO_001_VIEW_PV
  6
BYBLOCK
100
AcDbLine
 10
-92.69999699999999
 20
40.0
 30
0.0
 11
-67.300003
 21
40.0
 31
0.0
  0
SOLID
  5
18C
330
141
100
AcDbEntity
  8
MO_001_VIEW_PV
  6
BYBLOCK
100
AcDbTrace
 10
-89.381737
 20
40.58351199999999
 30
0.0
 11
-92.191997
 21
40.0
 31
0.0
 12
-89.381737
 22
39.416488
 32
0.0
 13
-89.381737
 23
39.416488
 33
0.0
  0
SOLID
  5
18D
330
141
100
AcDbEntity
  8
MO_001_VIEW_PV
  6
BYBLOCK
100
AcDbTrace
 10
-70.61826299999999
 20
39.416488
 30
0.0
 11
-67.808003
 21
40.0
 31
0.0
 12
-70.61826299999999
 22
40.58351199999999
 32
0.0
 13
-70.61826299999999
 23
40.58351199999999
 33
0.0
  0
LINE
  5
18E
330
141
100
AcDbEntity
  8
MO_001_VIEW_PV
  6
BYBLOCK
100
AcDbLine
 10
-92.69999699999999
 20
0.0
 30
0.0
 11
-92.69999699999999
 21
42.28599899999999
 31
0.0
  0
LINE
  5
18F
330
141
100
AcDbEntity
  8
MO_001_VIEW_PV
  6
BYBLOCK
100
AcDbLine
 10
-67.300003
 20
0.0
 30
0.0
 11
-67.300003
 21
42.28599899999999
 31
0.0
  0
ENDBLK
  5
190
330
141
100
AcDbEntity
  8
0
100
AcDbBlockEnd
  0
BLOCK
  5
191
330
143
100
AcDbEntity
  8
0
100
AcDbBlockBegin
  2
*D3
 70
     1
 10
0.0
 20
0.0
 30
0.0
  3
*D3
  1

  0
TEXT
  5
192
330
143
100
AcDbEntity
  8
MO_001_VIEW_PV
  6
BYBLOCK
100
AcDbText
 10
-79.78571399999999
 20
34.625
 30
0.0
 40
1.5
  1
%%P0.2
100
AcDbText
  0
TEXT
  5
193
330
143
100
AcDbEntity
  8
MO_001_VIEW_PV
  6
BYBLOCK
100
AcDbText
 10
-85.571429
 20
32.75
 30
0.0
 40
3.0
  1
23
100
AcDbText
  0
LINE
  5
194
330
143
100
AcDbEntity
  8
MO_001_VIEW_PV
  6
BYBLOCK
100
AcDbLine
 10
-91.5
 20
32.0
 30
0.0
 11
-68.500008
 21
32.0
 31
0.0
  0
SOLID
  5
195
330
143
100
AcDbEntity
  8
MO_001_VIEW_PV
  6
BYBLOCK
100
AcDbTrace
 10
-88.18174
 20
32.58351199999999
 30
0.0
 11
-90.99200000000001
 21
32.0
 31
0.0
 12
-88.18174
 22
31.416488
 32
0.0
 13
-88.18174
 23
31.416488
 33
0.0
  0
SOLID
  5
196
330
143
100
AcDbEntity
  8
MO_001_VIEW_PV
  6
BYBLOCK
100
AcDbTrace
 10
-71.818268
 20
31.416488
 30
0.0
 11
-69.00800799999998
 21
32.0
 31
0.0
 12
-71.818268
 22
32.58351199999999
 32
0.0
 13
-71.818268
 23
32.58351199999999
 33
0.0
  0
LINE
  5
197
330
143
100
AcDbEntity
  8
MO_001_VIEW_PV
  6
BYBLOCK
100
AcDbLine
 10
-91.5
 20
6.639525999999999
 30
0.0
 11
-91.5
 21
34.285999
 31
0.0
  0
LINE
  5
198
330
143
100
AcDbEntity
  8
MO_001_VIEW_PV
  6
BYBLOCK
100
AcDbLine
 10
-68.500008
 20
6.63953
 30
0.0
 11
-68.500008
 21
34.285999
 31
0.0
  0
ENDBLK
  5
199
330
143
100
AcDbEntity
  8
0
100
AcDbBlockEnd
  0
BLOCK
  5
19A
330
145
100
AcDbEntity
  8
0
100
AcDbBlockBegin
  2
*D4
 70
     1
 10
0.0
 20
0.0
 30
0.0
  3
*D4
  1

  0
TEXT
  5
19B
330
145
100
AcDbEntity
  8
MO_001_VIEW_PV
  6
BYBLOCK
100
AcDbText
 10
-56.005681
 20
26.625
 30
0.0
 40
1.5
  1
%%P0.2
100
AcDbText
  0
TEXT
  5
19C
330
145
100
AcDbEntity
  8
MO_001_VIEW_PV
  6
BYBLOCK
100
AcDbText
 10
-64.79139599999999
 20
24.75
 30
0.0
 40
3.0
  1
7.9
100
AcDbText
  0
LINE
  5
19D
330
145
100
AcDbEntity
  8
MO_001_VIEW_PV
  6
BYBLOCK
100
AcDbLine
 10
-72.099998
 20
24.0
 30
0.0
 11
-80.0
 21
24.0
 31
0.0
  0
LINE
  5
19E
330
145
100
AcDbEntity
  8
MO_001_VIEW_PV
  6
BYBLOCK
100
AcDbLine
 10
-72.099998
 20
24.0
 30
0.0
 11
-65.749999
 21
24.0
 31
0.0
  0
LINE
  5
19F
330
145
100
AcDbEntity
  8
MO_001_VIEW_PV
  6
BYBLOCK
100
AcDbLine
 10
-80.0
 20
24.0
 30
0.0
 11
-86.34999999999999
 21
24.0
 31
0.0
  0
SOLID
  5
1A0
330
145
100
AcDbEntity
  8
MO_001_VIEW_PV
  6
BYBLOCK
100
AcDbTrace
 10
-68.781738
 20
24.583512
 30
0.0
 11
-71.591998
 21
24.0
 31
0.0
 12
-68.781738
 22
23.416488
 32
0.0
 13
-68.781738
 23
23.416488
 33
0.0
  0
SOLID
  5
1A1
330
145
100
AcDbEntity
  8
MO_001_VIEW_PV
  6
BYBLOCK
100
AcDbTrace
 10
-83.31825999999999
 20
23.416488
 30
0.0
 11
-80.508
 21
24.0
 31
0.0
 12
-83.31825999999999
 22
24.583512
 32
0.0
 13
-83.31825999999999
 23
24.583512
 33
0.0
  0
LINE
  5
1A2
330
145
100
AcDbEntity
  8
MO_001_VIEW_PV
  6
BYBLOCK
100
AcDbLine
 10
-72.099998
 20
4.311608999999999
 30
0.0
 11
-72.099998
 21
26.285999
 31
0.0
  0
LINE
  5
1A3
330
145
100
AcDbEntity
  8
MO_001_VIEW_PV
  6
BYBLOCK
100
AcDbLine
 10
-80.0
 20
17.5
 30
0.0
 11
-80.0
 21
26.285999
 31
0.0
  0
LINE
  5
1A4
330
145
100
AcDbEntity
  8
MO_001_VIEW_PV
  6
BYBLOCK
100
AcDbLine
 10
-49.684258
 20
24.0
 30
0.0
 11
-72.099998
 21
24.0
 31
0.0
  0
ENDBLK
  5
1A5
330
145
100
AcDbEntity
  8
0
100
AcDbBlockEnd
  0
BLOCK
  5
1A6
330
147
100
AcDbEntity
  8
0
100
AcDbBlockBegin
  2
*D5
 70
     1
 10
0.0
 20
0.0
 30
0.0
  3
*D5
  1

  0
LINE
  5
1A7
330
147
100
AcDbEntity
  8
MO_001_VIEW_PV
  6
BYBLOCK
100
AcDbLine
 10
-40.20000099999999
 20
-5.5
 30
0.0
 11
-40.20000099999999
 21
5.5
 31
0.0
  0
SOLID
  5
1A8
330
147
100
AcDbEntity
  8
MO_001_VIEW_PV
  6
BYBLOCK
100
AcDbTrace
 10
-40.783512
 20
-2.18174
 30
0.0
 11
-40.20000099999999
 21
-4.991999999999999
 31
0.0
 12
-39.616489
 22
-2.18174
 32
0.0
 13
-39.616489
 23
-2.18174
 33
0.0
  0
SOLID
  5
1A9
330
147
100
AcDbEntity
  8
MO_001_VIEW_PV
  6
BYBLOCK
100
AcDbTrace
 10
-39.616489
 20
2.18174
 30
0.0
 11
-40.20000099999999
 21
4.991999999999999
 31
0.0
 12
-40.783512
 22
2.18174
 32
0.0
 13
-40.783512
 23
2.18174
 33
0.0
  0
LINE
  5
1AA
330
147
100
AcDbEntity
  8
MO_001_VIEW_PV
  6
BYBLOCK
100
AcDbLine
 10
-24.299999
 20
-5.5
 30
0.0
 11
-42.486
 21
-5.5
 31
0.0
  0
LINE
  5
1AB
330
147
100
AcDbEntity
  8
MO_001_VIEW_PV
  6
BYBLOCK
100
AcDbLine
 10
-24.299999
 20
5.5
 30
0.0
 11
-42.486
 21
5.5
 31
0.0
  0
TEXT
  5
1AC
330
147
100
AcDbEntity
  8
MO_001_VIEW_PV
  6
BYBLOCK
100
AcDbText
 10
-42.825001
 20
16.96428599999999
 30
0.0
 40
1.5
  1
%%P0.05
 50
90.0
100
AcDbText
  0
TEXT
  5
1AD
330
147
100
AcDbEntity
  8
MO_001_VIEW_PV
  6
BYBLOCK
100
AcDbText
 10
-40.950001
 20
8.178570999999999
 30
0.0
 40
3.0
  1
%%C11
 50
90.0
100
AcDbText
  0
LINE
  5
1AE
330
147
100
AcDbEntity
  8
MO_001_VIEW_PV
  6
BYBLOCK
100
AcDbLine
 10
-40.20000099999999
 20
5.5
 30
0.0
 11
-40.20000099999999
 21
24.785715
 31
0.0
  0
ENDBLK
  5
1AF
330
147
100
AcDbEntity
  8
0
100
AcDbBlockEnd
  0
BLOCK
  5
1B0
330
149
100
AcDbEntity
  8
0
100
AcDbBlockBegin
  2
*D6
 70
     1
 10
0.0
 20
0.0
 30
0.0
  3
*D6
  1

  0
LINE
  5
1B1
330
149
100
AcDbEntity
  8
MO_001_VIEW_PV
  6
BYBLOCK
100
AcDbLine
 10
-32.200001
 20
1.5
 30
0.0
 11
-32.200001
 21
-1.5
 31
0.0
  0
LINE
  5
1B2
330
149
100
AcDbEntity
  8
MO_001_VIEW_PV
  6
BYBLOCK
100
AcDbLine
 10
-32.200001
 20
1.5
 30
0.0
 11
-32.200001
 21
7.849999999999999
 31
0.0
  0
LINE
  5
1B3
330
149
100
AcDbEntity
  8
MO_001_VIEW_PV
  6
BYBLOCK
100
AcDbLine
 10
-32.200001
 20
-1.5
 30
0.0
 11
-32.200001
 21
-7.849999999999999
 31
0.0
  0
SOLID
  5
1B4
330
149
100
AcDbEntity
  8
MO_001_VIEW_PV
  6
BYBLOCK
100
AcDbTrace
 10
-32.783512
 20
4.818259999999999
 30
0.0
 11
-32.200001
 21
2.008
 31
0.0
 12
-31.616489
 22
4.818259999999999
 32
0.0
 13
-31.616489
 23
4.818259999999999
 33
0.0
  0
SOLID
  5
1B5
330
149
100
AcDbEntity
  8
MO_001_VIEW_PV
  6
BYBLOCK
100
AcDbTrace
 10
-31.616489
 20
-4.818259999999999
 30
0.0
 11
-32.200001
 21
-2.008
 31
0.0
 12
-32.783512
 22
-4.818259999999999
 32
0.0
 13
-32.783512
 23
-4.818259999999999
 33
0.0
  0
LINE
  5
1B6
330
149
100
AcDbEntity
  8
MO_001_VIEW_PV
  6
BYBLOCK
100
AcDbLine
 10
-24.299999
 20
1.5
 30
0.0
 11
-34.48599999999999
 21
1.5
 31
0.0
  0
LINE
  5
1B7
330
149
100
AcDbEntity
  8
MO_001_VIEW_PV
  6
BYBLOCK
100
AcDbLine
 10
-24.299999
 20
-1.5
 30
0.0
 11
-34.48599999999999
 21
-1.5
 31
0.0
  0
TEXT
  5
1B8
330
149
100
AcDbEntity
  8
MO_001_VIEW_PV
  6
BYBLOCK
100
AcDbText
 10
-34.825001
 20
10.946731
 30
0.0
 40
1.5
  1
%%P0.1
 50
90.0
100
AcDbText
  0
TEXT
  5
1B9
330
149
100
AcDbEntity
  8
MO_001_VIEW_PV
  6
BYBLOCK
100
AcDbText
 10
-32.950001
 20
8.161016999999999
 30
0.0
 40
3.0
  1
3
 50
90.0
100
AcDbText
  0
LINE
  5
1BA
330
149
100
AcDbEntity
  8
MO_001_VIEW_PV
  6
BYBLOCK
100
AcDbLine
 10
-32.200001
 20
17.268162
 30
0.0
 11
-32.200001
 21
1.5
 31
0.0
  0
ENDBLK
  5
1BB
330
149
100
AcDbEntity
  8
0
100
AcDbBlockEnd
  0
BLOCK
  5
1BC
330
14B
100
AcDbEntity
  8
0
100
AcDbBlockBegin
  2
*D7
 70
     1
 10
0.0
 20
0.0
 30
0.0
  3
*D7
  1

  0
LINE
  5
1BD
330
14B
100
AcDbEntity
  8
MO_001_VIEW_PV
  6
BYBLOCK
100
AcDbLine
 10
-24.299999
 20
-24.0
 30
0.0
 11
-14.3
 21
-24.0
 31
0.0
  0
LINE
  5
1BE
330
14B
100
AcDbEntity
  8
MO_001_VIEW_PV
  6
BYBLOCK
100
AcDbLine
 10
-24.299999
 20
-24.0
 30
0.0
 11
-30.649999
 21
-24.0
 31
0.0
  0
LINE
  5
1BF
330
14B
100
AcDbEntity
  8
MO_001_VIEW_PV
  6
BYBLOCK
100
AcDbLine
 10
-14.3
 20
-24.0
 30
0.0
 11
-7.95
 21
-24.0
 31
0.0
  0
SOLID
  5
1C0
330
14B
100
AcDbEntity
  8
MO_001_VIEW_PV
  6
BYBLOCK
100
AcDbTrace
 10
-27.618259
 20
-24.583512
 30
0.0
 11
-24.807999
 21
-24.0
 31
0.0
 12
-27.618259
 22
-23.416488
 32
0.0
 13
-27.618259
 23
-23.416488
 33
0.0
  0
SOLID
  5
1C1
330
14B
100
AcDbEntity
  8
MO_001_VIEW_PV
  6
BYBLOCK
100
AcDbTrace
 10
-10.98173999999999
 20
-23.416488
 30
0.0
 11
-13.79199999999999
 21
-24.0
 31
0.0
 12
-10.98173999999999
 22
-24.583512
 32
0.0
 13
-10.98173999999999
 23
-24.583512
 33
0.0
  0
LINE
  5
1C2
330
14B
100
AcDbEntity
  8
MO_001_VIEW_PV
  6
BYBLOCK
100
AcDbLine
 10
-24.299999
 20
-5.5
 30
0.0
 11
-24.299999
 21
-26.286003
 31
0.0
  0
LINE
  5
1C3
330
14B
100
AcDbEntity
  8
MO_001_VIEW_PV
  6
BYBLOCK
100
AcDbLine
 10
-14.3
 20
-1.5
 30
0.0
 11
-14.3
 21
-26.286003
 31
0.0
  0
TEXT
  5
1C4
330
14B
100
AcDbEntity
  8
MO_001_VIEW_PV
  6
BYBLOCK
100
AcDbText
 10
-3.902862
 20
-21.375
 30
0.0
 40
1.5
  1
%%P0.2
100
AcDbText
  0
TEXT
  5
1C5
330
14B
100
AcDbEntity
  8
MO_001_VIEW_PV
  6
BYBLOCK
100
AcDbText
 10
-9.688575999999999
 20
-23.25
 30
0.0
 40
3.0
  1
10
100
AcDbText
  0
LINE
  5
1C6
330
14B
100
AcDbEntity
  8
MO_001_VIEW_PV
  6
BYBLOCK
100
AcDbLine
 10
-14.3
 20
-24.0
 30
0.0
 11
2.418566999999999
 21
-24.0
 31
0.0
  0
ENDBLK
  5
1C7
330
14B
100
AcDbEntity
  8
0
100
AcDbBlockEnd
  0
BLOCK
  5
1C8
330
153
100
AcDbEntity
  8
0
100
AcDbBlockBegin
  2
*D8
 70
     1
 10
0.0
 20
0.0
 30
0.0
  3
*D8
  1

  0
LINE
  5
1C9
330
153
100
AcDbEntity
  8
MO_001_VIEW_PV
  6
BYBLOCK
100
AcDbLine
 10
0.0
 20
32.0
 30
0.0
 11
-19.299999
 21
32.0
 31
0.0
  0
SOLID
  5
1CA
330
153
100
AcDbEntity
  8
MO_001_VIEW_PV
  6
BYBLOCK
100
AcDbTrace
 10
-3.318259999999999
 20
31.416488
 30
0.0
 11
-0.508
 21
32.0
 31
0.0
 12
-3.318259999999999
 22
32.58351199999999
 32
0.0
 13
-3.318259999999999
 23
32.58351199999999
 33
0.0
  0
SOLID
  5
1CB
330
153
100
AcDbEntity
  8
MO_001_VIEW_PV
  6
BYBLOCK
100
AcDbTrace
 10
-15.981739
 20
32.58351199999999
 30
0.0
 11
-18.791999
 21
32.0
 31
0.0
 12
-15.981739
 22
31.416488
 32
0.0
 13
-15.981739
 23
31.416488
 33
0.0
  0
LINE
  5
1CC
330
153
100
AcDbEntity
  8
MO_001_VIEW_PV
  6
BYBLOCK
100
AcDbLine
 10
0.0
 20
12.19999999999999
 30
0.0
 11
0.0
 21
34.285999
 31
0.0
  0
LINE
  5
1CD
330
153
100
AcDbEntity
  8
MO_001_VIEW_PV
  6
BYBLOCK
100
AcDbLine
 10
-19.299999
 20
8.419144000000001
 30
0.0
 11
-19.299999
 21
34.285999
 31
0.0
  0
TEXT
  5
1CE
330
153
100
AcDbEntity
  8
MO_001_VIEW_PV
  6
BYBLOCK
100
AcDbText
 10
-6.435712999999999
 20
34.625
 30
0.0
 40
1.5
  1
%%P0.5
100
AcDbText
  0
TEXT
  5
1CF
330
153
100
AcDbEntity
  8
MO_001_VIEW_PV
  6
BYBLOCK
100
AcDbText
 10
-18.22142699999999
 20
32.75
 30
0.0
 40
3.0
  1
19.3
100
AcDbText
  0
ENDBLK
  5
1D0
330
153
100
AcDbEntity
  8
0
100
AcDbBlockEnd
  0
BLOCK
  5
1D1
330
155
100
AcDbEntity
  8
0
100
AcDbBlockBegin
  2
*D9
 70
     1
 10
0.0
 20
0.0
 30
0.0
  3
*D9
  1

  0
LINE
  5
1D2
330
155
100
AcDbEntity
  8
MO_001_VIEW_PV
  6
BYBLOCK
100
AcDbLine
 10
0.0
 20
40.0
 30
0.0
 11
-24.299999
 21
40.0
 31
0.0
  0
SOLID
  5
1D3
330
155
100
AcDbEntity
  8
MO_001_VIEW_PV
  6
BYBLOCK
100
AcDbTrace
 10
-3.318259999999999
 20
39.416488
 30
0.0
 11
-0.508
 21
40.0
 31
0.0
 12
-3.318259999999999
 22
40.58351199999999
 32
0.0
 13
-3.318259999999999
 23
40.58351199999999
 33
0.0
  0
SOLID
  5
1D4
330
155
100
AcDbEntity
  8
MO_001_VIEW_PV
  6
BYBLOCK
100
AcDbTrace
 10
-20.981739
 20
40.58351199999999
 30
0.0
 11
-23.791999
 21
40.0
 31
0.0
 12
-20.981739
 22
39.416488
 32
0.0
 13
-20.981739
 23
39.416488
 33
0.0
  0
LINE
  5
1D5
330
155
100
AcDbEntity
  8
MO_001_VIEW_PV
  6
BYBLOCK
100
AcDbLine
 10
0.0
 20
12.19999999999999
 30
0.0
 11
0.0
 21
42.28599899999999
 31
0.0
  0
LINE
  5
1D6
330
155
100
AcDbEntity
  8
MO_001_VIEW_PV
  6
BYBLOCK
100
AcDbLine
 10
-24.299999
 20
5.5
 30
0.0
 11
-24.299999
 21
42.28599899999999
 31
0.0
  0
TEXT
  5
1D7
330
155
100
AcDbEntity
  8
MO_001_VIEW_PV
  6
BYBLOCK
100
AcDbText
 10
-8.935712999999999
 20
42.625
 30
0.0
 40
1.5
  1
%%P0.6
100
AcDbText
  0
TEXT
  5
1D8
330
155
100
AcDbEntity
  8
MO_001_VIEW_PV
  6
BYBLOCK
100
AcDbText
 10
-20.721427
 20
40.75
 30
0.0
 40
3.0
  1
24.3
100
AcDbText
  0
ENDBLK
  5
1D9
330
155
100
AcDbEntity
  8
0
100
AcDbBlockEnd
  0
BLOCK
  5
1DA
330
163
100
AcDbEntity
  8
0
100
AcDbBlockBegin
  2
*D10
 70
     1
 10
0.0
 20
0.0
 30
0.0
  3
*D10
  1

  0
TEXT
  5
1DB
330
163
100
AcDbEntity
  8
MO_001_VIEW_PV
  6
BYBLOCK
100
AcDbText
 10
115.314284
 20
6.625
 30
0.0
 40
1.5
  1
%%P0.1
100
AcDbText
  0
TEXT
  5
1DC
330
163
100
AcDbEntity
  8
MO_001_VIEW_PV
  6
BYBLOCK
100
AcDbText
 10
103.5285699999999
 20
4.75
 30
0.0
 40
3.0
  1
17.1
100
AcDbText
  0
LINE
  5
1DD
330
163
100
AcDbEntity
  8
MO_001_VIEW_PV
  6
BYBLOCK
100
AcDbLine
 10
82.0
 20
4.0
 30
0.0
 11
99.09999800000001
 21
4.0
 31
0.0
  0
LINE
  5
1DE
330
163
100
AcDbEntity
  8
MO_001_VIEW_PV
  6
BYBLOCK
100
AcDbLine
 10
82.0
 20
4.0
 30
0.0
 11
75.65000000000001
 21
4.0
 31
0.0
  0
LINE
  5
1DF
330
163
100
AcDbEntity
  8
MO_001_VIEW_PV
  6
BYBLOCK
100
AcDbLine
 10
99.09999800000001
 20
4.0
 30
0.0
 11
105.4499979999999
 21
4.0
 31
0.0
  0
SOLID
  5
1E0
330
163
100
AcDbEntity
  8
MO_001_VIEW_PV
  6
BYBLOCK
100
AcDbTrace
 10
78.68174
 20
3.416487999999999
 30
0.0
 11
81.492
 21
4.0
 31
0.0
 12
78.68174
 22
4.583512
 32
0.0
 13
78.68174
 23
4.583512
 33
0.0
  0
SOLID
  5
1E1
330
163
100
AcDbEntity
  8
MO_001_VIEW_PV
  6
BYBLOCK
100
AcDbTrace
 10
102.4182589999999
 20
4.583512
 30
0.0
 11
99.607998
 21
4.0
 31
0.0
 12
102.4182589999999
 22
3.416487999999999
 32
0.0
 13
102.4182589999999
 23
3.416487999999999
 33
0.0
  0
LINE
  5
1E2
330
163
100
AcDbEntity
  8
MO_001_VIEW_PV
  6
BYBLOCK
100
AcDbLine
 10
82.0
 20
-20.0
 30
0.0
 11
82.0
 21
6.285998999999999
 31
0.0
  0
LINE
  5
1E3
330
163
100
AcDbEntity
  8
MO_001_VIEW_PV
  6
BYBLOCK
100
AcDbLine
 10
99.09999800000001
 20
-15.66295
 30
0.0
 11
99.09999800000001
 21
6.285998999999999
 31
0.0
  0
LINE
  5
1E4
330
163
100
AcDbEntity
  8
MO_001_VIEW_PV
  6
BYBLOCK
100
AcDbLine
 10
99.09999800000001
 20
4.0
 30
0.0
 11
121.635712
 21
4.0
 31
0.0
  0
ENDBLK
  5
1E5
330
163
100
AcDbEntity
  8
0
100
AcDbBlockEnd
  0
BLOCK
  5
1E6
330
165
100
AcDbEntity
  8
0
100
AcDbBlockBegin
  2
*D11
 70
     1
 10
0.0
 20
0.0
 30
0.0
  3
*D11
  1

  0
LINE
  5
1E7
330
165
100
AcDbEntity
  8
MO_001_VIEW_PV
  6
BYBLOCK
100
AcDbLine
 10
99.09999800000001
 20
-2.0
 30
0.0
 11
91.099998
 21
-2.0
 31
0.0
  0
LINE
  5
1E8
330
165
100
AcDbEntity
  8
MO_001_VIEW_PV
  6
BYBLOCK
100
AcDbLine
 10
99.09999800000001
 20
-2.0
 30
0.0
 11
105.4499979999999
 21
-2.0
 31
0.0
  0
LINE
  5
1E9
330
165
100
AcDbEntity
  8
MO_001_VIEW_PV
  6
BYBLOCK
100
AcDbLine
 10
91.099998
 20
-2.0
 30
0.0
 11
84.749999
 21
-2.0
 31
0.0
  0
SOLID
  5
1EA
330
165
100
AcDbEntity
  8
MO_001_VIEW_PV
  6
BYBLOCK
100
AcDbTrace
 10
102.4182589999999
 20
-1.416488
 30
0.0
 11
99.607998
 21
-2.0
 31
0.0
 12
102.4182589999999
 22
-2.583511999999999
 32
0.0
 13
102.4182589999999
 23
-2.583511999999999
 33
0.0
  0
SOLID
  5
1EB
330
165
100
AcDbEntity
  8
MO_001_VIEW_PV
  6
BYBLOCK
100
AcDbTrace
 10
87.78173800000001
 20
-2.583511999999999
 30
0.0
 11
90.591998
 21
-2.0
 31
0.0
 12
87.78173800000001
 22
-1.416488
 32
0.0
 13
87.78173800000001
 23
-1.416488
 33
0.0
  0
LINE
  5
1EC
330
165
100
AcDbEntity
  8
MO_001_VIEW_PV
  6
BYBLOCK
100
AcDbLine
 10
99.09999800000001
 20
-15.66295
 30
0.0
 11
99.09999800000001
 21
0.285999
 31
0.0
  0
LINE
  5
1ED
330
165
100
AcDbEntity
  8
MO_001_VIEW_PV
  6
BYBLOCK
100
AcDbLine
 10
91.099998
 20
-8.9
 30
0.0
 11
91.099998
 21
0.285999
 31
0.0
  0
TEXT
  5
1EE
330
165
100
AcDbEntity
  8
MO_001_VIEW_PV
  6
BYBLOCK
100
AcDbText
 10
103.692442
 20
-1.25
 30
0.0
 40
3.0
  1
(8)
100
AcDbText
  0
LINE
  5
1EF
330
165
100
AcDbEntity
  8
MO_001_VIEW_PV
  6
BYBLOCK
100
AcDbLine
 10
112.799583
 20
-2.0
 30
0.0
 11
99.09999800000001
 21
-2.0
 31
0.0
  0
ENDBLK
  5
1F0
330
165
100
AcDbEntity
  8
0
100
AcDbBlockEnd
  0
ENDSEC
  0
SECTION
  2
ENTITIES
  0
TEXT
  5
4B
330
1E
100
AcDbEntity
  8
OVERLAY_MAP
  6
C_SOLID_L
100
AcDbText
 10
0.0
 20
6.349999999999999
 30
0.0
 40
4.1672
  1
Model Overlay Name
100
AcDbText
  0
TEXT
  5
4C
330
1E
100
AcDbEntity
  8
OVERLAY_MAP
  6
C_SOLID_L
100
AcDbText
 10
126.999998
 20
0.0
 30
0.0
 40
4.1672
  1
Number
100
AcDbText
  0
TEXT
  5
4D
330
1E
100
AcDbEntity
  8
OVERLAY_MAP
  6
C_SOLID_L
100
AcDbText
 10
177.7999969999999
 20
0.0
 30
0.0
 40
4.1672
  1
File Text
100
AcDbText
  0
TEXT
  5
4E
330
1E
100
AcDbEntity
  8
OVERLAY_MAP
  6
C_SOLID_L
100
AcDbText
 10
0.0
 20
-6.349999999999999
 30
0.0
 40
4.1672
  1
tb s100spull 
100
AcDbText
  0
TEXT
  5
4F
330
1E
100
AcDbEntity
  8
OVERLAY_MAP
  6
C_SOLID_L
100
AcDbText
 10
126.999998
 20
-6.349999999999999
 30
0.0
 40
4.1672
  1
001
100
AcDbText
  0
TEXT
  5
50
330
1E
100
AcDbEntity
  8
OVERLAY_MAP
  6
C_SOLID_L
100
AcDbText
 10
177.7999969999999
 20
-6.349999999999999
 30
0.0
 40
4.1672
  1
                                                                   00118
100
AcDbText
  0
LINE
  5
51
330
1E
100
AcDbEntity
  8
MO_001_VIEW_PV
  6
C_CENTER_L
100
AcDbLine
 10
-28.54099699999999
 20
0.0
 30
0.0
 11
33.74374
 21
0.0
 31
0.0
  0
LINE
  5
52
330
1E
100
AcDbEntity
  8
MO_001_VIEW_PV
  6
C_SOLID_M
100
AcDbLine
 10
0.0
 20
12.19999999999999
 30
0.0
 11
0.0
 21
-12.19999999999999
 31
0.0
  0
LINE
  5
53
330
1E
100
AcDbEntity
  8
MO_001_VIEW_PV
  6
C_SOLID_M
100
AcDbLine
 10
1.199999999999999
 20
12.4
 30
0.0
 11
1.199999999999999
 21
-12.4
 31
0.0
  0
LINE
  5
54
330
1E
100
AcDbEntity
  8
MO_001_VIEW_PV
  6
C_SOLID_M
100
AcDbLine
 10
-9.5
 20
7.5
 30
0.0
 11
-9.5
 21
-7.5
 31
0.0
  0
LINE
  5
55
330
1E
100
AcDbEntity
  8
MO_001_VIEW_PV
  6
C_SOLID_M
100
AcDbLine
 10
0.3
 20
12.5
 30
0.0
 11
0.700001
 21
12.5
 31
0.0
  0
LINE
  5
56
330
1E
100
AcDbEntity
  8
MO_001_VIEW_PV
  6
C_SOLID_M
100
AcDbLine
 10
0.3
 20
-12.5
 30
0.0
 11
0.7
 21
-12.5
 31
0.0
  0
LINE
  5
57
330
1E
100
AcDbEntity
  8
MO_001_VIEW_PV
  6
C_SOLID_M
100
AcDbLine
 10
-2.000000999999999
 20
9.0
 30
0.0
 11
0.0
 21
9.0
 31
0.0
  0
LINE
  5
58
330
1E
100
AcDbEntity
  8
MO_001_VIEW_PV
  6
C_SOLID_M
100
AcDbLine
 10
-2.000000999999999
 20
-9.0
 30
0.0
 11
0.0
 21
-9.0
 31
0.0
  0
LINE
  5
59
330
1E
100
AcDbEntity
  8
MO_001_VIEW_PV
  6
C_SOLID_M
100
AcDbLine
 10
0.0
 20
12.19999999999999
 30
0.0
 11
0.3
 21
12.5
 31
0.0
  0
LINE
  5
5A
330
1E
100
AcDbEntity
  8
MO_001_VIEW_PV
  6
C_SOLID_M
100
AcDbLine
 10
1.0
 20
12.19999999999999
 30
0.0
 11
0.7
 21
12.5
 31
0.0
  0
LINE
  5
5B
330
1E
100
AcDbEntity
  8
MO_001_VIEW_PV
  6
C_SOLID_M
100
AcDbLine
 10
0.0
 20
-12.19999999999999
 30
0.0
 11
0.3
 21
-12.5
 31
0.0
  0
LINE
  5
5C
330
1E
100
AcDbEntity
  8
MO_001_VIEW_PV
  6
C_SOLID_M
100
AcDbLine
 10
0.7
 20
-12.5
 30
0.0
 11
1.0
 21
-12.19999999999999
 31
0.0
  0
LINE
  5
5D
330
1E
100
AcDbEntity
  8
MO_001_VIEW_PV
  6
C_SOLID_M
100
AcDbLine
 10
-1.0
 20
-4.311608999999999
 30
0.0
 11
-1.0
 21
-9.0
 31
0.0
  0
LINE
  5
5E
330
1E
100
AcDbEntity
  8
MO_001_VIEW_PV
  6
C_SOLID_M
100
AcDbLine
 10
0.3
 20
12.5
 30
0.0
 11
0.3
 21
-12.5
 31
0.0
  0
LINE
  5
5F
330
1E
100
AcDbEntity
  8
MO_001_VIEW_PV
  6
C_SOLID_M
100
AcDbLine
 10
0.7
 20
12.5
 30
0.0
 11
0.7
 21
-12.5
 31
0.0
  0
LINE
  5
60
330
1E
100
AcDbEntity
  8
MO_001_VIEW_PV
  6
C_SOLID_M
100
AcDbLine
 10
-2.000000999999999
 20
7.5
 30
0.0
 11
-1.0
 21
7.5
 31
0.0
  0
LINE
  5
61
330
1E
100
AcDbEntity
  8
MO_001_VIEW_PV
  6
C_SOLID_M
100
AcDbLine
 10
-2.000000999999999
 20
-7.5
 30
0.0
 11
-1.0
 21
-7.5
 31
0.0
  0
LINE
  5
62
330
1E
100
AcDbEntity
  8
MO_001_VIEW_PV
  6
C_SOLID_M
100
AcDbLine
 10
-8.0
 20
-4.311608999999999
 30
0.0
 11
-8.0
 21
-9.0
 31
0.0
  0
LINE
  5
63
330
1E
100
AcDbEntity
  8
MO_001_VIEW_PV
  6
C_SOLID_M
100
AcDbLine
 10
-9.5
 20
7.5
 30
0.0
 11
-8.0
 21
9.0
 31
0.0
  0
LINE
  5
64
330
1E
100
AcDbEntity
  8
MO_001_VIEW_PV
  6
C_SOLID_M
100
AcDbLine
 10
-9.5
 20
-7.499999
 30
0.0
 11
-8.0
 21
-9.0
 31
0.0
  0
ARC
  5
65
330
1E
100
AcDbEntity
  8
MO_001_VIEW_PV
  6
C_SOLID_M
100
AcDbCircle
 10
-80.0
 20
0.0
 30
0.0
 40
9.0
100
AcDbArc
 50
28.624531
 51
331.3754789999999
  0
ARC
  5
66
330
1E
100
AcDbEntity
  8
MO_001_VIEW_PV
  6
C_SOLID_M
100
AcDbCircle
 10
-80.0
 20
0.0
 30
0.0
 40
12.5
100
AcDbArc
 50
36.926093
 51
83.073904
  0
LINE
  5
67
330
1E
100
AcDbEntity
  8
MO_001_VIEW_PV
  6
C_CENTER_L
100
AcDbLine
 10
-80.0
 20
17.5
 30
0.0
 11
-80.0
 21
-17.5
 31
0.0
  0
LINE
  5
68
330
1E
100
AcDbEntity
  8
MO_001_VIEW_PV
  6
C_CENTER_L
100
AcDbLine
 10
-97.5
 20
0.0
 30
0.0
 11
-62.5
 21
0.0
 31
0.0
  0
LINE
  5
69
330
1E
100
AcDbEntity
  8
MO_001_VIEW_PV
  6
C_SOLID_M
100
AcDbLine
 10
-72.099998
 20
4.311608999999999
 30
0.0
 11
-72.099998
 21
1.260942
 31
0.0
  0
LINE
  5
6A
330
1E
100
AcDbEntity
  8
MO_001_VIEW_PV
  6
C_SOLID_M
100
AcDbLine
 10
-2.000000999999999
 20
4.311608999999999
 30
0.0
 11
0.0
 21
4.311608999999999
 31
0.0
  0
LINE
  5
6B
330
1E
100
AcDbEntity
  8
MO_001_VIEW_PV
  6
C_SOLID_M
100
AcDbLine
 10
-2.000000999999999
 20
-4.311608999999999
 30
0.0
 11
0.0
 21
-4.311608999999999
 31
0.0
  0
LINE
  5
6C
330
1E
100
AcDbEntity
  8
MO_001_VIEW_PV
  6
C_SOLID_M
100
AcDbLine
 10
-8.0
 20
9.0
 30
0.0
 11
-8.0
 21
4.311608999999999
 31
0.0
  0
LINE
  5
6D
330
1E
100
AcDbEntity
  8
MO_001_VIEW_PV
  6
C_SOLID_M
100
AcDbLine
 10
-1.0
 20
9.0
 30
0.0
 11
-1.0
 21
4.311608999999999
 31
0.0
  0
LINE
  5
6E
330
1E
100
AcDbEntity
  8
MO_001_VIEW_PV
  6
C_SOLID_M
100
AcDbLine
 10
-1.0
 20
7.5
 30
0.0
 11
0.0
 21
8.077351
 31
0.0
  0
LINE
  5
6F
330
1E
100
AcDbEntity
  8
MO_001_VIEW_PV
  6
C_SOLID_M
100
AcDbLine
 10
-1.0
 20
-7.5
 30
0.0
 11
0.0
 21
-8.077351
 31
0.0
  0
LINE
  5
70
330
1E
100
AcDbEntity
  8
MO_001_VIEW_PV
  6
C_SOLID_M
100
AcDbLine
 10
30.0
 20
12.4
 30
0.0
 11
30.0
 21
-12.4
 31
0.0
  0
LINE
  5
71
330
1E
100
AcDbEntity
  8
MO_001_VIEW_PV
  6
C_SOLID_M
100
AcDbLine
 10
1.5
 20
12.7
 30
0.0
 11
29.700001
 21
12.7
 31
0.0
  0
LINE
  5
72
330
1E
100
AcDbEntity
  8
MO_001_VIEW_PV
  6
C_SOLID_M
100
AcDbLine
 10
1.5
 20
-12.7
 30
0.0
 11
29.69999899999999
 21
-12.7
 31
0.0
  0
LINE
  5
73
330
1E
100
AcDbEntity
  8
MO_001_VIEW_PV
  6
C_SOLID_M
100
AcDbLine
 10
1.5
 20
12.7
 30
0.0
 11
1.199999999999999
 21
12.4
 31
0.0
  0
LINE
  5
74
330
1E
100
AcDbEntity
  8
MO_001_VIEW_PV
  6
C_SOLID_M
100
AcDbLine
 10
29.69999699999999
 20
12.699999
 30
0.0
 11
29.999997
 21
12.399999
 31
0.0
  0
LINE
  5
75
330
1E
100
AcDbEntity
  8
MO_001_VIEW_PV
  6
C_SOLID_M
100
AcDbLine
 10
29.999999
 20
-12.399999
 30
0.0
 11
29.69999899999999
 21
-12.699999
 31
0.0
  0
LINE
  5
76
330
1E
100
AcDbEntity
  8
MO_001_VIEW_PV
  6
C_SOLID_M
100
AcDbLine
 10
1.199999999999999
 20
-12.4
 30
0.0
 11
1.5
 21
-12.7
 31
0.0
  0
LINE
  5
77
330
1E
100
AcDbEntity
  8
MO_001_VIEW_PV
  6
C_SOLID_M
100
AcDbLine
 10
29.700001
 20
12.7
 30
0.0
 11
29.700001
 21
-12.7
 31
0.0
  0
LINE
  5
78
330
1E
100
AcDbEntity
  8
MO_001_VIEW_PV
  6
C_SOLID_M
100
AcDbLine
 10
1.5
 20
12.7
 30
0.0
 11
1.5
 21
-12.7
 31
0.0
  0
LINE
  5
79
330
1E
100
AcDbEntity
  8
MO_001_VIEW_PV
  6
C_SOLID_M
100
AcDbLine
 10
-79.999994
 20
-13.279054
 30
0.0
 11
-68.500004
 21
-6.639530999999999
 31
0.0
  0
LINE
  5
7A
330
1E
100
AcDbEntity
  8
MO_001_VIEW_PV
  6
C_SOLID_M
100
AcDbLine
 10
-91.499994
 20
6.63953
 30
0.0
 11
-80.0
 21
13.27905499999999
 31
0.0
  0
LINE
  5
7B
330
1E
100
AcDbEntity
  8
MO_001_VIEW_PV
  6
C_SOLID_M
100
AcDbLine
 10
-68.500004
 20
6.639530999999999
 30
0.0
 11
-79.999994
 21
13.279054
 31
0.0
  0
LINE
  5
7C
330
1E
100
AcDbEntity
  8
MO_001_VIEW_PV
  6
C_SOLID_M
100
AcDbLine
 10
-79.999995
 20
-13.279053
 30
0.0
 11
-91.49999200000001
 21
-6.639527
 31
0.0
  0
LINE
  5
7D
330
1E
100
AcDbEntity
  8
MO_001_VIEW_PV
  6
C_SOLID_M
100
AcDbLine
 10
-91.5
 20
6.639530999999999
 30
0.0
 11
-91.5
 21
-6.639525999999999
 31
0.0
  0
LINE
  5
7E
330
1E
100
AcDbEntity
  8
MO_001_VIEW_PV
  6
C_SOLID_M
100
AcDbLine
 10
-68.500008
 20
6.639535
 30
0.0
 11
-68.500008
 21
-6.63953
 31
0.0
  0
LINE
  5
7F
330
1E
100
AcDbEntity
  8
MO_001_VIEW_PV
  6
C_SOLID_M
100
AcDbLine
 10
-2.000000999999999
 20
9.959296999999999
 30
0.0
 11
-2.000000999999999
 21
-9.959296999999999
 31
0.0
  0
LINE
  5
80
330
1E
100
AcDbEntity
  8
MO_001_VIEW_PV
  6
C_SOLID_M
100
AcDbLine
 10
-7.000000999999999
 20
9.959296999999999
 30
0.0
 11
-7.000000999999999
 21
-9.959296999999999
 31
0.0
  0
LINE
  5
81
330
1E
100
AcDbEntity
  8
MO_001_VIEW_PV
  6
C_SOLID_M
100
AcDbLine
 10
-6.250001
 20
13.279057
 30
0.0
 11
-2.75
 21
13.279057
 31
0.0
  0
LINE
  5
82
330
1E
100
AcDbEntity
  8
MO_001_VIEW_PV
  6
C_SOLID_M
100
AcDbLine
 10
-6.25
 20
6.639533999999999
 30
0.0
 11
-2.750000999999999
 21
6.639533999999999
 31
0.0
  0
LINE
  5
83
330
1E
100
AcDbEntity
  8
MO_001_VIEW_PV
  6
C_SOLID_M
100
AcDbLine
 10
-6.250001
 20
-6.63953
 30
0.0
 11
-2.75
 21
-6.63953
 31
0.0
  0
LINE
  5
84
330
1E
100
AcDbEntity
  8
MO_001_VIEW_PV
  6
C_SOLID_M
100
AcDbLine
 10
-6.250002999999999
 20
-13.279053
 30
0.0
 11
-2.749999
 21
-13.279053
 31
0.0
  0
LINE
  5
85
330
1E
100
AcDbEntity
  8
MO_001_VIEW_PV
  6
C_SOLID_M
100
AcDbLine
 10
-91.5
 20
-6.639530999999999
 30
0.0
 11
-91.5
 21
6.639525999999999
 31
0.0
  0
LINE
  5
86
330
1E
100
AcDbEntity
  8
MO_001_VIEW_PV
  6
C_SOLID_M
100
AcDbLine
 10
-68.500008
 20
-6.639535
 30
0.0
 11
-68.500008
 21
6.63953
 31
0.0
  0
ARC
  5
87
330
1E
100
AcDbEntity
  8
MO_001_VIEW_PV
  6
C_SOLID_M
100
AcDbCircle
 10
-31.763924
 20
0.0
 30
0.0
 40
29.76392399999999
100
AcDbArc
 50
347.110406
 51
12.889602
  0
ARC
  5
88
330
1E
100
AcDbEntity
  8
MO_001_VIEW_PV
  6
C_SOLID_M
100
AcDbCircle
 10
-9.722205999999999
 20
9.959296999999999
 30
0.0
 40
7.722205999999999
100
AcDbArc
 50
334.538896
 51
25.461075
  0
ARC
  5
89
330
1E
100
AcDbEntity
  8
MO_001_VIEW_PV
  6
C_SOLID_M
100
AcDbCircle
 10
-9.722205999999999
 20
-9.959296999999999
 30
0.0
 40
7.722205999999999
100
AcDbArc
 50
334.538925
 51
25.461104
  0
ARC
  5
8A
330
1E
100
AcDbEntity
  8
MO_001_VIEW_PV
  6
C_SOLID_M
100
AcDbCircle
 10
0.722205
 20
-9.959296999999999
 30
0.0
 40
7.722205999999999
100
AcDbArc
 50
154.5388899999999
 51
205.461079
  0
ARC
  5
8B
330
1E
100
AcDbEntity
  8
MO_001_VIEW_PV
  6
C_SOLID_M
100
AcDbCircle
 10
22.763924
 20
0.0
 30
0.0
 40
29.76392399999999
100
AcDbArc
 50
167.1103999999999
 51
192.889596
  0
ARC
  5
8C
330
1E
100
AcDbEntity
  8
MO_001_VIEW_PV
  6
C_SOLID_M
100
AcDbCircle
 10
0.722205
 20
9.959296999999999
 30
0.0
 40
7.722205999999999
100
AcDbArc
 50
154.538931
 51
205.461106
  0
CIRCLE
  5
8D
330
1E
100
AcDbEntity
  8
MO_001_VIEW_PV
  6
C_SOLID_M
100
AcDbCircle
 10
-80.0
 20
0.0
 30
0.0
 40
11.5
  0
LINE
  5
8E
330
1E
100
AcDbEntity
  8
MO_001_VIEW_PV
  6
C_SOLID_M
100
AcDbLine
 10
-8.0
 20
-9.0
 30
0.0
 11
-7.000000999999999
 21
-9.0
 31
0.0
  0
LINE
  5
8F
330
1E
100
AcDbEntity
  8
MO_001_VIEW_PV
  6
C_SOLID_M
100
AcDbLine
 10
-9.5
 20
-7.5
 30
0.0
 11
-7.000000999999999
 21
-7.5
 31
0.0
  0
LINE
  5
90
330
1E
100
AcDbEntity
  8
MO_001_VIEW_PV
  6
C_SOLID_M
100
AcDbLine
 10
-9.5
 20
-4.311608999999999
 30
0.0
 11
-7.000000999999999
 21
-4.311608999999999
 31
0.0
  0
LINE
  5
91
330
1E
100
AcDbEntity
  8
MO_001_VIEW_PV
  6
C_SOLID_M
100
AcDbLine
 10
-9.5
 20
4.311608999999999
 30
0.0
 11
-7.000000999999999
 21
4.311608999999999
 31
0.0
  0
LINE
  5
92
330
1E
100
AcDbEntity
  8
MO_001_VIEW_PV
  6
C_SOLID_M
100
AcDbLine
 10
-9.5
 20
7.5
 30
0.0
 11
-7.000000999999999
 21
7.5
 31
0.0
  0
LINE
  5
93
330
1E
100
AcDbEntity
  8
MO_001_VIEW_PV
  6
C_SOLID_M
100
AcDbLine
 10
-8.0
 20
9.0
 30
0.0
 11
-7.000000999999999
 21
9.0
 31
0.0
  0
ARC
  5
94
330
1E
100
AcDbEntity
  8
MO_001_VIEW_PV
  6
C_SOLID_M
100
AcDbCircle
 10
-80.0
 20
0.0
 30
0.0
 40
12.5
100
AcDbArc
 50
156.926082
 51
203.073914
  0
ARC
  5
95
330
1E
100
AcDbEntity
  8
MO_001_VIEW_PV
  6
C_SOLID_M
100
AcDbCircle
 10
-80.0
 20
0.0
 30
0.0
 40
12.5
100
AcDbArc
 50
216.926033
 51
263.07396
  0
ARC
  5
96
330
1E
100
AcDbEntity
  8
MO_001_VIEW_PV
  6
C_SOLID_M
100
AcDbCircle
 10
-80.0
 20
0.0
 30
0.0
 40
12.5
100
AcDbArc
 50
276.9260959999999
 51
323.0739069999999
  0
ARC
  5
97
330
1E
100
AcDbEntity
  8
MO_001_VIEW_PV
  6
C_SOLID_M
100
AcDbCircle
 10
-80.0
 20
0.0
 30
0.0
 40
12.5
100
AcDbArc
 50
336.926038
 51
23.073964
  0
ARC
  5
98
330
1E
100
AcDbEntity
  8
MO_001_VIEW_PV
  6
C_SOLID_M
100
AcDbCircle
 10
-80.0
 20
0.0
 30
0.0
 40
12.5
100
AcDbArc
 50
96.92608100000001
 51
143.073912
  0
ARC
  5
99
330
1E
100
AcDbEntity
  8
MO_001_VIEW_PV
  6
C_SOLID_L
100
AcDbCircle
 10
-80.0
 20
0.0
 30
0.0
 40
9.0
100
AcDbArc
 50
331.3754799999999
 51
28.624531
  0
LINE
  5
9A
330
1E
100
AcDbEntity
  8
MO_001_VIEW_PV
  6
C_SOLID_M
100
AcDbLine
 10
-10.7
 20
8.0
 30
0.0
 11
-10.7
 21
-8.0
 31
0.0
  0
LINE
  5
9B
330
1E
100
AcDbEntity
  8
MO_001_VIEW_PV
  6
C_SOLID_M
100
AcDbLine
 10
-10.7
 20
8.0
 30
0.0
 11
-9.699999999999999
 21
8.0
 31
0.0
  0
LINE
  5
9C
330
1E
100
AcDbEntity
  8
MO_001_VIEW_PV
  6
C_SOLID_M
100
AcDbLine
 10
-10.7
 20
-8.0
 30
0.0
 11
-9.699999999999999
 21
-8.0
 31
0.0
  0
LINE
  5
9D
330
1E
100
AcDbEntity
  8
MO_001_VIEW_PV
  6
C_SOLID_M
100
AcDbLine
 10
-72.099998
 20
-1.260942
 30
0.0
 11
-72.099998
 21
-4.311608999999999
 31
0.0
  0
LINE
  5
9E
330
1E
100
AcDbEntity
  8
MO_001_VIEW_PV
  6
C_SOLID_M
100
AcDbLine
 10
-17.79999899999999
 20
5.5
 30
0.0
 11
-11.5
 21
5.5
 31
0.0
  0
LINE
  5
9F
330
1E
100
AcDbEntity
  8
MO_001_VIEW_PV
  6
C_SOLID_M
100
AcDbLine
 10
-17.79999899999999
 20
-5.5
 30
0.0
 11
-11.5
 21
-5.5
 31
0.0
  0
CIRCLE
  5
A0
330
1E
100
AcDbEntity
  8
MO_001_VIEW_PV
  6
C_SOLID_M
100
AcDbCircle
 10
-80.0
 20
0.0
 30
0.0
 40
5.5
  0
LINE
  5
A1
330
1E
100
AcDbEntity
  8
MO_001_VIEW_PV
  6
C_SOLID_M
100
AcDbLine
 10
-85.291504
 20
1.5
 30
0.0
 11
-74.708496
 21
1.5
 31
0.0
  0
LINE
  5
A2
330
1E
100
AcDbEntity
  8
MO_001_VIEW_PV
  6
C_SOLID_M
100
AcDbLine
 10
-85.291504
 20
-1.5
 30
0.0
 11
-74.708496
 21
-1.5
 31
0.0
  0
LINE
  5
A3
330
1E
100
AcDbEntity
  8
MO_001_VIEW_PV
  6
C_SOLID_M
100
AcDbLine
 10
-24.299999
 20
-1.5
 30
0.0
 11
-24.299999
 21
-5.5
 31
0.0
  0
LINE
  5
A4
330
1E
100
AcDbEntity
  8
MO_001_VIEW_PV
  6
C_SOLID_M
100
AcDbLine
 10
-24.299999
 20
1.5
 30
0.0
 11
-14.3
 21
1.5
 31
0.0
  0
LINE
  5
A5
330
1E
100
AcDbEntity
  8
MO_001_VIEW_PV
  6
C_SOLID_M
100
AcDbLine
 10
-24.299999
 20
-1.5
 30
0.0
 11
-14.3
 21
-1.5
 31
0.0
  0
LINE
  5
A6
330
1E
100
AcDbEntity
  8
MO_001_VIEW_PV
  6
C_SOLID_M
100
AcDbLine
 10
-24.299999
 20
5.5
 30
0.0
 11
-24.299999
 21
1.5
 31
0.0
  0
LINE
  5
A7
330
1E
100
AcDbEntity
  8
MO_001_VIEW_PV
  6
C_SOLID_M
100
AcDbLine
 10
-14.3
 20
1.5
 30
0.0
 11
-14.3
 21
-1.5
 31
0.0
  0
LINE
  5
A8
330
1E
100
AcDbEntity
  8
MO_001_VIEW_PV
  6
C_CENTER_L
100
AcDbLine
 10
-19.299999
 20
8.419144000000001
 30
0.0
 11
-19.299999
 21
-8.025619999999999
 31
0.0
  0
LINE
  5
A9
330
1E
100
AcDbEntity
  8
MO_001_VIEW_PV
  6
C_DASHED_M
100
AcDbLine
 10
-17.79999899999999
 20
5.5
 30
0.0
 11
-17.79999899999999
 21
1.5
 31
0.0
  0
LINE
  5
AA
330
1E
100
AcDbEntity
  8
MO_001_VIEW_PV
  6
C_DASHED_M
100
AcDbLine
 10
-20.799999
 20
5.5
 30
0.0
 11
-20.799999
 21
1.5
 31
0.0
  0
LINE
  5
AB
330
1E
100
AcDbEntity
  8
MO_001_VIEW_PV
  6
C_DASHED_M
100
AcDbLine
 10
-20.799999
 20
-5.5
 30
0.0
 11
-20.799999
 21
-1.5
 31
0.0
  0
LINE
  5
AC
330
1E
100
AcDbEntity
  8
MO_001_VIEW_PV
  6
C_DASHED_M
100
AcDbLine
 10
-17.79999899999999
 20
-5.5
 30
0.0
 11
-17.79999899999999
 21
-1.5
 31
0.0
  0
LINE
  5
AD
330
1E
100
AcDbEntity
  8
MO_001_VIEW_PV
  6
C_DASHED_M
100
AcDbLine
 10
-78.5
 20
5.291503999999999
 30
0.0
 11
-78.5
 21
1.5
 31
0.0
  0
LINE
  5
AE
330
1E
100
AcDbEntity
  8
MO_001_VIEW_PV
  6
C_DASHED_M
100
AcDbLine
 10
-81.5
 20
5.291503999999999
 30
0.0
 11
-81.5
 21
1.5
 31
0.0
  0
LINE
  5
AF
330
1E
100
AcDbEntity
  8
MO_001_VIEW_PV
  6
C_DASHED_M
100
AcDbLine
 10
-81.5
 20
-5.291503999999999
 30
0.0
 11
-81.5
 21
-1.5
 31
0.0
  0
LINE
  5
B0
330
1E
100
AcDbEntity
  8
MO_001_VIEW_PV
  6
C_DASHED_M
100
AcDbLine
 10
-78.5
 20
-5.291503999999999
 30
0.0
 11
-78.5
 21
-1.5
 31
0.0
  0
POLYLINE
  5
B1
330
1E
100
AcDbEntity
  8
MO_001_VIEW_PV
  6
C_SOLID_M
100
AcDb2dPolyline
 66
     1
 10
0.0
 20
0.0
 30
0.0
  0
VERTEX
  5
202
330
B1
100
AcDbEntity
  8
MO_001_VIEW_PV
  6
C_SOLID_M
100
AcDbVertex
100
AcDb2dVertex
 10
-20.799999
 20
5.5
 30
0.0
  0
VERTEX
  5
203
330
B1
100
AcDbEntity
  8
MO_001_VIEW_PV
  6
C_SOLID_M
100
AcDbVertex
100
AcDb2dVertex
 10
-20.792776
 20
5.479563999999999
 30
0.0
  0
VERTEX
  5
204
330
B1
100
AcDbEntity
  8
MO_001_VIEW_PV
  6
C_SOLID_M
100
AcDbVertex
100
AcDb2dVertex
 10
-20.772945
 20
5.46058
 30
0.0
  0
VERTEX
  5
205
330
B1
100
AcDbEntity
  8
MO_001_VIEW_PV
  6
C_SOLID_M
100
AcDbVertex
100
AcDb2dVertex
 10
-20.743024
 20
5.443083
 30
0.0
  0
VERTEX
  5
206
330
B1
100
AcDbEntity
  8
MO_001_VIEW_PV
  6
C_SOLID_M
100
AcDbVertex
100
AcDb2dVertex
 10
-20.65821899999999
 20
5.411516999999999
 30
0.0
  0
VERTEX
  5
207
330
B1
100
AcDbEntity
  8
MO_001_VIEW_PV
  6
C_SOLID_M
100
AcDbVertex
100
AcDb2dVertex
 10
-20.55481599999999
 20
5.385765
 30
0.0
  0
VERTEX
  5
208
330
B1
100
AcDbEntity
  8
MO_001_VIEW_PV
  6
C_SOLID_M
100
AcDbVertex
100
AcDb2dVertex
 10
-20.44366099999999
 20
5.365091
 30
0.0
  0
VERTEX
  5
209
330
B1
100
AcDbEntity
  8
MO_001_VIEW_PV
  6
C_SOLID_M
100
AcDbVertex
100
AcDb2dVertex
 10
-20.331959
 20
5.348686999999999
 30
0.0
  0
VERTEX
  5
20A
330
B1
100
AcDbEntity
  8
MO_001_VIEW_PV
  6
C_SOLID_M
100
AcDbVertex
100
AcDb2dVertex
 10
-20.108209
 20
5.324357
 30
0.0
  0
VERTEX
  5
20B
330
B1
100
AcDbEntity
  8
MO_001_VIEW_PV
  6
C_SOLID_M
100
AcDbVertex
100
AcDb2dVertex
 10
-19.920891
 20
5.310203999999999
 30
0.0
  0
VERTEX
  5
20C
330
B1
100
AcDbEntity
  8
MO_001_VIEW_PV
  6
C_SOLID_M
100
AcDbVertex
100
AcDb2dVertex
 10
-19.617649
 20
5.296232999999999
 30
0.0
  0
VERTEX
  5
20D
330
B1
100
AcDbEntity
  8
MO_001_VIEW_PV
  6
C_SOLID_M
100
AcDbVertex
100
AcDb2dVertex
 10
-19.299999
 20
5.291503999999999
 30
0.0
  0
VERTEX
  5
20E
330
B1
100
AcDbEntity
  8
MO_001_VIEW_PV
  6
C_SOLID_M
100
AcDbVertex
100
AcDb2dVertex
 10
-19.007364
 20
5.29551
 30
0.0
  0
VERTEX
  5
20F
330
B1
100
AcDbEntity
  8
MO_001_VIEW_PV
  6
C_SOLID_M
100
AcDbVertex
100
AcDb2dVertex
 10
-18.76015699999999
 20
5.305475
 30
0.0
  0
VERTEX
  5
210
330
B1
100
AcDbEntity
  8
MO_001_VIEW_PV
  6
C_SOLID_M
100
AcDbVertex
100
AcDb2dVertex
 10
-18.556651
 20
5.318906
 30
0.0
  0
VERTEX
  5
211
330
B1
100
AcDbEntity
  8
MO_001_VIEW_PV
  6
C_SOLID_M
100
AcDbVertex
100
AcDb2dVertex
 10
-18.392191
 20
5.334023
 30
0.0
  0
VERTEX
  5
212
330
B1
100
AcDbEntity
  8
MO_001_VIEW_PV
  6
C_SOLID_M
100
AcDbVertex
100
AcDb2dVertex
 10
-18.261063
 20
5.349612
 30
0.0
  0
VERTEX
  5
213
330
B1
100
AcDbEntity
  8
MO_001_VIEW_PV
  6
C_SOLID_M
100
AcDbVertex
100
AcDb2dVertex
 10
-18.15754899999999
 20
5.364893
 30
0.0
  0
VERTEX
  5
214
330
B1
100
AcDbEntity
  8
MO_001_VIEW_PV
  6
C_SOLID_M
100
AcDbVertex
100
AcDb2dVertex
 10
-18.004823
 20
5.394827999999999
 30
0.0
  0
VERTEX
  5
215
330
B1
100
AcDbEntity
  8
MO_001_VIEW_PV
  6
C_SOLID_M
100
AcDbVertex
100
AcDb2dVertex
 10
-17.916397
 20
5.419471999999999
 30
0.0
  0
VERTEX
  5
216
330
B1
100
AcDbEntity
  8
MO_001_VIEW_PV
  6
C_SOLID_M
100
AcDbVertex
100
AcDb2dVertex
 10
-17.86584999999999
 20
5.438901999999999
 30
0.0
  0
VERTEX
  5
217
330
B1
100
AcDbEntity
  8
MO_001_VIEW_PV
  6
C_SOLID_M
100
AcDbVertex
100
AcDb2dVertex
 10
-17.81655299999999
 20
5.469109999999999
 30
0.0
  0
VERTEX
  5
218
330
B1
100
AcDbEntity
  8
MO_001_VIEW_PV
  6
C_SOLID_M
100
AcDbVertex
100
AcDb2dVertex
 10
-17.79999899999999
 20
5.5
 30
0.0
  0
SEQEND
  5
219
330
B1
100
AcDbEntity
  8
MO_001_VIEW_PV
  6
C_SOLID_M
  0
LINE
  5
CA
330
1E
100
AcDbEntity
  8
MO_001_VIEW_PV
  6
C_SOLID_M
100
AcDbLine
 10
-24.299999
 20
5.5
 30
0.0
 11
-20.799999
 21
5.5
 31
0.0
  0
POLYLINE
  5
CB
330
1E
100
AcDbEntity
  8
MO_001_VIEW_PV
  6
C_SOLID_M
100
AcDb2dPolyline
 66
     1
 10
0.0
 20
0.0
 30
0.0
  0
VERTEX
  5
21A
330
CB
100
AcDbEntity
  8
MO_001_VIEW_PV
  6
C_SOLID_M
100
AcDbVertex
100
AcDb2dVertex
 10
-17.79999899999999
 20
-5.5
 30
0.0
  0
VERTEX
  5
21B
330
CB
100
AcDbEntity
  8
MO_001_VIEW_PV
  6
C_SOLID_M
100
AcDbVertex
100
AcDb2dVertex
 10
-17.807222
 20
-5.479563999999999
 30
0.0
  0
VERTEX
  5
21C
330
CB
100
AcDbEntity
  8
MO_001_VIEW_PV
  6
C_SOLID_M
100
AcDbVertex
100
AcDb2dVertex
 10
-17.82705299999999
 20
-5.46058
 30
0.0
  0
VERTEX
  5
21D
330
CB
100
AcDbEntity
  8
MO_001_VIEW_PV
  6
C_SOLID_M
100
AcDbVertex
100
AcDb2dVertex
 10
-17.85697399999999
 20
-5.443083
 30
0.0
  0
VERTEX
  5
21E
330
CB
100
AcDbEntity
  8
MO_001_VIEW_PV
  6
C_SOLID_M
100
AcDbVertex
100
AcDb2dVertex
 10
-17.941779
 20
-5.411516999999999
 30
0.0
  0
VERTEX
  5
21F
330
CB
100
AcDbEntity
  8
MO_001_VIEW_PV
  6
C_SOLID_M
100
AcDbVertex
100
AcDb2dVertex
 10
-18.04518299999999
 20
-5.385765
 30
0.0
  0
VERTEX
  5
220
330
CB
100
AcDbEntity
  8
MO_001_VIEW_PV
  6
C_SOLID_M
100
AcDbVertex
100
AcDb2dVertex
 10
-18.156338
 20
-5.365091
 30
0.0
  0
VERTEX
  5
221
330
CB
100
AcDbEntity
  8
MO_001_VIEW_PV
  6
C_SOLID_M
100
AcDbVertex
100
AcDb2dVertex
 10
-18.268039
 20
-5.348686999999999
 30
0.0
  0
VERTEX
  5
222
330
CB
100
AcDbEntity
  8
MO_001_VIEW_PV
  6
C_SOLID_M
100
AcDbVertex
100
AcDb2dVertex
 10
-18.49178999999999
 20
-5.324357
 30
0.0
  0
VERTEX
  5
223
330
CB
100
AcDbEntity
  8
MO_001_VIEW_PV
  6
C_SOLID_M
100
AcDbVertex
100
AcDb2dVertex
 10
-18.67910799999999
 20
-5.310203999999999
 30
0.0
  0
VERTEX
  5
224
330
CB
100
AcDbEntity
  8
MO_001_VIEW_PV
  6
C_SOLID_M
100
AcDbVertex
100
AcDb2dVertex
 10
-18.982349
 20
-5.296232999999999
 30
0.0
  0
VERTEX
  5
225
330
CB
100
AcDbEntity
  8
MO_001_VIEW_PV
  6
C_SOLID_M
100
AcDbVertex
100
AcDb2dVertex
 10
-19.299999
 20
-5.291503999999999
 30
0.0
  0
VERTEX
  5
226
330
CB
100
AcDbEntity
  8
MO_001_VIEW_PV
  6
C_SOLID_M
100
AcDbVertex
100
AcDb2dVertex
 10
-19.592635
 20
-5.29551
 30
0.0
  0
VERTEX
  5
227
330
CB
100
AcDbEntity
  8
MO_001_VIEW_PV
  6
C_SOLID_M
100
AcDbVertex
100
AcDb2dVertex
 10
-19.839842
 20
-5.305475
 30
0.0
  0
VERTEX
  5
228
330
CB
100
AcDbEntity
  8
MO_001_VIEW_PV
  6
C_SOLID_M
100
AcDbVertex
100
AcDb2dVertex
 10
-20.043347
 20
-5.318906
 30
0.0
  0
VERTEX
  5
229
330
CB
100
AcDbEntity
  8
MO_001_VIEW_PV
  6
C_SOLID_M
100
AcDbVertex
100
AcDb2dVertex
 10
-20.207808
 20
-5.334023
 30
0.0
  0
VERTEX
  5
22A
330
CB
100
AcDbEntity
  8
MO_001_VIEW_PV
  6
C_SOLID_M
100
AcDbVertex
100
AcDb2dVertex
 10
-20.338935
 20
-5.349612
 30
0.0
  0
VERTEX
  5
22B
330
CB
100
AcDbEntity
  8
MO_001_VIEW_PV
  6
C_SOLID_M
100
AcDbVertex
100
AcDb2dVertex
 10
-20.44245
 20
-5.364893
 30
0.0
  0
VERTEX
  5
22C
330
CB
100
AcDbEntity
  8
MO_001_VIEW_PV
  6
C_SOLID_M
100
AcDbVertex
100
AcDb2dVertex
 10
-20.595176
 20
-5.394827999999999
 30
0.0
  0
VERTEX
  5
22D
330
CB
100
AcDbEntity
  8
MO_001_VIEW_PV
  6
C_SOLID_M
100
AcDbVertex
100
AcDb2dVertex
 10
-20.683602
 20
-5.419471999999999
 30
0.0
  0
VERTEX
  5
22E
330
CB
100
AcDbEntity
  8
MO_001_VIEW_PV
  6
C_SOLID_M
100
AcDbVertex
100
AcDb2dVertex
 10
-20.734148
 20
-5.438901999999999
 30
0.0
  0
VERTEX
  5
22F
330
CB
100
AcDbEntity
  8
MO_001_VIEW_PV
  6
C_SOLID_M
100
AcDbVertex
100
AcDb2dVertex
 10
-20.783445
 20
-5.469109999999999
 30
0.0
  0
VERTEX
  5
230
330
CB
100
AcDbEntity
  8
MO_001_VIEW_PV
  6
C_SOLID_M
100
AcDbVertex
100
AcDb2dVertex
 10
-20.799999
 20
-5.5
 30
0.0
  0
SEQEND
  5
231
330
CB
100
AcDbEntity
  8
MO_001_VIEW_PV
  6
C_SOLID_M
  0
LINE
  5
E4
330
1E
100
AcDbEntity
  8
MO_001_VIEW_PV
  6
C_SOLID_M
100
AcDbLine
 10
-24.299999
 20
-5.5
 30
0.0
 11
-20.799999
 21
-5.5
 31
0.0
  0
ARC
  5
E5
330
1E
100
AcDbEntity
  8
MO_001_VIEW_PV
  6
C_SOLID_M
100
AcDbCircle
 10
-80.0
 20
0.0
 30
0.0
 40
12.7
100
AcDbArc
 50
34.892315
 51
85.10768099999999
  0
ARC
  5
E6
330
1E
100
AcDbEntity
  8
MO_001_VIEW_PV
  6
C_SOLID_M
100
AcDbCircle
 10
-80.0
 20
0.0
 30
0.0
 40
12.7
100
AcDbArc
 50
94.89231700000001
 51
145.107683
  0
ARC
  5
E7
330
1E
100
AcDbEntity
  8
MO_001_VIEW_PV
  6
C_SOLID_M
100
AcDbCircle
 10
-80.0
 20
0.0
 30
0.0
 40
12.7
100
AcDbArc
 50
154.8923119999999
 51
205.107685
  0
ARC
  5
E8
330
1E
100
AcDbEntity
  8
MO_001_VIEW_PV
  6
C_SOLID_M
100
AcDbCircle
 10
-80.0
 20
0.0
 30
0.0
 40
12.7
100
AcDbArc
 50
214.8923169999999
 51
265.10767
  0
ARC
  5
E9
330
1E
100
AcDbEntity
  8
MO_001_VIEW_PV
  6
C_SOLID_M
100
AcDbCircle
 10
-80.0
 20
0.0
 30
0.0
 40
12.7
100
AcDbArc
 50
274.8923189999999
 51
325.1076709999999
  0
ARC
  5
EA
330
1E
100
AcDbEntity
  8
MO_001_VIEW_PV
  6
C_SOLID_M
100
AcDbCircle
 10
-80.0
 20
0.0
 30
0.0
 40
12.7
100
AcDbArc
 50
334.892319
 51
25.107671
  0
LINE
  5
EB
330
1E
100
AcDbEntity
  8
MO_001_VIEW_PV
  6
C_SOLID_L
100
AcDbLine
 10
-44.69568999999999
 20
-16.0
 30
0.0
 11
-30.008495
 21
-16.0
 31
0.0
  0
LINE
  5
EC
330
1E
100
AcDbEntity
  8
MO_001_VIEW_PV
  6
C_SOLID_L
100
AcDbLine
 10
-58.860466
 20
-24.0
 30
0.0
 11
-33.48076199999999
 21
-24.0
 31
0.0
  0
LINE
  5
ED
330
1E
100
AcDbEntity
  8
MO_001_VIEW_PV
  6
C_SOLID_L
100
AcDbLine
 10
-10.80503599999999
 20
-32.0
 30
0.0
 11
31.87620499999999
 21
-32.0
 31
0.0
  0
LINE
  5
EE
330
1E
100
AcDbEntity
  8
MO_001_VIEW_PV
  6
C_SOLID_M
100
AcDbLine
 10
-11.5
 20
8.0
 30
0.0
 11
-11.5
 21
-6.300055999999999
 31
0.0
  0
LINE
  5
EF
330
1E
100
AcDbEntity
  8
MO_001_VIEW_PV
  6
C_SOLID_M
100
AcDbLine
 10
-11.5
 20
8.0
 30
0.0
 11
-10.7
 21
8.0
 31
0.0
  0
LINE
  5
F0
330
1E
100
AcDbEntity
  8
MO_001_VIEW_PV
  6
C_SOLID_M
100
AcDbLine
 10
-11.5
 20
-6.300055999999999
 30
0.0
 11
-10.7
 21
-6.300055999999999
 31
0.0
  0
LINE
  5
F1
330
1E
100
AcDbEntity
  8
MO_001_VIEW_PV
  6
C_SOLID_M
100
AcDbLine
 10
-10.7
 20
8.0
 30
0.0
 11
-10.7
 21
-6.300055999999999
 31
0.0
  0
CIRCLE
  5
F2
330
1E
100
AcDbEntity
  8
MO_001_VIEW_PV
  6
C_SOLID_M
100
AcDbCircle
 10
-80.0
 20
0.0
 30
0.0
 40
8.0
  0
LINE
  5
F3
330
1E
100
AcDbEntity
  8
MO_001_VIEW_PV
  6
C_SOLID_M
100
AcDbLine
 10
-74.5
 20
0.0
 30
0.0
 11
-74.107635
 21
0.0
 31
0.0
  0
LINE
  5
F4
330
1E
100
AcDbEntity
  8
MO_001_VIEW_PV
  6
C_SOLID_M
100
AcDbLine
 10
-85.892365
 20
0.0
 30
0.0
 11
-85.5
 21
0.0
 31
0.0
  0
LINE
  5
F5
330
1E
100
AcDbEntity
  8
MO_001_VIEW_PV
  6
C_SOLID_M
100
AcDbLine
 10
-77.250002
 20
4.763142
 30
0.0
 11
-77.05381800000001
 21
5.102942999999999
 31
0.0
  0
LINE
  5
F6
330
1E
100
AcDbEntity
  8
MO_001_VIEW_PV
  6
C_SOLID_M
100
AcDbLine
 10
-82.94617999999999
 20
5.102941999999999
 30
0.0
 11
-82.74999499999999
 21
4.763141
 31
0.0
  0
ARC
  5
F7
330
1E
100
AcDbEntity
  8
MO_001_VIEW_PV
  6
C_SOLID_M
100
AcDbCircle
 10
-80.0
 20
0.0
 30
0.0
 40
6.2
100
AcDbArc
 50
2.914602
 51
57.085396
  0
ARC
  5
F8
330
1E
100
AcDbEntity
  8
MO_001_VIEW_PV
  6
C_SOLID_M
100
AcDbCircle
 10
-80.0
 20
0.0
 30
0.0
 40
6.2
100
AcDbArc
 50
122.914609
 51
177.0853989999999
  0
ARC
  5
F9
330
1E
100
AcDbEntity
  8
MO_001_VIEW_PV
  6
C_SOLID_M
100
AcDbCircle
 10
-76.79400600000001
 20
4.952939999999999
 30
0.0
 40
0.3
100
AcDbArc
 50
57.085393
 51
150.000011
  0
ARC
  5
FA
330
1E
100
AcDbEntity
  8
MO_001_VIEW_PV
  6
C_SOLID_M
100
AcDbCircle
 10
-83.20599399999998
 20
4.952939999999999
 30
0.0
 40
0.3
100
AcDbArc
 50
30.000032
 51
122.9145949999999
  0
ARC
  5
FB
330
1E
100
AcDbEntity
  8
MO_001_VIEW_PV
  6
C_SOLID_M
100
AcDbCircle
 10
-85.892365
 20
0.3
 30
0.0
 40
0.3
100
AcDbArc
 50
177.0853989999999
 51
270.000001
  0
ARC
  5
FC
330
1E
100
AcDbEntity
  8
MO_001_VIEW_PV
  6
C_SOLID_M
100
AcDbCircle
 10
-74.107635
 20
0.3
 30
0.0
 40
0.3
100
AcDbArc
 50
269.999998
 51
2.9146
  0
LINE
  5
FD
330
1E
100
AcDbEntity
  8
MO_001_VIEW_PV
  6
C_SOLID_M
100
AcDbLine
 10
-84.536125
 20
-6.077698999999999
 30
0.0
 11
-83.93675599999999
 21
-3.840823
 31
0.0
  0
LINE
  5
FE
330
1E
100
AcDbEntity
  8
MO_001_VIEW_PV
  6
C_SOLID_M
100
AcDbLine
 10
-76.063242
 20
-3.840826999999999
 30
0.0
 11
-75.463874
 21
-6.077701
 31
0.0
  0
ARC
  5
FF
330
1E
100
AcDbEntity
  8
MO_001_VIEW_PV
  6
C_SOLID_M
100
AcDbCircle
 10
-84.825905
 20
-6.000055
 30
0.0
 40
0.3
100
AcDbArc
 50
231.189968
 51
344.9999859999999
  0
ARC
  5
100
330
1E
100
AcDbEntity
  8
MO_001_VIEW_PV
  6
C_SOLID_M
100
AcDbCircle
 10
-75.17409499999999
 20
-6.000055
 30
0.0
 40
0.3
100
AcDbArc
 50
195.000006
 51
308.810041
  0
LINE
  5
101
330
1E
100
AcDbEntity
  8
MO_001_VIEW_PV
  6
C_SOLID_M
100
AcDbLine
 10
35.755292
 20
-15.138981
 30
0.0
 11
33.033153
 21
-12.41684199999999
 31
0.0
  0
LINE
  5
102
330
1E
100
AcDbEntity
  8
MO_001_VIEW_PV
  6
C_SOLID_M
100
AcDbLine
 10
36.78766599999999
 20
-14.106617
 30
0.0
 11
34.06552199999999
 21
-11.38447299999999
 31
0.0
  0
ARC
  5
103
330
1E
100
AcDbEntity
  8
MO_001_VIEW_PV
  6
C_SOLID_M
100
AcDbCircle
 10
36.21143299999999
 20
-15.078939
 30
0.0
 40
0.4600680000000001
100
AcDbArc
 50
82.49936899999999
 51
187.500577
  0
ARC
  5
104
330
1E
100
AcDbEntity
  8
MO_001_VIEW_PV
  6
C_SOLID_M
100
AcDbCircle
 10
35.815353
 20
-14.682865
 30
0.0
 40
0.4600680000000001
100
AcDbArc
 50
262.4994389999999
 51
7.500594
  0
ARC
  5
105
330
1E
100
AcDbEntity
  8
MO_001_VIEW_PV
  6
C_SOLID_M
100
AcDbCircle
 10
36.33154299999999
 20
-14.16667399999999
 30
0.0
 40
0.4600680000000001
100
AcDbArc
 50
262.499576
 51
7.501141
  0
LINE
  5
106
330
1E
100
AcDbEntity
  8
MO_001_VIEW_PV
  6
C_SOLID_M
100
AcDbLine
 10
43.50519499999999
 20
-20.824131
 30
0.0
 11
37.494782
 21
-14.81372399999999
 31
0.0
  0
LINE
  5
107
330
1E
100
AcDbEntity
  8
MO_001_VIEW_PV
  6
C_SOLID_M
100
AcDbLine
 10
42.47282499999999
 20
-21.85650199999999
 30
0.0
 11
36.462409
 21
-15.84609099999999
 31
0.0
  0
ARC
  5
108
330
1E
100
AcDbEntity
  8
MO_001_VIEW_PV
  6
C_SOLID_M
100
AcDbCircle
 10
37.434731
 20
-15.26984999999999
 30
0.0
 40
0.4600680000000001
100
AcDbArc
 50
82.49942299999998
 51
187.5006319999999
  0
ARC
  5
109
330
1E
100
AcDbEntity
  8
MO_001_VIEW_PV
  6
C_SOLID_M
100
AcDbCircle
 10
37.03865799999999
 20
-14.873775
 30
0.0
 40
0.4600680000000001
100
AcDbArc
 50
262.4993839999999
 51
7.500552999999999
  0
ARC
  5
10A
330
1E
100
AcDbEntity
  8
MO_001_VIEW_PV
  6
C_SOLID_M
100
AcDbCircle
 10
36.918541
 20
-15.786041
 30
0.0
 40
0.4600680000000001
100
AcDbArc
 50
82.49957400000001
 51
187.501151
  0
LINE
  5
10B
330
1E
100
AcDbEntity
  8
MO_001_VIEW_PV
  6
C_SOLID_M
100
AcDbLine
 10
42.47281199999999
 20
-21.856495
 30
0.0
 11
43.505181
 21
-20.824126
 31
0.0
  0
LINE
  5
10C
330
1E
100
AcDbEntity
  8
MO_001_VIEW_PV
  6
C_SOLID_M
100
AcDbLine
 10
46.298258
 20
-25.102122
 30
0.0
 11
46.75080399999999
 21
-24.64957599999999
 31
0.0
  0
ARC
  5
10D
330
1E
100
AcDbEntity
  8
MO_001_VIEW_PV
  6
C_SOLID_M
100
AcDbCircle
 10
30.529995
 20
-14.920004
 30
0.0
 40
3.540008999999999
100
AcDbArc
 50
45.000001
 51
89.99998900000001
  0
ARC
  5
10E
330
1E
100
AcDbEntity
  8
MO_001_VIEW_PV
  6
C_SOLID_M
100
AcDbCircle
 10
30.529995
 20
-14.920004
 30
0.0
 40
5.0
100
AcDbArc
 50
45.000001
 51
89.99998900000001
  0
LINE
  5
10F
330
1E
100
AcDbEntity
  8
MO_001_VIEW_PV
  6
C_SOLID_M
100
AcDbLine
 10
30.0
 20
-11.379995
 30
0.0
 11
30.529995
 21
-11.379995
 31
0.0
  0
LINE
  5
110
330
1E
100
AcDbEntity
  8
MO_001_VIEW_PV
  6
C_SOLID_M
100
AcDbLine
 10
30.0
 20
-9.920003999999998
 30
0.0
 11
31.387184
 21
-9.920003999999998
 31
0.0
  0
LINE
  5
111
330
1E
100
AcDbEntity
  8
MO_001_VIEW_PV
  6
C_SOLID_M
100
AcDbLine
 10
37.41616
 20
-14.15848599999999
 30
0.0
 11
36.05186099999999
 21
-13.370809
 31
0.0
  0
LINE
  5
112
330
1E
100
AcDbEntity
  8
MO_001_VIEW_PV
  6
C_SOLID_M
100
AcDbLine
 10
38.14616199999999
 20
-12.8941
 30
0.0
 11
34.38718099999999
 21
-10.723853
 31
0.0
  0
ARC
  5
113
330
1E
100
AcDbEntity
  8
MO_001_VIEW_PV
  6
C_SOLID_M
100
AcDbCircle
 10
37.841217
 20
-13.98242999999999
 30
0.0
 40
0.4600680000000001
100
AcDbArc
 50
97.49936600000001
 51
202.500574
  0
ARC
  5
114
330
1E
100
AcDbEntity
  8
MO_001_VIEW_PV
  6
C_SOLID_M
100
AcDbCircle
 10
37.356121
 20
-13.70236499999999
 30
0.0
 40
0.4600680000000001
100
AcDbArc
 50
277.4994359999999
 51
22.500591
  0
ARC
  5
115
330
1E
100
AcDbEntity
  8
MO_001_VIEW_PV
  6
C_SOLID_M
100
AcDbCircle
 10
37.72112299999999
 20
-13.070163
 30
0.0
 40
0.4600680000000001
100
AcDbArc
 50
277.499573
 51
22.501138
  0
LINE
  5
116
330
1E
100
AcDbEntity
  8
MO_001_VIEW_PV
  6
C_SOLID_M
100
AcDbLine
 10
45.507383
 20
-17.144095
 30
0.0
 11
39.012178
 21
-13.39409
 31
0.0
  0
LINE
  5
117
330
1E
100
AcDbEntity
  8
MO_001_VIEW_PV
  6
C_SOLID_M
100
AcDbLine
 10
44.777388
 20
-18.40848499999999
 30
0.0
 11
38.282179
 21
-14.658478
 31
0.0
  0
ARC
  5
118
330
1E
100
AcDbEntity
  8
MO_001_VIEW_PV
  6
C_SOLID_M
100
AcDbCircle
 10
39.072243
 20
-13.850223
 30
0.0
 40
0.4600680000000001
100
AcDbArc
 50
97.49942
 51
202.500629
  0
ARC
  5
119
330
1E
100
AcDbEntity
  8
MO_001_VIEW_PV
  6
C_SOLID_M
100
AcDbCircle
 10
38.58715399999999
 20
-13.57015499999999
 30
0.0
 40
0.4600680000000001
100
AcDbArc
 50
277.499381
 51
22.50055
  0
ARC
  5
11A
330
1E
100
AcDbEntity
  8
MO_001_VIEW_PV
  6
C_SOLID_M
100
AcDbCircle
 10
38.70724099999999
 20
-14.482425
 30
0.0
 40
0.4600680000000001
100
AcDbArc
 50
97.49957100000001
 51
202.5011479999999
  0
LINE
  5
11B
330
1E
100
AcDbEntity
  8
MO_001_VIEW_PV
  6
C_SOLID_M
100
AcDbLine
 10
44.777389
 20
-18.408488
 30
0.0
 11
45.507385
 21
-17.144098
 31
0.0
  0
LINE
  5
11C
330
1E
100
AcDbEntity
  8
MO_001_VIEW_PV
  6
C_SOLID_M
100
AcDbLine
 10
49.31250900000001
 20
-20.553422
 30
0.0
 11
49.63250900000001
 21
-19.99916699999999
 31
0.0
  0
ARC
  5
11D
330
1E
100
AcDbEntity
  8
MO_001_VIEW_PV
  6
C_SOLID_M
100
AcDbCircle
 10
31.387184
 20
-15.920004
 30
0.0
 40
6.0
100
AcDbArc
 50
59.99998100000001
 51
90.00000899999999
  0
LINE
  5
11E
330
1E
100
AcDbEntity
  8
MO_001_VIEW_PV
  6
C_SOLID_M
100
AcDbLine
 10
44.98239
 20
-18.05342
 30
0.0
 11
49.312508
 21
-20.55342
 31
0.0
  0
LINE
  5
11F
330
1E
100
AcDbEntity
  8
MO_001_VIEW_PV
  6
C_SOLID_M
100
AcDbLine
 10
45.30239
 20
-17.499164
 30
0.0
 11
49.632508
 21
-19.999164
 31
0.0
  0
LINE
  5
120
330
1E
100
AcDbEntity
  8
MO_001_VIEW_PV
  6
C_SOLID_M
100
AcDbLine
 10
42.76274199999999
 20
-21.56658999999999
 30
0.0
 11
46.29827299999999
 21
-25.102127
 31
0.0
  0
LINE
  5
121
330
1E
100
AcDbEntity
  8
MO_001_VIEW_PV
  6
C_SOLID_M
100
AcDbLine
 10
43.21529
 20
-21.114042
 30
0.0
 11
46.750822
 21
-24.64957899999999
 31
0.0
  0
LINE
  5
122
330
1E
100
AcDbEntity
  8
MO_001_VIEW_PV
  6
C_SOLID_M
100
AcDbLine
 10
1.0
 20
12.19999999999999
 30
0.0
 11
1.0
 21
-12.19999999999999
 31
0.0
  0
LINE
  5
123
330
1E
100
AcDbEntity
  8
MO_001_VIEW_PV
  6
C_SOLID_M
100
AcDbLine
 10
-9.699999999999999
 20
8.0
 30
0.0
 11
-9.699999999999999
 21
-8.0
 31
0.0
  0
LINE
  5
124
330
1E
100
AcDbEntity
  8
MO_001_VIEW_PV
  6
C_SOLID_M
100
AcDbLine
 10
-9.699999999999999
 20
5.5
 30
0.0
 11
-9.5
 21
5.5
 31
0.0
  0
LINE
  5
125
330
1E
100
AcDbEntity
  8
MO_001_VIEW_PV
  6
C_SOLID_M
100
AcDbLine
 10
-9.699999999999999
 20
-5.5
 30
0.0
 11
-9.5
 21
-5.5
 31
0.0
  0
LINE
  5
126
330
1E
100
AcDbEntity
  8
MO_001_VIEW_PV
  6
C_SOLID_M
100
AcDbLine
 10
1.0
 20
11.5
 30
0.0
 11
1.199999999999999
 21
11.5
 31
0.0
  0
LINE
  5
127
330
1E
100
AcDbEntity
  8
MO_001_VIEW_PV
  6
C_SOLID_M
100
AcDbLine
 10
1.0
 20
-11.5
 30
0.0
 11
1.199999999999999
 21
-11.5
 31
0.0
  0
LINE
  5
128
330
1E
100
AcDbEntity
  8
MO_001_VIEW_PV
  6
C_CENTER_L
100
AcDbLine
 10
102.1999969999999
 20
-20.0
 30
0.0
 11
80.0
 21
-20.0
 31
0.0
  0
LINE
  5
129
330
1E
100
AcDbEntity
  8
MO_001_VIEW_PV
  6
C_CENTER_L
100
AcDbLine
 10
91.099998
 20
-8.9
 30
0.0
 11
91.099998
 21
-31.1
 31
0.0
  0
LINE
  5
12A
330
1E
100
AcDbEntity
  8
MO_001_VIEW_PV
  6
C_SOLID_M
100
AcDbLine
 10
85.59999799999999
 20
-20.0
 30
0.0
 11
85.20763399999999
 21
-20.0
 31
0.0
  0
LINE
  5
12B
330
1E
100
AcDbEntity
  8
MO_001_VIEW_PV
  6
C_SOLID_M
100
AcDbLine
 10
96.992363
 20
-20.0
 30
0.0
 11
96.59999800000001
 21
-20.0
 31
0.0
  0
LINE
  5
12C
330
1E
100
AcDbEntity
  8
MO_001_VIEW_PV
  6
C_SOLID_M
100
AcDbLine
 10
99.09999800000001
 20
-15.66295
 30
0.0
 11
99.09999800000001
 21
-24.337051
 31
0.0
  0
ARC
  5
12D
330
1E
100
AcDbEntity
  8
MO_001_VIEW_PV
  6
C_SOLID_M
100
AcDbCircle
 10
91.099998
 20
-20.0
 30
0.0
 40
9.099999999999999
100
AcDbArc
 50
28.463507
 51
331.5364809999999
  0
LINE
  5
12E
330
1E
100
AcDbEntity
  8
MO_001_VIEW_PV
  6
C_SOLID_L
100
AcDbLine
 10
78.97564100000001
 20
-41.0
 30
0.0
 11
86.54999699999999
 21
-27.880831
 31
0.0
  0
LINE
  5
12F
330
1E
100
AcDbEntity
  8
MO_001_VIEW_PV
  6
C_SOLID_L
100
AcDbLine
 10
78.975639
 20
-41.0
 30
0.0
 11
103.060951
 21
-41.0
 31
0.0
  0
TEXT
  5
130
330
1E
100
AcDbEntity
  8
MO_001_VIEW_PV
  6
C_SOLID_L
100
AcDbText
 10
-9.514033999999998
 20
-30.74017299999999
 30
0.0
 40
3.0
  1
長さ150以上
100
AcDbText
  0
TEXT
  5
131
330
1E
100
AcDbEntity
  8
MO_001_VIEW_PV
  6
C_SOLID_L
100
AcDbText
 10
-10.30150899999999
 20
-36.25251
 30
0.0
 40
3.0
  1
(UL1430 AWG24)
100
AcDbText
  0
TEXT
  5
132
330
1E
100
AcDbEntity
  8
MO_001_VIEW_PV
  6
C_SOLID_L
100
AcDbText
 10
-57.109579
 20
-23.301323
 30
0.0
 40
3.0
  1
M18 P1.5
100
AcDbText
  0
TEXT
  5
133
330
1E
100
AcDbEntity
  8
MO_001_VIEW_PV
  6
C_SOLID_L
100
AcDbText
 10
-37.37779299999999
 20
-13.455223
 30
0.0
 40
1.5
  1
%%P0.1
100
AcDbText
  0
TEXT
  5
134
330
1E
100
AcDbEntity
  8
MO_001_VIEW_PV
  6
C_SOLID_L
100
AcDbText
 10
-43.163508
 20
-15.330223
 30
0.0
 40
3.0
  1
%%C3
100
AcDbText
  0
TEXT
  5
135
330
1E
100
AcDbEntity
  8
MO_001_VIEW_PV
  6
C_SOLID_L
100
AcDbText
 10
98.814284
 20
-37.625
 30
0.0
 40
1.5
  1
%%P0.1
100
AcDbText
  0
TEXT
  5
136
330
1E
100
AcDbEntity
  8
MO_001_VIEW_PV
  6
C_SOLID_L
100
AcDbText
 10
84.02857
 20
-39.5
 30
0.0
 40
3.0
  1
%%C18.2
100
AcDbText
  0
TEXT
  5
137
330
1E
100
AcDbEntity
  8
MO_001_VIEW_PV
  6
C_SOLID_L
100
AcDbText
 10
79.214286
 20
-50.5
 30
0.0
 40
5.0
  1
取付け穴
100
AcDbText
  0
TEXT
  5
138
330
1E
100
AcDbEntity
  8
MO_001_VIEW_PV
  6
C_SOLID_L
100
AcDbText
 10
-50.19948
 20
-34.269562
 30
0.0
 40
3.0
  1
M18 P1.5の不完全
100
AcDbText
  0
TEXT
  5
139
330
1E
100
AcDbEntity
  8
MO_001_VIEW_PV
  6
C_SOLID_L
100
AcDbText
 10
-50.19948
 20
-38.769562
 30
0.0
 40
3.0
  1
ネジ部 1.5以下
100
AcDbText
  0
TEXT
  5
13A
330
1E
100
AcDbEntity
  8
MO_001_VIEW_PV
  6
C_SOLID_L
100
AcDbText
 10
25.214286
 20
-56.5
 30
0.0
 40
5.0
  1
図は励磁時を示す
100
AcDbText
  0
TEXT
  5
13B
330
1E
100
AcDbEntity
  8
MO_001_VIEW_PV
  6
C_SOLID_L
100
AcDbText
 10
25.214286
 20
-50.5
 30
0.0
 40
5.0
  1
単位：mm
100
AcDbText
  0
TEXT
  5
13C
330
1E
100
AcDbEntity
  8
MO_001_VIEW_PV
  6
C_SOLID_L
100
AcDbText
 10
-71.21392800000001
 20
-50.08359399999999
 30
0.0
 40
4.167187
  1
S-100S Pull
100
AcDbText
  0
DIMENSION
  5
13E
330
1E
100
AcDbEntity
  8
MO_001_VIEW_PV
  6
C_SOLID_M
100
AcDbDimension
  2
*D0
 10
16.10738399999999
 20
40.0
 30
0.0
 11
16.10738399999999
 21
40.0
 31
0.0
  3
STANDARD
100
AcDbAlignedDimension
 13
30.0
 23
12.4
 33
0.0
 14
0.0
 24
12.19999999999999
 34
0.0
100
AcDbRotatedDimension
  0
DIMENSION
  5
140
330
1E
100
AcDbEntity
  8
MO_001_VIEW_PV
  6
C_SOLID_M
100
AcDbDimension
  2
*D1
 10
12.64387499999999
 20
24.0
 30
0.0
 11
12.64387499999999
 21
24.0
 31
0.0
  3
STANDARD
100
AcDbAlignedDimension
 13
-9.5
 23
7.5
 33
0.0
 14
0.0
 24
12.19999999999999
 34
0.0
100
AcDbRotatedDimension
  0
DIMENSION
  5
142
330
1E
100
AcDbEntity
  8
MO_001_VIEW_PV
  6
C_SOLID_M
100
AcDbDimension
  2
*D2
 10
-80.0
 20
40.0
 30
0.0
 11
-80.0
 21
40.0
 31
0.0
  3
STANDARD
100
AcDbAlignedDimension
 13
-67.300003
 23
0.0
 33
0.0
 14
-92.69999699999999
 24
0.0
 34
0.0
100
AcDbRotatedDimension
  0
DIMENSION
  5
144
330
1E
100
AcDbEntity
  8
MO_001_VIEW_PV
  6
C_SOLID_M
100
AcDbDimension
  2
*D3
 10
-80.0
 20
32.0
 30
0.0
 11
-80.0
 21
32.0
 31
0.0
  3
STANDARD
100
AcDbAlignedDimension
 13
-68.500008
 23
6.63953
 33
0.0
 14
-91.5
 24
6.639525999999999
 34
0.0
100
AcDbRotatedDimension
  0
DIMENSION
  5
146
330
1E
100
AcDbEntity
  8
MO_001_VIEW_PV
  6
C_SOLID_M
100
AcDbDimension
  2
*D4
 10
-57.719967
 20
24.0
 30
0.0
 11
-57.719967
 21
24.0
 31
0.0
  3
STANDARD
100
AcDbAlignedDimension
 13
-80.0
 23
17.5
 33
0.0
 14
-72.099998
 24
4.311608999999999
 34
0.0
100
AcDbRotatedDimension
  0
DIMENSION
  5
148
330
1E
100
AcDbEntity
  8
MO_001_VIEW_PV
  6
C_SOLID_M
100
AcDbDimension
  2
*D5
 10
-40.20000099999999
 20
16.0
 30
0.0
 11
-40.20000099999999
 21
16.0
 31
0.0
  3
STANDARD
100
AcDbAlignedDimension
 13
-24.299999
 23
5.5
 33
0.0
 14
-24.299999
 24
-5.5
 34
0.0
 50
89.999523
100
AcDbRotatedDimension
  0
DIMENSION
  5
14A
330
1E
100
AcDbEntity
  8
MO_001_VIEW_PV
  6
C_SOLID_M
100
AcDbDimension
  2
*D6
 10
-32.200001
 20
12.232446
 30
0.0
 11
-32.200001
 21
12.232446
 31
0.0
  3
STANDARD
100
AcDbAlignedDimension
 13
-24.299999
 23
-1.5
 33
0.0
 14
-24.299999
 24
1.5
 34
0.0
 50
89.999523
100
AcDbRotatedDimension
  0
DIMENSION
  5
14C
330
1E
100
AcDbEntity
  8
MO_001_VIEW_PV
  6
C_SOLID_M
100
AcDbDimension
  2
*D7
 10
-4.117147
 20
-24.0
 30
0.0
 11
-4.117147
 21
-24.0
 31
0.0
  3
STANDARD
100
AcDbAlignedDimension
 13
-14.3
 23
-1.5
 33
0.0
 14
-24.299999
 24
-5.5
 34
0.0
100
AcDbRotatedDimension
  0
LINE
  5
14D
330
1E
100
AcDbEntity
  8
MO_001_VIEW_PV
  6
C_SOLID_L
100
AcDbLine
 10
-19.299994
 20
-5.291502999999999
 30
0.0
 11
-30.00849399999999
 21
-16.000003
 31
0.0
  0
POLYLINE
  5
14E
330
1E
100
AcDbEntity
  8
MO_001_VIEW_PV
  6
C_SOLID_L
100
AcDb2dPolyline
 66
     1
 10
0.0
 20
0.0
 30
0.0
 70
     1
  0
VERTEX
  5
232
330
14E
100
AcDbEntity
  8
MO_001_VIEW_PV
  6
C_SOLID_L
100
AcDbVertex
100
AcDb2dVertex
 10
-21.233754
 20
-8.050472
 30
0.0
  0
VERTEX
  5
233
330
14E
100
AcDbEntity
  8
MO_001_VIEW_PV
  6
C_SOLID_L
100
AcDbVertex
100
AcDb2dVertex
 10
-19.659205
 20
-5.650712999999999
 30
0.0
  0
VERTEX
  5
234
330
14E
100
AcDbEntity
  8
MO_001_VIEW_PV
  6
C_SOLID_L
100
AcDbVertex
100
AcDb2dVertex
 10
-22.058964
 20
-7.225261999999999
 30
0.0
  0
SEQEND
  5
235
330
14E
100
AcDbEntity
  8
MO_001_VIEW_PV
  6
C_SOLID_L
  0
DIMENSION
  5
154
330
1E
100
AcDbEntity
  8
MO_001_VIEW_PV
  6
C_SOLID_M
100
AcDbDimension
  2
*D8
 10
-9.649999000000001
 20
32.0
 30
0.0
 11
-9.649999000000001
 21
32.0
 31
0.0
  3
STANDARD
100
AcDbAlignedDimension
 13
-19.299999
 23
8.419144000000001
 33
0.0
 14
0.0
 24
12.19999999999999
 34
0.0
100
AcDbRotatedDimension
  0
DIMENSION
  5
156
330
1E
100
AcDbEntity
  8
MO_001_VIEW_PV
  6
C_SOLID_M
100
AcDbDimension
  2
*D9
 10
-12.149999
 20
40.0
 30
0.0
 11
-12.149999
 21
40.0
 31
0.0
  3
STANDARD
100
AcDbAlignedDimension
 13
-24.299999
 23
5.5
 33
0.0
 14
0.0
 24
12.19999999999999
 34
0.0
100
AcDbRotatedDimension
  0
LINE
  5
157
330
1E
100
AcDbEntity
  8
MO_001_VIEW_PV
  6
C_SOLID_L
100
AcDbLine
 10
-7.5
 20
-9.0
 30
0.0
 11
-33.480761
 21
-23.999999
 31
0.0
  0
POLYLINE
  5
158
330
1E
100
AcDbEntity
  8
MO_001_VIEW_PV
  6
C_SOLID_L
100
AcDb2dPolyline
 66
     1
 10
0.0
 20
0.0
 30
0.0
 70
     1
  0
VERTEX
  5
236
330
158
100
AcDbEntity
  8
MO_001_VIEW_PV
  6
C_SOLID_L
100
AcDbVertex
100
AcDb2dVertex
 10
-10.08194199999999
 20
-11.164466
 30
0.0
  0
VERTEX
  5
237
330
158
100
AcDbEntity
  8
MO_001_VIEW_PV
  6
C_SOLID_L
100
AcDbVertex
100
AcDb2dVertex
 10
-7.939941
 20
-9.253999999999999
 30
0.0
  0
VERTEX
  5
238
330
158
100
AcDbEntity
  8
MO_001_VIEW_PV
  6
C_SOLID_L
100
AcDbVertex
100
AcDb2dVertex
 10
-10.665453
 20
-10.153794
 30
0.0
  0
SEQEND
  5
239
330
158
100
AcDbEntity
  8
MO_001_VIEW_PV
  6
C_SOLID_L
  0
LINE
  5
15D
330
1E
100
AcDbEntity
  8
MO_001_VIEW_PV
  6
C_SOLID_L
100
AcDbLine
 10
39.467607
 20
-18.851293
 30
0.0
 11
31.8762
 21
-31.999996
 31
0.0
  0
POLYLINE
  5
15E
330
1E
100
AcDbEntity
  8
MO_001_VIEW_PV
  6
C_SOLID_L
100
AcDb2dPolyline
 66
     1
 10
0.0
 20
0.0
 30
0.0
 70
     1
  0
VERTEX
  5
23A
330
15E
100
AcDbEntity
  8
MO_001_VIEW_PV
  6
C_SOLID_L
100
AcDbVertex
100
AcDb2dVertex
 10
38.313813
 20
-22.016746
 30
0.0
  0
VERTEX
  5
23B
330
15E
100
AcDbEntity
  8
MO_001_VIEW_PV
  6
C_SOLID_L
100
AcDbVertex
100
AcDb2dVertex
 10
39.213607
 20
-19.29123399999999
 30
0.0
  0
VERTEX
  5
23C
330
15E
100
AcDbEntity
  8
MO_001_VIEW_PV
  6
C_SOLID_L
100
AcDbVertex
100
AcDb2dVertex
 10
37.303142
 20
-21.433235
 30
0.0
  0
SEQEND
  5
23D
330
15E
100
AcDbEntity
  8
MO_001_VIEW_PV
  6
C_SOLID_L
  0
DIMENSION
  5
164
330
1E
100
AcDbEntity
  8
MO_001_VIEW_PV
  6
C_SOLID_M
100
AcDbDimension
  2
*D10
 10
112.099998
 20
4.0
 30
0.0
 11
112.099998
 21
4.0
 31
0.0
  3
STANDARD
100
AcDbAlignedDimension
 13
99.09999800000001
 23
-15.66295
 33
0.0
 14
82.0
 24
-20.0
 34
0.0
100
AcDbRotatedDimension
  0
DIMENSION
  5
166
330
1E
100
AcDbEntity
  8
MO_001_VIEW_PV
  6
C_SOLID_M
100
AcDbDimension
  2
*D11
 10
107.76387
 20
-2.0
 30
0.0
 11
107.76387
 21
-2.0
 31
0.0
  1
(8)
  3
STANDARD
100
AcDbAlignedDimension
 13
91.099998
 23
-8.9
 33
0.0
 14
99.09999800000001
 24
-15.66295
 34
0.0
100
AcDbRotatedDimension
  0
LINE
  5
167
330
1E
100
AcDbEntity
  8
MO_001_VIEW_PV
  6
C_SOLID_L
100
AcDbLine
 10
86.54999699999999
 20
-27.880831
 30
0.0
 11
91.09999499999998
 21
-20.00000299999999
 31
0.0
  0
POLYLINE
  5
168
330
1E
100
AcDbEntity
  8
MO_001_VIEW_PV
  6
C_SOLID_L
100
AcDb2dPolyline
 66
     1
 10
0.0
 20
0.0
 30
0.0
 70
     1
  0
VERTEX
  5
23E
330
168
100
AcDbEntity
  8
MO_001_VIEW_PV
  6
C_SOLID_L
100
AcDbVertex
100
AcDb2dVertex
 10
87.70379100000001
 20
-24.715377
 30
0.0
  0
VERTEX
  5
23F
330
168
100
AcDbEntity
  8
MO_001_VIEW_PV
  6
C_SOLID_L
100
AcDbVertex
100
AcDb2dVertex
 10
86.803997
 20
-27.44089
 30
0.0
  0
VERTEX
  5
240
330
168
100
AcDbEntity
  8
MO_001_VIEW_PV
  6
C_SOLID_L
100
AcDbVertex
100
AcDb2dVertex
 10
88.714463
 20
-25.298889
 30
0.0
  0
SEQEND
  5
241
330
168
100
AcDbEntity
  8
MO_001_VIEW_PV
  6
C_SOLID_L
  0
LINE
  5
16D
330
1E
100
AcDbEntity
  8
MO_001_VIEW_PV
  6
C_SOLID_L
100
AcDbLine
 10
95.64999699999999
 20
-12.11917
 30
0.0
 11
91.09999499999998
 21
-20.00000299999999
 31
0.0
  0
POLYLINE
  5
16E
330
1E
100
AcDbEntity
  8
MO_001_VIEW_PV
  6
C_SOLID_L
100
AcDb2dPolyline
 66
     1
 10
0.0
 20
0.0
 30
0.0
 70
     1
  0
VERTEX
  5
242
330
16E
100
AcDbEntity
  8
MO_001_VIEW_PV
  6
C_SOLID_L
100
AcDbVertex
100
AcDb2dVertex
 10
94.496202
 20
-15.284623
 30
0.0
  0
VERTEX
  5
243
330
16E
100
AcDbEntity
  8
MO_001_VIEW_PV
  6
C_SOLID_L
100
AcDbVertex
100
AcDb2dVertex
 10
95.395997
 20
-12.559111
 30
0.0
  0
VERTEX
  5
244
330
16E
100
AcDbEntity
  8
MO_001_VIEW_PV
  6
C_SOLID_L
100
AcDbVertex
100
AcDb2dVertex
 10
93.48553100000001
 20
-14.701111
 30
0.0
  0
SEQEND
  5
245
330
16E
100
AcDbEntity
  8
MO_001_VIEW_PV
  6
C_SOLID_L
  0
ENDSEC
  0
SECTION
  2
OBJECTS
  0
DICTIONARY
  5
1A
330
0
100
AcDbDictionary
  3
ACAD_GROUP
350
1B
  3
ACAD_MLINESTYLE
350
1C
  3
ACAD_LAYOUT
350
1F8
  3
ACAD_PLOTSETTINGS
350
1F9
1001
ACAD
1000
TREAT_AS_HARD
1070
     0
  0
DICTIONARY
  5
1FE
330
1E
100
AcDbDictionary
  3
ACAD_LAYOUTSELFREF
350
1FF
  0
DICTIONARY
  5
200
330
1F
100
AcDbDictionary
  3
ACAD_LAYOUTSELFREF
350
201
  0
DICTIONARY
  5
1B
102
{ACAD_REACTORS
330
1A
102
}
330
1A
100
AcDbDictionary
1001
ACAD
1000
TREAT_AS_HARD
1070
     0
  0
DICTIONARY
  5
1C
102
{ACAD_REACTORS
330
1A
102
}
330
1A
100
AcDbDictionary
  3
STANDARD
350
1D
1001
ACAD
1000
TREAT_AS_HARD
1070
     0
  0
DICTIONARY
  5
1F8
102
{ACAD_REACTORS
330
1A
102
}
330
1A
100
AcDbDictionary
1001
ACAD
1000
TREAT_AS_HARD
1070
     0
  0
DICTIONARY
  5
1F9
102
{ACAD_REACTORS
330
1A
102
}
330
1A
100
AcDbDictionary
1001
ACAD
1000
TREAT_AS_HARD
1070
     0
  0
XRECORD
  5
1FF
102
{ACAD_REACTORS
330
1FE
102
}
330
1FE
100
AcDbXrecord
340
1E
  0
XRECORD
  5
201
102
{ACAD_REACTORS
330
200
102
}
330
200
100
AcDbXrecord
340
1F
  0
MLINESTYLE
  5
1D
102
{ACAD_REACTORS
330
1C
102
}
330
1C
100
AcDbMlineStyle
  2
STANDARD
 70
     0
  3

 62
     0
 51
90.0
 52
90.0
 71
     2
 49
0.5
 62
   256
  6
BYLAYER
 49
-0.5
 62
   256
  6
BYLAYER
  0
ENDSEC
  0
EOF
