  0
SECTION
  2
HEADER
  9
$ACADVER
  1
AC1012
  9
$DWGCODEPAGE
  3
dos932
  9
$INSBASE
 10
0.0
 20
0.0
 30
0.0
  9
$EXTMIN
 10
-74.50500561636943
 20
-53.50014092930374
 30
-0.0015258207003583
  9
$EXTMAX
 10
89.54155838022421
 20
31.12989064984714
 30
0.0000000349246037
  9
$LIMMIN
 10
-74.5
 20
-57.25
  9
$LIMMAX
 10
89.536552
 20
33.0
  9
$ORTHOMODE
 70
     0
  9
$REGENMODE
 70
     1
  9
$FILLMODE
 70
     1
  9
$QTEXTMODE
 70
     0
  9
$MIRRTEXT
 70
     1
  9
$DRAGMODE
 70
     2
  9
$LTSCALE
 40
1.0
  9
$OSMODE
 70
    37
  9
$ATTMODE
 70
     1
  9
$TEXTSIZE
 40
4.1672
  9
$TRACEWID
 40
0.05
  9
$TEXTSTYLE
  7
STANDARD
  9
$CLAYER
  8
0
  9
$CELTYPE
  6
CONTINUOUS
  9
$CECOLOR
 62
   256
  9
$CELTSCALE
 40
1.0
  9
$DELOBJ
 70
     1
  9
$DISPSILH
 70
     0
  9
$DIMSCALE
 40
1.0
  9
$DIMASZ
 40
0.18
  9
$DIMEXO
 40
0.0625
  9
$DIMDLI
 40
0.38
  9
$DIMRND
 40
0.0
  9
$DIMDLE
 40
0.0
  9
$DIMEXE
 40
0.18
  9
$DIMTP
 40
0.0
  9
$DIMTM
 40
0.0
  9
$DIMTXT
 40
0.18
  9
$DIMCEN
 40
0.09
  9
$DIMTSZ
 40
0.0
  9
$DIMTOL
 70
     0
  9
$DIMLIM
 70
     0
  9
$DIMTIH
 70
     1
  9
$DIMTOH
 70
     1
  9
$DIMSE1
 70
     0
  9
$DIMSE2
 70
     0
  9
$DIMTAD
 70
     0
  9
$DIMZIN
 70
     0
  9
$DIMBLK
  1

  9
$DIMASO
 70
     1
  9
$DIMSHO
 70
     1
  9
$DIMPOST
  1

  9
$DIMAPOST
  1

  9
$DIMALT
 70
     0
  9
$DIMALTD
 70
     2
  9
$DIMALTF
 40
25.4
  9
$DIMLFAC
 40
1.0
  9
$DIMTOFL
 70
     0
  9
$DIMTVP
 40
0.0
  9
$DIMTIX
 70
     0
  9
$DIMSOXD
 70
     0
  9
$DIMSAH
 70
     0
  9
$DIMBLK1
  1

  9
$DIMBLK2
  1

  9
$DIMSTYLE
  2
STANDARD
  9
$DIMCLRD
 70
     0
  9
$DIMCLRE
 70
     0
  9
$DIMCLRT
 70
     0
  9
$DIMTFAC
 40
1.0
  9
$DIMGAP
 40
0.09
  9
$DIMJUST
 70
     0
  9
$DIMSD1
 70
     0
  9
$DIMSD2
 70
     0
  9
$DIMTOLJ
 70
     1
  9
$DIMTZIN
 70
     0
  9
$DIMALTZ
 70
     0
  9
$DIMALTTZ
 70
     0
  9
$DIMFIT
 70
     3
  9
$DIMUPT
 70
     0
  9
$DIMUNIT
 70
     2
  9
$DIMDEC
 70
     4
  9
$DIMTDEC
 70
     4
  9
$DIMALTU
 70
     2
  9
$DIMALTTD
 70
     2
  9
$DIMTXSTY
  7
STANDARD
  9
$DIMAUNIT
 70
     0
  9
$LUNITS
 70
     2
  9
$LUPREC
 70
     6
  9
$SKETCHINC
 40
0.1
  9
$FILLETRAD
 40
0.0
  9
$AUNITS
 70
     0
  9
$AUPREC
 70
     4
  9
$MENU
  1
acad
  9
$ELEVATION
 40
0.0
  9
$PELEVATION
 40
0.0
  9
$THICKNESS
 40
0.0
  9
$LIMCHECK
 70
     0
  9
$BLIPMODE
 70
     0
  9
$CHAMFERA
 40
0.0
  9
$CHAMFERB
 40
0.0
  9
$CHAMFERC
 40
0.0
  9
$CHAMFERD
 40
0.0
  9
$SKPOLY
 70
     0
  9
$TDCREATE
 40
2376126.114283703
  9
$TDUPDATE
 40
2451667.443493402
  9
$TDINDWG
 40
0.0011348380
  9
$TDUSRTIMER
 40
0.0011348380
  9
$USRTIMER
 70
     1
  9
$ANGBASE
 50
0.0
  9
$ANGDIR
 70
     0
  9
$PDMODE
 70
     0
  9
$PDSIZE
 40
0.0
  9
$PLINEWID
 40
0.0
  9
$COORDS
 70
     1
  9
$SPLFRAME
 70
     0
  9
$SPLINETYPE
 70
     6
  9
$SPLINESEGS
 70
     8
  9
$ATTDIA
 70
     0
  9
$ATTREQ
 70
     1
  9
$HANDLING
 70
 10241
  9
$HANDSEED
  5
1D7
  9
$SURFTAB1
 70
     6
  9
$SURFTAB2
 70
     6
  9
$SURFTYPE
 70
     6
  9
$SURFU
 70
     6
  9
$SURFV
 70
     6
  9
$UCSNAME
  2
MO_001_VIEW_PV_P
  9
$UCSORG
 10
0.0
 20
0.0
 30
0.0
  9
$UCSXDIR
 10
1.0
 20
0.0
 30
0.0
  9
$UCSYDIR
 10
-0.0000000002051034
 20
1.0
 30
0.0
  9
$PUCSNAME
  2

  9
$PUCSORG
 10
0.0
 20
0.0
 30
0.0
  9
$PUCSXDIR
 10
1.0
 20
0.0
 30
0.0
  9
$PUCSYDIR
 10
0.0
 20
1.0
 30
0.0
  9
$USERI1
 70
     0
  9
$USERI2
 70
     0
  9
$USERI3
 70
     0
  9
$USERI4
 70
     0
  9
$USERI5
 70
     0
  9
$USERR1
 40
0.0
  9
$USERR2
 40
0.0
  9
$USERR3
 40
0.0
  9
$USERR4
 40
0.0
  9
$USERR5
 40
0.0
  9
$WORLDVIEW
 70
     1
  9
$SHADEDGE
 70
     3
  9
$SHADEDIF
 70
    70
  9
$TILEMODE
 70
     1
  9
$MAXACTVP
 70
    16
  9
$PINSBASE
 10
0.0
 20
0.0
 30
0.0
  9
$PLIMCHECK
 70
     0
  9
$PEXTMIN
 10
-74.5
 20
-57.25
 30
1.000000000000000E+20
  9
$PEXTMAX
 10
89.536552
 20
33.0
 30
-1.000000000000000E+20
  9
$PLIMMIN
 10
0.0
 20
0.0
  9
$PLIMMAX
 10
12.0
 20
9.0
  9
$UNITMODE
 70
     0
  9
$VISRETAIN
 70
     0
  9
$PLINEGEN
 70
     0
  9
$PSLTSCALE
 70
     1
  9
$TREEDEPTH
 70
  3020
  9
$PICKSTYLE
 70
     1
  9
$CMLSTYLE
  2
STANDARD
  9
$CMLJUST
 70
     0
  9
$CMLSCALE
 40
1.0
  9
$SAVEIMAGES
 70
     1
  0
ENDSEC
  0
SECTION
  2
CLASSES
  0
CLASS
  1
ACDBDICTIONARYWDFLT
  2
AcDbDictionaryWithDefault
  3
AutoCAD 2000
 90
    32768
280
     0
281
     0
  0
CLASS
  1
ACDBPLACEHOLDER
  2
AcDbPlaceHolder
  3
AutoCAD 2000
 90
    32768
280
     0
281
     0
  0
CLASS
  1
LAYOUT
  2
AcDbLayout
  3
AutoCAD 2000
 90
    32768
280
     0
281
     0
  0
CLASS
  1
LONG_TRANSACTION
  2
AcDbLongTransaction
  3
AutoCAD 2000
 90
    32768
280
     0
281
     0
  0
CLASS
  1
LWPOLYLINE
  2
AcDbPolyline
  3
AutoCAD 2000
 90
    32768
280
     0
281
     1
  0
CLASS
  1
HATCH
  2
AcDbHatch
  3
AutoCAD 2000
 90
    32768
280
     0
281
     1
  0
CLASS
  1
XRECORD
  2
AcDbXrecord
  3
AutoCAD 2000
 90
    32768
280
     0
281
     0
  0
ENDSEC
  0
SECTION
  2
TABLES
  0
TABLE
  2
VPORT
  5
7
330
0
100
AcDbSymbolTable
 70
     2
  0
VPORT
  5
1BE
330
7
100
AcDbSymbolTableRecord
100
AcDbViewportTableRecord
  2
*ACTIVE
 70
     0
 10
0.0
 20
0.0
 11
1.0
 21
1.0
 12
10.37392815955431
 22
-15.50054956858406
 13
0.0
 23
0.0
 14
6.349999999999999
 24
6.349999999999999
 15
6.349999999999999
 25
6.349999999999999
 16
0.0
 26
0.0
 36
1.0
 17
0.0
 27
0.0
 37
0.0
 40
175.422125139996
 41
1.691964285714285
 42
50.0
 43
0.0
 44
0.0
 50
0.0
 51
0.0
 71
     0
 72
   100
 73
     1
 74
     1
 75
     0
 76
     0
 77
     0
 78
     0
  0
ENDTAB
  0
TABLE
  2
LTYPE
  5
4
330
0
100
AcDbSymbolTable
 70
    37
  0
LTYPE
  5
12
330
4
100
AcDbSymbolTableRecord
100
AcDbLinetypeTableRecord
  2
BYBLOCK
 70
     0
  3

 72
    65
 73
     0
 40
0.0
  0
LTYPE
  5
13
330
4
100
AcDbSymbolTableRecord
100
AcDbLinetypeTableRecord
  2
BYLAYER
 70
     0
  3

 72
    65
 73
     0
 40
0.0
  0
LTYPE
  5
14
330
4
100
AcDbSymbolTableRecord
100
AcDbLinetypeTableRecord
  2
CONTINUOUS
 70
     0
  3
DXF Default line type
 72
    65
 73
     0
 40
0.0
  0
LTYPE
  5
20
330
4
100
AcDbSymbolTableRecord
100
AcDbLinetypeTableRecord
  2
DASHED
 70
     0
  3
DXF Dashed
 72
    65
 73
     2
 40
0.75
 49
0.5
 74
     0
 49
-0.25
 74
     0
  0
LTYPE
  5
21
330
4
100
AcDbSymbolTableRecord
100
AcDbLinetypeTableRecord
  2
HIDDEN
 70
     0
  3
DXF Hidden
 72
    65
 73
     2
 40
0.375
 49
0.25
 74
     0
 49
-0.125
 74
     0
  0
LTYPE
  5
22
330
4
100
AcDbSymbolTableRecord
100
AcDbLinetypeTableRecord
  2
CENTER
 70
     0
  3
DXF Center
 72
    65
 73
     4
 40
2.0
 49
1.25
 74
     0
 49
-0.25
 74
     0
 49
0.25
 74
     0
 49
-0.25
 74
     0
  0
LTYPE
  5
23
330
4
100
AcDbSymbolTableRecord
100
AcDbLinetypeTableRecord
  2
PHANTOM
 70
     0
  3
DXF Phantom
 72
    65
 73
     6
 40
2.5
 49
1.25
 74
     0
 49
-0.25
 74
     0
 49
0.25
 74
     0
 49
-0.25
 74
     0
 49
0.25
 74
     0
 49
-0.25
 74
     0
  0
LTYPE
  5
24
330
4
100
AcDbSymbolTableRecord
100
AcDbLinetypeTableRecord
  2
DOT
 70
     0
  3
DXF DOT
 72
    65
 73
     2
 40
0.25
 49
0.0
 74
     0
 49
-0.25
 74
     0
  0
LTYPE
  5
25
330
4
100
AcDbSymbolTableRecord
100
AcDbLinetypeTableRecord
  2
DASHDOT
 70
     0
  3
DXF Dash Dot
 72
    65
 73
     4
 40
1.0
 49
0.5
 74
     0
 49
-0.25
 74
     0
 49
0.0
 74
     0
 49
-0.25
 74
     0
  0
LTYPE
  5
26
330
4
100
AcDbSymbolTableRecord
100
AcDbLinetypeTableRecord
  2
BORDER
 70
     0
  3
DXF Border
 72
    65
 73
     6
 40
1.75
 49
0.5
 74
     0
 49
-0.25
 74
     0
 49
0.5
 74
     0
 49
-0.25
 74
     0
 49
0.0
 74
     0
 49
-0.25
 74
     0
  0
LTYPE
  5
27
330
4
100
AcDbSymbolTableRecord
100
AcDbLinetypeTableRecord
  2
DIVIDE
 70
     0
  3
DXF Divide
 72
    65
 73
     6
 40
1.25
 49
0.5
 74
     0
 49
-0.25
 74
     0
 49
0.0
 74
     0
 49
-0.25
 74
     0
 49
0.0
 74
     0
 49
-0.25
 74
     0
  0
LTYPE
  5
28
330
4
100
AcDbSymbolTableRecord
100
AcDbLinetypeTableRecord
  2
C_SOLID_L
 70
     0
  3
CADAM Solid Light
 72
    65
 73
     0
 40
0.0
  0
LTYPE
  5
29
330
4
100
AcDbSymbolTableRecord
100
AcDbLinetypeTableRecord
  2
C_SOLID_M
 70
     0
  3
CADAM Solid Medium
 72
    65
 73
     0
 40
0.0
  0
LTYPE
  5
2A
330
4
100
AcDbSymbolTableRecord
100
AcDbLinetypeTableRecord
  2
C_SOLID_H
 70
     0
  3
CADAM Solid Heavy
 72
    65
 73
     0
 40
0.0
  0
LTYPE
  5
2B
330
4
100
AcDbSymbolTableRecord
100
AcDbLinetypeTableRecord
  2
C_DASHED_L
 70
     0
  3
CADAM Dashed Light
 72
    65
 73
     2
 40
0.375
 49
0.25
 74
     0
 49
-0.125
 74
     0
  0
LTYPE
  5
2C
330
4
100
AcDbSymbolTableRecord
100
AcDbLinetypeTableRecord
  2
C_DASHED_M
 70
     0
  3
CADAM Dashed Medium
 72
    65
 73
     2
 40
0.5
 49
0.375
 74
     0
 49
-0.125
 74
     0
  0
LTYPE
  5
2D
330
4
100
AcDbSymbolTableRecord
100
AcDbLinetypeTableRecord
  2
C_CENTER_L
 70
     0
  3
CADAM Center Light
 72
    65
 73
     4
 40
2.0
 49
1.25
 74
     0
 49
-0.25
 74
     0
 49
0.25
 74
     0
 49
-0.25
 74
     0
  0
LTYPE
  5
2E
330
4
100
AcDbSymbolTableRecord
100
AcDbLinetypeTableRecord
  2
C_PHANTOM_L
 70
     0
  3
CADAM Phantom Light
 72
    65
 73
     6
 40
2.5
 49
1.25
 74
     0
 49
-0.25
 74
     0
 49
0.25
 74
     0
 49
-0.25
 74
     0
 49
0.25
 74
     0
 49
-0.25
 74
     0
  0
LTYPE
  5
2F
330
4
100
AcDbSymbolTableRecord
100
AcDbLinetypeTableRecord
  2
C_BREAK_M
 70
     0
  3
CADAM Break Medium
 72
    65
 73
     4
 40
1.0
 49
0.5
 74
     0
 49
-0.25
 74
     0
 49
0.0
 74
     0
 49
-0.25
 74
     0
  0
LTYPE
  5
30
330
4
100
AcDbSymbolTableRecord
100
AcDbLinetypeTableRecord
  2
C_NC
 70
     0
  3
CADAM NC
 72
    65
 73
     0
 40
0.0
  0
LTYPE
  5
31
330
4
100
AcDbSymbolTableRecord
100
AcDbLinetypeTableRecord
  2
DSH1
 70
     0
  3
CADAM Style2 Type 1 Dashed Line
 72
    65
 73
     2
 40
0.075
 49
0.04
 74
     0
 49
-0.035
 74
     0
  0
LTYPE
  5
32
330
4
100
AcDbSymbolTableRecord
100
AcDbLinetypeTableRecord
  2
DSH2
 70
     0
  3
CADAM Style2 Type 2 Dashed Line
 72
    65
 73
     2
 40
0.15
 49
0.11
 74
     0
 49
-0.04
 74
     0
  0
LTYPE
  5
33
330
4
100
AcDbSymbolTableRecord
100
AcDbLinetypeTableRecord
  2
DSH3
 70
     0
  3
CADAM Style2 Type 3 Dashed Line
 72
    65
 73
     2
 40
0.2
 49
0.15
 74
     0
 49
-0.05
 74
     0
  0
LTYPE
  5
34
330
4
100
AcDbSymbolTableRecord
100
AcDbLinetypeTableRecord
  2
DSH4
 70
     0
  3
CADAM Style2 Type 4 Dashed Line
 72
    65
 73
     2
 40
0.36
 49
0.28
 74
     0
 49
-0.08
 74
     0
  0
LTYPE
  5
35
330
4
100
AcDbSymbolTableRecord
100
AcDbLinetypeTableRecord
  2
DSH5
 70
     0
  3
CADAM Style2 Type 5 Dashed Line
 72
    65
 73
     2
 40
0.47
 49
0.39
 74
     0
 49
-0.08
 74
     0
  0
LTYPE
  5
36
330
4
100
AcDbSymbolTableRecord
100
AcDbLinetypeTableRecord
  2
DSH6
 70
     0
  3
CADAM Style2 Type 6 Dashed Line
 72
    65
 73
     2
 40
0.9
 49
0.8100000000000001
 74
     0
 49
-0.09
 74
     0
  0
LTYPE
  5
37
330
4
100
AcDbSymbolTableRecord
100
AcDbLinetypeTableRecord
  2
PL1
 70
     0
  3
Style 2 Type 1 Phantom Line
 72
    65
 73
     6
 40
1.0
 49
0.6
 74
     0
 49
-0.08
 74
     0
 49
0.08
 74
     0
 49
-0.08
 74
     0
 49
0.08
 74
     0
 49
-0.08
 74
     0
  0
LTYPE
  5
38
330
4
100
AcDbSymbolTableRecord
100
AcDbLinetypeTableRecord
  2
PL2
 70
     0
  3
Style 2 Type 2 Phantom Line
 72
    65
 73
     6
 40
1.08
 49
0.6
 74
     0
 49
-0.08
 74
     0
 49
0.12
 74
     0
 49
-0.08
 74
     0
 49
0.12
 74
     0
 49
-0.08
 74
     0
  0
LTYPE
  5
39
330
4
100
AcDbSymbolTableRecord
100
AcDbLinetypeTableRecord
  2
PL3
 70
     0
  3
Style 2 Type 3 Phantom Line
 72
    65
 73
     6
 40
2.0
 49
1.439999999999999
 74
     0
 49
-0.08
 74
     0
 49
0.16
 74
     0
 49
-0.08
 74
     0
 49
0.16
 74
     0
 49
-0.08
 74
     0
  0
LTYPE
  5
3A
330
4
100
AcDbSymbolTableRecord
100
AcDbLinetypeTableRecord
  2
CL1
 70
     0
  3
CADAM Style 2 Type 1 Center Line
 72
    65
 73
     4
 40
0.7
 49
0.45
 74
     0
 49
-0.06
 74
     0
 49
0.13
 74
     0
 49
-0.06
 74
     0
  0
LTYPE
  5
3B
330
4
100
AcDbSymbolTableRecord
100
AcDbLinetypeTableRecord
  2
CL2
 70
     0
  3
CADAM Style 2 Type 2 Center Line
 72
    65
 73
     4
 40
1.199999999999999
 49
1.01
 74
     0
 49
-0.06
 74
     0
 49
0.11
 74
     0
 49
-0.06
 74
     0
  0
LTYPE
  5
3C
330
4
100
AcDbSymbolTableRecord
100
AcDbLinetypeTableRecord
  2
CL3
 70
     0
  3
CADAM Style 2 Type 3 Center Line
 72
    65
 73
     4
 40
1.199999999999999
 49
0.98
 74
     0
 49
-0.06
 74
     0
 49
0.1
 74
     0
 49
-0.06
 74
     0
  0
LTYPE
  5
3D
330
4
100
AcDbSymbolTableRecord
100
AcDbLinetypeTableRecord
  2
CL4
 70
     0
  3
CADAM Style 2 Type 4 Center Line
 72
    65
 73
     4
 40
2.2
 49
1.929999999999999
 74
     0
 49
-0.07
 74
     0
 49
0.13
 74
     0
 49
-0.07
 74
     0
  0
LTYPE
  5
3E
330
4
100
AcDbSymbolTableRecord
100
AcDbLinetypeTableRecord
  2
CL5
 70
     0
  3
CADAM Style 2 Type 5 Center Line
 72
    65
 73
     4
 40
2.2
 49
1.879999999999999
 74
     0
 49
-0.07
 74
     0
 49
0.18
 74
     0
 49
-0.07
 74
     0
  0
LTYPE
  5
3F
330
4
100
AcDbSymbolTableRecord
100
AcDbLinetypeTableRecord
  2
SBK1
 70
     0
  3
CADAM Style 2 Type 1 SetBack Line
 72
    65
 73
     8
 40
2.7
 49
0.1
 74
     0
 49
-0.08
 74
     0
 49
0.1
 74
     0
 49
-0.8
 74
     0
 49
0.0
 74
     0
 49
0.0
 74
     0
 49
0.0
 74
     0
 49
0.0
 74
     0
  0
LTYPE
  5
40
330
4
100
AcDbSymbolTableRecord
100
AcDbLinetypeTableRecord
  2
SBK2
 70
     0
  3
CADAM Style 2 Type 2 SetBack Line
 72
    65
 73
     8
 40
3.709999999999999
 49
0.13
 74
     0
 49
-0.08
 74
     0
 49
0.13
 74
     0
 49
-0.8
 74
     0
 49
0.0
 74
     0
 49
0.0
 74
     0
 49
0.0
 74
     0
 49
0.0
 74
     0
  0
LTYPE
  5
41
330
4
100
AcDbSymbolTableRecord
100
AcDbLinetypeTableRecord
  2
STCH
 70
     0
  3
CADAM Style2 Stitch Line
 72
    65
 73
     2
 40
0.25
 49
0.0
 74
     0
 49
-0.25
 74
     0
  0
LTYPE
  5
42
330
4
100
AcDbSymbolTableRecord
100
AcDbLinetypeTableRecord
  2
MTCH
 70
     0
  3
CADAM Style2 Match Line
 72
    65
 73
     6
 40
2.0
 49
1.439999999999999
 74
     0
 49
-0.8
 74
     0
 49
0.16
 74
     0
 49
-0.08
 74
     0
 49
0.16
 74
     0
 49
-0.08
 74
     0
  0
LTYPE
  5
43
330
4
100
AcDbSymbolTableRecord
100
AcDbLinetypeTableRecord
  2
SLD
 70
     0
  3
CADAM Solid_EXT2
 72
    65
 73
     0
 40
0.0
  0
ENDTAB
  0
TABLE
  2
LAYER
  5
2
330
0
100
AcDbSymbolTable
 70
     7
  0
LAYER
  5
15
330
2
100
AcDbSymbolTableRecord
100
AcDbLayerTableRecord
  2
0
 70
     0
 62
     7
  6
CONTINUOUS
  0
LAYER
  5
44
330
2
100
AcDbSymbolTableRecord
100
AcDbLayerTableRecord
  2
MO_001_NOSHOW
 70
     1
 62
     7
  6
CONTINUOUS
  0
LAYER
  5
45
330
2
100
AcDbSymbolTableRecord
100
AcDbLayerTableRecord
  2
MO_001_VIEW_PV
 70
     0
 62
     7
  6
CONTINUOUS
  0
LAYER
  5
46
330
2
100
AcDbSymbolTableRecord
100
AcDbLayerTableRecord
  2
OVERLAY_MAP
 70
     1
 62
     7
  6
CONTINUOUS
  0
LAYER
  5
47
330
2
100
AcDbSymbolTableRecord
100
AcDbLayerTableRecord
  2
DITTOS
 70
     0
 62
     7
  6
CONTINUOUS
  0
LAYER
  5
48
330
2
100
AcDbSymbolTableRecord
100
AcDbLayerTableRecord
  2
SYMBOLS
 70
     0
 62
     7
  6
CONTINUOUS
  0
LAYER
  5
49
330
2
100
AcDbSymbolTableRecord
100
AcDbLayerTableRecord
  2
SETS
 70
     0
 62
     7
  6
CONTINUOUS
  0
ENDTAB
  0
TABLE
  2
STYLE
  5
3
330
0
100
AcDbSymbolTable
 70
     1
  0
STYLE
  5
18
330
3
100
AcDbSymbolTableRecord
100
AcDbTextStyleTableRecord
  2
STANDARD
 70
     0
 40
4.1672
 41
1.0
 50
0.0
 71
     0
 42
4.1672
  3
monotxt
  4
BIGFONT
  0
ENDTAB
  0
TABLE
  2
VIEW
  5
5
330
0
100
AcDbSymbolTable
 70
     0
  0
ENDTAB
  0
TABLE
  2
UCS
  5
6
330
0
100
AcDbSymbolTable
 70
     1
  0
UCS
  5
4A
330
6
100
AcDbSymbolTableRecord
100
AcDbUCSTableRecord
  2
MO_001_VIEW_PV_P
 70
     0
 10
0.0
 20
0.0
 30
0.0
 11
1.0
 21
0.0
 31
0.0
 12
-0.0000000002051034
 22
1.0
 32
0.0
  0
ENDTAB
  0
TABLE
  2
APPID
  5
8
330
0
100
AcDbSymbolTable
 70
     1
  0
APPID
  5
17
330
8
100
AcDbSymbolTableRecord
100
AcDbRegAppTableRecord
  2
ACAD
 70
     0
  0
ENDTAB
  0
TABLE
  2
DIMSTYLE
  5
9
330
0
100
AcDbSymbolTable
 70
     1
  0
DIMSTYLE
105
19
102
{ACAD_REACTORS
330
F7
330
F9
330
FB
330
FD
330
FF
330
101
330
103
330
105
330
107
330
109
330
11D
330
11F
102
}
330
9
100
AcDbSymbolTableRecord
100
AcDbDimStyleTableRecord
  2
STANDARD
 70
     0
  3

  4

  5

  6

  7

 40
1.0
 41
0.18
 42
0.0625
 43
0.38
 44
0.18
 45
0.0
 46
0.0
 47
0.0
 48
0.0
140
0.18
141
0.09
142
0.0
143
25.4
144
1.0
145
0.0
146
1.0
147
0.09
 71
     0
 72
     0
 73
     1
 74
     1
 75
     0
 76
     0
 77
     0
 78
     0
170
     0
171
     2
172
     0
173
     0
174
     0
175
     0
176
     0
177
     0
178
     0
270
     2
271
     4
272
     4
273
     2
274
     2
340
18
275
     0
280
     0
281
     0
282
     0
283
     1
284
     0
285
     0
286
     0
287
     3
288
     0
  0
ENDTAB
  0
TABLE
  2
BLOCK_RECORD
  5
C
330
0
100
AcDbSymbolTable
 70
    12
  0
BLOCK_RECORD
  5
1E
102
{ACAD_XDICTIONARY
360
1BF
102
}
330
C
100
AcDbSymbolTableRecord
100
AcDbBlockTableRecord
  2
*MODEL_SPACE
  0
BLOCK_RECORD
  5
1F
102
{ACAD_XDICTIONARY
360
1C1
102
}
330
C
100
AcDbSymbolTableRecord
100
AcDbBlockTableRecord
  2
*PAPER_SPACE
  0
BLOCK_RECORD
  5
F6
330
C
100
AcDbSymbolTableRecord
100
AcDbBlockTableRecord
  2
*D0
  0
BLOCK_RECORD
  5
F8
330
C
100
AcDbSymbolTableRecord
100
AcDbBlockTableRecord
  2
*D1
  0
BLOCK_RECORD
  5
FA
330
C
100
AcDbSymbolTableRecord
100
AcDbBlockTableRecord
  2
*D2
  0
BLOCK_RECORD
  5
FC
330
C
100
AcDbSymbolTableRecord
100
AcDbBlockTableRecord
  2
*D3
  0
BLOCK_RECORD
  5
FE
330
C
100
AcDbSymbolTableRecord
100
AcDbBlockTableRecord
  2
*D4
  0
BLOCK_RECORD
  5
100
330
C
100
AcDbSymbolTableRecord
100
AcDbBlockTableRecord
  2
*D5
  0
BLOCK_RECORD
  5
102
330
C
100
AcDbSymbolTableRecord
100
AcDbBlockTableRecord
  2
*D6
  0
BLOCK_RECORD
  5
104
330
C
100
AcDbSymbolTableRecord
100
AcDbBlockTableRecord
  2
*D7
  0
BLOCK_RECORD
  5
106
330
C
100
AcDbSymbolTableRecord
100
AcDbBlockTableRecord
  2
*D8
  0
BLOCK_RECORD
  5
108
330
C
100
AcDbSymbolTableRecord
100
AcDbBlockTableRecord
  2
*D9
  0
BLOCK_RECORD
  5
11C
330
C
100
AcDbSymbolTableRecord
100
AcDbBlockTableRecord
  2
*D10
  0
BLOCK_RECORD
  5
11E
330
C
100
AcDbSymbolTableRecord
100
AcDbBlockTableRecord
  2
*D11
  0
ENDTAB
  0
ENDSEC
  0
SECTION
  2
BLOCKS
  0
BLOCK
  5
E
330
1E
100
AcDbEntity
  8
0
100
AcDbBlockBegin
  2
*MODEL_SPACE
 70
     0
 10
0.0
 20
0.0
 30
0.0
  3
*MODEL_SPACE
  1

  0
ENDBLK
  5
F
330
1E
100
AcDbEntity
  8
0
100
AcDbBlockEnd
  0
BLOCK
  5
10
330
1F
100
AcDbEntity
 67
     1
  8
0
100
AcDbBlockBegin
  2
*PAPER_SPACE
 70
     0
 10
0.0
 20
0.0
 30
0.0
  3
*PAPER_SPACE
  1

  0
ENDBLK
  5
11
330
1F
100
AcDbEntity
 67
     1
  8
0
100
AcDbBlockEnd
  0
BLOCK
  5
12C
330
F6
100
AcDbEntity
  8
0
100
AcDbBlockBegin
  2
*D0
 70
     1
 10
0.0
 20
0.0
 30
0.0
  3
*D0
  1

  0
TEXT
  5
12D
330
F6
100
AcDbEntity
  8
MO_001_VIEW_PV
  6
BYBLOCK
100
AcDbText
 10
15.21428599999999
 20
29.625
 30
0.0
 40
1.5
  1
%%P0.5
100
AcDbText
  0
TEXT
  5
12E
330
F6
100
AcDbEntity
  8
MO_001_VIEW_PV
  6
BYBLOCK
100
AcDbText
 10
3.428570999999999
 20
27.75
 30
0.0
 40
3.0
  1
26.6
100
AcDbText
  0
LINE
  5
12F
330
F6
100
AcDbEntity
  8
MO_001_VIEW_PV
  6
BYBLOCK
100
AcDbLine
 10
0.0
 20
27.0
 30
0.0
 11
26.6
 21
27.0
 31
0.0
  0
SOLID
  5
130
330
F6
100
AcDbEntity
  8
MO_001_VIEW_PV
  6
BYBLOCK
100
AcDbTrace
 10
3.318259999999999
 20
27.58351199999999
 30
0.0
 11
0.508
 21
27.0
 31
0.0
 12
3.318259999999999
 22
26.416488
 32
0.0
 13
3.318259999999999
 23
26.416488
 33
0.0
  0
SOLID
  5
131
330
F6
100
AcDbEntity
  8
MO_001_VIEW_PV
  6
BYBLOCK
100
AcDbTrace
 10
23.28174
 20
26.416488
 30
0.0
 11
26.09199999999999
 21
27.0
 31
0.0
 12
23.28174
 22
27.58351199999999
 32
0.0
 13
23.28174
 23
27.58351199999999
 33
0.0
  0
LINE
  5
132
330
F6
100
AcDbEntity
  8
MO_001_VIEW_PV
  6
BYBLOCK
100
AcDbLine
 10
0.0
 20
8.3
 30
0.0
 11
0.0
 21
29.285999
 31
0.0
  0
LINE
  5
133
330
F6
100
AcDbEntity
  8
MO_001_VIEW_PV
  6
BYBLOCK
100
AcDbLine
 10
26.6
 20
8.5
 30
0.0
 11
26.6
 21
29.285999
 31
0.0
  0
ENDBLK
  5
134
330
F6
100
AcDbEntity
  8
0
100
AcDbBlockEnd
  0
BLOCK
  5
135
330
F8
100
AcDbEntity
  8
0
100
AcDbBlockBegin
  2
*D1
 70
     1
 10
0.0
 20
0.0
 30
0.0
  3
*D1
  1

  0
TEXT
  5
136
330
F8
100
AcDbEntity
  8
MO_001_VIEW_PV
  6
BYBLOCK
100
AcDbText
 10
-5.535714999999999
 20
29.625
 30
0.0
 40
1.5
  1
%%P0.6
100
AcDbText
  0
TEXT
  5
137
330
F8
100
AcDbEntity
  8
MO_001_VIEW_PV
  6
BYBLOCK
100
AcDbText
 10
-17.32142999999999
 20
27.75
 30
0.0
 40
3.0
  1
17.5
100
AcDbText
  0
LINE
  5
138
330
F8
100
AcDbEntity
  8
MO_001_VIEW_PV
  6
BYBLOCK
100
AcDbLine
 10
0.0
 20
27.0
 30
0.0
 11
-17.50000199999999
 21
27.0
 31
0.0
  0
LINE
  5
139
330
F8
100
AcDbEntity
  8
MO_001_VIEW_PV
  6
BYBLOCK
100
AcDbLine
 10
0.0
 20
27.0
 30
0.0
 11
6.349999999999999
 21
27.0
 31
0.0
  0
LINE
  5
13A
330
F8
100
AcDbEntity
  8
MO_001_VIEW_PV
  6
BYBLOCK
100
AcDbLine
 10
-17.50000199999999
 20
27.0
 30
0.0
 11
-23.85000199999999
 21
27.0
 31
0.0
  0
SOLID
  5
13B
330
F8
100
AcDbEntity
  8
MO_001_VIEW_PV
  6
BYBLOCK
100
AcDbTrace
 10
3.318259999999999
 20
27.58351199999999
 30
0.0
 11
0.508
 21
27.0
 31
0.0
 12
3.318259999999999
 22
26.416488
 32
0.0
 13
3.318259999999999
 23
26.416488
 33
0.0
  0
SOLID
  5
13C
330
F8
100
AcDbEntity
  8
MO_001_VIEW_PV
  6
BYBLOCK
100
AcDbTrace
 10
-20.818262
 20
26.416488
 30
0.0
 11
-18.00800199999999
 21
27.0
 31
0.0
 12
-20.818262
 22
27.58351199999999
 32
0.0
 13
-20.818262
 23
27.58351199999999
 33
0.0
  0
LINE
  5
13D
330
F8
100
AcDbEntity
  8
MO_001_VIEW_PV
  6
BYBLOCK
100
AcDbLine
 10
0.0
 20
8.3
 30
0.0
 11
0.0
 21
29.285999
 31
0.0
  0
LINE
  5
13E
330
F8
100
AcDbEntity
  8
MO_001_VIEW_PV
  6
BYBLOCK
100
AcDbLine
 10
-17.50000199999999
 20
2.5
 30
0.0
 11
-17.50000199999999
 21
29.285999
 31
0.0
  0
LINE
  5
13F
330
F8
100
AcDbEntity
  8
MO_001_VIEW_PV
  6
BYBLOCK
100
AcDbLine
 10
0.7857140000000001
 20
27.0
 30
0.0
 11
0.0
 21
27.0
 31
0.0
  0
LINE
  5
140
330
F8
100
AcDbEntity
  8
MO_001_VIEW_PV
  6
BYBLOCK
100
AcDbLine
 10
-17.50000199999999
 20
27.0
 30
0.0
 11
-18.28571499999999
 21
27.0
 31
0.0
  0
ENDBLK
  5
141
330
F8
100
AcDbEntity
  8
0
100
AcDbBlockEnd
  0
BLOCK
  5
142
330
FA
100
AcDbEntity
  8
0
100
AcDbBlockBegin
  2
*D2
 70
     1
 10
0.0
 20
0.0
 30
0.0
  3
*D2
  1

  0
TEXT
  5
143
330
FA
100
AcDbEntity
  8
MO_001_VIEW_PV
  6
BYBLOCK
100
AcDbText
 10
15.21428599999999
 20
23.625
 30
0.0
 40
1.5
  1
%%P0.5
100
AcDbText
  0
TEXT
  5
144
330
FA
100
AcDbEntity
  8
MO_001_VIEW_PV
  6
BYBLOCK
100
AcDbText
 10
3.428570999999999
 20
21.75
 30
0.0
 40
3.0
  1
14.3
100
AcDbText
  0
LINE
  5
145
330
FA
100
AcDbEntity
  8
MO_001_VIEW_PV
  6
BYBLOCK
100
AcDbLine
 10
-14.300001
 20
21.0
 30
0.0
 11
0.0
 21
21.0
 31
0.0
  0
SOLID
  5
146
330
FA
100
AcDbEntity
  8
MO_001_VIEW_PV
  6
BYBLOCK
100
AcDbTrace
 10
-10.981741
 20
21.58351199999999
 30
0.0
 11
-13.792001
 21
21.0
 31
0.0
 12
-10.981741
 22
20.416488
 32
0.0
 13
-10.981741
 23
20.416488
 33
0.0
  0
SOLID
  5
147
330
FA
100
AcDbEntity
  8
MO_001_VIEW_PV
  6
BYBLOCK
100
AcDbTrace
 10
-3.318259999999999
 20
20.416488
 30
0.0
 11
-0.508
 21
21.0
 31
0.0
 12
-3.318259999999999
 22
21.58351199999999
 32
0.0
 13
-3.318259999999999
 23
21.58351199999999
 33
0.0
  0
LINE
  5
148
330
FA
100
AcDbEntity
  8
MO_001_VIEW_PV
  6
BYBLOCK
100
AcDbLine
 10
-14.300001
 20
3.891607
 30
0.0
 11
-14.300001
 21
23.28599899999999
 31
0.0
  0
LINE
  5
149
330
FA
100
AcDbEntity
  8
MO_001_VIEW_PV
  6
BYBLOCK
100
AcDbLine
 10
0.0
 20
8.3
 30
0.0
 11
0.0
 21
23.28599899999999
 31
0.0
  0
LINE
  5
14A
330
FA
100
AcDbEntity
  8
MO_001_VIEW_PV
  6
BYBLOCK
100
AcDbLine
 10
0.0
 20
21.0
 30
0.0
 11
21.53571499999999
 21
21.0
 31
0.0
  0
ENDBLK
  5
14B
330
FA
100
AcDbEntity
  8
0
100
AcDbBlockEnd
  0
BLOCK
  5
14C
330
FC
100
AcDbEntity
  8
0
100
AcDbBlockBegin
  2
*D3
 70
     1
 10
0.0
 20
0.0
 30
0.0
  3
*D3
  1

  0
TEXT
  5
14D
330
FC
100
AcDbEntity
  8
MO_001_VIEW_PV
  6
BYBLOCK
100
AcDbText
 10
13.71428599999999
 20
17.625
 30
0.0
 40
1.5
  1
%%P0.2
100
AcDbText
  0
TEXT
  5
14E
330
FC
100
AcDbEntity
  8
MO_001_VIEW_PV
  6
BYBLOCK
100
AcDbText
 10
4.928570999999999
 20
15.75
 30
0.0
 40
3.0
  1
6.4
100
AcDbText
  0
LINE
  5
14F
330
FC
100
AcDbEntity
  8
MO_001_VIEW_PV
  6
BYBLOCK
100
AcDbLine
 10
-6.4
 20
15.0
 30
0.0
 11
0.0
 21
15.0
 31
0.0
  0
LINE
  5
150
330
FC
100
AcDbEntity
  8
MO_001_VIEW_PV
  6
BYBLOCK
100
AcDbLine
 10
-6.4
 20
15.0
 30
0.0
 11
-12.75
 21
15.0
 31
0.0
  0
LINE
  5
151
330
FC
100
AcDbEntity
  8
MO_001_VIEW_PV
  6
BYBLOCK
100
AcDbLine
 10
0.0
 20
15.0
 30
0.0
 11
6.349999999999999
 21
15.0
 31
0.0
  0
SOLID
  5
152
330
FC
100
AcDbEntity
  8
MO_001_VIEW_PV
  6
BYBLOCK
100
AcDbTrace
 10
-9.71826
 20
14.416488
 30
0.0
 11
-6.907999999999999
 21
15.0
 31
0.0
 12
-9.71826
 22
15.58351199999999
 32
0.0
 13
-9.71826
 23
15.58351199999999
 33
0.0
  0
SOLID
  5
153
330
FC
100
AcDbEntity
  8
MO_001_VIEW_PV
  6
BYBLOCK
100
AcDbTrace
 10
3.318259999999999
 20
15.58351199999999
 30
0.0
 11
0.508
 21
15.0
 31
0.0
 12
3.318259999999999
 22
14.416488
 32
0.0
 13
3.318259999999999
 23
14.416488
 33
0.0
  0
LINE
  5
154
330
FC
100
AcDbEntity
  8
MO_001_VIEW_PV
  6
BYBLOCK
100
AcDbLine
 10
-6.4
 20
4.25
 30
0.0
 11
-6.4
 21
17.285999
 31
0.0
  0
LINE
  5
155
330
FC
100
AcDbEntity
  8
MO_001_VIEW_PV
  6
BYBLOCK
100
AcDbLine
 10
0.0
 20
8.3
 30
0.0
 11
0.0
 21
17.285999
 31
0.0
  0
LINE
  5
156
330
FC
100
AcDbEntity
  8
MO_001_VIEW_PV
  6
BYBLOCK
100
AcDbLine
 10
0.0
 20
15.0
 30
0.0
 11
20.035715
 21
15.0
 31
0.0
  0
ENDBLK
  5
157
330
FC
100
AcDbEntity
  8
0
100
AcDbBlockEnd
  0
BLOCK
  5
158
330
FE
100
AcDbEntity
  8
0
100
AcDbBlockBegin
  2
*D4
 70
     1
 10
0.0
 20
0.0
 30
0.0
  3
*D4
  1

  0
TEXT
  5
159
330
FE
100
AcDbEntity
  8
MO_001_VIEW_PV
  6
BYBLOCK
100
AcDbText
 10
1.714285999999999
 20
-21.375
 30
0.0
 40
1.5
  1
%%P0.2
100
AcDbText
  0
TEXT
  5
15A
330
FE
100
AcDbEntity
  8
MO_001_VIEW_PV
  6
BYBLOCK
100
AcDbText
 10
-7.071428999999999
 20
-23.25
 30
0.0
 40
3.0
  1
6.5
100
AcDbText
  0
LINE
  5
15B
330
FE
100
AcDbEntity
  8
MO_001_VIEW_PV
  6
BYBLOCK
100
AcDbLine
 10
-17.50000199999999
 20
-24.0
 30
0.0
 11
-11.00000199999999
 21
-24.0
 31
0.0
  0
LINE
  5
15C
330
FE
100
AcDbEntity
  8
MO_001_VIEW_PV
  6
BYBLOCK
100
AcDbLine
 10
-17.50000199999999
 20
-24.0
 30
0.0
 11
-23.85000199999999
 21
-24.0
 31
0.0
  0
LINE
  5
15D
330
FE
100
AcDbEntity
  8
MO_001_VIEW_PV
  6
BYBLOCK
100
AcDbLine
 10
-11.00000199999999
 20
-24.0
 30
0.0
 11
-4.650001999999999
 21
-24.0
 31
0.0
  0
SOLID
  5
15E
330
FE
100
AcDbEntity
  8
MO_001_VIEW_PV
  6
BYBLOCK
100
AcDbTrace
 10
-20.818262
 20
-24.583512
 30
0.0
 11
-18.00800199999999
 21
-24.0
 31
0.0
 12
-20.818262
 22
-23.416488
 32
0.0
 13
-20.818262
 23
-23.416488
 33
0.0
  0
SOLID
  5
15F
330
FE
100
AcDbEntity
  8
MO_001_VIEW_PV
  6
BYBLOCK
100
AcDbTrace
 10
-7.681741999999999
 20
-23.416488
 30
0.0
 11
-10.492002
 21
-24.0
 31
0.0
 12
-7.681741999999999
 22
-24.583512
 32
0.0
 13
-7.681741999999999
 23
-24.583512
 33
0.0
  0
LINE
  5
160
330
FE
100
AcDbEntity
  8
MO_001_VIEW_PV
  6
BYBLOCK
100
AcDbLine
 10
-17.50000199999999
 20
-2.5
 30
0.0
 11
-17.50000199999999
 21
-26.285999
 31
0.0
  0
LINE
  5
161
330
FE
100
AcDbEntity
  8
MO_001_VIEW_PV
  6
BYBLOCK
100
AcDbLine
 10
-11.00000199999999
 20
-0.9
 30
0.0
 11
-11.00000199999999
 21
-26.285999
 31
0.0
  0
LINE
  5
162
330
FE
100
AcDbEntity
  8
MO_001_VIEW_PV
  6
BYBLOCK
100
AcDbLine
 10
-11.00000199999999
 20
-24.0
 30
0.0
 11
8.035714
 21
-24.0
 31
0.0
  0
ENDBLK
  5
163
330
FE
100
AcDbEntity
  8
0
100
AcDbBlockEnd
  0
BLOCK
  5
164
330
100
100
AcDbEntity
  8
0
100
AcDbBlockBegin
  2
*D5
 70
     1
 10
0.0
 20
0.0
 30
0.0
  3
*D5
  1

  0
TEXT
  5
165
330
100
100
AcDbEntity
  8
MO_001_VIEW_PV
  6
BYBLOCK
100
AcDbText
 10
-26.625
 20
16.71428599999999
 30
0.0
 40
1.5
  1
%%P0.1
 50
90.0
100
AcDbText
  0
TEXT
  5
166
330
100
100
AcDbEntity
  8
MO_001_VIEW_PV
  6
BYBLOCK
100
AcDbText
 10
-24.75
 20
7.928571
 30
0.0
 40
3.0
  1
1.8
 50
90.0
100
AcDbText
  0
LINE
  5
167
330
100
100
AcDbEntity
  8
MO_001_VIEW_PV
  6
BYBLOCK
100
AcDbLine
 10
-24.0
 20
0.9
 30
0.0
 11
-24.0
 21
-0.9
 31
0.0
  0
LINE
  5
168
330
100
100
AcDbEntity
  8
MO_001_VIEW_PV
  6
BYBLOCK
100
AcDbLine
 10
-24.0
 20
0.9
 30
0.0
 11
-24.0
 21
7.25
 31
0.0
  0
LINE
  5
169
330
100
100
AcDbEntity
  8
MO_001_VIEW_PV
  6
BYBLOCK
100
AcDbLine
 10
-24.0
 20
-0.9
 30
0.0
 11
-24.0
 21
-7.25
 31
0.0
  0
SOLID
  5
16A
330
100
100
AcDbEntity
  8
MO_001_VIEW_PV
  6
BYBLOCK
100
AcDbTrace
 10
-24.583512
 20
4.218259999999999
 30
0.0
 11
-24.0
 21
1.408
 31
0.0
 12
-23.416488
 22
4.218259999999999
 32
0.0
 13
-23.416488
 23
4.218259999999999
 33
0.0
  0
SOLID
  5
16B
330
100
100
AcDbEntity
  8
MO_001_VIEW_PV
  6
BYBLOCK
100
AcDbTrace
 10
-23.416488
 20
-4.218259999999999
 30
0.0
 11
-24.0
 21
-1.408
 31
0.0
 12
-24.583512
 22
-4.218259999999999
 32
0.0
 13
-24.583512
 23
-4.218259999999999
 33
0.0
  0
LINE
  5
16C
330
100
100
AcDbEntity
  8
MO_001_VIEW_PV
  6
BYBLOCK
100
AcDbLine
 10
-17.50000199999999
 20
0.9
 30
0.0
 11
-26.285999
 21
0.9
 31
0.0
  0
LINE
  5
16D
330
100
100
AcDbEntity
  8
MO_001_VIEW_PV
  6
BYBLOCK
100
AcDbLine
 10
-17.50000199999999
 20
-0.9
 30
0.0
 11
-26.285999
 21
-0.9
 31
0.0
  0
LINE
  5
16E
330
100
100
AcDbEntity
  8
MO_001_VIEW_PV
  6
BYBLOCK
100
AcDbLine
 10
-24.0
 20
23.03571499999999
 30
0.0
 11
-24.0
 21
0.9
 31
0.0
  0
ENDBLK
  5
16F
330
100
100
AcDbEntity
  8
0
100
AcDbBlockEnd
  0
BLOCK
  5
170
330
102
100
AcDbEntity
  8
0
100
AcDbBlockBegin
  2
*D6
 70
     1
 10
0.0
 20
0.0
 30
0.0
  3
*D6
  1

  0
TEXT
  5
171
330
102
100
AcDbEntity
  8
MO_001_VIEW_PV
  6
BYBLOCK
100
AcDbText
 10
-32.625
 20
14.46428599999999
 30
0.0
 40
1.5
  1
%%P0.05
 50
90.0
100
AcDbText
  0
TEXT
  5
172
330
102
100
AcDbEntity
  8
MO_001_VIEW_PV
  6
BYBLOCK
100
AcDbText
 10
-30.75
 20
8.678570999999999
 30
0.0
 40
3.0
  1
%%C5
 50
90.0
100
AcDbText
  0
LINE
  5
173
330
102
100
AcDbEntity
  8
MO_001_VIEW_PV
  6
BYBLOCK
100
AcDbLine
 10
-30.0
 20
2.5
 30
0.0
 11
-30.0
 21
-2.5
 31
0.0
  0
LINE
  5
174
330
102
100
AcDbEntity
  8
MO_001_VIEW_PV
  6
BYBLOCK
100
AcDbLine
 10
-30.0
 20
2.5
 30
0.0
 11
-30.0
 21
8.849999999999999
 31
0.0
  0
LINE
  5
175
330
102
100
AcDbEntity
  8
MO_001_VIEW_PV
  6
BYBLOCK
100
AcDbLine
 10
-30.0
 20
-2.5
 30
0.0
 11
-30.0
 21
-8.849999999999999
 31
0.0
  0
SOLID
  5
176
330
102
100
AcDbEntity
  8
MO_001_VIEW_PV
  6
BYBLOCK
100
AcDbTrace
 10
-30.583512
 20
5.818259999999999
 30
0.0
 11
-30.0
 21
3.008
 31
0.0
 12
-29.416488
 22
5.818259999999999
 32
0.0
 13
-29.416488
 23
5.818259999999999
 33
0.0
  0
SOLID
  5
177
330
102
100
AcDbEntity
  8
MO_001_VIEW_PV
  6
BYBLOCK
100
AcDbTrace
 10
-29.416488
 20
-5.818259999999999
 30
0.0
 11
-30.0
 21
-3.008
 31
0.0
 12
-30.583512
 22
-5.818259999999999
 32
0.0
 13
-30.583512
 23
-5.818259999999999
 33
0.0
  0
LINE
  5
178
330
102
100
AcDbEntity
  8
MO_001_VIEW_PV
  6
BYBLOCK
100
AcDbLine
 10
-17.50000199999999
 20
2.5
 30
0.0
 11
-32.28599899999999
 21
2.5
 31
0.0
  0
LINE
  5
179
330
102
100
AcDbEntity
  8
MO_001_VIEW_PV
  6
BYBLOCK
100
AcDbLine
 10
-17.50000199999999
 20
-2.5
 30
0.0
 11
-32.28599899999999
 21
-2.5
 31
0.0
  0
LINE
  5
17A
330
102
100
AcDbEntity
  8
MO_001_VIEW_PV
  6
BYBLOCK
100
AcDbLine
 10
-30.0
 20
22.285715
 30
0.0
 11
-30.0
 21
2.5
 31
0.0
  0
ENDBLK
  5
17B
330
102
100
AcDbEntity
  8
0
100
AcDbBlockEnd
  0
BLOCK
  5
17C
330
104
100
AcDbEntity
  8
0
100
AcDbBlockBegin
  2
*D7
 70
     1
 10
0.0
 20
0.0
 30
0.0
  3
*D7
  1

  0
LINE
  5
17D
330
104
100
AcDbEntity
  8
MO_001_VIEW_PV
  6
BYBLOCK
100
AcDbLine
 10
-69.0
 20
21.0
 30
0.0
 11
-57.0
 21
21.0
 31
0.0
  0
SOLID
  5
17E
330
104
100
AcDbEntity
  8
MO_001_VIEW_PV
  6
BYBLOCK
100
AcDbTrace
 10
-65.68174
 20
21.58351199999999
 30
0.0
 11
-68.492
 21
21.0
 31
0.0
 12
-65.68174
 22
20.416488
 32
0.0
 13
-65.68174
 23
20.416488
 33
0.0
  0
SOLID
  5
17F
330
104
100
AcDbEntity
  8
MO_001_VIEW_PV
  6
BYBLOCK
100
AcDbTrace
 10
-60.31825999999999
 20
20.416488
 30
0.0
 11
-57.508
 21
21.0
 31
0.0
 12
-60.31825999999999
 22
21.58351199999999
 32
0.0
 13
-60.31825999999999
 23
21.58351199999999
 33
0.0
  0
LINE
  5
180
330
104
100
AcDbEntity
  8
MO_001_VIEW_PV
  6
BYBLOCK
100
AcDbLine
 10
-69.0
 20
3.460001
 30
0.0
 11
-69.0
 21
23.28599899999999
 31
0.0
  0
LINE
  5
181
330
104
100
AcDbEntity
  8
MO_001_VIEW_PV
  6
BYBLOCK
100
AcDbLine
 10
-57.0
 20
3.460001
 30
0.0
 11
-57.0
 21
23.28599899999999
 31
0.0
  0
TEXT
  5
182
330
104
100
AcDbEntity
  8
MO_001_VIEW_PV
  6
BYBLOCK
100
AcDbText
 10
-45.785714
 20
23.625
 30
0.0
 40
1.5
  1
%%P0.2
100
AcDbText
  0
TEXT
  5
183
330
104
100
AcDbEntity
  8
MO_001_VIEW_PV
  6
BYBLOCK
100
AcDbText
 10
-51.571429
 20
21.75
 30
0.0
 40
3.0
  1
12
100
AcDbText
  0
LINE
  5
184
330
104
100
AcDbEntity
  8
MO_001_VIEW_PV
  6
BYBLOCK
100
AcDbLine
 10
-57.0
 20
21.0
 30
0.0
 11
-39.464287
 21
21.0
 31
0.0
  0
ENDBLK
  5
185
330
104
100
AcDbEntity
  8
0
100
AcDbBlockEnd
  0
BLOCK
  5
186
330
106
100
AcDbEntity
  8
0
100
AcDbBlockBegin
  2
*D8
 70
     1
 10
0.0
 20
0.0
 30
0.0
  3
*D8
  1

  0
TEXT
  5
187
330
106
100
AcDbEntity
  8
MO_001_VIEW_PV
  6
BYBLOCK
100
AcDbText
 10
-61.285714
 20
29.625
 30
0.0
 40
1.5
  1
%%P0.4
100
AcDbText
  0
TEXT
  5
188
330
106
100
AcDbEntity
  8
MO_001_VIEW_PV
  6
BYBLOCK
100
AcDbText
 10
-70.07142900000001
 20
27.75
 30
0.0
 40
3.0
  1
%%C17
100
AcDbText
  0
LINE
  5
189
330
106
100
AcDbEntity
  8
MO_001_VIEW_PV
  6
BYBLOCK
100
AcDbLine
 10
-71.5
 20
27.0
 30
0.0
 11
-54.5
 21
27.0
 31
0.0
  0
SOLID
  5
18A
330
106
100
AcDbEntity
  8
MO_001_VIEW_PV
  6
BYBLOCK
100
AcDbTrace
 10
-68.18174
 20
27.58351199999999
 30
0.0
 11
-70.992
 21
27.0
 31
0.0
 12
-68.18174
 22
26.416488
 32
0.0
 13
-68.18174
 23
26.416488
 33
0.0
  0
SOLID
  5
18B
330
106
100
AcDbEntity
  8
MO_001_VIEW_PV
  6
BYBLOCK
100
AcDbTrace
 10
-57.81825999999999
 20
26.416488
 30
0.0
 11
-55.008
 21
27.0
 31
0.0
 12
-57.81825999999999
 22
27.58351199999999
 32
0.0
 13
-57.81825999999999
 23
27.58351199999999
 33
0.0
  0
LINE
  5
18C
330
106
100
AcDbEntity
  8
MO_001_VIEW_PV
  6
BYBLOCK
100
AcDbLine
 10
-71.5
 20
0.0
 30
0.0
 11
-71.5
 21
29.285999
 31
0.0
  0
LINE
  5
18D
330
106
100
AcDbEntity
  8
MO_001_VIEW_PV
  6
BYBLOCK
100
AcDbLine
 10
-54.5
 20
0.0
 30
0.0
 11
-54.5
 21
29.285999
 31
0.0
  0
ENDBLK
  5
18E
330
106
100
AcDbEntity
  8
0
100
AcDbBlockEnd
  0
BLOCK
  5
18F
330
108
100
AcDbEntity
  8
0
100
AcDbBlockBegin
  2
*D9
 70
     1
 10
0.0
 20
0.0
 30
0.0
  3
*D9
  1

  0
TEXT
  5
190
330
108
100
AcDbEntity
  8
MO_001_VIEW_PV
  6
BYBLOCK
100
AcDbText
 10
-44.613065
 20
17.625
 30
0.0
 40
1.5
  1
%%P0.2
100
AcDbText
  0
TEXT
  5
191
330
108
100
AcDbEntity
  8
MO_001_VIEW_PV
  6
BYBLOCK
100
AcDbText
 10
-53.39877900000001
 20
15.75
 30
0.0
 40
3.0
  1
3.9
100
AcDbText
  0
LINE
  5
192
330
108
100
AcDbEntity
  8
MO_001_VIEW_PV
  6
BYBLOCK
100
AcDbLine
 10
-63.0
 20
15.0
 30
0.0
 11
-59.099998
 21
15.0
 31
0.0
  0
LINE
  5
193
330
108
100
AcDbEntity
  8
MO_001_VIEW_PV
  6
BYBLOCK
100
AcDbLine
 10
-63.0
 20
15.0
 30
0.0
 11
-69.34999999999999
 21
15.0
 31
0.0
  0
LINE
  5
194
330
108
100
AcDbEntity
  8
MO_001_VIEW_PV
  6
BYBLOCK
100
AcDbLine
 10
-59.099998
 20
15.0
 30
0.0
 11
-52.749999
 21
15.0
 31
0.0
  0
SOLID
  5
195
330
108
100
AcDbEntity
  8
MO_001_VIEW_PV
  6
BYBLOCK
100
AcDbTrace
 10
-66.31826
 20
14.416488
 30
0.0
 11
-63.508
 21
15.0
 31
0.0
 12
-66.31826
 22
15.58351199999999
 32
0.0
 13
-66.31826
 23
15.58351199999999
 33
0.0
  0
SOLID
  5
196
330
108
100
AcDbEntity
  8
MO_001_VIEW_PV
  6
BYBLOCK
100
AcDbTrace
 10
-55.781738
 20
15.58351199999999
 30
0.0
 11
-58.59199799999999
 21
15.0
 31
0.0
 12
-55.781738
 22
14.416488
 32
0.0
 13
-55.781738
 23
14.416488
 33
0.0
  0
LINE
  5
197
330
108
100
AcDbEntity
  8
MO_001_VIEW_PV
  6
BYBLOCK
100
AcDbLine
 10
-63.0
 20
11.5
 30
0.0
 11
-63.0
 21
17.285999
 31
0.0
  0
LINE
  5
198
330
108
100
AcDbEntity
  8
MO_001_VIEW_PV
  6
BYBLOCK
100
AcDbLine
 10
-59.099998
 20
2.244991999999999
 30
0.0
 11
-59.099998
 21
17.285999
 31
0.0
  0
LINE
  5
199
330
108
100
AcDbEntity
  8
MO_001_VIEW_PV
  6
BYBLOCK
100
AcDbLine
 10
-59.099998
 20
15.0
 30
0.0
 11
-38.291637
 21
15.0
 31
0.0
  0
ENDBLK
  5
19A
330
108
100
AcDbEntity
  8
0
100
AcDbBlockEnd
  0
BLOCK
  5
19B
330
11C
100
AcDbEntity
  8
0
100
AcDbBlockBegin
  2
*D10
 70
     1
 10
0.0
 20
0.0
 30
0.0
  3
*D10
  1

  0
LINE
  5
19C
330
11C
100
AcDbEntity
  8
MO_001_VIEW_PV
  6
BYBLOCK
100
AcDbLine
 10
61.400002
 20
3.0
 30
0.0
 11
70.0
 21
3.0
 31
0.0
  0
LINE
  5
19D
330
11C
100
AcDbEntity
  8
MO_001_VIEW_PV
  6
BYBLOCK
100
AcDbLine
 10
61.400002
 20
3.0
 30
0.0
 11
55.050002
 21
3.0
 31
0.0
  0
LINE
  5
19E
330
11C
100
AcDbEntity
  8
MO_001_VIEW_PV
  6
BYBLOCK
100
AcDbLine
 10
70.0
 20
3.0
 30
0.0
 11
76.34999999999999
 21
3.0
 31
0.0
  0
SOLID
  5
19F
330
11C
100
AcDbEntity
  8
MO_001_VIEW_PV
  6
BYBLOCK
100
AcDbTrace
 10
58.081741
 20
2.416488
 30
0.0
 11
60.892002
 21
3.0
 31
0.0
 12
58.081741
 22
3.583511
 32
0.0
 13
58.081741
 23
3.583511
 33
0.0
  0
SOLID
  5
1A0
330
11C
100
AcDbEntity
  8
MO_001_VIEW_PV
  6
BYBLOCK
100
AcDbTrace
 10
73.31825999999999
 20
3.583511
 30
0.0
 11
70.50799999999999
 21
3.0
 31
0.0
 12
73.31825999999999
 22
2.416488
 32
0.0
 13
73.31825999999999
 23
2.416488
 33
0.0
  0
LINE
  5
1A1
330
11C
100
AcDbEntity
  8
MO_001_VIEW_PV
  6
BYBLOCK
100
AcDbLine
 10
61.400002
 20
-15.0
 30
0.0
 11
61.400002
 21
5.285998999999999
 31
0.0
  0
LINE
  5
1A2
330
11C
100
AcDbEntity
  8
MO_001_VIEW_PV
  6
BYBLOCK
100
AcDbLine
 10
70.0
 20
-12.728437
 30
0.0
 11
70.0
 21
5.285998999999999
 31
0.0
  0
TEXT
  5
1A3
330
11C
100
AcDbEntity
  8
MO_001_VIEW_PV
  6
BYBLOCK
100
AcDbText
 10
83.215125
 20
5.625
 30
0.0
 40
1.5
  1
%%P0.1
100
AcDbText
  0
TEXT
  5
1A4
330
11C
100
AcDbEntity
  8
MO_001_VIEW_PV
  6
BYBLOCK
100
AcDbText
 10
74.429411
 20
3.75
 30
0.0
 40
3.0
  1
8.6
100
AcDbText
  0
LINE
  5
1A5
330
11C
100
AcDbEntity
  8
MO_001_VIEW_PV
  6
BYBLOCK
100
AcDbLine
 10
70.0
 20
3.0
 30
0.0
 11
89.536552
 21
3.0
 31
0.0
  0
ENDBLK
  5
1A6
330
11C
100
AcDbEntity
  8
0
100
AcDbBlockEnd
  0
BLOCK
  5
1A7
330
11E
100
AcDbEntity
  8
0
100
AcDbBlockBegin
  2
*D11
 70
     1
 10
0.0
 20
0.0
 30
0.0
  3
*D11
  1

  0
LINE
  5
1A8
330
11E
100
AcDbEntity
  8
MO_001_VIEW_PV
  6
BYBLOCK
100
AcDbLine
 10
66.0
 20
-3.0
 30
0.0
 11
70.0
 21
-3.0
 31
0.0
  0
LINE
  5
1A9
330
11E
100
AcDbEntity
  8
MO_001_VIEW_PV
  6
BYBLOCK
100
AcDbLine
 10
66.0
 20
-3.0
 30
0.0
 11
59.64999999999999
 21
-3.0
 31
0.0
  0
LINE
  5
1AA
330
11E
100
AcDbEntity
  8
MO_001_VIEW_PV
  6
BYBLOCK
100
AcDbLine
 10
70.0
 20
-3.0
 30
0.0
 11
76.34999999999999
 21
-3.0
 31
0.0
  0
SOLID
  5
1AB
330
11E
100
AcDbEntity
  8
MO_001_VIEW_PV
  6
BYBLOCK
100
AcDbTrace
 10
62.68174000000001
 20
-3.583512
 30
0.0
 11
65.492
 21
-3.0
 31
0.0
 12
62.68174000000001
 22
-2.416488
 32
0.0
 13
62.68174000000001
 23
-2.416488
 33
0.0
  0
SOLID
  5
1AC
330
11E
100
AcDbEntity
  8
MO_001_VIEW_PV
  6
BYBLOCK
100
AcDbTrace
 10
73.31825999999999
 20
-2.416488
 30
0.0
 11
70.50799999999999
 21
-3.0
 31
0.0
 12
73.31825999999999
 22
-3.583512
 32
0.0
 13
73.31825999999999
 23
-3.583512
 33
0.0
  0
LINE
  5
1AD
330
11E
100
AcDbEntity
  8
MO_001_VIEW_PV
  6
BYBLOCK
100
AcDbLine
 10
66.0
 20
-7.0
 30
0.0
 11
66.0
 21
-0.7140000000000001
 31
0.0
  0
LINE
  5
1AE
330
11E
100
AcDbEntity
  8
MO_001_VIEW_PV
  6
BYBLOCK
100
AcDbLine
 10
70.0
 20
-12.728437
 30
0.0
 11
70.0
 21
-0.7140000000000001
 31
0.0
  0
TEXT
  5
1AF
330
11E
100
AcDbEntity
  8
MO_001_VIEW_PV
  6
BYBLOCK
100
AcDbText
 10
73.92857099999999
 20
-2.25
 30
0.0
 40
3.0
  1
(4)
100
AcDbText
  0
LINE
  5
1B0
330
11E
100
AcDbEntity
  8
MO_001_VIEW_PV
  6
BYBLOCK
100
AcDbLine
 10
70.0
 20
-3.0
 30
0.0
 11
83.03571299999999
 21
-3.0
 31
0.0
  0
ENDBLK
  5
1B1
330
11E
100
AcDbEntity
  8
0
100
AcDbBlockEnd
  0
ENDSEC
  0
SECTION
  2
ENTITIES
  0
TEXT
  5
4B
330
1E
100
AcDbEntity
  8
OVERLAY_MAP
  6
C_SOLID_L
100
AcDbText
 10
0.0
 20
6.349999999999999
 30
0.0
 40
4.1672
  1
Model Overlay Name
100
AcDbText
  0
TEXT
  5
4C
330
1E
100
AcDbEntity
  8
OVERLAY_MAP
  6
C_SOLID_L
100
AcDbText
 10
126.999998
 20
0.0
 30
0.0
 40
4.1672
  1
Number
100
AcDbText
  0
TEXT
  5
4D
330
1E
100
AcDbEntity
  8
OVERLAY_MAP
  6
C_SOLID_L
100
AcDbText
 10
177.7999969999999
 20
0.0
 30
0.0
 40
4.1672
  1
File Text
100
AcDbText
  0
TEXT
  5
4E
330
1E
100
AcDbEntity
  8
OVERLAY_MAP
  6
C_SOLID_L
100
AcDbText
 10
0.0
 20
-6.349999999999999
 30
0.0
 40
4.1672
  1
tb s65pull 
100
AcDbText
  0
TEXT
  5
4F
330
1E
100
AcDbEntity
  8
OVERLAY_MAP
  6
C_SOLID_L
100
AcDbText
 10
126.999998
 20
-6.349999999999999
 30
0.0
 40
4.1672
  1
001
100
AcDbText
  0
TEXT
  5
50
330
1E
100
AcDbEntity
  8
OVERLAY_MAP
  6
C_SOLID_L
100
AcDbText
 10
177.7999969999999
 20
-6.349999999999999
 30
0.0
 40
4.1672
  1
                                                                   00118
100
AcDbText
  0
LINE
  5
51
330
1E
100
AcDbEntity
  8
MO_001_VIEW_PV
  6
C_SOLID_M
100
AcDbLine
 10
0.0
 20
8.3
 30
0.0
 11
0.0
 21
-8.3
 31
0.0
  0
LINE
  5
52
330
1E
100
AcDbEntity
  8
MO_001_VIEW_PV
  6
C_SOLID_M
100
AcDbLine
 10
0.6
 20
8.5
 30
0.0
 11
0.6
 21
-8.5
 31
0.0
  0
LINE
  5
53
330
1E
100
AcDbEntity
  8
MO_001_VIEW_PV
  6
C_SOLID_M
100
AcDbLine
 10
-6.4
 20
4.25
 30
0.0
 11
-6.4
 21
-4.25
 31
0.0
  0
LINE
  5
54
330
1E
100
AcDbEntity
  8
MO_001_VIEW_PV
  6
C_SOLID_M
100
AcDbLine
 10
-5.65
 20
4.5
 30
0.0
 11
-4.65
 21
4.5
 31
0.0
  0
LINE
  5
55
330
1E
100
AcDbEntity
  8
MO_001_VIEW_PV
  6
C_SOLID_M
100
AcDbLine
 10
-5.65
 20
-4.5
 30
0.0
 11
-4.65
 21
-4.5
 31
0.0
  0
LINE
  5
56
330
1E
100
AcDbEntity
  8
MO_001_VIEW_PV
  6
C_SOLID_M
100
AcDbLine
 10
-5.65
 20
-2.244991999999999
 30
0.0
 11
-5.65
 21
-4.5
 31
0.0
  0
LINE
  5
57
330
1E
100
AcDbEntity
  8
MO_001_VIEW_PV
  6
C_SOLID_M
100
AcDbLine
 10
-6.4
 20
3.75
 30
0.0
 11
-4.65
 21
3.75
 31
0.0
  0
LINE
  5
58
330
1E
100
AcDbEntity
  8
MO_001_VIEW_PV
  6
C_SOLID_M
100
AcDbLine
 10
-6.4
 20
-3.75
 30
0.0
 11
-4.65
 21
-3.75
 31
0.0
  0
LINE
  5
59
330
1E
100
AcDbEntity
  8
MO_001_VIEW_PV
  6
C_SOLID_M
100
AcDbLine
 10
-6.4
 20
-3.75
 30
0.0
 11
-5.65
 21
-4.5
 31
0.0
  0
LINE
  5
5A
330
1E
100
AcDbEntity
  8
MO_001_VIEW_PV
  6
C_SOLID_M
100
AcDbLine
 10
-6.4
 20
3.75
 30
0.0
 11
-5.65
 21
4.5
 31
0.0
  0
LINE
  5
5B
330
1E
100
AcDbEntity
  8
MO_001_VIEW_PV
  6
C_SOLID_M
100
AcDbLine
 10
0.2
 20
8.5
 30
0.0
 11
0.4
 21
8.5
 31
0.0
  0
LINE
  5
5C
330
1E
100
AcDbEntity
  8
MO_001_VIEW_PV
  6
C_SOLID_M
100
AcDbLine
 10
0.2
 20
-8.5
 30
0.0
 11
0.4
 21
-8.5
 31
0.0
  0
LINE
  5
5D
330
1E
100
AcDbEntity
  8
MO_001_VIEW_PV
  6
C_SOLID_M
100
AcDbLine
 10
0.2
 20
8.5
 30
0.0
 11
0.0
 21
8.3
 31
0.0
  0
LINE
  5
5E
330
1E
100
AcDbEntity
  8
MO_001_VIEW_PV
  6
C_SOLID_M
100
AcDbLine
 10
0.4
 20
8.5
 30
0.0
 11
0.6
 21
8.300000999999999
 31
0.0
  0
LINE
  5
5F
330
1E
100
AcDbEntity
  8
MO_001_VIEW_PV
  6
C_SOLID_M
100
AcDbLine
 10
0.2
 20
-8.5
 30
0.0
 11
0.0
 21
-8.3
 31
0.0
  0
LINE
  5
60
330
1E
100
AcDbEntity
  8
MO_001_VIEW_PV
  6
C_SOLID_M
100
AcDbLine
 10
0.4
 20
-8.5
 30
0.0
 11
0.6
 21
-8.300000999999999
 31
0.0
  0
LINE
  5
61
330
1E
100
AcDbEntity
  8
MO_001_VIEW_PV
  6
C_SOLID_M
100
AcDbLine
 10
0.4
 20
8.5
 30
0.0
 11
0.4
 21
-8.5
 31
0.0
  0
LINE
  5
62
330
1E
100
AcDbEntity
  8
MO_001_VIEW_PV
  6
C_SOLID_M
100
AcDbLine
 10
0.2
 20
8.5
 30
0.0
 11
0.2
 21
-8.5
 31
0.0
  0
LINE
  5
63
330
1E
100
AcDbEntity
  8
MO_001_VIEW_PV
  6
C_SOLID_M
100
AcDbLine
 10
26.6
 20
8.5
 30
0.0
 11
26.6
 21
-8.5
 31
0.0
  0
LINE
  5
64
330
1E
100
AcDbEntity
  8
MO_001_VIEW_PV
  6
C_SOLID_M
100
AcDbLine
 10
0.6
 20
8.5
 30
0.0
 11
26.6
 21
8.5
 31
0.0
  0
LINE
  5
65
330
1E
100
AcDbEntity
  8
MO_001_VIEW_PV
  6
C_SOLID_M
100
AcDbLine
 10
0.6
 20
-8.5
 30
0.0
 11
26.6
 21
-8.5
 31
0.0
  0
LINE
  5
66
330
1E
100
AcDbEntity
  8
MO_001_VIEW_PV
  6
C_SOLID_M
100
AcDbLine
 10
-0.9
 20
-2.244991999999999
 30
0.0
 11
-0.9
 21
-4.5
 31
0.0
  0
LINE
  5
67
330
1E
100
AcDbEntity
  8
MO_001_VIEW_PV
  6
C_SOLID_M
100
AcDbLine
 10
-0.9
 20
-3.75
 30
0.0
 11
0.0
 21
-4.5
 31
0.0
  0
LINE
  5
68
330
1E
100
AcDbEntity
  8
MO_001_VIEW_PV
  6
C_SOLID_M
100
AcDbLine
 10
-0.9
 20
3.75
 30
0.0
 11
0.0
 21
4.5
 31
0.0
  0
LINE
  5
69
330
1E
100
AcDbEntity
  8
MO_001_VIEW_PV
  6
C_SOLID_M
100
AcDbLine
 10
-7.2
 20
4.25
 30
0.0
 11
-7.2
 21
-4.25
 31
0.0
  0
LINE
  5
6A
330
1E
100
AcDbEntity
  8
MO_001_VIEW_PV
  6
C_SOLID_M
100
AcDbLine
 10
-7.2
 20
4.25
 30
0.0
 11
-6.4
 21
4.25
 31
0.0
  0
LINE
  5
6B
330
1E
100
AcDbEntity
  8
MO_001_VIEW_PV
  6
C_SOLID_M
100
AcDbLine
 10
-7.2
 20
-4.25
 30
0.0
 11
-6.4
 21
-4.25
 31
0.0
  0
LINE
  5
6C
330
1E
100
AcDbEntity
  8
MO_001_VIEW_PV
  6
C_SOLID_M
100
AcDbLine
 10
-7.800000999999999
 20
3.5
 30
0.0
 11
-7.800000999999999
 21
-2.744483999999999
 31
0.0
  0
LINE
  5
6D
330
1E
100
AcDbEntity
  8
MO_001_VIEW_PV
  6
C_SOLID_M
100
AcDbLine
 10
-7.2
 20
3.5
 30
0.0
 11
-7.2
 21
-2.744483999999999
 31
0.0
  0
LINE
  5
6E
330
1E
100
AcDbEntity
  8
MO_001_VIEW_PV
  6
C_SOLID_M
100
AcDbLine
 10
-7.800000999999999
 20
3.5
 30
0.0
 11
-7.2
 21
3.5
 31
0.0
  0
LINE
  5
6F
330
1E
100
AcDbEntity
  8
MO_001_VIEW_PV
  6
C_SOLID_M
100
AcDbLine
 10
-7.800000999999999
 20
-2.744483999999999
 30
0.0
 11
-7.2
 21
-2.744483999999999
 31
0.0
  0
LINE
  5
70
330
1E
100
AcDbEntity
  8
MO_001_VIEW_PV
  6
C_SOLID_M
100
AcDbLine
 10
-17.50000199999999
 20
-0.9
 30
0.0
 11
-17.50000199999999
 21
-2.5
 31
0.0
  0
LINE
  5
71
330
1E
100
AcDbEntity
  8
MO_001_VIEW_PV
  6
C_CENTER_L
100
AcDbLine
 10
-14.300001
 20
3.891607
 30
0.0
 11
-14.300001
 21
-3.629920999999999
 31
0.0
  0
LINE
  5
72
330
1E
100
AcDbEntity
  8
MO_001_VIEW_PV
  6
C_SOLID_M
100
AcDbLine
 10
-17.50000199999999
 20
-2.5
 30
0.0
 11
-15.100001
 21
-2.5
 31
0.0
  0
LINE
  5
73
330
1E
100
AcDbEntity
  8
MO_001_VIEW_PV
  6
C_SOLID_M
100
AcDbLine
 10
-11.00000199999999
 20
0.9
 30
0.0
 11
-11.00000199999999
 21
-0.9
 31
0.0
  0
LINE
  5
74
330
1E
100
AcDbEntity
  8
MO_001_VIEW_PV
  6
C_SOLID_M
100
AcDbLine
 10
-17.50000199999999
 20
0.9
 30
0.0
 11
-11.00000199999999
 21
0.9
 31
0.0
  0
LINE
  5
75
330
1E
100
AcDbEntity
  8
MO_001_VIEW_PV
  6
C_SOLID_M
100
AcDbLine
 10
-17.50000199999999
 20
-0.9
 30
0.0
 11
-11.00000199999999
 21
-0.9
 31
0.0
  0
LINE
  5
76
330
1E
100
AcDbEntity
  8
MO_001_VIEW_PV
  6
C_SOLID_M
100
AcDbLine
 10
-17.50000199999999
 20
2.5
 30
0.0
 11
-17.50000199999999
 21
0.9
 31
0.0
  0
LINE
  5
77
330
1E
100
AcDbEntity
  8
MO_001_VIEW_PV
  6
C_DASHED_M
100
AcDbLine
 10
-13.500001
 20
2.5
 30
0.0
 11
-13.500001
 21
0.9
 31
0.0
  0
LINE
  5
78
330
1E
100
AcDbEntity
  8
MO_001_VIEW_PV
  6
C_DASHED_M
100
AcDbLine
 10
-15.100001
 20
2.5
 30
0.0
 11
-15.100001
 21
0.9
 31
0.0
  0
LINE
  5
79
330
1E
100
AcDbEntity
  8
MO_001_VIEW_PV
  6
C_DASHED_M
100
AcDbLine
 10
-13.500001
 20
-2.5
 30
0.0
 11
-13.500001
 21
-0.9
 31
0.0
  0
LINE
  5
7A
330
1E
100
AcDbEntity
  8
MO_001_VIEW_PV
  6
C_DASHED_M
100
AcDbLine
 10
-15.100001
 20
-2.5
 30
0.0
 11
-15.100001
 21
-0.9
 31
0.0
  0
LINE
  5
7B
330
1E
100
AcDbEntity
  8
MO_001_VIEW_PV
  6
C_SOLID_M
100
AcDbLine
 10
-2.649999999999999
 20
6.024287999999999
 30
0.0
 11
-2.649999999999999
 21
-6.024287999999999
 31
0.0
  0
LINE
  5
7C
330
1E
100
AcDbEntity
  8
MO_001_VIEW_PV
  6
C_SOLID_M
100
AcDbLine
 10
-2.890009
 20
6.920000999999999
 30
0.0
 11
-4.409996999999999
 21
6.920000999999999
 31
0.0
  0
LINE
  5
7D
330
1E
100
AcDbEntity
  8
MO_001_VIEW_PV
  6
C_SOLID_M
100
AcDbLine
 10
-2.890009
 20
-6.920000999999999
 30
0.0
 11
-4.409996999999999
 21
-6.920000999999999
 31
0.0
  0
LINE
  5
7E
330
1E
100
AcDbEntity
  8
MO_001_VIEW_PV
  6
C_SOLID_M
100
AcDbLine
 10
-3.159637
 20
3.460001
 30
0.0
 11
-4.140362999999999
 21
3.460001
 31
0.0
  0
LINE
  5
7F
330
1E
100
AcDbEntity
  8
MO_001_VIEW_PV
  6
C_SOLID_M
100
AcDbLine
 10
-3.159637
 20
-3.460001
 30
0.0
 11
-4.140362999999999
 21
-3.460001
 31
0.0
  0
LINE
  5
80
330
1E
100
AcDbEntity
  8
MO_001_VIEW_PV
  6
C_SOLID_M
100
AcDbLine
 10
-2.650006
 20
6.024288999999999
 30
0.0
 11
-2.890009999999999
 21
6.919999
 31
0.0
  0
LINE
  5
81
330
1E
100
AcDbEntity
  8
MO_001_VIEW_PV
  6
C_SOLID_M
100
AcDbLine
 10
-4.410002999999999
 20
-6.920003999999999
 30
0.0
 11
-4.650005
 21
-6.024305
 31
0.0
  0
LINE
  5
82
330
1E
100
AcDbEntity
  8
MO_001_VIEW_PV
  6
C_SOLID_M
100
AcDbLine
 10
-4.410002999999999
 20
6.920003999999999
 30
0.0
 11
-4.650005
 21
6.024305
 31
0.0
  0
LINE
  5
83
330
1E
100
AcDbEntity
  8
MO_001_VIEW_PV
  6
C_SOLID_M
100
AcDbLine
 10
-2.650006
 20
-6.024288999999999
 30
0.0
 11
-2.890009999999999
 21
-6.919999
 31
0.0
  0
ARC
  5
84
330
1E
100
AcDbEntity
  8
MO_001_VIEW_PV
  6
C_SOLID_M
100
AcDbCircle
 10
-14.65
 20
0.0
 30
0.0
 40
12.0
100
AcDbArc
 50
343.2418149999999
 51
16.758209
  0
ARC
  5
85
330
1E
100
AcDbEntity
  8
MO_001_VIEW_PV
  6
C_SOLID_M
100
AcDbCircle
 10
-5.841124999999999
 20
5.190001
 30
0.0
 40
3.191123
100
AcDbArc
 50
327.171341
 51
0.000018
  0
ARC
  5
86
330
1E
100
AcDbEntity
  8
MO_001_VIEW_PV
  6
C_SOLID_M
100
AcDbCircle
 10
-5.841124999999999
 20
-5.190001
 30
0.0
 40
3.191123
100
AcDbArc
 50
0.0
 51
32.828659
  0
ARC
  5
87
330
1E
100
AcDbEntity
  8
MO_001_VIEW_PV
  6
C_SOLID_M
100
AcDbCircle
 10
7.349999999999999
 20
0.0
 30
0.0
 40
12.0
100
AcDbArc
 50
163.241794
 51
196.758188
  0
ARC
  5
88
330
1E
100
AcDbEntity
  8
MO_001_VIEW_PV
  6
C_SOLID_M
100
AcDbCircle
 10
-1.458874999999999
 20
5.190001
 30
0.0
 40
3.191123
100
AcDbArc
 50
179.9999639999999
 51
212.8286399999999
  0
ARC
  5
89
330
1E
100
AcDbEntity
  8
MO_001_VIEW_PV
  6
C_SOLID_M
100
AcDbCircle
 10
-1.458874999999999
 20
-5.190001
 30
0.0
 40
3.191123
100
AcDbArc
 50
147.171343
 51
180.0000189999999
  0
LINE
  5
8A
330
1E
100
AcDbEntity
  8
MO_001_VIEW_PV
  6
C_SOLID_M
100
AcDbLine
 10
-4.65
 20
6.024302999999999
 30
0.0
 11
-4.65
 21
-6.024302999999999
 31
0.0
  0
LINE
  5
8B
330
1E
100
AcDbEntity
  8
MO_001_VIEW_PV
  6
C_CENTER_L
100
AcDbLine
 10
-7.42713
 20
0.0
 30
0.0
 11
0.2953429999999999
 21
0.0
 31
0.0
  0
LINE
  5
8C
330
1E
100
AcDbEntity
  8
MO_001_VIEW_PV
  6
C_CENTER_L
100
AcDbLine
 10
-63.0
 20
11.5
 30
0.0
 11
-63.0
 21
-11.5
 31
0.0
  0
ARC
  5
8D
330
1E
100
AcDbEntity
  8
MO_001_VIEW_PV
  6
C_SOLID_M
100
AcDbCircle
 10
-63.0
 20
0.0
 30
0.0
 40
4.5
100
AcDbArc
 50
29.92639499999999
 51
330.073618
  0
LINE
  5
8E
330
1E
100
AcDbEntity
  8
MO_001_VIEW_PV
  6
C_SOLID_M
100
AcDbLine
 10
-59.099998
 20
2.244991999999999
 30
0.0
 11
-59.099998
 21
1.688931
 31
0.0
  0
LINE
  5
8F
330
1E
100
AcDbEntity
  8
MO_001_VIEW_PV
  6
C_SOLID_M
100
AcDbLine
 10
-6.249998999999999
 20
-2.244991999999999
 30
0.0
 11
-4.65
 21
-2.244991999999999
 31
0.0
  0
LINE
  5
90
330
1E
100
AcDbEntity
  8
MO_001_VIEW_PV
  6
C_SOLID_M
100
AcDbLine
 10
-6.249998999999999
 20
2.244991999999999
 30
0.0
 11
-4.65
 21
2.244991999999999
 31
0.0
  0
LINE
  5
91
330
1E
100
AcDbEntity
  8
MO_001_VIEW_PV
  6
C_SOLID_M
100
AcDbLine
 10
-0.9
 20
4.5
 30
0.0
 11
-0.9
 21
2.244991999999999
 31
0.0
  0
LINE
  5
92
330
1E
100
AcDbEntity
  8
MO_001_VIEW_PV
  6
C_SOLID_M
100
AcDbLine
 10
-2.649999999999999
 20
4.5
 30
0.0
 11
0.0
 21
4.5
 31
0.0
  0
LINE
  5
93
330
1E
100
AcDbEntity
  8
MO_001_VIEW_PV
  6
C_SOLID_M
100
AcDbLine
 10
-2.649999999999999
 20
3.75
 30
0.0
 11
-0.9
 21
3.75
 31
0.0
  0
LINE
  5
94
330
1E
100
AcDbEntity
  8
MO_001_VIEW_PV
  6
C_SOLID_M
100
AcDbLine
 10
-2.649999999999999
 20
-2.244991999999999
 30
0.0
 11
0.0
 21
-2.244991999999999
 31
0.0
  0
LINE
  5
95
330
1E
100
AcDbEntity
  8
MO_001_VIEW_PV
  6
C_SOLID_M
100
AcDbLine
 10
-2.649999999999999
 20
2.244991999999999
 30
0.0
 11
0.0
 21
2.244991999999999
 31
0.0
  0
LINE
  5
96
330
1E
100
AcDbEntity
  8
MO_001_VIEW_PV
  6
C_SOLID_M
100
AcDbLine
 10
-2.649999999999999
 20
-3.75
 30
0.0
 11
-0.9
 21
-3.75
 31
0.0
  0
LINE
  5
97
330
1E
100
AcDbEntity
  8
MO_001_VIEW_PV
  6
C_SOLID_M
100
AcDbLine
 10
-2.649999999999999
 20
-4.5
 30
0.0
 11
0.0
 21
-4.5
 31
0.0
  0
LINE
  5
98
330
1E
100
AcDbEntity
  8
MO_001_VIEW_PV
  6
C_SOLID_M
100
AcDbLine
 10
-6.249998999999999
 20
2.244991999999999
 30
0.0
 11
-6.249998999999999
 21
-2.244991999999999
 31
0.0
  0
LINE
  5
99
330
1E
100
AcDbEntity
  8
MO_001_VIEW_PV
  6
C_SOLID_M
100
AcDbLine
 10
-5.65
 20
4.5
 30
0.0
 11
-5.65
 21
2.244991999999999
 31
0.0
  0
CIRCLE
  5
9A
330
1E
100
AcDbEntity
  8
MO_001_VIEW_PV
  6
C_SOLID_M
100
AcDbCircle
 10
-63.0
 20
0.0
 30
0.0
 40
8.5
  0
CIRCLE
  5
9B
330
1E
100
AcDbEntity
  8
MO_001_VIEW_PV
  6
C_SOLID_M
100
AcDbCircle
 10
-63.0
 20
0.0
 30
0.0
 40
8.3
  0
LINE
  5
9C
330
1E
100
AcDbEntity
  8
MO_001_VIEW_PV
  6
C_CENTER_L
100
AcDbLine
 10
-74.5
 20
0.0
 30
0.0
 11
-51.5
 21
0.0
 31
0.0
  0
ARC
  5
9D
330
1E
100
AcDbEntity
  8
MO_001_VIEW_PV
  6
C_SOLID_L
100
AcDbCircle
 10
-63.0
 20
0.0
 30
0.0
 40
4.5
100
AcDbArc
 50
330.073618
 51
29.92639499999999
  0
LINE
  5
9E
330
1E
100
AcDbEntity
  8
MO_001_VIEW_PV
  6
C_SOLID_M
100
AcDbLine
 10
-57.0
 20
-3.460001
 30
0.0
 11
-57.0
 21
3.460001
 31
0.0
  0
CIRCLE
  5
9F
330
1E
100
AcDbEntity
  8
MO_001_VIEW_PV
  6
C_SOLID_M
100
AcDbCircle
 10
-63.0
 20
0.0
 30
0.0
 40
6.0
  0
LINE
  5
A0
330
1E
100
AcDbEntity
  8
MO_001_VIEW_PV
  6
C_SOLID_M
100
AcDbLine
 10
-57.003552
 20
3.466152999999999
 30
0.0
 11
-62.996453
 21
6.926155999999999
 31
0.0
  0
LINE
  5
A1
330
1E
100
AcDbEntity
  8
MO_001_VIEW_PV
  6
C_SOLID_M
100
AcDbLine
 10
-63.003552
 20
6.926150999999999
 30
0.0
 11
-68.996453
 21
3.466148
 31
0.0
  0
LINE
  5
A2
330
1E
100
AcDbEntity
  8
MO_001_VIEW_PV
  6
C_SOLID_M
100
AcDbLine
 10
-69.0
 20
3.460001
 30
0.0
 11
-69.0
 21
-3.459999999999999
 31
0.0
  0
LINE
  5
A3
330
1E
100
AcDbEntity
  8
MO_001_VIEW_PV
  6
C_SOLID_M
100
AcDbLine
 10
-68.996453
 20
-3.466148
 30
0.0
 11
-63.003552
 21
-6.926150999999999
 31
0.0
  0
LINE
  5
A4
330
1E
100
AcDbEntity
  8
MO_001_VIEW_PV
  6
C_SOLID_M
100
AcDbLine
 10
-62.996453
 20
-6.926155999999999
 30
0.0
 11
-57.003552
 21
-3.466152999999999
 31
0.0
  0
CIRCLE
  5
A5
330
1E
100
AcDbEntity
  8
MO_001_VIEW_PV
  6
C_SOLID_M
100
AcDbCircle
 10
-63.0
 20
0.0
 30
0.0
 40
4.25
  0
LINE
  5
A6
330
1E
100
AcDbEntity
  8
MO_001_VIEW_PV
  6
C_SOLID_M
100
AcDbLine
 10
-59.099998
 20
-1.688931
 30
0.0
 11
-59.099998
 21
-2.244991999999999
 31
0.0
  0
ARC
  5
A7
330
1E
100
AcDbEntity
  8
MO_001_VIEW_PV
  6
C_SOLID_M
100
AcDbCircle
 10
-63.0
 20
0.0
 30
0.0
 40
3.5
100
AcDbArc
 50
310.190647
 51
229.809364
  0
ARC
  5
A8
330
1E
100
AcDbEntity
  8
MO_001_VIEW_PV
  6
C_SOLID_M
100
AcDbCircle
 10
-63.0
 20
0.0
 30
0.0
 40
2.6
100
AcDbArc
 50
7.494717999999999
 51
52.505283
  0
ARC
  5
A9
330
1E
100
AcDbEntity
  8
MO_001_VIEW_PV
  6
C_SOLID_M
100
AcDbCircle
 10
-63.0
 20
0.0
 30
0.0
 40
2.6
100
AcDbArc
 50
127.4947149999999
 51
172.505279
  0
ARC
  5
AA
330
1E
100
AcDbEntity
  8
MO_001_VIEW_PV
  6
C_SOLID_M
100
AcDbCircle
 10
-65.28035
 20
0.3
 30
0.0
 40
0.3
100
AcDbArc
 50
172.505279
 51
223.422769
  0
ARC
  5
AB
330
1E
100
AcDbEntity
  8
MO_001_VIEW_PV
  6
C_SOLID_M
100
AcDbCircle
 10
-60.71965
 20
0.3
 30
0.0
 40
0.3
100
AcDbArc
 50
316.5772229999999
 51
7.494717
  0
ARC
  5
AC
330
1E
100
AcDbEntity
  8
MO_001_VIEW_PV
  6
C_SOLID_M
100
AcDbCircle
 10
-64.399986
 20
1.824841999999999
 30
0.0
 40
0.3
100
AcDbArc
 50
76.57646800000001
 51
127.4947149999999
  0
ARC
  5
AD
330
1E
100
AcDbEntity
  8
MO_001_VIEW_PV
  6
C_SOLID_M
100
AcDbCircle
 10
-61.600014
 20
1.824841999999999
 30
0.0
 40
0.3
100
AcDbArc
 50
52.50528599999999
 51
103.4235299999999
  0
LINE
  5
AE
330
1E
100
AcDbEntity
  8
MO_001_VIEW_PV
  6
C_SOLID_M
100
AcDbLine
 10
-61.3884
 20
-1.91122
 30
0.0
 11
-61.224707
 21
-2.522132
 31
0.0
  0
LINE
  5
AF
330
1E
100
AcDbEntity
  8
MO_001_VIEW_PV
  6
C_SOLID_M
100
AcDbLine
 10
-64.775287
 20
-2.522129999999999
 30
0.0
 11
-64.611593
 21
-1.911218
 31
0.0
  0
ARC
  5
B0
330
1E
100
AcDbEntity
  8
MO_001_VIEW_PV
  6
C_SOLID_M
100
AcDbCircle
 10
-65.06506299999999
 20
-2.444484
 30
0.0
 40
0.3
100
AcDbArc
 50
229.809341
 51
344.9999859999999
  0
ARC
  5
B1
330
1E
100
AcDbEntity
  8
MO_001_VIEW_PV
  6
C_SOLID_M
100
AcDbCircle
 10
-60.93493699999999
 20
-2.444484
 30
0.0
 40
0.3
100
AcDbArc
 50
195.000006
 51
310.190664
  0
CIRCLE
  5
B2
330
1E
100
AcDbEntity
  8
MO_001_VIEW_PV
  6
C_SOLID_M
100
AcDbCircle
 10
-63.0
 20
0.0
 30
0.0
 40
2.5
  0
LINE
  5
B3
330
1E
100
AcDbEntity
  8
MO_001_VIEW_PV
  6
C_SOLID_M
100
AcDbLine
 10
-65.33238199999999
 20
0.9
 30
0.0
 11
-60.667618
 21
0.9
 31
0.0
  0
LINE
  5
B4
330
1E
100
AcDbEntity
  8
MO_001_VIEW_PV
  6
C_SOLID_M
100
AcDbLine
 10
-65.33238199999999
 20
-0.9
 30
0.0
 11
-60.667618
 21
-0.9
 31
0.0
  0
LINE
  5
B5
330
1E
100
AcDbEntity
  8
MO_001_VIEW_PV
  6
C_DASHED_M
100
AcDbLine
 10
-62.19999699999999
 20
2.368542999999999
 30
0.0
 11
-62.19999699999999
 21
0.9
 31
0.0
  0
LINE
  5
B6
330
1E
100
AcDbEntity
  8
MO_001_VIEW_PV
  6
C_DASHED_M
100
AcDbLine
 10
-63.800003
 20
2.368542999999999
 30
0.0
 11
-63.800003
 21
0.9
 31
0.0
  0
LINE
  5
B7
330
1E
100
AcDbEntity
  8
MO_001_VIEW_PV
  6
C_DASHED_M
100
AcDbLine
 10
-62.19999699999999
 20
-2.368542999999999
 30
0.0
 11
-62.19999699999999
 21
-0.9
 31
0.0
  0
LINE
  5
B8
330
1E
100
AcDbEntity
  8
MO_001_VIEW_PV
  6
C_DASHED_M
100
AcDbLine
 10
-63.800003
 20
-2.368542999999999
 30
0.0
 11
-63.800003
 21
-0.9
 31
0.0
  0
LINE
  5
B9
330
1E
100
AcDbEntity
  8
MO_001_VIEW_PV
  6
C_SOLID_M
100
AcDbLine
 10
32.355298
 20
-11.51397899999999
 30
0.0
 11
29.63315599999999
 21
-8.791838
 31
0.0
  0
LINE
  5
BA
330
1E
100
AcDbEntity
  8
MO_001_VIEW_PV
  6
C_SOLID_M
100
AcDbLine
 10
33.387673
 20
-10.48161799999999
 30
0.0
 11
30.665525
 21
-7.759469
 31
0.0
  0
ARC
  5
BB
330
1E
100
AcDbEntity
  8
MO_001_VIEW_PV
  6
C_SOLID_M
100
AcDbCircle
 10
32.811432
 20
-11.45393899999999
 30
0.0
 40
0.4600680000000001
100
AcDbArc
 50
82.49936899999999
 51
187.500577
  0
ARC
  5
BC
330
1E
100
AcDbEntity
  8
MO_001_VIEW_PV
  6
C_SOLID_M
100
AcDbCircle
 10
32.415356
 20
-11.057864
 30
0.0
 40
0.4600680000000001
100
AcDbArc
 50
262.4994389999999
 51
7.500596999999999
  0
ARC
  5
BD
330
1E
100
AcDbEntity
  8
MO_001_VIEW_PV
  6
C_SOLID_M
100
AcDbCircle
 10
32.93154499999999
 20
-10.541674
 30
0.0
 40
0.4600680000000001
100
AcDbArc
 50
262.499576
 51
7.501142999999999
  0
LINE
  5
BE
330
1E
100
AcDbEntity
  8
MO_001_VIEW_PV
  6
C_SOLID_M
100
AcDbLine
 10
40.10518799999999
 20
-17.199135
 30
0.0
 11
34.09477899999999
 21
-11.18872499999999
 31
0.0
  0
LINE
  5
BF
330
1E
100
AcDbEntity
  8
MO_001_VIEW_PV
  6
C_SOLID_M
100
AcDbLine
 10
39.07282
 20
-18.231504
 30
0.0
 11
33.06240999999999
 21
-12.221093
 31
0.0
  0
ARC
  5
C0
330
1E
100
AcDbEntity
  8
MO_001_VIEW_PV
  6
C_SOLID_M
100
AcDbCircle
 10
34.034737
 20
-11.64484999999999
 30
0.0
 40
0.4600680000000001
100
AcDbArc
 50
82.49942299999998
 51
187.5006319999999
  0
ARC
  5
C1
330
1E
100
AcDbEntity
  8
MO_001_VIEW_PV
  6
C_SOLID_M
100
AcDbCircle
 10
33.63865999999999
 20
-11.24877499999999
 30
0.0
 40
0.4600680000000001
100
AcDbArc
 50
262.4993979999999
 51
7.500556
  0
ARC
  5
C2
330
1E
100
AcDbEntity
  8
MO_001_VIEW_PV
  6
C_SOLID_M
100
AcDbCircle
 10
33.518547
 20
-12.16104
 30
0.0
 40
0.4600680000000001
100
AcDbArc
 50
82.49957400000001
 51
187.501151
  0
LINE
  5
C3
330
1E
100
AcDbEntity
  8
MO_001_VIEW_PV
  6
C_SOLID_M
100
AcDbLine
 10
39.072819
 20
-18.23150199999999
 30
0.0
 11
40.10518799999999
 21
-17.19913299999999
 31
0.0
  0
LINE
  5
C4
330
1E
100
AcDbEntity
  8
MO_001_VIEW_PV
  6
C_SOLID_M
100
AcDbLine
 10
39.76577899999999
 20
-17.538542
 30
0.0
 11
43.30131399999999
 21
-21.074075
 31
0.0
  0
LINE
  5
C5
330
1E
100
AcDbEntity
  8
MO_001_VIEW_PV
  6
C_SOLID_M
100
AcDbLine
 10
39.412226
 20
-17.892095
 30
0.0
 11
42.94775999999999
 21
-21.427629
 31
0.0
  0
LINE
  5
C6
330
1E
100
AcDbEntity
  8
MO_001_VIEW_PV
  6
C_SOLID_M
100
AcDbLine
 10
42.94776099999999
 20
-21.427629
 30
0.0
 11
43.30131399999999
 21
-21.074075
 31
0.0
  0
ARC
  5
C7
330
1E
100
AcDbEntity
  8
MO_001_VIEW_PV
  6
C_SOLID_M
100
AcDbCircle
 10
27.129995
 20
-11.29500399999999
 30
0.0
 40
3.540008999999999
100
AcDbArc
 50
45.000001
 51
89.99998900000001
  0
ARC
  5
C8
330
1E
100
AcDbEntity
  8
MO_001_VIEW_PV
  6
C_SOLID_M
100
AcDbCircle
 10
27.129995
 20
-11.29500399999999
 30
0.0
 40
5.0
100
AcDbArc
 50
45.000001
 51
89.99998900000001
  0
LINE
  5
C9
330
1E
100
AcDbEntity
  8
MO_001_VIEW_PV
  6
C_SOLID_M
100
AcDbLine
 10
26.6
 20
-7.754995
 30
0.0
 11
27.129995
 21
-7.754995
 31
0.0
  0
LINE
  5
CA
330
1E
100
AcDbEntity
  8
MO_001_VIEW_PV
  6
C_SOLID_M
100
AcDbLine
 10
26.6
 20
-6.295004
 30
0.0
 11
29.129995
 21
-6.295004
 31
0.0
  0
LINE
  5
CB
330
1E
100
AcDbEntity
  8
MO_001_VIEW_PV
  6
C_SOLID_L
100
AcDbLine
 10
-14.779134
 20
-32.0
 30
0.0
 11
26.38331599999999
 21
-32.0
 31
0.0
  0
ARC
  5
CC
330
1E
100
AcDbEntity
  8
MO_001_VIEW_PV
  6
C_SOLID_M
100
AcDbCircle
 10
-14.300001
 20
-4.868526999999999
 30
0.0
 40
2.499983999999999
100
AcDbArc
 50
71.33694799999999
 51
108.66305
  0
LINE
  5
CD
330
1E
100
AcDbEntity
  8
MO_001_VIEW_PV
  6
C_SOLID_M
100
AcDbLine
 10
-13.500001
 20
-2.5
 30
0.0
 11
-7.800000999999999
 21
-2.5
 31
0.0
  0
ARC
  5
CE
330
1E
100
AcDbEntity
  8
MO_001_VIEW_PV
  6
C_SOLID_M
100
AcDbCircle
 10
-14.300001
 20
4.868526999999999
 30
0.0
 40
2.499983999999999
100
AcDbArc
 50
251.33695
 51
288.663052
  0
LINE
  5
CF
330
1E
100
AcDbEntity
  8
MO_001_VIEW_PV
  6
C_SOLID_M
100
AcDbLine
 10
-17.50000199999999
 20
2.5
 30
0.0
 11
-15.100001
 21
2.5
 31
0.0
  0
LINE
  5
D0
330
1E
100
AcDbEntity
  8
MO_001_VIEW_PV
  6
C_SOLID_M
100
AcDbLine
 10
-13.500001
 20
2.5
 30
0.0
 11
-7.800000999999999
 21
2.5
 31
0.0
  0
LINE
  5
D1
330
1E
100
AcDbEntity
  8
MO_001_VIEW_PV
  6
C_SOLID_L
100
AcDbLine
 10
-47.092987
 20
-16.0
 30
0.0
 11
-27.931459
 21
-16.0
 31
0.0
  0
LINE
  5
D2
330
1E
100
AcDbEntity
  8
MO_001_VIEW_PV
  6
C_SOLID_L
100
AcDbLine
 10
-54.843952
 20
-24.0
 30
0.0
 11
-28.38919399999999
 21
-24.0
 31
0.0
  0
LINE
  5
D3
330
1E
100
AcDbEntity
  8
MO_001_VIEW_PV
  6
C_SOLID_M
100
AcDbLine
 10
34.313938
 20
-10.603289
 30
0.0
 11
31.630107
 21
-8.724050999999999
 31
0.0
  0
LINE
  5
D4
330
1E
100
AcDbEntity
  8
MO_001_VIEW_PV
  6
C_SOLID_M
100
AcDbLine
 10
35.151363
 20
-9.407341999999999
 30
0.0
 11
31.99787199999999
 21
-7.199244
 31
0.0
  0
ARC
  5
D5
330
1E
100
AcDbEntity
  8
MO_001_VIEW_PV
  6
C_SOLID_M
100
AcDbCircle
 10
34.752716
 20
-10.46495299999999
 30
0.0
 40
0.4600680000000001
100
AcDbArc
 50
92.49936700000001
 51
197.500575
  0
ARC
  5
D6
330
1E
100
AcDbEntity
  8
MO_001_VIEW_PV
  6
C_SOLID_M
100
AcDbCircle
 10
34.29388
 20
-10.143674
 30
0.0
 40
0.4600680000000001
100
AcDbArc
 50
272.499437
 51
17.500598
  0
ARC
  5
D7
330
1E
100
AcDbEntity
  8
MO_001_VIEW_PV
  6
C_SOLID_M
100
AcDbCircle
 10
34.71259299999999
 20
-9.545689999999998
 30
0.0
 40
0.4600680000000001
100
AcDbArc
 50
272.499574
 51
17.501144
  0
LINE
  5
D8
330
1E
100
AcDbEntity
  8
MO_001_VIEW_PV
  6
C_SOLID_M
100
AcDbLine
 10
42.933307
 20
-14.85632
 30
0.0
 11
35.970511
 21
-9.980917999999999
 31
0.0
  0
LINE
  5
D9
330
1E
100
AcDbEntity
  8
MO_001_VIEW_PV
  6
C_SOLID_M
100
AcDbLine
 10
42.09589099999999
 20
-16.052274
 30
0.0
 11
35.133096
 21
-11.176871
 31
0.0
  0
ARC
  5
DA
330
1E
100
AcDbEntity
  8
MO_001_VIEW_PV
  6
C_SOLID_M
100
AcDbCircle
 10
35.990589
 20
-10.44053899999999
 30
0.0
 40
0.4600680000000001
100
AcDbArc
 50
92.499421
 51
197.50063
  0
ARC
  5
DB
330
1E
100
AcDbEntity
  8
MO_001_VIEW_PV
  6
C_SOLID_M
100
AcDbCircle
 10
35.53175
 20
-10.119259
 30
0.0
 40
0.4600680000000001
100
AcDbArc
 50
272.4993959999999
 51
17.500557
  0
ARC
  5
DC
330
1E
100
AcDbEntity
  8
MO_001_VIEW_PV
  6
C_SOLID_M
100
AcDbCircle
 10
35.571877
 20
-11.038523
 30
0.0
 40
0.4600680000000001
100
AcDbArc
 50
92.499572
 51
197.5011489999999
  0
LINE
  5
DD
330
1E
100
AcDbEntity
  8
MO_001_VIEW_PV
  6
C_SOLID_M
100
AcDbLine
 10
42.09589199999999
 20
-16.05227199999999
 30
0.0
 11
42.933307
 21
-14.856318
 31
0.0
  0
LINE
  5
DE
330
1E
100
AcDbEntity
  8
MO_001_VIEW_PV
  6
C_SOLID_M
100
AcDbLine
 10
42.65799499999999
 20
-15.249508
 30
0.0
 11
46.753755
 21
-18.11739
 31
0.0
  0
LINE
  5
DF
330
1E
100
AcDbEntity
  8
MO_001_VIEW_PV
  6
C_SOLID_M
100
AcDbLine
 10
42.37120599999999
 20
-15.659084
 30
0.0
 11
46.46696699999999
 21
-18.526966
 31
0.0
  0
LINE
  5
E0
330
1E
100
AcDbEntity
  8
MO_001_VIEW_PV
  6
C_SOLID_M
100
AcDbLine
 10
46.466962
 20
-18.526964
 30
0.0
 11
46.75374999999999
 21
-18.117388
 31
0.0
  0
ARC
  5
E1
330
1E
100
AcDbEntity
  8
MO_001_VIEW_PV
  6
C_SOLID_M
100
AcDbCircle
 10
29.129995
 20
-11.29500399999999
 30
0.0
 40
5.0
100
AcDbArc
 50
55.00000299999999
 51
90.000002
  0
LINE
  5
E2
330
1E
100
AcDbEntity
  8
MO_001_VIEW_PV
  6
C_CENTER_L
100
AcDbLine
 10
66.0
 20
-7.0
 30
0.0
 11
66.0
 21
-23.0
 31
0.0
  0
LINE
  5
E3
330
1E
100
AcDbEntity
  8
MO_001_VIEW_PV
  6
C_CENTER_L
100
AcDbLine
 10
58.0
 20
-15.0
 30
0.0
 11
74.0
 21
-15.0
 31
0.0
  0
ARC
  5
E4
330
1E
100
AcDbEntity
  8
MO_001_VIEW_PV
  6
C_SOLID_M
100
AcDbCircle
 10
66.0
 20
-15.0
 30
0.0
 40
4.599999999999999
100
AcDbArc
 50
29.59184199999999
 51
330.408161
  0
LINE
  5
E5
330
1E
100
AcDbEntity
  8
MO_001_VIEW_PV
  6
C_SOLID_M
100
AcDbLine
 10
70.0
 20
-12.728437
 30
0.0
 11
70.0
 21
-17.271564
 31
0.0
  0
LINE
  5
E6
330
1E
100
AcDbEntity
  8
MO_001_VIEW_PV
  6
C_SOLID_L
100
AcDbLine
 10
57.33974599999999
 20
-29.999999
 30
0.0
 11
63.699998
 21
-18.98371799999999
 31
0.0
  0
LINE
  5
E7
330
1E
100
AcDbEntity
  8
MO_001_VIEW_PV
  6
C_SOLID_L
100
AcDbLine
 10
57.339748
 20
-30.0
 30
0.0
 11
78.0
 21
-30.0
 31
0.0
  0
TEXT
  5
E8
330
1E
100
AcDbEntity
  8
MO_001_VIEW_PV
  6
C_SOLID_L
100
AcDbText
 10
-64.488281
 20
-47.08359399999999
 30
0.0
 40
4.167187
  1
S-65 Pull
100
AcDbText
  0
TEXT
  5
E9
330
1E
100
AcDbEntity
  8
MO_001_VIEW_PV
  6
C_SOLID_L
100
AcDbText
 10
-13.216113
 20
-31.280882
 30
0.0
 40
3.0
  1
長さ150以上
100
AcDbText
  0
TEXT
  5
EA
330
1E
100
AcDbEntity
  8
MO_001_VIEW_PV
  6
C_SOLID_L
100
AcDbText
 10
-14.445524
 20
-36.198521
 30
0.0
 40
3.0
  1
(UL1430 AWG28)
100
AcDbText
  0
TEXT
  5
EB
330
1E
100
AcDbEntity
  8
MO_001_VIEW_PV
  6
C_SOLID_L
100
AcDbText
 10
-53.391032
 20
-23.31762499999999
 30
0.0
 40
3.0
  1
M9 P0.75
100
AcDbText
  0
TEXT
  5
EC
330
1E
100
AcDbEntity
  8
MO_001_VIEW_PV
  6
C_SOLID_L
100
AcDbText
 10
-33.909875
 20
-12.467541
 30
0.0
 40
1.5
  1
+0.1
100
AcDbText
  0
TEXT
  5
ED
330
1E
100
AcDbEntity
  8
MO_001_VIEW_PV
  6
C_SOLID_L
100
AcDbText
 10
-33.909875
 20
-14.717541
 30
0.0
 40
1.5
  1
 0
100
AcDbText
  0
TEXT
  5
EE
330
1E
100
AcDbEntity
  8
MO_001_VIEW_PV
  6
C_SOLID_L
100
AcDbText
 10
-45.69558899999999
 20
-15.467541
 30
0.0
 40
3.0
  1
%%C1.6
100
AcDbText
  0
TEXT
  5
EF
330
1E
100
AcDbEntity
  8
MO_001_VIEW_PV
  6
C_SOLID_L
100
AcDbText
 10
13.21428599999999
 20
-47.5
 30
0.0
 40
5.0
  1
単位：mm
100
AcDbText
  0
TEXT
  5
F0
330
1E
100
AcDbEntity
  8
MO_001_VIEW_PV
  6
C_SOLID_L
100
AcDbText
 10
72.408629
 20
-27.310104
 30
0.0
 40
1.5
  1
%%P0.1
100
AcDbText
  0
TEXT
  5
F1
330
1E
100
AcDbEntity
  8
MO_001_VIEW_PV
  6
C_SOLID_L
100
AcDbText
 10
60.622915
 20
-29.185104
 30
0.0
 40
3.0
  1
%%C9.2
100
AcDbText
  0
TEXT
  5
F2
330
1E
100
AcDbEntity
  8
MO_001_VIEW_PV
  6
C_SOLID_L
100
AcDbText
 10
58.214286
 20
-47.5
 30
0.0
 40
5.0
  1
取付け穴
100
AcDbText
  0
TEXT
  5
F3
330
1E
100
AcDbEntity
  8
MO_001_VIEW_PV
  6
C_SOLID_L
100
AcDbText
 10
13.21428599999999
 20
-53.5
 30
0.0
 40
5.0
  1
図は励磁時を示す
100
AcDbText
  0
TEXT
  5
F4
330
1E
100
AcDbEntity
  8
MO_001_VIEW_PV
  6
C_SOLID_L
100
AcDbText
 10
-56.19948
 20
-34.269562
 30
0.0
 40
3.0
  1
M9 P0.75の不完全
100
AcDbText
  0
TEXT
  5
F5
330
1E
100
AcDbEntity
  8
MO_001_VIEW_PV
  6
C_SOLID_L
100
AcDbText
 10
-56.19948
 20
-38.769562
 30
0.0
 40
3.0
  1
ネジ部 1.5以下
100
AcDbText
  0
DIMENSION
  5
F7
330
1E
100
AcDbEntity
  8
MO_001_VIEW_PV
  6
C_SOLID_M
100
AcDbDimension
  2
*D0
 10
12.0
 20
27.0
 30
0.0
 11
12.0
 21
27.0
 31
0.0
  3
STANDARD
100
AcDbAlignedDimension
 13
0.0
 23
8.3
 33
0.0
 14
26.6
 24
8.5
 34
0.0
100
AcDbRotatedDimension
  0
DIMENSION
  5
F9
330
1E
100
AcDbEntity
  8
MO_001_VIEW_PV
  6
C_SOLID_M
100
AcDbDimension
  2
*D1
 10
-8.750000999999999
 20
27.0
 30
0.0
 11
-8.750000999999999
 21
27.0
 31
0.0
  3
STANDARD
100
AcDbAlignedDimension
 13
0.0
 23
8.3
 33
0.0
 14
-17.50000199999999
 24
2.5
 34
0.0
 50
179.97571
100
AcDbRotatedDimension
  0
DIMENSION
  5
FB
330
1E
100
AcDbEntity
  8
MO_001_VIEW_PV
  6
C_SOLID_M
100
AcDbDimension
  2
*D2
 10
12.0
 20
21.0
 30
0.0
 11
12.0
 21
21.0
 31
0.0
  3
STANDARD
100
AcDbAlignedDimension
 13
-14.300001
 23
3.891607
 33
0.0
 14
0.0
 24
8.3
 34
0.0
100
AcDbRotatedDimension
  0
DIMENSION
  5
FD
330
1E
100
AcDbEntity
  8
MO_001_VIEW_PV
  6
C_SOLID_M
100
AcDbDimension
  2
*D3
 10
12.0
 20
15.0
 30
0.0
 11
12.0
 21
15.0
 31
0.0
  3
STANDARD
100
AcDbAlignedDimension
 13
-6.4
 23
4.25
 33
0.0
 14
0.0
 24
8.3
 34
0.0
100
AcDbRotatedDimension
  0
DIMENSION
  5
FF
330
1E
100
AcDbEntity
  8
MO_001_VIEW_PV
  6
C_SOLID_M
100
AcDbDimension
  2
*D4
 10
0.0
 20
-24.0
 30
0.0
 11
0.0
 21
-24.0
 31
0.0
  3
STANDARD
100
AcDbAlignedDimension
 13
-17.50000199999999
 23
-2.5
 33
0.0
 14
-11.00000199999999
 24
-0.9
 34
0.0
100
AcDbRotatedDimension
  0
DIMENSION
  5
101
330
1E
100
AcDbEntity
  8
MO_001_VIEW_PV
  6
C_SOLID_M
100
AcDbDimension
  2
*D5
 10
-24.0
 20
15.0
 30
0.0
 11
-24.0
 21
15.0
 31
0.0
  3
STANDARD
100
AcDbAlignedDimension
 13
-17.50000199999999
 23
0.9
 33
0.0
 14
-17.50000199999999
 24
-0.9
 34
0.0
 50
270.012145
100
AcDbRotatedDimension
  0
DIMENSION
  5
103
330
1E
100
AcDbEntity
  8
MO_001_VIEW_PV
  6
C_SOLID_M
100
AcDbDimension
  2
*D6
 10
-30.0
 20
15.0
 30
0.0
 11
-30.0
 21
15.0
 31
0.0
  3
STANDARD
100
AcDbAlignedDimension
 13
-17.50000199999999
 23
2.5
 33
0.0
 14
-17.50000199999999
 24
-2.5
 34
0.0
 50
270.012145
100
AcDbRotatedDimension
  0
DIMENSION
  5
105
330
1E
100
AcDbEntity
  8
MO_001_VIEW_PV
  6
C_SOLID_M
100
AcDbDimension
  2
*D7
 10
-46.0
 20
21.0
 30
0.0
 11
-46.0
 21
21.0
 31
0.0
  3
STANDARD
100
AcDbAlignedDimension
 13
-57.0
 23
3.460001
 33
0.0
 14
-69.0
 24
3.460001
 34
0.0
100
AcDbRotatedDimension
  0
DIMENSION
  5
107
330
1E
100
AcDbEntity
  8
MO_001_VIEW_PV
  6
C_SOLID_M
100
AcDbDimension
  2
*D8
 10
-63.0
 20
27.0
 30
0.0
 11
-63.0
 21
27.0
 31
0.0
  3
STANDARD
100
AcDbAlignedDimension
 13
-54.5
 23
0.0
 33
0.0
 14
-71.5
 24
0.0
 34
0.0
100
AcDbRotatedDimension
  0
DIMENSION
  5
109
330
1E
100
AcDbEntity
  8
MO_001_VIEW_PV
  6
C_SOLID_M
100
AcDbDimension
  2
*D9
 10
-46.327351
 20
15.0
 30
0.0
 11
-46.327351
 21
15.0
 31
0.0
  3
STANDARD
100
AcDbAlignedDimension
 13
-59.099998
 23
2.244991999999999
 33
0.0
 14
-63.0
 24
11.5
 34
0.0
100
AcDbRotatedDimension
  0
LINE
  5
10A
330
1E
100
AcDbEntity
  8
MO_001_VIEW_PV
  6
C_SOLID_L
100
AcDbLine
 10
36.06761599999999
 20
-15.2263
 30
0.0
 11
26.383317
 21
-32.000001
 31
0.0
  0
POLYLINE
  5
10B
330
1E
100
AcDbEntity
  8
MO_001_VIEW_PV
  6
C_SOLID_L
100
AcDb2dPolyline
 66
     1
 10
0.0
 20
0.0
 30
0.0
 70
     1
  0
VERTEX
  5
1C3
330
10B
100
AcDbEntity
  8
MO_001_VIEW_PV
  6
C_SOLID_L
100
AcDbVertex
100
AcDb2dVertex
 10
34.91382199999999
 20
-18.391753
 30
0.0
  0
VERTEX
  5
1C4
330
10B
100
AcDbEntity
  8
MO_001_VIEW_PV
  6
C_SOLID_L
100
AcDbVertex
100
AcDb2dVertex
 10
35.81361599999999
 20
-15.666241
 30
0.0
  0
VERTEX
  5
1C5
330
10B
100
AcDbEntity
  8
MO_001_VIEW_PV
  6
C_SOLID_L
100
AcDbVertex
100
AcDb2dVertex
 10
33.903151
 20
-17.808242
 30
0.0
  0
SEQEND
  5
1C6
330
10B
100
AcDbEntity
  8
MO_001_VIEW_PV
  6
C_SOLID_L
  0
LINE
  5
110
330
1E
100
AcDbEntity
  8
MO_001_VIEW_PV
  6
C_SOLID_L
100
AcDbLine
 10
-14.300001
 20
-2.368542999999999
 30
0.0
 11
-27.93146
 21
-16.000001
 31
0.0
  0
POLYLINE
  5
111
330
1E
100
AcDbEntity
  8
MO_001_VIEW_PV
  6
C_SOLID_L
100
AcDb2dPolyline
 66
     1
 10
0.0
 20
0.0
 30
0.0
 70
     1
  0
VERTEX
  5
1C7
330
111
100
AcDbEntity
  8
MO_001_VIEW_PV
  6
C_SOLID_L
100
AcDbVertex
100
AcDb2dVertex
 10
-16.23376099999999
 20
-5.127512
 30
0.0
  0
VERTEX
  5
1C8
330
111
100
AcDbEntity
  8
MO_001_VIEW_PV
  6
C_SOLID_L
100
AcDbVertex
100
AcDb2dVertex
 10
-14.659212
 20
-2.727752999999999
 30
0.0
  0
VERTEX
  5
1C9
330
111
100
AcDbEntity
  8
MO_001_VIEW_PV
  6
C_SOLID_L
100
AcDbVertex
100
AcDb2dVertex
 10
-17.058971
 20
-4.302302
 30
0.0
  0
SEQEND
  5
1CA
330
111
100
AcDbEntity
  8
MO_001_VIEW_PV
  6
C_SOLID_L
  0
LINE
  5
116
330
1E
100
AcDbEntity
  8
MO_001_VIEW_PV
  6
C_SOLID_L
100
AcDbLine
 10
-5.15
 20
-4.5
 30
0.0
 11
-28.389193
 21
-24.0
 31
0.0
  0
POLYLINE
  5
117
330
1E
100
AcDbEntity
  8
MO_001_VIEW_PV
  6
C_SOLID_L
100
AcDb2dPolyline
 66
     1
 10
0.0
 20
0.0
 30
0.0
 70
     1
  0
VERTEX
  5
1CB
330
117
100
AcDbEntity
  8
MO_001_VIEW_PV
  6
C_SOLID_L
100
AcDbVertex
100
AcDb2dVertex
 10
-7.31686
 20
-7.079932
 30
0.0
  0
VERTEX
  5
1CC
330
117
100
AcDbEntity
  8
MO_001_VIEW_PV
  6
C_SOLID_L
100
AcDbVertex
100
AcDb2dVertex
 10
-5.53915
 20
-4.826535999999999
 30
0.0
  0
VERTEX
  5
1CD
330
117
100
AcDbEntity
  8
MO_001_VIEW_PV
  6
C_SOLID_L
100
AcDbVertex
100
AcDb2dVertex
 10
-8.067007999999999
 20
-6.185941
 30
0.0
  0
SEQEND
  5
1CE
330
117
100
AcDbEntity
  8
MO_001_VIEW_PV
  6
C_SOLID_L
  0
DIMENSION
  5
11D
330
1E
100
AcDbEntity
  8
MO_001_VIEW_PV
  6
C_SOLID_M
100
AcDbDimension
  2
*D10
 10
81.500839
 20
3.0
 30
0.0
 11
81.500839
 21
3.0
 31
0.0
  3
STANDARD
100
AcDbAlignedDimension
 13
70.0
 23
-12.728437
 33
0.0
 14
61.400002
 24
-15.0
 34
0.0
100
AcDbRotatedDimension
  0
DIMENSION
  5
11F
330
1E
100
AcDbEntity
  8
MO_001_VIEW_PV
  6
C_SOLID_M
100
AcDbDimension
  2
*D11
 10
78.0
 20
-3.0
 30
0.0
 11
78.0
 21
-3.0
 31
0.0
  1
(4)
  3
STANDARD
100
AcDbAlignedDimension
 13
70.0
 23
-12.728437
 33
0.0
 14
66.0
 24
-7.0
 34
0.0
100
AcDbRotatedDimension
  0
LINE
  5
120
330
1E
100
AcDbEntity
  8
MO_001_VIEW_PV
  6
C_SOLID_L
100
AcDbLine
 10
68.300003
 20
-11.01627799999999
 30
0.0
 11
65.999999
 21
-14.99999599999999
 31
0.0
  0
POLYLINE
  5
121
330
1E
100
AcDbEntity
  8
MO_001_VIEW_PV
  6
C_SOLID_L
100
AcDb2dPolyline
 66
     1
 10
0.0
 20
0.0
 30
0.0
 70
     1
  0
VERTEX
  5
1CF
330
121
100
AcDbEntity
  8
MO_001_VIEW_PV
  6
C_SOLID_L
100
AcDbVertex
100
AcDb2dVertex
 10
67.14620699999999
 20
-14.18173099999999
 30
0.0
  0
VERTEX
  5
1D0
330
121
100
AcDbEntity
  8
MO_001_VIEW_PV
  6
C_SOLID_L
100
AcDbVertex
100
AcDb2dVertex
 10
68.046002
 20
-11.456219
 30
0.0
  0
VERTEX
  5
1D1
330
121
100
AcDbEntity
  8
MO_001_VIEW_PV
  6
C_SOLID_L
100
AcDbVertex
100
AcDb2dVertex
 10
66.135535
 20
-13.598219
 30
0.0
  0
SEQEND
  5
1D2
330
121
100
AcDbEntity
  8
MO_001_VIEW_PV
  6
C_SOLID_L
  0
LINE
  5
126
330
1E
100
AcDbEntity
  8
MO_001_VIEW_PV
  6
C_SOLID_L
100
AcDbLine
 10
63.70000699999999
 20
-18.983717
 30
0.0
 11
66.000006
 21
-14.99999899999999
 31
0.0
  0
POLYLINE
  5
127
330
1E
100
AcDbEntity
  8
MO_001_VIEW_PV
  6
C_SOLID_L
100
AcDb2dPolyline
 66
     1
 10
0.0
 20
0.0
 30
0.0
 70
     1
  0
VERTEX
  5
1D3
330
127
100
AcDbEntity
  8
MO_001_VIEW_PV
  6
C_SOLID_L
100
AcDbVertex
100
AcDb2dVertex
 10
64.853801
 20
-15.818263
 30
0.0
  0
VERTEX
  5
1D4
330
127
100
AcDbEntity
  8
MO_001_VIEW_PV
  6
C_SOLID_L
100
AcDbVertex
100
AcDb2dVertex
 10
63.95400699999999
 20
-18.543776
 30
0.0
  0
VERTEX
  5
1D5
330
127
100
AcDbEntity
  8
MO_001_VIEW_PV
  6
C_SOLID_L
100
AcDbVertex
100
AcDb2dVertex
 10
65.86447199999999
 20
-16.40177399999999
 30
0.0
  0
SEQEND
  5
1D6
330
127
100
AcDbEntity
  8
MO_001_VIEW_PV
  6
C_SOLID_L
  0
ENDSEC
  0
SECTION
  2
OBJECTS
  0
DICTIONARY
  5
1A
330
0
100
AcDbDictionary
  3
ACAD_GROUP
350
1B
  3
ACAD_MLINESTYLE
350
1C
  3
ACAD_LAYOUT
350
1B9
  3
ACAD_PLOTSETTINGS
350
1BA
1001
ACAD
1000
TREAT_AS_HARD
1070
     0
  0
DICTIONARY
  5
1BF
330
1E
100
AcDbDictionary
  3
ACAD_LAYOUTSELFREF
350
1C0
  0
DICTIONARY
  5
1C1
330
1F
100
AcDbDictionary
  3
ACAD_LAYOUTSELFREF
350
1C2
  0
DICTIONARY
  5
1B
102
{ACAD_REACTORS
330
1A
102
}
330
1A
100
AcDbDictionary
1001
ACAD
1000
TREAT_AS_HARD
1070
     0
  0
DICTIONARY
  5
1C
102
{ACAD_REACTORS
330
1A
102
}
330
1A
100
AcDbDictionary
  3
STANDARD
350
1D
1001
ACAD
1000
TREAT_AS_HARD
1070
     0
  0
DICTIONARY
  5
1B9
102
{ACAD_REACTORS
330
1A
102
}
330
1A
100
AcDbDictionary
1001
ACAD
1000
TREAT_AS_HARD
1070
     0
  0
DICTIONARY
  5
1BA
102
{ACAD_REACTORS
330
1A
102
}
330
1A
100
AcDbDictionary
1001
ACAD
1000
TREAT_AS_HARD
1070
     0
  0
XRECORD
  5
1C0
102
{ACAD_REACTORS
330
1BF
102
}
330
1BF
100
AcDbXrecord
340
1E
  0
XRECORD
  5
1C2
102
{ACAD_REACTORS
330
1C1
102
}
330
1C1
100
AcDbXrecord
340
1F
  0
MLINESTYLE
  5
1D
102
{ACAD_REACTORS
330
1C
102
}
330
1C
100
AcDbMlineStyle
  2
STANDARD
 70
     0
  3

 62
     0
 51
90.0
 52
90.0
 71
     2
 49
0.5
 62
   256
  6
BYLAYER
 49
-0.5
 62
   256
  6
BYLAYER
  0
ENDSEC
  0
EOF
