  0
SECTION
  2
HEADER
  9
$ACADVER
  1
AC1012
  9
$DWGCODEPAGE
  3
dos932
  9
$INSBASE
 10
0.0
 20
0.0
 30
0.0
  9
$EXTMIN
 10
-55.13005403092307
 20
-53.50051475566639
 30
-0.0015258207003583
  9
$EXTMAX
 10
101.5413905207386
 20
37.13039801855387
 30
0.0000000349246037
  9
$LIMMIN
 10
-57.0
 20
-57.25
  9
$LIMMAX
 10
101.536552
 20
39.0
  9
$ORTHOMODE
 70
     0
  9
$REGENMODE
 70
     1
  9
$FILLMODE
 70
     1
  9
$QTEXTMODE
 70
     0
  9
$MIRRTEXT
 70
     1
  9
$DRAGMODE
 70
     2
  9
$LTSCALE
 40
1.0
  9
$OSMODE
 70
    37
  9
$ATTMODE
 70
     1
  9
$TEXTSIZE
 40
4.1672
  9
$TRACEWID
 40
0.05
  9
$TEXTSTYLE
  7
STANDARD
  9
$CLAYER
  8
0
  9
$CELTYPE
  6
CONTINUOUS
  9
$CECOLOR
 62
   256
  9
$CELTSCALE
 40
1.0
  9
$DELOBJ
 70
     1
  9
$DISPSILH
 70
     0
  9
$DIMSCALE
 40
1.0
  9
$DIMASZ
 40
0.18
  9
$DIMEXO
 40
0.0625
  9
$DIMDLI
 40
0.38
  9
$DIMRND
 40
0.0
  9
$DIMDLE
 40
0.0
  9
$DIMEXE
 40
0.18
  9
$DIMTP
 40
0.0
  9
$DIMTM
 40
0.0
  9
$DIMTXT
 40
0.18
  9
$DIMCEN
 40
0.09
  9
$DIMTSZ
 40
0.0
  9
$DIMTOL
 70
     0
  9
$DIMLIM
 70
     0
  9
$DIMTIH
 70
     1
  9
$DIMTOH
 70
     1
  9
$DIMSE1
 70
     0
  9
$DIMSE2
 70
     0
  9
$DIMTAD
 70
     0
  9
$DIMZIN
 70
     0
  9
$DIMBLK
  1

  9
$DIMASO
 70
     1
  9
$DIMSHO
 70
     1
  9
$DIMPOST
  1

  9
$DIMAPOST
  1

  9
$DIMALT
 70
     0
  9
$DIMALTD
 70
     2
  9
$DIMALTF
 40
25.4
  9
$DIMLFAC
 40
1.0
  9
$DIMTOFL
 70
     0
  9
$DIMTVP
 40
0.0
  9
$DIMTIX
 70
     0
  9
$DIMSOXD
 70
     0
  9
$DIMSAH
 70
     0
  9
$DIMBLK1
  1

  9
$DIMBLK2
  1

  9
$DIMSTYLE
  2
STANDARD
  9
$DIMCLRD
 70
     0
  9
$DIMCLRE
 70
     0
  9
$DIMCLRT
 70
     0
  9
$DIMTFAC
 40
1.0
  9
$DIMGAP
 40
0.09
  9
$DIMJUST
 70
     0
  9
$DIMSD1
 70
     0
  9
$DIMSD2
 70
     0
  9
$DIMTOLJ
 70
     1
  9
$DIMTZIN
 70
     0
  9
$DIMALTZ
 70
     0
  9
$DIMALTTZ
 70
     0
  9
$DIMFIT
 70
     3
  9
$DIMUPT
 70
     0
  9
$DIMUNIT
 70
     2
  9
$DIMDEC
 70
     4
  9
$DIMTDEC
 70
     4
  9
$DIMALTU
 70
     2
  9
$DIMALTTD
 70
     2
  9
$DIMTXSTY
  7
STANDARD
  9
$DIMAUNIT
 70
     0
  9
$LUNITS
 70
     2
  9
$LUPREC
 70
     6
  9
$SKETCHINC
 40
0.1
  9
$FILLETRAD
 40
0.0
  9
$AUNITS
 70
     0
  9
$AUPREC
 70
     4
  9
$MENU
  1
acad
  9
$ELEVATION
 40
0.0
  9
$PELEVATION
 40
0.0
  9
$THICKNESS
 40
0.0
  9
$LIMCHECK
 70
     0
  9
$BLIPMODE
 70
     0
  9
$CHAMFERA
 40
0.0
  9
$CHAMFERB
 40
0.0
  9
$CHAMFERC
 40
0.0
  9
$CHAMFERD
 40
0.0
  9
$SKPOLY
 70
     0
  9
$TDCREATE
 40
2376126.114255821
  9
$TDUPDATE
 40
2451667.445002546
  9
$TDINDWG
 40
0.0013966435
  9
$TDUSRTIMER
 40
0.0013960648
  9
$USRTIMER
 70
     1
  9
$ANGBASE
 50
0.0
  9
$ANGDIR
 70
     0
  9
$PDMODE
 70
     0
  9
$PDSIZE
 40
0.0
  9
$PLINEWID
 40
0.0
  9
$COORDS
 70
     1
  9
$SPLFRAME
 70
     0
  9
$SPLINETYPE
 70
     6
  9
$SPLINESEGS
 70
     8
  9
$ATTDIA
 70
     0
  9
$ATTREQ
 70
     1
  9
$HANDLING
 70
 10241
  9
$HANDSEED
  5
19C
  9
$SURFTAB1
 70
     6
  9
$SURFTAB2
 70
     6
  9
$SURFTYPE
 70
     6
  9
$SURFU
 70
     6
  9
$SURFV
 70
     6
  9
$UCSNAME
  2
MO_001_VIEW_PV_P
  9
$UCSORG
 10
0.0
 20
0.0
 30
0.0
  9
$UCSXDIR
 10
1.0
 20
0.0
 30
0.0
  9
$UCSYDIR
 10
-0.0000000002051034
 20
1.0
 30
0.0
  9
$PUCSNAME
  2

  9
$PUCSORG
 10
0.0
 20
0.0
 30
0.0
  9
$PUCSXDIR
 10
1.0
 20
0.0
 30
0.0
  9
$PUCSYDIR
 10
0.0
 20
1.0
 30
0.0
  9
$USERI1
 70
     0
  9
$USERI2
 70
     0
  9
$USERI3
 70
     0
  9
$USERI4
 70
     0
  9
$USERI5
 70
     0
  9
$USERR1
 40
0.0
  9
$USERR2
 40
0.0
  9
$USERR3
 40
0.0
  9
$USERR4
 40
0.0
  9
$USERR5
 40
0.0
  9
$WORLDVIEW
 70
     1
  9
$SHADEDGE
 70
     3
  9
$SHADEDIF
 70
    70
  9
$TILEMODE
 70
     1
  9
$MAXACTVP
 70
    16
  9
$PINSBASE
 10
0.0
 20
0.0
 30
0.0
  9
$PLIMCHECK
 70
     0
  9
$PEXTMIN
 10
-57.0
 20
-57.25
 30
1.000000000000000E+20
  9
$PEXTMAX
 10
101.536552
 20
39.0
 30
-1.000000000000000E+20
  9
$PLIMMIN
 10
0.0
 20
0.0
  9
$PLIMMAX
 10
12.0
 20
9.0
  9
$UNITMODE
 70
     0
  9
$VISRETAIN
 70
     0
  9
$PLINEGEN
 70
     0
  9
$PSLTSCALE
 70
     1
  9
$TREEDEPTH
 70
  3020
  9
$PICKSTYLE
 70
     1
  9
$CMLSTYLE
  2
STANDARD
  9
$CMLJUST
 70
     0
  9
$CMLSCALE
 40
1.0
  9
$SAVEIMAGES
 70
     1
  0
ENDSEC
  0
SECTION
  2
CLASSES
  0
CLASS
  1
ACDBDICTIONARYWDFLT
  2
AcDbDictionaryWithDefault
  3
AutoCAD 2000
 90
    32768
280
     0
281
     0
  0
CLASS
  1
ACDBPLACEHOLDER
  2
AcDbPlaceHolder
  3
AutoCAD 2000
 90
    32768
280
     0
281
     0
  0
CLASS
  1
LAYOUT
  2
AcDbLayout
  3
AutoCAD 2000
 90
    32768
280
     0
281
     0
  0
CLASS
  1
LONG_TRANSACTION
  2
AcDbLongTransaction
  3
AutoCAD 2000
 90
    32768
280
     0
281
     0
  0
CLASS
  1
LWPOLYLINE
  2
AcDbPolyline
  3
AutoCAD 2000
 90
    32768
280
     0
281
     1
  0
CLASS
  1
HATCH
  2
AcDbHatch
  3
AutoCAD 2000
 90
    32768
280
     0
281
     1
  0
CLASS
  1
XRECORD
  2
AcDbXrecord
  3
AutoCAD 2000
 90
    32768
280
     0
281
     0
  0
ENDSEC
  0
SECTION
  2
TABLES
  0
TABLE
  2
VPORT
  5
7
330
0
100
AcDbSymbolTable
 70
     2
  0
VPORT
  5
187
330
7
100
AcDbSymbolTableRecord
100
AcDbViewportTableRecord
  2
*ACTIVE
 70
     0
 10
0.0
 20
0.0
 11
1.0
 21
1.0
 12
28.22485240578038
 22
-9.125000791340937
 13
0.0
 23
0.0
 14
6.349999999999999
 24
6.349999999999999
 15
6.349999999999999
 25
6.349999999999999
 16
0.0
 26
0.0
 36
1.0
 17
0.0
 27
0.0
 37
0.0
 40
175.9540314986948
 41
1.691964285714286
 42
50.0
 43
0.0
 44
0.0
 50
0.0
 51
0.0
 71
     0
 72
   100
 73
     1
 74
     1
 75
     0
 76
     0
 77
     0
 78
     0
  0
ENDTAB
  0
TABLE
  2
LTYPE
  5
4
330
0
100
AcDbSymbolTable
 70
    37
  0
LTYPE
  5
12
330
4
100
AcDbSymbolTableRecord
100
AcDbLinetypeTableRecord
  2
BYBLOCK
 70
     0
  3

 72
    65
 73
     0
 40
0.0
  0
LTYPE
  5
13
330
4
100
AcDbSymbolTableRecord
100
AcDbLinetypeTableRecord
  2
BYLAYER
 70
     0
  3

 72
    65
 73
     0
 40
0.0
  0
LTYPE
  5
14
330
4
100
AcDbSymbolTableRecord
100
AcDbLinetypeTableRecord
  2
CONTINUOUS
 70
     0
  3
DXF Default line type
 72
    65
 73
     0
 40
0.0
  0
LTYPE
  5
20
330
4
100
AcDbSymbolTableRecord
100
AcDbLinetypeTableRecord
  2
DASHED
 70
     0
  3
DXF Dashed
 72
    65
 73
     2
 40
0.75
 49
0.5
 74
     0
 49
-0.25
 74
     0
  0
LTYPE
  5
21
330
4
100
AcDbSymbolTableRecord
100
AcDbLinetypeTableRecord
  2
HIDDEN
 70
     0
  3
DXF Hidden
 72
    65
 73
     2
 40
0.375
 49
0.25
 74
     0
 49
-0.125
 74
     0
  0
LTYPE
  5
22
330
4
100
AcDbSymbolTableRecord
100
AcDbLinetypeTableRecord
  2
CENTER
 70
     0
  3
DXF Center
 72
    65
 73
     4
 40
2.0
 49
1.25
 74
     0
 49
-0.25
 74
     0
 49
0.25
 74
     0
 49
-0.25
 74
     0
  0
LTYPE
  5
23
330
4
100
AcDbSymbolTableRecord
100
AcDbLinetypeTableRecord
  2
PHANTOM
 70
     0
  3
DXF Phantom
 72
    65
 73
     6
 40
2.5
 49
1.25
 74
     0
 49
-0.25
 74
     0
 49
0.25
 74
     0
 49
-0.25
 74
     0
 49
0.25
 74
     0
 49
-0.25
 74
     0
  0
LTYPE
  5
24
330
4
100
AcDbSymbolTableRecord
100
AcDbLinetypeTableRecord
  2
DOT
 70
     0
  3
DXF DOT
 72
    65
 73
     2
 40
0.25
 49
0.0
 74
     0
 49
-0.25
 74
     0
  0
LTYPE
  5
25
330
4
100
AcDbSymbolTableRecord
100
AcDbLinetypeTableRecord
  2
DASHDOT
 70
     0
  3
DXF Dash Dot
 72
    65
 73
     4
 40
1.0
 49
0.5
 74
     0
 49
-0.25
 74
     0
 49
0.0
 74
     0
 49
-0.25
 74
     0
  0
LTYPE
  5
26
330
4
100
AcDbSymbolTableRecord
100
AcDbLinetypeTableRecord
  2
BORDER
 70
     0
  3
DXF Border
 72
    65
 73
     6
 40
1.75
 49
0.5
 74
     0
 49
-0.25
 74
     0
 49
0.5
 74
     0
 49
-0.25
 74
     0
 49
0.0
 74
     0
 49
-0.25
 74
     0
  0
LTYPE
  5
27
330
4
100
AcDbSymbolTableRecord
100
AcDbLinetypeTableRecord
  2
DIVIDE
 70
     0
  3
DXF Divide
 72
    65
 73
     6
 40
1.25
 49
0.5
 74
     0
 49
-0.25
 74
     0
 49
0.0
 74
     0
 49
-0.25
 74
     0
 49
0.0
 74
     0
 49
-0.25
 74
     0
  0
LTYPE
  5
28
330
4
100
AcDbSymbolTableRecord
100
AcDbLinetypeTableRecord
  2
C_SOLID_L
 70
     0
  3
CADAM Solid Light
 72
    65
 73
     0
 40
0.0
  0
LTYPE
  5
29
330
4
100
AcDbSymbolTableRecord
100
AcDbLinetypeTableRecord
  2
C_SOLID_M
 70
     0
  3
CADAM Solid Medium
 72
    65
 73
     0
 40
0.0
  0
LTYPE
  5
2A
330
4
100
AcDbSymbolTableRecord
100
AcDbLinetypeTableRecord
  2
C_SOLID_H
 70
     0
  3
CADAM Solid Heavy
 72
    65
 73
     0
 40
0.0
  0
LTYPE
  5
2B
330
4
100
AcDbSymbolTableRecord
100
AcDbLinetypeTableRecord
  2
C_DASHED_L
 70
     0
  3
CADAM Dashed Light
 72
    65
 73
     2
 40
0.375
 49
0.25
 74
     0
 49
-0.125
 74
     0
  0
LTYPE
  5
2C
330
4
100
AcDbSymbolTableRecord
100
AcDbLinetypeTableRecord
  2
C_DASHED_M
 70
     0
  3
CADAM Dashed Medium
 72
    65
 73
     2
 40
0.5
 49
0.375
 74
     0
 49
-0.125
 74
     0
  0
LTYPE
  5
2D
330
4
100
AcDbSymbolTableRecord
100
AcDbLinetypeTableRecord
  2
C_CENTER_L
 70
     0
  3
CADAM Center Light
 72
    65
 73
     4
 40
2.0
 49
1.25
 74
     0
 49
-0.25
 74
     0
 49
0.25
 74
     0
 49
-0.25
 74
     0
  0
LTYPE
  5
2E
330
4
100
AcDbSymbolTableRecord
100
AcDbLinetypeTableRecord
  2
C_PHANTOM_L
 70
     0
  3
CADAM Phantom Light
 72
    65
 73
     6
 40
2.5
 49
1.25
 74
     0
 49
-0.25
 74
     0
 49
0.25
 74
     0
 49
-0.25
 74
     0
 49
0.25
 74
     0
 49
-0.25
 74
     0
  0
LTYPE
  5
2F
330
4
100
AcDbSymbolTableRecord
100
AcDbLinetypeTableRecord
  2
C_BREAK_M
 70
     0
  3
CADAM Break Medium
 72
    65
 73
     4
 40
1.0
 49
0.5
 74
     0
 49
-0.25
 74
     0
 49
0.0
 74
     0
 49
-0.25
 74
     0
  0
LTYPE
  5
30
330
4
100
AcDbSymbolTableRecord
100
AcDbLinetypeTableRecord
  2
C_NC
 70
     0
  3
CADAM NC
 72
    65
 73
     0
 40
0.0
  0
LTYPE
  5
31
330
4
100
AcDbSymbolTableRecord
100
AcDbLinetypeTableRecord
  2
DSH1
 70
     0
  3
CADAM Style2 Type 1 Dashed Line
 72
    65
 73
     2
 40
0.075
 49
0.04
 74
     0
 49
-0.035
 74
     0
  0
LTYPE
  5
32
330
4
100
AcDbSymbolTableRecord
100
AcDbLinetypeTableRecord
  2
DSH2
 70
     0
  3
CADAM Style2 Type 2 Dashed Line
 72
    65
 73
     2
 40
0.15
 49
0.11
 74
     0
 49
-0.04
 74
     0
  0
LTYPE
  5
33
330
4
100
AcDbSymbolTableRecord
100
AcDbLinetypeTableRecord
  2
DSH3
 70
     0
  3
CADAM Style2 Type 3 Dashed Line
 72
    65
 73
     2
 40
0.2
 49
0.15
 74
     0
 49
-0.05
 74
     0
  0
LTYPE
  5
34
330
4
100
AcDbSymbolTableRecord
100
AcDbLinetypeTableRecord
  2
DSH4
 70
     0
  3
CADAM Style2 Type 4 Dashed Line
 72
    65
 73
     2
 40
0.36
 49
0.28
 74
     0
 49
-0.08
 74
     0
  0
LTYPE
  5
35
330
4
100
AcDbSymbolTableRecord
100
AcDbLinetypeTableRecord
  2
DSH5
 70
     0
  3
CADAM Style2 Type 5 Dashed Line
 72
    65
 73
     2
 40
0.47
 49
0.39
 74
     0
 49
-0.08
 74
     0
  0
LTYPE
  5
36
330
4
100
AcDbSymbolTableRecord
100
AcDbLinetypeTableRecord
  2
DSH6
 70
     0
  3
CADAM Style2 Type 6 Dashed Line
 72
    65
 73
     2
 40
0.9
 49
0.8100000000000001
 74
     0
 49
-0.09
 74
     0
  0
LTYPE
  5
37
330
4
100
AcDbSymbolTableRecord
100
AcDbLinetypeTableRecord
  2
PL1
 70
     0
  3
Style 2 Type 1 Phantom Line
 72
    65
 73
     6
 40
1.0
 49
0.6
 74
     0
 49
-0.08
 74
     0
 49
0.08
 74
     0
 49
-0.08
 74
     0
 49
0.08
 74
     0
 49
-0.08
 74
     0
  0
LTYPE
  5
38
330
4
100
AcDbSymbolTableRecord
100
AcDbLinetypeTableRecord
  2
PL2
 70
     0
  3
Style 2 Type 2 Phantom Line
 72
    65
 73
     6
 40
1.08
 49
0.6
 74
     0
 49
-0.08
 74
     0
 49
0.12
 74
     0
 49
-0.08
 74
     0
 49
0.12
 74
     0
 49
-0.08
 74
     0
  0
LTYPE
  5
39
330
4
100
AcDbSymbolTableRecord
100
AcDbLinetypeTableRecord
  2
PL3
 70
     0
  3
Style 2 Type 3 Phantom Line
 72
    65
 73
     6
 40
2.0
 49
1.439999999999999
 74
     0
 49
-0.08
 74
     0
 49
0.16
 74
     0
 49
-0.08
 74
     0
 49
0.16
 74
     0
 49
-0.08
 74
     0
  0
LTYPE
  5
3A
330
4
100
AcDbSymbolTableRecord
100
AcDbLinetypeTableRecord
  2
CL1
 70
     0
  3
CADAM Style 2 Type 1 Center Line
 72
    65
 73
     4
 40
0.7
 49
0.45
 74
     0
 49
-0.06
 74
     0
 49
0.13
 74
     0
 49
-0.06
 74
     0
  0
LTYPE
  5
3B
330
4
100
AcDbSymbolTableRecord
100
AcDbLinetypeTableRecord
  2
CL2
 70
     0
  3
CADAM Style 2 Type 2 Center Line
 72
    65
 73
     4
 40
1.199999999999999
 49
1.01
 74
     0
 49
-0.06
 74
     0
 49
0.11
 74
     0
 49
-0.06
 74
     0
  0
LTYPE
  5
3C
330
4
100
AcDbSymbolTableRecord
100
AcDbLinetypeTableRecord
  2
CL3
 70
     0
  3
CADAM Style 2 Type 3 Center Line
 72
    65
 73
     4
 40
1.199999999999999
 49
0.98
 74
     0
 49
-0.06
 74
     0
 49
0.1
 74
     0
 49
-0.06
 74
     0
  0
LTYPE
  5
3D
330
4
100
AcDbSymbolTableRecord
100
AcDbLinetypeTableRecord
  2
CL4
 70
     0
  3
CADAM Style 2 Type 4 Center Line
 72
    65
 73
     4
 40
2.2
 49
1.929999999999999
 74
     0
 49
-0.07
 74
     0
 49
0.13
 74
     0
 49
-0.07
 74
     0
  0
LTYPE
  5
3E
330
4
100
AcDbSymbolTableRecord
100
AcDbLinetypeTableRecord
  2
CL5
 70
     0
  3
CADAM Style 2 Type 5 Center Line
 72
    65
 73
     4
 40
2.2
 49
1.879999999999999
 74
     0
 49
-0.07
 74
     0
 49
0.18
 74
     0
 49
-0.07
 74
     0
  0
LTYPE
  5
3F
330
4
100
AcDbSymbolTableRecord
100
AcDbLinetypeTableRecord
  2
SBK1
 70
     0
  3
CADAM Style 2 Type 1 SetBack Line
 72
    65
 73
     8
 40
2.7
 49
0.1
 74
     0
 49
-0.08
 74
     0
 49
0.1
 74
     0
 49
-0.8
 74
     0
 49
0.0
 74
     0
 49
0.0
 74
     0
 49
0.0
 74
     0
 49
0.0
 74
     0
  0
LTYPE
  5
40
330
4
100
AcDbSymbolTableRecord
100
AcDbLinetypeTableRecord
  2
SBK2
 70
     0
  3
CADAM Style 2 Type 2 SetBack Line
 72
    65
 73
     8
 40
3.709999999999999
 49
0.13
 74
     0
 49
-0.08
 74
     0
 49
0.13
 74
     0
 49
-0.8
 74
     0
 49
0.0
 74
     0
 49
0.0
 74
     0
 49
0.0
 74
     0
 49
0.0
 74
     0
  0
LTYPE
  5
41
330
4
100
AcDbSymbolTableRecord
100
AcDbLinetypeTableRecord
  2
STCH
 70
     0
  3
CADAM Style2 Stitch Line
 72
    65
 73
     2
 40
0.25
 49
0.0
 74
     0
 49
-0.25
 74
     0
  0
LTYPE
  5
42
330
4
100
AcDbSymbolTableRecord
100
AcDbLinetypeTableRecord
  2
MTCH
 70
     0
  3
CADAM Style2 Match Line
 72
    65
 73
     6
 40
2.0
 49
1.439999999999999
 74
     0
 49
-0.8
 74
     0
 49
0.16
 74
     0
 49
-0.08
 74
     0
 49
0.16
 74
     0
 49
-0.08
 74
     0
  0
LTYPE
  5
43
330
4
100
AcDbSymbolTableRecord
100
AcDbLinetypeTableRecord
  2
SLD
 70
     0
  3
CADAM Solid_EXT2
 72
    65
 73
     0
 40
0.0
  0
ENDTAB
  0
TABLE
  2
LAYER
  5
2
330
0
100
AcDbSymbolTable
 70
     7
  0
LAYER
  5
15
330
2
100
AcDbSymbolTableRecord
100
AcDbLayerTableRecord
  2
0
 70
     0
 62
     7
  6
CONTINUOUS
  0
LAYER
  5
44
330
2
100
AcDbSymbolTableRecord
100
AcDbLayerTableRecord
  2
MO_001_NOSHOW
 70
     1
 62
     7
  6
CONTINUOUS
  0
LAYER
  5
45
330
2
100
AcDbSymbolTableRecord
100
AcDbLayerTableRecord
  2
MO_001_VIEW_PV
 70
     0
 62
     7
  6
CONTINUOUS
  0
LAYER
  5
46
330
2
100
AcDbSymbolTableRecord
100
AcDbLayerTableRecord
  2
OVERLAY_MAP
 70
     1
 62
     7
  6
CONTINUOUS
  0
LAYER
  5
47
330
2
100
AcDbSymbolTableRecord
100
AcDbLayerTableRecord
  2
DITTOS
 70
     0
 62
     7
  6
CONTINUOUS
  0
LAYER
  5
48
330
2
100
AcDbSymbolTableRecord
100
AcDbLayerTableRecord
  2
SYMBOLS
 70
     0
 62
     7
  6
CONTINUOUS
  0
LAYER
  5
49
330
2
100
AcDbSymbolTableRecord
100
AcDbLayerTableRecord
  2
SETS
 70
     0
 62
     7
  6
CONTINUOUS
  0
ENDTAB
  0
TABLE
  2
STYLE
  5
3
330
0
100
AcDbSymbolTable
 70
     1
  0
STYLE
  5
18
330
3
100
AcDbSymbolTableRecord
100
AcDbTextStyleTableRecord
  2
STANDARD
 70
     0
 40
4.1672
 41
1.0
 50
0.0
 71
     0
 42
4.1672
  3
monotxt
  4
BIGFONT
  0
ENDTAB
  0
TABLE
  2
VIEW
  5
5
330
0
100
AcDbSymbolTable
 70
     0
  0
ENDTAB
  0
TABLE
  2
UCS
  5
6
330
0
100
AcDbSymbolTable
 70
     1
  0
UCS
  5
4A
330
6
100
AcDbSymbolTableRecord
100
AcDbUCSTableRecord
  2
MO_001_VIEW_PV_P
 70
     0
 10
0.0
 20
0.0
 30
0.0
 11
1.0
 21
0.0
 31
0.0
 12
-0.0000000002051034
 22
1.0
 32
0.0
  0
ENDTAB
  0
TABLE
  2
APPID
  5
8
330
0
100
AcDbSymbolTable
 70
     1
  0
APPID
  5
17
330
8
100
AcDbSymbolTableRecord
100
AcDbRegAppTableRecord
  2
ACAD
 70
     0
  0
ENDTAB
  0
TABLE
  2
DIMSTYLE
  5
9
330
0
100
AcDbSymbolTable
 70
     1
  0
DIMSTYLE
105
19
102
{ACAD_REACTORS
330
D2
330
D4
330
D6
330
D8
330
DA
330
DC
330
DE
330
E0
330
E2
330
F0
330
F2
102
}
330
9
100
AcDbSymbolTableRecord
100
AcDbDimStyleTableRecord
  2
STANDARD
 70
     0
  3

  4

  5

  6

  7

 40
1.0
 41
0.18
 42
0.0625
 43
0.38
 44
0.18
 45
0.0
 46
0.0
 47
0.0
 48
0.0
140
0.18
141
0.09
142
0.0
143
25.4
144
1.0
145
0.0
146
1.0
147
0.09
 71
     0
 72
     0
 73
     1
 74
     1
 75
     0
 76
     0
 77
     0
 78
     0
170
     0
171
     2
172
     0
173
     0
174
     0
175
     0
176
     0
177
     0
178
     0
270
     2
271
     4
272
     4
273
     2
274
     2
340
18
275
     0
280
     0
281
     0
282
     0
283
     1
284
     0
285
     0
286
     0
287
     3
288
     0
  0
ENDTAB
  0
TABLE
  2
BLOCK_RECORD
  5
C
330
0
100
AcDbSymbolTable
 70
    11
  0
BLOCK_RECORD
  5
1E
102
{ACAD_XDICTIONARY
360
188
102
}
330
C
100
AcDbSymbolTableRecord
100
AcDbBlockTableRecord
  2
*MODEL_SPACE
  0
BLOCK_RECORD
  5
1F
102
{ACAD_XDICTIONARY
360
18A
102
}
330
C
100
AcDbSymbolTableRecord
100
AcDbBlockTableRecord
  2
*PAPER_SPACE
  0
BLOCK_RECORD
  5
D1
330
C
100
AcDbSymbolTableRecord
100
AcDbBlockTableRecord
  2
*D0
  0
BLOCK_RECORD
  5
D3
330
C
100
AcDbSymbolTableRecord
100
AcDbBlockTableRecord
  2
*D1
  0
BLOCK_RECORD
  5
D5
330
C
100
AcDbSymbolTableRecord
100
AcDbBlockTableRecord
  2
*D2
  0
BLOCK_RECORD
  5
D7
330
C
100
AcDbSymbolTableRecord
100
AcDbBlockTableRecord
  2
*D3
  0
BLOCK_RECORD
  5
D9
330
C
100
AcDbSymbolTableRecord
100
AcDbBlockTableRecord
  2
*D4
  0
BLOCK_RECORD
  5
DB
330
C
100
AcDbSymbolTableRecord
100
AcDbBlockTableRecord
  2
*D5
  0
BLOCK_RECORD
  5
DD
330
C
100
AcDbSymbolTableRecord
100
AcDbBlockTableRecord
  2
*D6
  0
BLOCK_RECORD
  5
DF
330
C
100
AcDbSymbolTableRecord
100
AcDbBlockTableRecord
  2
*D7
  0
BLOCK_RECORD
  5
E1
330
C
100
AcDbSymbolTableRecord
100
AcDbBlockTableRecord
  2
*D8
  0
BLOCK_RECORD
  5
EF
330
C
100
AcDbSymbolTableRecord
100
AcDbBlockTableRecord
  2
*D9
  0
BLOCK_RECORD
  5
F1
330
C
100
AcDbSymbolTableRecord
100
AcDbBlockTableRecord
  2
*D10
  0
ENDTAB
  0
ENDSEC
  0
SECTION
  2
BLOCKS
  0
BLOCK
  5
E
330
1E
100
AcDbEntity
  8
0
100
AcDbBlockBegin
  2
*MODEL_SPACE
 70
     0
 10
0.0
 20
0.0
 30
0.0
  3
*MODEL_SPACE
  1

  0
ENDBLK
  5
F
330
1E
100
AcDbEntity
  8
0
100
AcDbBlockEnd
  0
BLOCK
  5
10
330
1F
100
AcDbEntity
 67
     1
  8
0
100
AcDbBlockBegin
  2
*PAPER_SPACE
 70
     0
 10
0.0
 20
0.0
 30
0.0
  3
*PAPER_SPACE
  1

  0
ENDBLK
  5
11
330
1F
100
AcDbEntity
 67
     1
  8
0
100
AcDbBlockEnd
  0
BLOCK
  5
FF
330
D1
100
AcDbEntity
  8
0
100
AcDbBlockBegin
  2
*D0
 70
     1
 10
0.0
 20
0.0
 30
0.0
  3
*D0
  1

  0
TEXT
  5
100
330
D1
100
AcDbEntity
  8
MO_001_VIEW_PV
  6
BYBLOCK
100
AcDbText
 10
-37.28571399999999
 20
29.625
 30
0.0
 40
1.5
  1
%%P0.3
100
AcDbText
  0
TEXT
  5
101
330
D1
100
AcDbEntity
  8
MO_001_VIEW_PV
  6
BYBLOCK
100
AcDbText
 10
-46.07142899999999
 20
27.75
 30
0.0
 40
3.0
  1
2.9
100
AcDbText
  0
LINE
  5
102
330
D1
100
AcDbEntity
  8
MO_001_VIEW_PV
  6
BYBLOCK
100
AcDbLine
 10
-30.100002
 20
27.0
 30
0.0
 11
-27.200001
 21
27.0
 31
0.0
  0
LINE
  5
103
330
D1
100
AcDbEntity
  8
MO_001_VIEW_PV
  6
BYBLOCK
100
AcDbLine
 10
-30.100002
 20
27.0
 30
0.0
 11
-36.450002
 21
27.0
 31
0.0
  0
LINE
  5
104
330
D1
100
AcDbEntity
  8
MO_001_VIEW_PV
  6
BYBLOCK
100
AcDbLine
 10
-27.200001
 20
27.0
 30
0.0
 11
-20.850001
 21
27.0
 31
0.0
  0
SOLID
  5
105
330
D1
100
AcDbEntity
  8
MO_001_VIEW_PV
  6
BYBLOCK
100
AcDbTrace
 10
-33.41826199999999
 20
26.416488
 30
0.0
 11
-30.608002
 21
27.0
 31
0.0
 12
-33.41826199999999
 22
27.58351199999999
 32
0.0
 13
-33.41826199999999
 23
27.58351199999999
 33
0.0
  0
SOLID
  5
106
330
D1
100
AcDbEntity
  8
MO_001_VIEW_PV
  6
BYBLOCK
100
AcDbTrace
 10
-23.881741
 20
27.58351199999999
 30
0.0
 11
-26.692001
 21
27.0
 31
0.0
 12
-23.881741
 22
26.416488
 32
0.0
 13
-23.881741
 23
26.416488
 33
0.0
  0
LINE
  5
107
330
D1
100
AcDbEntity
  8
MO_001_VIEW_PV
  6
BYBLOCK
100
AcDbLine
 10
-30.100002
 20
2.0
 30
0.0
 11
-30.100002
 21
29.285999
 31
0.0
  0
LINE
  5
108
330
D1
100
AcDbEntity
  8
MO_001_VIEW_PV
  6
BYBLOCK
100
AcDbLine
 10
-27.200001
 20
8.5
 30
0.0
 11
-27.200001
 21
29.285999
 31
0.0
  0
LINE
  5
109
330
D1
100
AcDbEntity
  8
MO_001_VIEW_PV
  6
BYBLOCK
100
AcDbLine
 10
-47.035713
 20
27.0
 30
0.0
 11
-30.100002
 21
27.0
 31
0.0
  0
ENDBLK
  5
10A
330
D1
100
AcDbEntity
  8
0
100
AcDbBlockEnd
  0
BLOCK
  5
10B
330
D3
100
AcDbEntity
  8
0
100
AcDbBlockBegin
  2
*D1
 70
     1
 10
0.0
 20
0.0
 30
0.0
  3
*D1
  1

  0
TEXT
  5
10C
330
D3
100
AcDbEntity
  8
MO_001_VIEW_PV
  6
BYBLOCK
100
AcDbText
 10
-5.785713999999999
 20
29.625
 30
0.0
 40
1.5
  1
%%P0.5
100
AcDbText
  0
TEXT
  5
10D
330
D3
100
AcDbEntity
  8
MO_001_VIEW_PV
  6
BYBLOCK
100
AcDbText
 10
-17.571429
 20
27.75
 30
0.0
 40
3.0
  1
27.2
100
AcDbText
  0
LINE
  5
10E
330
D3
100
AcDbEntity
  8
MO_001_VIEW_PV
  6
BYBLOCK
100
AcDbLine
 10
-27.200001
 20
27.0
 30
0.0
 11
0.0
 21
27.0
 31
0.0
  0
SOLID
  5
10F
330
D3
100
AcDbEntity
  8
MO_001_VIEW_PV
  6
BYBLOCK
100
AcDbTrace
 10
-23.881741
 20
27.58351199999999
 30
0.0
 11
-26.692001
 21
27.0
 31
0.0
 12
-23.881741
 22
26.416488
 32
0.0
 13
-23.881741
 23
26.416488
 33
0.0
  0
SOLID
  5
110
330
D3
100
AcDbEntity
  8
MO_001_VIEW_PV
  6
BYBLOCK
100
AcDbTrace
 10
-3.318259999999999
 20
26.416488
 30
0.0
 11
-0.508
 21
27.0
 31
0.0
 12
-3.318259999999999
 22
27.58351199999999
 32
0.0
 13
-3.318259999999999
 23
27.58351199999999
 33
0.0
  0
LINE
  5
111
330
D3
100
AcDbEntity
  8
MO_001_VIEW_PV
  6
BYBLOCK
100
AcDbLine
 10
-27.200001
 20
8.5
 30
0.0
 11
-27.200001
 21
29.285999
 31
0.0
  0
LINE
  5
112
330
D3
100
AcDbEntity
  8
MO_001_VIEW_PV
  6
BYBLOCK
100
AcDbLine
 10
0.0
 20
8.3
 30
0.0
 11
0.0
 21
29.285999
 31
0.0
  0
LINE
  5
113
330
D3
100
AcDbEntity
  8
MO_001_VIEW_PV
  6
BYBLOCK
100
AcDbLine
 10
0.0
 20
27.0
 30
0.0
 11
0.5357140000000001
 21
27.0
 31
0.0
  0
ENDBLK
  5
114
330
D3
100
AcDbEntity
  8
0
100
AcDbBlockEnd
  0
BLOCK
  5
115
330
D5
100
AcDbEntity
  8
0
100
AcDbBlockBegin
  2
*D2
 70
     1
 10
0.0
 20
0.0
 30
0.0
  3
*D2
  1

  0
LINE
  5
116
330
D5
100
AcDbEntity
  8
MO_001_VIEW_PV
  6
BYBLOCK
100
AcDbLine
 10
3.2
 20
26.99999899999999
 30
0.0
 11
6.664102
 21
32.999999
 31
0.0
  0
SOLID
  5
117
330
D5
100
AcDbEntity
  8
MO_001_VIEW_PV
  6
BYBLOCK
100
AcDbTrace
 10
4.353794
 20
30.165452
 30
0.0
 11
3.453999999999999
 21
27.43994
 31
0.0
 12
5.364466
 22
29.581941
 32
0.0
 13
5.364466
 23
29.581941
 33
0.0
  0
LINE
  5
118
330
D5
100
AcDbEntity
  8
MO_001_VIEW_PV
  6
BYBLOCK
100
AcDbLine
 10
6.664102
 20
33.0
 30
0.0
 11
23.222857
 21
33.0
 31
0.0
  0
TEXT
  5
119
330
D5
100
AcDbEntity
  8
MO_001_VIEW_PV
  6
BYBLOCK
100
AcDbText
 10
16.90142699999999
 20
35.625
 30
0.0
 40
1.5
  1
%%P0.2
100
AcDbText
  0
TEXT
  5
11A
330
D5
100
AcDbEntity
  8
MO_001_VIEW_PV
  6
BYBLOCK
100
AcDbText
 10
8.115713000000001
 20
33.75
 30
0.0
 40
3.0
  1
6.4
100
AcDbText
  0
LINE
  5
11B
330
D5
100
AcDbEntity
  8
MO_001_VIEW_PV
  6
BYBLOCK
100
AcDbLine
 10
6.4
 20
27.0
 30
0.0
 11
0.0
 21
27.0
 31
0.0
  0
LINE
  5
11C
330
D5
100
AcDbEntity
  8
MO_001_VIEW_PV
  6
BYBLOCK
100
AcDbLine
 10
6.4
 20
27.0
 30
0.0
 11
12.75
 21
27.0
 31
0.0
  0
LINE
  5
11D
330
D5
100
AcDbEntity
  8
MO_001_VIEW_PV
  6
BYBLOCK
100
AcDbLine
 10
0.0
 20
27.0
 30
0.0
 11
-6.349999999999999
 21
27.0
 31
0.0
  0
SOLID
  5
11E
330
D5
100
AcDbEntity
  8
MO_001_VIEW_PV
  6
BYBLOCK
100
AcDbTrace
 10
9.71826
 20
27.58351199999999
 30
0.0
 11
6.907999999999999
 21
27.0
 31
0.0
 12
9.71826
 22
26.416488
 32
0.0
 13
9.71826
 23
26.416488
 33
0.0
  0
SOLID
  5
11F
330
D5
100
AcDbEntity
  8
MO_001_VIEW_PV
  6
BYBLOCK
100
AcDbTrace
 10
-3.318259999999999
 20
26.416488
 30
0.0
 11
-0.508
 21
27.0
 31
0.0
 12
-3.318259999999999
 22
27.58351199999999
 32
0.0
 13
-3.318259999999999
 23
27.58351199999999
 33
0.0
  0
LINE
  5
120
330
D5
100
AcDbEntity
  8
MO_001_VIEW_PV
  6
BYBLOCK
100
AcDbLine
 10
6.4
 20
3.75
 30
0.0
 11
6.4
 21
29.285999
 31
0.0
  0
LINE
  5
121
330
D5
100
AcDbEntity
  8
MO_001_VIEW_PV
  6
BYBLOCK
100
AcDbLine
 10
0.0
 20
8.3
 30
0.0
 11
0.0
 21
29.285999
 31
0.0
  0
ENDBLK
  5
122
330
D5
100
AcDbEntity
  8
0
100
AcDbBlockEnd
  0
BLOCK
  5
123
330
D7
100
AcDbEntity
  8
0
100
AcDbBlockBegin
  2
*D3
 70
     1
 10
0.0
 20
0.0
 30
0.0
  3
*D3
  1

  0
TEXT
  5
124
330
D7
100
AcDbEntity
  8
MO_001_VIEW_PV
  6
BYBLOCK
100
AcDbText
 10
25.046256
 20
29.625
 30
0.0
 40
1.5
  1
%%P0.6
100
AcDbText
  0
TEXT
  5
125
330
D7
100
AcDbEntity
  8
MO_001_VIEW_PV
  6
BYBLOCK
100
AcDbText
 10
19.260542
 20
27.75
 30
0.0
 40
3.0
  1
12
100
AcDbText
  0
LINE
  5
126
330
D7
100
AcDbEntity
  8
MO_001_VIEW_PV
  6
BYBLOCK
100
AcDbLine
 10
6.4
 20
27.0
 30
0.0
 11
18.199997
 21
27.0
 31
0.0
  0
SOLID
  5
127
330
D7
100
AcDbEntity
  8
MO_001_VIEW_PV
  6
BYBLOCK
100
AcDbTrace
 10
9.71826
 20
27.58351199999999
 30
0.0
 11
6.907999999999999
 21
27.0
 31
0.0
 12
9.71826
 22
26.416488
 32
0.0
 13
9.71826
 23
26.416488
 33
0.0
  0
SOLID
  5
128
330
D7
100
AcDbEntity
  8
MO_001_VIEW_PV
  6
BYBLOCK
100
AcDbTrace
 10
14.88173699999999
 20
26.416488
 30
0.0
 11
17.691997
 21
27.0
 31
0.0
 12
14.88173699999999
 22
27.58351199999999
 32
0.0
 13
14.88173699999999
 23
27.58351199999999
 33
0.0
  0
LINE
  5
129
330
D7
100
AcDbEntity
  8
MO_001_VIEW_PV
  6
BYBLOCK
100
AcDbLine
 10
6.4
 20
3.75
 30
0.0
 11
6.4
 21
29.285999
 31
0.0
  0
LINE
  5
12A
330
D7
100
AcDbEntity
  8
MO_001_VIEW_PV
  6
BYBLOCK
100
AcDbLine
 10
18.199997
 20
1.0
 30
0.0
 11
18.199997
 21
29.285999
 31
0.0
  0
LINE
  5
12B
330
D7
100
AcDbEntity
  8
MO_001_VIEW_PV
  6
BYBLOCK
100
AcDbLine
 10
18.199997
 20
27.0
 30
0.0
 11
31.367685
 21
27.0
 31
0.0
  0
ENDBLK
  5
12C
330
D7
100
AcDbEntity
  8
0
100
AcDbBlockEnd
  0
BLOCK
  5
12D
330
D9
100
AcDbEntity
  8
0
100
AcDbBlockBegin
  2
*D4
 70
     1
 10
0.0
 20
0.0
 30
0.0
  3
*D4
  1

  0
TEXT
  5
12E
330
D9
100
AcDbEntity
  8
MO_001_VIEW_PV
  6
BYBLOCK
100
AcDbText
 10
-53.625
 20
-14.785714
 30
0.0
 40
1.5
  1
%%P0.3
 50
90.0
100
AcDbText
  0
TEXT
  5
12F
330
D9
100
AcDbEntity
  8
MO_001_VIEW_PV
  6
BYBLOCK
100
AcDbText
 10
-51.75
 20
-26.571429
 30
0.0
 40
3.0
  1
%%C8.5
 50
90.0
100
AcDbText
  0
LINE
  5
130
330
D9
100
AcDbEntity
  8
MO_001_VIEW_PV
  6
BYBLOCK
100
AcDbLine
 10
-51.0
 20
4.25
 30
0.0
 11
-51.0
 21
-4.25
 31
0.0
  0
LINE
  5
131
330
D9
100
AcDbEntity
  8
MO_001_VIEW_PV
  6
BYBLOCK
100
AcDbLine
 10
-51.0
 20
4.25
 30
0.0
 11
-51.0
 21
10.6
 31
0.0
  0
LINE
  5
132
330
D9
100
AcDbEntity
  8
MO_001_VIEW_PV
  6
BYBLOCK
100
AcDbLine
 10
-51.0
 20
-4.25
 30
0.0
 11
-51.0
 21
-10.6
 31
0.0
  0
SOLID
  5
133
330
D9
100
AcDbEntity
  8
MO_001_VIEW_PV
  6
BYBLOCK
100
AcDbTrace
 10
-51.583512
 20
7.56826
 30
0.0
 11
-51.0
 21
4.758
 31
0.0
 12
-50.416488
 22
7.56826
 32
0.0
 13
-50.416488
 23
7.56826
 33
0.0
  0
SOLID
  5
134
330
D9
100
AcDbEntity
  8
MO_001_VIEW_PV
  6
BYBLOCK
100
AcDbTrace
 10
-50.416488
 20
-7.56826
 30
0.0
 11
-51.0
 21
-4.758
 31
0.0
 12
-51.583512
 22
-7.56826
 32
0.0
 13
-51.583512
 23
-7.56826
 33
0.0
  0
LINE
  5
135
330
D9
100
AcDbEntity
  8
MO_001_VIEW_PV
  6
BYBLOCK
100
AcDbLine
 10
-28.000002
 20
4.25
 30
0.0
 11
-53.285999
 21
4.25
 31
0.0
  0
LINE
  5
136
330
D9
100
AcDbEntity
  8
MO_001_VIEW_PV
  6
BYBLOCK
100
AcDbLine
 10
-28.000002
 20
-4.25
 30
0.0
 11
-53.285999
 21
-4.25
 31
0.0
  0
LINE
  5
137
330
D9
100
AcDbEntity
  8
MO_001_VIEW_PV
  6
BYBLOCK
100
AcDbLine
 10
-51.0
 20
-4.25
 30
0.0
 11
-51.0
 21
-27.535713
 31
0.0
  0
ENDBLK
  5
138
330
D9
100
AcDbEntity
  8
0
100
AcDbBlockEnd
  0
BLOCK
  5
139
330
DB
100
AcDbEntity
  8
0
100
AcDbBlockBegin
  2
*D5
 70
     1
 10
0.0
 20
0.0
 30
0.0
  3
*D5
  1

  0
TEXT
  5
13A
330
DB
100
AcDbEntity
  8
MO_001_VIEW_PV
  6
BYBLOCK
100
AcDbText
 10
24.375
 20
11.46428599999999
 30
0.0
 40
1.5
  1
%%P0.05
 50
90.0
100
AcDbText
  0
TEXT
  5
13B
330
DB
100
AcDbEntity
  8
MO_001_VIEW_PV
  6
BYBLOCK
100
AcDbText
 10
26.25
 20
5.678570999999999
 30
0.0
 40
3.0
  1
%%C2
 50
90.0
100
AcDbText
  0
LINE
  5
13C
330
DB
100
AcDbEntity
  8
MO_001_VIEW_PV
  6
BYBLOCK
100
AcDbLine
 10
27.0
 20
1.0
 30
0.0
 11
27.0
 21
-1.0
 31
0.0
  0
LINE
  5
13D
330
DB
100
AcDbEntity
  8
MO_001_VIEW_PV
  6
BYBLOCK
100
AcDbLine
 10
27.0
 20
1.0
 30
0.0
 11
27.0
 21
7.349999999999999
 31
0.0
  0
LINE
  5
13E
330
DB
100
AcDbEntity
  8
MO_001_VIEW_PV
  6
BYBLOCK
100
AcDbLine
 10
27.0
 20
-1.0
 30
0.0
 11
27.0
 21
-7.349999999999999
 31
0.0
  0
SOLID
  5
13F
330
DB
100
AcDbEntity
  8
MO_001_VIEW_PV
  6
BYBLOCK
100
AcDbTrace
 10
26.416488
 20
4.318259999999999
 30
0.0
 11
27.0
 21
1.508
 31
0.0
 12
27.58351199999999
 22
4.318259999999999
 32
0.0
 13
27.58351199999999
 23
4.318259999999999
 33
0.0
  0
SOLID
  5
140
330
DB
100
AcDbEntity
  8
MO_001_VIEW_PV
  6
BYBLOCK
100
AcDbTrace
 10
27.58351199999999
 20
-4.318259999999999
 30
0.0
 11
27.0
 21
-1.508
 31
0.0
 12
26.416488
 22
-4.318259999999999
 32
0.0
 13
26.416488
 23
-4.318259999999999
 33
0.0
  0
LINE
  5
141
330
DB
100
AcDbEntity
  8
MO_001_VIEW_PV
  6
BYBLOCK
100
AcDbLine
 10
18.199997
 20
1.0
 30
0.0
 11
29.285999
 21
1.0
 31
0.0
  0
LINE
  5
142
330
DB
100
AcDbEntity
  8
MO_001_VIEW_PV
  6
BYBLOCK
100
AcDbLine
 10
18.199997
 20
-1.0
 30
0.0
 11
29.285999
 21
-1.0
 31
0.0
  0
LINE
  5
143
330
DB
100
AcDbEntity
  8
MO_001_VIEW_PV
  6
BYBLOCK
100
AcDbLine
 10
27.0
 20
19.285713
 30
0.0
 11
27.0
 21
1.0
 31
0.0
  0
ENDBLK
  5
144
330
DB
100
AcDbEntity
  8
0
100
AcDbBlockEnd
  0
BLOCK
  5
145
330
DD
100
AcDbEntity
  8
0
100
AcDbBlockBegin
  2
*D6
 70
     1
 10
0.0
 20
0.0
 30
0.0
  3
*D6
  1

  0
TEXT
  5
146
330
DD
100
AcDbEntity
  8
MO_001_VIEW_PV
  6
BYBLOCK
100
AcDbText
 10
49.714286
 20
29.625
 30
0.0
 40
1.5
  1
%%P0.4
100
AcDbText
  0
TEXT
  5
147
330
DD
100
AcDbEntity
  8
MO_001_VIEW_PV
  6
BYBLOCK
100
AcDbText
 10
40.928571
 20
27.75
 30
0.0
 40
3.0
  1
%%C17
100
AcDbText
  0
LINE
  5
148
330
DD
100
AcDbEntity
  8
MO_001_VIEW_PV
  6
BYBLOCK
100
AcDbLine
 10
39.5
 20
27.0
 30
0.0
 11
56.5
 21
27.0
 31
0.0
  0
SOLID
  5
149
330
DD
100
AcDbEntity
  8
MO_001_VIEW_PV
  6
BYBLOCK
100
AcDbTrace
 10
42.81825999999999
 20
27.58351199999999
 30
0.0
 11
40.008
 21
27.0
 31
0.0
 12
42.81825999999999
 22
26.416488
 32
0.0
 13
42.81825999999999
 23
26.416488
 33
0.0
  0
SOLID
  5
14A
330
DD
100
AcDbEntity
  8
MO_001_VIEW_PV
  6
BYBLOCK
100
AcDbTrace
 10
53.18174
 20
26.416488
 30
0.0
 11
55.99199999999999
 21
27.0
 31
0.0
 12
53.18174
 22
27.58351199999999
 32
0.0
 13
53.18174
 23
27.58351199999999
 33
0.0
  0
LINE
  5
14B
330
DD
100
AcDbEntity
  8
MO_001_VIEW_PV
  6
BYBLOCK
100
AcDbLine
 10
39.5
 20
0.0
 30
0.0
 11
39.5
 21
29.285999
 31
0.0
  0
LINE
  5
14C
330
DD
100
AcDbEntity
  8
MO_001_VIEW_PV
  6
BYBLOCK
100
AcDbLine
 10
56.5
 20
0.0
 30
0.0
 11
56.5
 21
29.285999
 31
0.0
  0
ENDBLK
  5
14D
330
DD
100
AcDbEntity
  8
0
100
AcDbBlockEnd
  0
BLOCK
  5
14E
330
DF
100
AcDbEntity
  8
0
100
AcDbBlockBegin
  2
*D7
 70
     1
 10
0.0
 20
0.0
 30
0.0
  3
*D7
  1

  0
TEXT
  5
14F
330
DF
100
AcDbEntity
  8
MO_001_VIEW_PV
  6
BYBLOCK
100
AcDbText
 10
66.214286
 20
23.625
 30
0.0
 40
1.5
  1
%%P0.2
100
AcDbText
  0
TEXT
  5
150
330
DF
100
AcDbEntity
  8
MO_001_VIEW_PV
  6
BYBLOCK
100
AcDbText
 10
60.42857099999999
 20
21.75
 30
0.0
 40
3.0
  1
12
100
AcDbText
  0
LINE
  5
151
330
DF
100
AcDbEntity
  8
MO_001_VIEW_PV
  6
BYBLOCK
100
AcDbLine
 10
42.0
 20
21.0
 30
0.0
 11
54.0
 21
21.0
 31
0.0
  0
SOLID
  5
152
330
DF
100
AcDbEntity
  8
MO_001_VIEW_PV
  6
BYBLOCK
100
AcDbTrace
 10
45.31825999999999
 20
21.58351199999999
 30
0.0
 11
42.508
 21
21.0
 31
0.0
 12
45.31825999999999
 22
20.416488
 32
0.0
 13
45.31825999999999
 23
20.416488
 33
0.0
  0
SOLID
  5
153
330
DF
100
AcDbEntity
  8
MO_001_VIEW_PV
  6
BYBLOCK
100
AcDbTrace
 10
50.68174
 20
20.416488
 30
0.0
 11
53.49199999999999
 21
21.0
 31
0.0
 12
50.68174
 22
21.58351199999999
 32
0.0
 13
50.68174
 23
21.58351199999999
 33
0.0
  0
LINE
  5
154
330
DF
100
AcDbEntity
  8
MO_001_VIEW_PV
  6
BYBLOCK
100
AcDbLine
 10
42.0
 20
3.460001
 30
0.0
 11
42.0
 21
23.28599899999999
 31
0.0
  0
LINE
  5
155
330
DF
100
AcDbEntity
  8
MO_001_VIEW_PV
  6
BYBLOCK
100
AcDbLine
 10
54.0
 20
3.460001
 30
0.0
 11
54.0
 21
23.28599899999999
 31
0.0
  0
LINE
  5
156
330
DF
100
AcDbEntity
  8
MO_001_VIEW_PV
  6
BYBLOCK
100
AcDbLine
 10
54.0
 20
21.0
 30
0.0
 11
72.535713
 21
21.0
 31
0.0
  0
ENDBLK
  5
157
330
DF
100
AcDbEntity
  8
0
100
AcDbBlockEnd
  0
BLOCK
  5
158
330
E1
100
AcDbEntity
  8
0
100
AcDbBlockBegin
  2
*D8
 70
     1
 10
0.0
 20
0.0
 30
0.0
  3
*D8
  1

  0
TEXT
  5
159
330
E1
100
AcDbEntity
  8
MO_001_VIEW_PV
  6
BYBLOCK
100
AcDbText
 10
67.714286
 20
17.625
 30
0.0
 40
1.5
  1
%%P0.2
100
AcDbText
  0
TEXT
  5
15A
330
E1
100
AcDbEntity
  8
MO_001_VIEW_PV
  6
BYBLOCK
100
AcDbText
 10
58.928571
 20
15.75
 30
0.0
 40
3.0
  1
3.9
100
AcDbText
  0
LINE
  5
15B
330
E1
100
AcDbEntity
  8
MO_001_VIEW_PV
  6
BYBLOCK
100
AcDbLine
 10
51.900002
 20
15.0
 30
0.0
 11
48.0
 21
15.0
 31
0.0
  0
LINE
  5
15C
330
E1
100
AcDbEntity
  8
MO_001_VIEW_PV
  6
BYBLOCK
100
AcDbLine
 10
51.900002
 20
15.0
 30
0.0
 11
58.250001
 21
15.0
 31
0.0
  0
LINE
  5
15D
330
E1
100
AcDbEntity
  8
MO_001_VIEW_PV
  6
BYBLOCK
100
AcDbLine
 10
48.0
 20
15.0
 30
0.0
 11
41.65
 21
15.0
 31
0.0
  0
SOLID
  5
15E
330
E1
100
AcDbEntity
  8
MO_001_VIEW_PV
  6
BYBLOCK
100
AcDbTrace
 10
55.218262
 20
15.58351199999999
 30
0.0
 11
52.408002
 21
15.0
 31
0.0
 12
55.218262
 22
14.416488
 32
0.0
 13
55.218262
 23
14.416488
 33
0.0
  0
SOLID
  5
15F
330
E1
100
AcDbEntity
  8
MO_001_VIEW_PV
  6
BYBLOCK
100
AcDbTrace
 10
44.68174
 20
14.416488
 30
0.0
 11
47.492
 21
15.0
 31
0.0
 12
44.68174
 22
15.58351199999999
 32
0.0
 13
44.68174
 23
15.58351199999999
 33
0.0
  0
LINE
  5
160
330
E1
100
AcDbEntity
  8
MO_001_VIEW_PV
  6
BYBLOCK
100
AcDbLine
 10
51.900002
 20
2.244991999999999
 30
0.0
 11
51.900002
 21
17.285999
 31
0.0
  0
LINE
  5
161
330
E1
100
AcDbEntity
  8
MO_001_VIEW_PV
  6
BYBLOCK
100
AcDbLine
 10
48.0
 20
11.5
 30
0.0
 11
48.0
 21
17.285999
 31
0.0
  0
LINE
  5
162
330
E1
100
AcDbEntity
  8
MO_001_VIEW_PV
  6
BYBLOCK
100
AcDbLine
 10
74.035713
 20
15.0
 30
0.0
 11
51.900002
 21
15.0
 31
0.0
  0
ENDBLK
  5
163
330
E1
100
AcDbEntity
  8
0
100
AcDbBlockEnd
  0
BLOCK
  5
164
330
EF
100
AcDbEntity
  8
0
100
AcDbBlockBegin
  2
*D9
 70
     1
 10
0.0
 20
0.0
 30
0.0
  3
*D9
  1

  0
LINE
  5
165
330
EF
100
AcDbEntity
  8
MO_001_VIEW_PV
  6
BYBLOCK
100
AcDbLine
 10
73.400002
 20
3.0
 30
0.0
 11
82.0
 21
3.0
 31
0.0
  0
LINE
  5
166
330
EF
100
AcDbEntity
  8
MO_001_VIEW_PV
  6
BYBLOCK
100
AcDbLine
 10
73.400002
 20
3.0
 30
0.0
 11
67.050002
 21
3.0
 31
0.0
  0
LINE
  5
167
330
EF
100
AcDbEntity
  8
MO_001_VIEW_PV
  6
BYBLOCK
100
AcDbLine
 10
82.0
 20
3.0
 30
0.0
 11
88.34999999999999
 21
3.0
 31
0.0
  0
SOLID
  5
168
330
EF
100
AcDbEntity
  8
MO_001_VIEW_PV
  6
BYBLOCK
100
AcDbTrace
 10
70.08174100000001
 20
2.416488
 30
0.0
 11
72.892002
 21
3.0
 31
0.0
 12
70.08174100000001
 22
3.583511
 32
0.0
 13
70.08174100000001
 23
3.583511
 33
0.0
  0
SOLID
  5
169
330
EF
100
AcDbEntity
  8
MO_001_VIEW_PV
  6
BYBLOCK
100
AcDbTrace
 10
85.31826
 20
3.583511
 30
0.0
 11
82.50799999999999
 21
3.0
 31
0.0
 12
85.31826
 22
2.416488
 32
0.0
 13
85.31826
 23
2.416488
 33
0.0
  0
LINE
  5
16A
330
EF
100
AcDbEntity
  8
MO_001_VIEW_PV
  6
BYBLOCK
100
AcDbLine
 10
73.400002
 20
-15.0
 30
0.0
 11
73.400002
 21
5.285998999999999
 31
0.0
  0
LINE
  5
16B
330
EF
100
AcDbEntity
  8
MO_001_VIEW_PV
  6
BYBLOCK
100
AcDbLine
 10
82.0
 20
-12.728437
 30
0.0
 11
82.0
 21
5.285998999999999
 31
0.0
  0
TEXT
  5
16C
330
EF
100
AcDbEntity
  8
MO_001_VIEW_PV
  6
BYBLOCK
100
AcDbText
 10
95.215125
 20
5.625
 30
0.0
 40
1.5
  1
%%P0.1
100
AcDbText
  0
TEXT
  5
16D
330
EF
100
AcDbEntity
  8
MO_001_VIEW_PV
  6
BYBLOCK
100
AcDbText
 10
86.42941099999999
 20
3.75
 30
0.0
 40
3.0
  1
8.6
100
AcDbText
  0
LINE
  5
16E
330
EF
100
AcDbEntity
  8
MO_001_VIEW_PV
  6
BYBLOCK
100
AcDbLine
 10
82.0
 20
3.0
 30
0.0
 11
101.536552
 21
3.0
 31
0.0
  0
ENDBLK
  5
16F
330
EF
100
AcDbEntity
  8
0
100
AcDbBlockEnd
  0
BLOCK
  5
170
330
F1
100
AcDbEntity
  8
0
100
AcDbBlockBegin
  2
*D10
 70
     1
 10
0.0
 20
0.0
 30
0.0
  3
*D10
  1

  0
LINE
  5
171
330
F1
100
AcDbEntity
  8
MO_001_VIEW_PV
  6
BYBLOCK
100
AcDbLine
 10
78.0
 20
-3.0
 30
0.0
 11
82.0
 21
-3.0
 31
0.0
  0
LINE
  5
172
330
F1
100
AcDbEntity
  8
MO_001_VIEW_PV
  6
BYBLOCK
100
AcDbLine
 10
78.0
 20
-3.0
 30
0.0
 11
71.65
 21
-3.0
 31
0.0
  0
LINE
  5
173
330
F1
100
AcDbEntity
  8
MO_001_VIEW_PV
  6
BYBLOCK
100
AcDbLine
 10
82.0
 20
-3.0
 30
0.0
 11
88.34999999999999
 21
-3.0
 31
0.0
  0
SOLID
  5
174
330
F1
100
AcDbEntity
  8
MO_001_VIEW_PV
  6
BYBLOCK
100
AcDbTrace
 10
74.68174000000001
 20
-3.583512
 30
0.0
 11
77.492
 21
-3.0
 31
0.0
 12
74.68174000000001
 22
-2.416488
 32
0.0
 13
74.68174000000001
 23
-2.416488
 33
0.0
  0
SOLID
  5
175
330
F1
100
AcDbEntity
  8
MO_001_VIEW_PV
  6
BYBLOCK
100
AcDbTrace
 10
85.31826
 20
-2.416488
 30
0.0
 11
82.50799999999999
 21
-3.0
 31
0.0
 12
85.31826
 22
-3.583512
 32
0.0
 13
85.31826
 23
-3.583512
 33
0.0
  0
LINE
  5
176
330
F1
100
AcDbEntity
  8
MO_001_VIEW_PV
  6
BYBLOCK
100
AcDbLine
 10
78.0
 20
-7.0
 30
0.0
 11
78.0
 21
-0.7140000000000001
 31
0.0
  0
LINE
  5
177
330
F1
100
AcDbEntity
  8
MO_001_VIEW_PV
  6
BYBLOCK
100
AcDbLine
 10
82.0
 20
-12.728437
 30
0.0
 11
82.0
 21
-0.7140000000000001
 31
0.0
  0
TEXT
  5
178
330
F1
100
AcDbEntity
  8
MO_001_VIEW_PV
  6
BYBLOCK
100
AcDbText
 10
85.92857099999999
 20
-2.25
 30
0.0
 40
3.0
  1
(4)
100
AcDbText
  0
LINE
  5
179
330
F1
100
AcDbEntity
  8
MO_001_VIEW_PV
  6
BYBLOCK
100
AcDbLine
 10
82.0
 20
-3.0
 30
0.0
 11
95.035713
 21
-3.0
 31
0.0
  0
ENDBLK
  5
17A
330
F1
100
AcDbEntity
  8
0
100
AcDbBlockEnd
  0
ENDSEC
  0
SECTION
  2
ENTITIES
  0
TEXT
  5
4B
330
1E
100
AcDbEntity
  8
OVERLAY_MAP
  6
C_SOLID_L
100
AcDbText
 10
0.0
 20
6.349999999999999
 30
0.0
 40
4.1672
  1
Model Overlay Name
100
AcDbText
  0
TEXT
  5
4C
330
1E
100
AcDbEntity
  8
OVERLAY_MAP
  6
C_SOLID_L
100
AcDbText
 10
126.999998
 20
0.0
 30
0.0
 40
4.1672
  1
Number
100
AcDbText
  0
TEXT
  5
4D
330
1E
100
AcDbEntity
  8
OVERLAY_MAP
  6
C_SOLID_L
100
AcDbText
 10
177.7999969999999
 20
0.0
 30
0.0
 40
4.1672
  1
File Text
100
AcDbText
  0
TEXT
  5
4E
330
1E
100
AcDbEntity
  8
OVERLAY_MAP
  6
C_SOLID_L
100
AcDbText
 10
0.0
 20
-6.349999999999999
 30
0.0
 40
4.1672
  1
tb s65push 
100
AcDbText
  0
TEXT
  5
4F
330
1E
100
AcDbEntity
  8
OVERLAY_MAP
  6
C_SOLID_L
100
AcDbText
 10
126.999998
 20
-6.349999999999999
 30
0.0
 40
4.1672
  1
001
100
AcDbText
  0
TEXT
  5
50
330
1E
100
AcDbEntity
  8
OVERLAY_MAP
  6
C_SOLID_L
100
AcDbText
 10
177.7999969999999
 20
-6.349999999999999
 30
0.0
 40
4.1672
  1
                                                                   00118
100
AcDbText
  0
POINT
  5
51
330
1E
100
AcDbEntity
  8
MO_001_VIEW_PV
  6
C_SOLID_M
100
AcDbPoint
 10
0.0
 20
0.0
 30
0.0
  0
LINE
  5
52
330
1E
100
AcDbEntity
  8
MO_001_VIEW_PV
  6
C_SOLID_M
100
AcDbLine
 10
0.0
 20
8.3
 30
0.0
 11
0.0
 21
-8.3
 31
0.0
  0
LINE
  5
53
330
1E
100
AcDbEntity
  8
MO_001_VIEW_PV
  6
C_SOLID_M
100
AcDbLine
 10
-0.6
 20
8.5
 30
0.0
 11
-0.6
 21
-8.5
 31
0.0
  0
LINE
  5
54
330
1E
100
AcDbEntity
  8
MO_001_VIEW_PV
  6
C_SOLID_M
100
AcDbLine
 10
6.4
 20
3.75
 30
0.0
 11
6.4
 21
-3.75
 31
0.0
  0
LINE
  5
55
330
1E
100
AcDbEntity
  8
MO_001_VIEW_PV
  6
C_SOLID_M
100
AcDbLine
 10
5.65
 20
4.5
 30
0.0
 11
4.65
 21
4.5
 31
0.0
  0
LINE
  5
56
330
1E
100
AcDbEntity
  8
MO_001_VIEW_PV
  6
C_SOLID_M
100
AcDbLine
 10
5.65
 20
-4.5
 30
0.0
 11
4.65
 21
-4.5
 31
0.0
  0
LINE
  5
57
330
1E
100
AcDbEntity
  8
MO_001_VIEW_PV
  6
C_SOLID_M
100
AcDbLine
 10
5.65
 20
4.5
 30
0.0
 11
5.65
 21
-4.5
 31
0.0
  0
LINE
  5
58
330
1E
100
AcDbEntity
  8
MO_001_VIEW_PV
  6
C_SOLID_L
100
AcDbLine
 10
6.4
 20
3.75
 30
0.0
 11
4.65
 21
3.75
 31
0.0
  0
LINE
  5
59
330
1E
100
AcDbEntity
  8
MO_001_VIEW_PV
  6
C_SOLID_L
100
AcDbLine
 10
6.4
 20
-3.75
 30
0.0
 11
4.65
 21
-3.75
 31
0.0
  0
LINE
  5
5A
330
1E
100
AcDbEntity
  8
MO_001_VIEW_PV
  6
C_SOLID_M
100
AcDbLine
 10
6.4
 20
-3.75
 30
0.0
 11
5.65
 21
-4.5
 31
0.0
  0
LINE
  5
5B
330
1E
100
AcDbEntity
  8
MO_001_VIEW_PV
  6
C_SOLID_M
100
AcDbLine
 10
6.4
 20
3.75
 30
0.0
 11
5.65
 21
4.5
 31
0.0
  0
LINE
  5
5C
330
1E
100
AcDbEntity
  8
MO_001_VIEW_PV
  6
C_SOLID_M
100
AcDbLine
 10
-0.2
 20
8.5
 30
0.0
 11
0.0
 21
8.3
 31
0.0
  0
LINE
  5
5D
330
1E
100
AcDbEntity
  8
MO_001_VIEW_PV
  6
C_SOLID_M
100
AcDbLine
 10
-0.2
 20
-8.5
 30
0.0
 11
0.0
 21
-8.3
 31
0.0
  0
LINE
  5
5E
330
1E
100
AcDbEntity
  8
MO_001_VIEW_PV
  6
C_SOLID_M
100
AcDbLine
 10
-0.2
 20
8.5
 30
0.0
 11
-0.2
 21
-8.5
 31
0.0
  0
LINE
  5
5F
330
1E
100
AcDbEntity
  8
MO_001_VIEW_PV
  6
C_SOLID_M
100
AcDbLine
 10
-26.6
 20
8.5
 30
0.0
 11
-26.6
 21
-8.5
 31
0.0
  0
LINE
  5
60
330
1E
100
AcDbEntity
  8
MO_001_VIEW_PV
  6
C_SOLID_M
100
AcDbLine
 10
-0.2
 20
8.5
 30
0.0
 11
-27.200001
 21
8.5
 31
0.0
  0
LINE
  5
61
330
1E
100
AcDbEntity
  8
MO_001_VIEW_PV
  6
C_SOLID_M
100
AcDbLine
 10
-0.2
 20
-8.5
 30
0.0
 11
-27.200001
 21
-8.5
 31
0.0
  0
LINE
  5
62
330
1E
100
AcDbEntity
  8
MO_001_VIEW_PV
  6
C_SOLID_M
100
AcDbLine
 10
2.649999999999999
 20
6.024287999999999
 30
0.0
 11
2.649999999999999
 21
-6.024287999999999
 31
0.0
  0
LINE
  5
63
330
1E
100
AcDbEntity
  8
MO_001_VIEW_PV
  6
C_SOLID_M
100
AcDbLine
 10
2.890009
 20
6.920000999999999
 30
0.0
 11
4.409996999999999
 21
6.920000999999999
 31
0.0
  0
LINE
  5
64
330
1E
100
AcDbEntity
  8
MO_001_VIEW_PV
  6
C_SOLID_M
100
AcDbLine
 10
2.890009
 20
-6.920000999999999
 30
0.0
 11
4.409996999999999
 21
-6.920000999999999
 31
0.0
  0
LINE
  5
65
330
1E
100
AcDbEntity
  8
MO_001_VIEW_PV
  6
C_SOLID_M
100
AcDbLine
 10
3.159637
 20
3.460001
 30
0.0
 11
4.140362999999999
 21
3.460001
 31
0.0
  0
LINE
  5
66
330
1E
100
AcDbEntity
  8
MO_001_VIEW_PV
  6
C_SOLID_M
100
AcDbLine
 10
3.159637
 20
-3.460001
 30
0.0
 11
4.140362999999999
 21
-3.460001
 31
0.0
  0
LINE
  5
67
330
1E
100
AcDbEntity
  8
MO_001_VIEW_PV
  6
C_SOLID_M
100
AcDbLine
 10
2.650006
 20
6.024288999999999
 30
0.0
 11
2.890009999999999
 21
6.919999
 31
0.0
  0
LINE
  5
68
330
1E
100
AcDbEntity
  8
MO_001_VIEW_PV
  6
C_SOLID_M
100
AcDbLine
 10
4.410002999999999
 20
-6.920003999999999
 30
0.0
 11
4.650005
 21
-6.024305
 31
0.0
  0
LINE
  5
69
330
1E
100
AcDbEntity
  8
MO_001_VIEW_PV
  6
C_SOLID_M
100
AcDbLine
 10
4.410002999999999
 20
6.920003999999999
 30
0.0
 11
4.650005
 21
6.024305
 31
0.0
  0
LINE
  5
6A
330
1E
100
AcDbEntity
  8
MO_001_VIEW_PV
  6
C_SOLID_M
100
AcDbLine
 10
2.650006
 20
-6.024288999999999
 30
0.0
 11
2.890009999999999
 21
-6.919999
 31
0.0
  0
ARC
  5
6B
330
1E
100
AcDbEntity
  8
MO_001_VIEW_PV
  6
C_SOLID_M
100
AcDbCircle
 10
14.65
 20
0.0
 30
0.0
 40
12.0
100
AcDbArc
 50
163.241794
 51
196.758188
  0
ARC
  5
6C
330
1E
100
AcDbEntity
  8
MO_001_VIEW_PV
  6
C_SOLID_M
100
AcDbCircle
 10
5.841124999999999
 20
5.190001
 30
0.0
 40
3.191123
100
AcDbArc
 50
179.999978
 51
212.8286539999999
  0
ARC
  5
6D
330
1E
100
AcDbEntity
  8
MO_001_VIEW_PV
  6
C_SOLID_M
100
AcDbCircle
 10
5.841124999999999
 20
-5.190001
 30
0.0
 40
3.191123
100
AcDbArc
 50
147.171343
 51
180.0000189999999
  0
ARC
  5
6E
330
1E
100
AcDbEntity
  8
MO_001_VIEW_PV
  6
C_SOLID_M
100
AcDbCircle
 10
-7.349999999999999
 20
0.0
 30
0.0
 40
12.0
100
AcDbArc
 50
343.241812
 51
16.758206
  0
ARC
  5
6F
330
1E
100
AcDbEntity
  8
MO_001_VIEW_PV
  6
C_SOLID_M
100
AcDbCircle
 10
1.458874999999999
 20
5.190001
 30
0.0
 40
3.191123
100
AcDbArc
 50
327.1713619999999
 51
0.000036
  0
ARC
  5
70
330
1E
100
AcDbEntity
  8
MO_001_VIEW_PV
  6
C_SOLID_M
100
AcDbCircle
 10
1.458874999999999
 20
-5.190001
 30
0.0
 40
3.191123
100
AcDbArc
 50
0.0
 51
32.828659
  0
LINE
  5
71
330
1E
100
AcDbEntity
  8
MO_001_VIEW_PV
  6
C_SOLID_M
100
AcDbLine
 10
4.65
 20
6.024302999999999
 30
0.0
 11
4.65
 21
-6.024302999999999
 31
0.0
  0
LINE
  5
72
330
1E
100
AcDbEntity
  8
MO_001_VIEW_PV
  6
C_CENTER_L
100
AcDbLine
 10
48.0
 20
11.5
 30
0.0
 11
48.0
 21
-11.5
 31
0.0
  0
ARC
  5
73
330
1E
100
AcDbEntity
  8
MO_001_VIEW_PV
  6
C_SOLID_M
100
AcDbCircle
 10
48.0
 20
0.0
 30
0.0
 40
4.5
100
AcDbArc
 50
330.073618
 51
29.92639499999999
  0
LINE
  5
74
330
1E
100
AcDbEntity
  8
MO_001_VIEW_PV
  6
C_SOLID_M
100
AcDbLine
 10
51.900002
 20
2.244991999999999
 30
0.0
 11
51.900002
 21
-2.244991999999999
 31
0.0
  0
LINE
  5
75
330
1E
100
AcDbEntity
  8
MO_001_VIEW_PV
  6
C_SOLID_M
100
AcDbLine
 10
2.649999999999999
 20
4.5
 30
0.0
 11
0.0
 21
4.5
 31
0.0
  0
LINE
  5
76
330
1E
100
AcDbEntity
  8
MO_001_VIEW_PV
  6
C_SOLID_L
100
AcDbLine
 10
2.649999999999999
 20
3.75
 30
0.0
 11
1.399999999999999
 21
3.75
 31
0.0
  0
LINE
  5
77
330
1E
100
AcDbEntity
  8
MO_001_VIEW_PV
  6
C_SOLID_L
100
AcDbLine
 10
2.649999999999999
 20
-3.75
 30
0.0
 11
1.399999999999999
 21
-3.75
 31
0.0
  0
LINE
  5
78
330
1E
100
AcDbEntity
  8
MO_001_VIEW_PV
  6
C_SOLID_M
100
AcDbLine
 10
2.649999999999999
 20
-4.5
 30
0.0
 11
0.0
 21
-4.5
 31
0.0
  0
CIRCLE
  5
79
330
1E
100
AcDbEntity
  8
MO_001_VIEW_PV
  6
C_SOLID_M
100
AcDbCircle
 10
48.0
 20
0.0
 30
0.0
 40
8.5
  0
CIRCLE
  5
7A
330
1E
100
AcDbEntity
  8
MO_001_VIEW_PV
  6
C_SOLID_M
100
AcDbCircle
 10
48.0
 20
0.0
 30
0.0
 40
8.3
  0
LINE
  5
7B
330
1E
100
AcDbEntity
  8
MO_001_VIEW_PV
  6
C_CENTER_L
100
AcDbLine
 10
59.5
 20
0.0
 30
0.0
 11
36.5
 21
0.0
 31
0.0
  0
LINE
  5
7C
330
1E
100
AcDbEntity
  8
MO_001_VIEW_PV
  6
C_SOLID_M
100
AcDbLine
 10
42.0
 20
-3.460001
 30
0.0
 11
42.0
 21
3.460001
 31
0.0
  0
CIRCLE
  5
7D
330
1E
100
AcDbEntity
  8
MO_001_VIEW_PV
  6
C_SOLID_M
100
AcDbCircle
 10
48.0
 20
0.0
 30
0.0
 40
6.0
  0
LINE
  5
7E
330
1E
100
AcDbEntity
  8
MO_001_VIEW_PV
  6
C_SOLID_M
100
AcDbLine
 10
42.003538
 20
3.466144999999999
 30
0.0
 11
47.996438
 21
6.926147999999999
 31
0.0
  0
LINE
  5
7F
330
1E
100
AcDbEntity
  8
MO_001_VIEW_PV
  6
C_SOLID_M
100
AcDbLine
 10
48.00353799999999
 20
6.92616
 30
0.0
 11
53.99643799999999
 21
3.466156999999999
 31
0.0
  0
LINE
  5
80
330
1E
100
AcDbEntity
  8
MO_001_VIEW_PV
  6
C_SOLID_M
100
AcDbLine
 10
54.0
 20
3.460001
 30
0.0
 11
54.0
 21
-3.459999999999999
 31
0.0
  0
LINE
  5
81
330
1E
100
AcDbEntity
  8
MO_001_VIEW_PV
  6
C_SOLID_M
100
AcDbLine
 10
53.99643799999999
 20
-3.466156999999999
 30
0.0
 11
48.00353799999999
 21
-6.92616
 31
0.0
  0
LINE
  5
82
330
1E
100
AcDbEntity
  8
MO_001_VIEW_PV
  6
C_SOLID_M
100
AcDbLine
 10
47.996438
 20
-6.926147999999999
 30
0.0
 11
42.003538
 21
-3.466144999999999
 31
0.0
  0
LINE
  5
83
330
1E
100
AcDbEntity
  8
MO_001_VIEW_PV
  6
C_SOLID_M
100
AcDbLine
 10
-32.955296
 20
-11.61397999999999
 30
0.0
 11
-30.23315399999999
 21
-8.891837999999999
 31
0.0
  0
LINE
  5
84
330
1E
100
AcDbEntity
  8
MO_001_VIEW_PV
  6
C_SOLID_M
100
AcDbLine
 10
-33.987671
 20
-10.58161799999999
 30
0.0
 11
-31.265523
 21
-7.859469999999999
 31
0.0
  0
ARC
  5
85
330
1E
100
AcDbEntity
  8
MO_001_VIEW_PV
  6
C_SOLID_M
100
AcDbCircle
 10
-33.41142999999999
 20
-11.55394
 30
0.0
 40
0.4600680000000001
100
AcDbArc
 50
352.4994229999999
 51
97.50062900000001
  0
ARC
  5
86
330
1E
100
AcDbEntity
  8
MO_001_VIEW_PV
  6
C_SOLID_M
100
AcDbCircle
 10
-33.01535399999999
 20
-11.157865
 30
0.0
 40
0.4600680000000001
100
AcDbArc
 50
172.499405
 51
277.500559
  0
ARC
  5
87
330
1E
100
AcDbEntity
  8
MO_001_VIEW_PV
  6
C_SOLID_M
100
AcDbCircle
 10
-33.53154399999999
 20
-10.641674
 30
0.0
 40
0.4600680000000001
100
AcDbArc
 50
172.498859
 51
277.5004229999999
  0
LINE
  5
88
330
1E
100
AcDbEntity
  8
MO_001_VIEW_PV
  6
C_SOLID_M
100
AcDbLine
 10
-40.70518599999999
 20
-17.29913299999999
 30
0.0
 11
-34.69477499999999
 21
-11.28872199999999
 31
0.0
  0
LINE
  5
89
330
1E
100
AcDbEntity
  8
MO_001_VIEW_PV
  6
C_SOLID_M
100
AcDbLine
 10
-39.67281699999999
 20
-18.331501
 30
0.0
 11
-33.662407
 21
-12.321091
 31
0.0
  0
ARC
  5
8A
330
1E
100
AcDbEntity
  8
MO_001_VIEW_PV
  6
C_SOLID_M
100
AcDbCircle
 10
-34.634735
 20
-11.74485
 30
0.0
 40
0.4600680000000001
100
AcDbArc
 50
352.499368
 51
97.500575
  0
ARC
  5
8B
330
1E
100
AcDbEntity
  8
MO_001_VIEW_PV
  6
C_SOLID_M
100
AcDbCircle
 10
-34.238659
 20
-11.34877499999999
 30
0.0
 40
0.4600680000000001
100
AcDbArc
 50
172.499446
 51
277.500614
  0
ARC
  5
8C
330
1E
100
AcDbEntity
  8
MO_001_VIEW_PV
  6
C_SOLID_M
100
AcDbCircle
 10
-34.118546
 20
-12.261041
 30
0.0
 40
0.4600680000000001
100
AcDbArc
 50
352.498849
 51
97.50042399999999
  0
LINE
  5
8D
330
1E
100
AcDbEntity
  8
MO_001_VIEW_PV
  6
C_SOLID_M
100
AcDbLine
 10
-39.67281699999999
 20
-18.331501
 30
0.0
 11
-40.70518599999999
 21
-17.29913299999999
 31
0.0
  0
LINE
  5
8E
330
1E
100
AcDbEntity
  8
MO_001_VIEW_PV
  6
C_SOLID_M
100
AcDbLine
 10
-40.365777
 20
-17.638541
 30
0.0
 11
-43.901311
 21
-21.174075
 31
0.0
  0
LINE
  5
8F
330
1E
100
AcDbEntity
  8
MO_001_VIEW_PV
  6
C_SOLID_M
100
AcDbLine
 10
-40.01222399999999
 20
-17.992094
 30
0.0
 11
-43.547758
 21
-21.527628
 31
0.0
  0
LINE
  5
90
330
1E
100
AcDbEntity
  8
MO_001_VIEW_PV
  6
C_SOLID_M
100
AcDbLine
 10
-43.547758
 20
-21.527628
 30
0.0
 11
-43.901311
 21
-21.174075
 31
0.0
  0
ARC
  5
91
330
1E
100
AcDbEntity
  8
MO_001_VIEW_PV
  6
C_SOLID_M
100
AcDbCircle
 10
-27.729996
 20
-11.39500399999999
 30
0.0
 40
3.540008999999999
100
AcDbArc
 50
90.00000899999999
 51
135.0
  0
ARC
  5
92
330
1E
100
AcDbEntity
  8
MO_001_VIEW_PV
  6
C_SOLID_M
100
AcDbCircle
 10
-27.729996
 20
-11.39500399999999
 30
0.0
 40
5.0
100
AcDbArc
 50
90.000002
 51
135.0
  0
LINE
  5
93
330
1E
100
AcDbEntity
  8
MO_001_VIEW_PV
  6
C_SOLID_M
100
AcDbLine
 10
-27.200001
 20
-7.854996
 30
0.0
 11
-27.729996
 21
-7.854996
 31
0.0
  0
LINE
  5
94
330
1E
100
AcDbEntity
  8
MO_001_VIEW_PV
  6
C_SOLID_M
100
AcDbLine
 10
-27.200001
 20
-6.395004
 30
0.0
 11
-29.729996
 21
-6.395004
 31
0.0
  0
LINE
  5
95
330
1E
100
AcDbEntity
  8
MO_001_VIEW_PV
  6
C_SOLID_M
100
AcDbLine
 10
-27.200001
 20
8.5
 30
0.0
 11
-27.200001
 21
-8.5
 31
0.0
  0
LINE
  5
96
330
1E
100
AcDbEntity
  8
MO_001_VIEW_PV
  6
C_SOLID_M
100
AcDbLine
 10
-28.000002
 20
4.25
 30
0.0
 11
-28.000002
 21
-4.25
 31
0.0
  0
LINE
  5
97
330
1E
100
AcDbEntity
  8
MO_001_VIEW_PV
  6
C_SOLID_M
100
AcDbLine
 10
-28.000002
 20
4.25
 30
0.0
 11
-27.200001
 21
4.25
 31
0.0
  0
LINE
  5
98
330
1E
100
AcDbEntity
  8
MO_001_VIEW_PV
  6
C_SOLID_M
100
AcDbLine
 10
-28.000002
 20
-4.25
 30
0.0
 11
-27.200001
 21
-4.25
 31
0.0
  0
LINE
  5
99
330
1E
100
AcDbEntity
  8
MO_001_VIEW_PV
  6
C_SOLID_M
100
AcDbLine
 10
-28.600002
 20
3.5
 30
0.0
 11
-28.600002
 21
-2.744483999999999
 31
0.0
  0
LINE
  5
9A
330
1E
100
AcDbEntity
  8
MO_001_VIEW_PV
  6
C_SOLID_M
100
AcDbLine
 10
-28.000002
 20
3.5
 30
0.0
 11
-28.000002
 21
-2.744483999999999
 31
0.0
  0
LINE
  5
9B
330
1E
100
AcDbEntity
  8
MO_001_VIEW_PV
  6
C_SOLID_M
100
AcDbLine
 10
-28.600002
 20
3.5
 30
0.0
 11
-28.000002
 21
3.5
 31
0.0
  0
LINE
  5
9C
330
1E
100
AcDbEntity
  8
MO_001_VIEW_PV
  6
C_SOLID_M
100
AcDbLine
 10
-28.600002
 20
-2.744483999999999
 30
0.0
 11
-28.000002
 21
-2.744483999999999
 31
0.0
  0
LINE
  5
9D
330
1E
100
AcDbEntity
  8
MO_001_VIEW_PV
  6
C_SOLID_M
100
AcDbLine
 10
-29.600004
 20
2.5
 30
0.0
 11
-28.600002
 21
2.5
 31
0.0
  0
LINE
  5
9E
330
1E
100
AcDbEntity
  8
MO_001_VIEW_PV
  6
C_SOLID_M
100
AcDbLine
 10
-29.600004
 20
-2.5
 30
0.0
 11
-28.600002
 21
-2.5
 31
0.0
  0
LINE
  5
9F
330
1E
100
AcDbEntity
  8
MO_001_VIEW_PV
  6
C_CENTER_L
100
AcDbLine
 10
-32.560646
 20
0.0
 30
0.0
 11
19.911671
 21
0.0
 31
0.0
  0
LINE
  5
A0
330
1E
100
AcDbEntity
  8
MO_001_VIEW_PV
  6
C_SOLID_M
100
AcDbLine
 10
-30.100002
 20
2.0
 30
0.0
 11
-30.100002
 21
-2.0
 31
0.0
  0
LINE
  5
A1
330
1E
100
AcDbEntity
  8
MO_001_VIEW_PV
  6
C_SOLID_M
100
AcDbLine
 10
-30.100004
 20
2.0
 30
0.0
 11
-29.60000499999999
 21
2.5
 31
0.0
  0
LINE
  5
A2
330
1E
100
AcDbEntity
  8
MO_001_VIEW_PV
  6
C_SOLID_M
100
AcDbLine
 10
-30.100004
 20
-2.0
 30
0.0
 11
-29.60000499999999
 21
-2.5
 31
0.0
  0
LINE
  5
A3
330
1E
100
AcDbEntity
  8
MO_001_VIEW_PV
  6
C_SOLID_M
100
AcDbLine
 10
-29.600002
 20
2.5
 30
0.0
 11
-29.600002
 21
-2.5
 31
0.0
  0
LINE
  5
A4
330
1E
100
AcDbEntity
  8
MO_001_VIEW_PV
  6
C_SOLID_M
100
AcDbLine
 10
18.199997
 20
1.0
 30
0.0
 11
18.199997
 21
-1.0
 31
0.0
  0
LINE
  5
A5
330
1E
100
AcDbEntity
  8
MO_001_VIEW_PV
  6
C_SOLID_M
100
AcDbLine
 10
6.4
 20
1.0
 30
0.0
 11
18.199997
 21
1.0
 31
0.0
  0
LINE
  5
A6
330
1E
100
AcDbEntity
  8
MO_001_VIEW_PV
  6
C_SOLID_M
100
AcDbLine
 10
6.4
 20
-1.0
 30
0.0
 11
18.199997
 21
-1.0
 31
0.0
  0
LINE
  5
A7
330
1E
100
AcDbEntity
  8
MO_001_VIEW_PV
  6
C_SOLID_M
100
AcDbLine
 10
1.399999999999999
 20
4.5
 30
0.0
 11
1.399999999999999
 21
-4.5
 31
0.0
  0
LINE
  5
A8
330
1E
100
AcDbEntity
  8
MO_001_VIEW_PV
  6
C_SOLID_L
100
AcDbLine
 10
1.399999999999999
 20
3.75
 30
0.0
 11
0.65
 21
4.5
 31
0.0
  0
LINE
  5
A9
330
1E
100
AcDbEntity
  8
MO_001_VIEW_PV
  6
C_SOLID_L
100
AcDbLine
 10
1.399999999999999
 20
-3.75
 30
0.0
 11
0.65
 21
-4.5
 31
0.0
  0
CIRCLE
  5
AA
330
1E
100
AcDbEntity
  8
MO_001_VIEW_PV
  6
C_SOLID_M
100
AcDbCircle
 10
48.0
 20
0.0
 30
0.0
 40
3.75
  0
ARC
  5
AB
330
1E
100
AcDbEntity
  8
MO_001_VIEW_PV
  6
C_SOLID_M
100
AcDbCircle
 10
48.0
 20
0.0
 30
0.0
 40
4.5
100
AcDbArc
 50
29.92639499999999
 51
330.073618
  0
CIRCLE
  5
AC
330
1E
100
AcDbEntity
  8
MO_001_VIEW_PV
  6
C_SOLID_M
100
AcDbCircle
 10
48.0
 20
0.0
 30
0.0
 40
1.3
  0
CIRCLE
  5
AD
330
1E
100
AcDbEntity
  8
MO_001_VIEW_PV
  6
C_SOLID_M
100
AcDbCircle
 10
48.0
 20
0.0
 30
0.0
 40
1.6
  0
CIRCLE
  5
AE
330
1E
100
AcDbEntity
  8
MO_001_VIEW_PV
  6
C_SOLID_M
100
AcDbCircle
 10
48.0
 20
0.0
 30
0.0
 40
1.0
  0
LINE
  5
AF
330
1E
100
AcDbEntity
  8
MO_001_VIEW_PV
  6
C_SOLID_M
100
AcDbLine
 10
16.65
 20
-16.0
 30
0.0
 11
42.190067
 21
-16.0
 31
0.0
  0
LINE
  5
B0
330
1E
100
AcDbEntity
  8
MO_001_VIEW_PV
  6
C_SOLID_L
100
AcDbLine
 10
-27.993906
 20
-24.0
 30
0.0
 11
14.59174299999999
 21
-24.0
 31
0.0
  0
LINE
  5
B1
330
1E
100
AcDbEntity
  8
MO_001_VIEW_PV
  6
C_SOLID_M
100
AcDbLine
 10
-34.91393499999999
 20
-10.703289
 30
0.0
 11
-32.230108
 21
-8.824052999999999
 31
0.0
  0
LINE
  5
B2
330
1E
100
AcDbEntity
  8
MO_001_VIEW_PV
  6
C_SOLID_M
100
AcDbLine
 10
-35.751357
 20
-9.507339999999999
 30
0.0
 11
-32.59787199999999
 21
-7.299246000000001
 31
0.0
  0
ARC
  5
B3
330
1E
100
AcDbEntity
  8
MO_001_VIEW_PV
  6
C_SOLID_M
100
AcDbCircle
 10
-35.352715
 20
-10.564955
 30
0.0
 40
0.4600680000000001
100
AcDbArc
 50
342.4994229999999
 51
87.500631
  0
ARC
  5
B4
330
1E
100
AcDbEntity
  8
MO_001_VIEW_PV
  6
C_SOLID_M
100
AcDbCircle
 10
-34.893879
 20
-10.243674
 30
0.0
 40
0.4600680000000001
100
AcDbArc
 50
162.499407
 51
267.5005609999999
  0
ARC
  5
B5
330
1E
100
AcDbEntity
  8
MO_001_VIEW_PV
  6
C_SOLID_M
100
AcDbCircle
 10
-35.31259199999999
 20
-9.645691000000001
 30
0.0
 40
0.4600680000000001
100
AcDbArc
 50
162.498861
 51
267.500425
  0
LINE
  5
B6
330
1E
100
AcDbEntity
  8
MO_001_VIEW_PV
  6
C_SOLID_M
100
AcDbLine
 10
-43.533302
 20
-14.956317
 30
0.0
 11
-36.570506
 21
-10.08091499999999
 31
0.0
  0
LINE
  5
B7
330
1E
100
AcDbEntity
  8
MO_001_VIEW_PV
  6
C_SOLID_M
100
AcDbLine
 10
-42.695886
 20
-16.15227
 30
0.0
 11
-35.73309099999999
 21
-11.27686799999999
 31
0.0
  0
ARC
  5
B8
330
1E
100
AcDbEntity
  8
MO_001_VIEW_PV
  6
C_SOLID_M
100
AcDbCircle
 10
-36.590588
 20
-10.54054
 30
0.0
 40
0.4600680000000001
100
AcDbArc
 50
342.499368
 51
87.50057700000001
  0
ARC
  5
B9
330
1E
100
AcDbEntity
  8
MO_001_VIEW_PV
  6
C_SOLID_M
100
AcDbCircle
 10
-36.13174799999999
 20
-10.219259
 30
0.0
 40
0.4600680000000001
100
AcDbArc
 50
162.4994479999999
 51
267.500616
  0
ARC
  5
BA
330
1E
100
AcDbEntity
  8
MO_001_VIEW_PV
  6
C_SOLID_M
100
AcDbCircle
 10
-36.171875
 20
-11.138524
 30
0.0
 40
0.4600680000000001
100
AcDbArc
 50
342.498849
 51
87.500426
  0
LINE
  5
BB
330
1E
100
AcDbEntity
  8
MO_001_VIEW_PV
  6
C_SOLID_M
100
AcDbLine
 10
-42.695886
 20
-16.15227
 30
0.0
 11
-43.533302
 21
-14.956317
 31
0.0
  0
LINE
  5
BC
330
1E
100
AcDbEntity
  8
MO_001_VIEW_PV
  6
C_SOLID_M
100
AcDbLine
 10
-43.257988
 20
-15.349506
 30
0.0
 11
-47.35374799999999
 21
-18.217388
 31
0.0
  0
LINE
  5
BD
330
1E
100
AcDbEntity
  8
MO_001_VIEW_PV
  6
C_SOLID_M
100
AcDbLine
 10
-42.971199
 20
-15.759082
 30
0.0
 11
-47.06695999999999
 21
-18.626964
 31
0.0
  0
LINE
  5
BE
330
1E
100
AcDbEntity
  8
MO_001_VIEW_PV
  6
C_SOLID_M
100
AcDbLine
 10
-47.06695999999999
 20
-18.626964
 30
0.0
 11
-47.35374799999999
 21
-18.217388
 31
0.0
  0
ARC
  5
BF
330
1E
100
AcDbEntity
  8
MO_001_VIEW_PV
  6
C_SOLID_M
100
AcDbCircle
 10
-29.729996
 20
-11.39500399999999
 30
0.0
 40
5.0
100
AcDbArc
 50
90.000002
 51
125.0000019999999
  0
LINE
  5
C0
330
1E
100
AcDbEntity
  8
MO_001_VIEW_PV
  6
C_CENTER_L
100
AcDbLine
 10
78.0
 20
-7.0
 30
0.0
 11
78.0
 21
-23.0
 31
0.0
  0
LINE
  5
C1
330
1E
100
AcDbEntity
  8
MO_001_VIEW_PV
  6
C_CENTER_L
100
AcDbLine
 10
70.0
 20
-15.0
 30
0.0
 11
86.0
 21
-15.0
 31
0.0
  0
ARC
  5
C2
330
1E
100
AcDbEntity
  8
MO_001_VIEW_PV
  6
C_SOLID_M
100
AcDbCircle
 10
78.0
 20
-15.0
 30
0.0
 40
4.599999999999999
100
AcDbArc
 50
29.59184199999999
 51
330.408161
  0
LINE
  5
C3
330
1E
100
AcDbEntity
  8
MO_001_VIEW_PV
  6
C_SOLID_M
100
AcDbLine
 10
82.0
 20
-12.728437
 30
0.0
 11
82.0
 21
-17.271564
 31
0.0
  0
LINE
  5
C4
330
1E
100
AcDbEntity
  8
MO_001_VIEW_PV
  6
C_SOLID_L
100
AcDbLine
 10
69.33974499999999
 20
-29.99999799999999
 30
0.0
 11
75.699996
 21
-18.983719
 31
0.0
  0
LINE
  5
C5
330
1E
100
AcDbEntity
  8
MO_001_VIEW_PV
  6
C_SOLID_L
100
AcDbLine
 10
69.339752
 20
-30.0
 30
0.0
 11
90.0
 21
-30.0
 31
0.0
  0
TEXT
  5
C6
330
1E
100
AcDbEntity
  8
MO_001_VIEW_PV
  6
C_SOLID_L
100
AcDbText
 10
-40.488281
 20
-47.08359399999999
 30
0.0
 40
4.167187
  1
S-65 Pull
100
AcDbText
  0
TEXT
  5
C7
330
1E
100
AcDbEntity
  8
MO_001_VIEW_PV
  6
C_SOLID_L
100
AcDbText
 10
-27.09253499999999
 20
-23.41348599999999
 30
0.0
 40
3.0
  1
長さ150以上
100
AcDbText
  0
TEXT
  5
C8
330
1E
100
AcDbEntity
  8
MO_001_VIEW_PV
  6
C_SOLID_L
100
AcDbText
 10
-27.28936599999999
 20
-28.006218
 30
0.0
 40
3.0
  1
(UL1430 AWG28)
100
AcDbText
  0
TEXT
  5
C9
330
1E
100
AcDbEntity
  8
MO_001_VIEW_PV
  6
C_SOLID_L
100
AcDbText
 10
17.604129
 20
-15.513215
 30
0.0
 40
3.0
  1
M9 P0.75
100
AcDbText
  0
TEXT
  5
CA
330
1E
100
AcDbEntity
  8
MO_001_VIEW_PV
  6
C_SOLID_L
100
AcDbText
 10
84.408629
 20
-27.310104
 30
0.0
 40
1.5
  1
%%P0.1
100
AcDbText
  0
TEXT
  5
CB
330
1E
100
AcDbEntity
  8
MO_001_VIEW_PV
  6
C_SOLID_L
100
AcDbText
 10
72.622915
 20
-29.185104
 30
0.0
 40
3.0
  1
%%C9.2
100
AcDbText
  0
TEXT
  5
CC
330
1E
100
AcDbEntity
  8
MO_001_VIEW_PV
  6
C_SOLID_L
100
AcDbText
 10
70.214286
 20
-47.5
 30
0.0
 40
5.0
  1
取付け穴
100
AcDbText
  0
TEXT
  5
CD
330
1E
100
AcDbEntity
  8
MO_001_VIEW_PV
  6
C_SOLID_L
100
AcDbText
 10
19.21428599999999
 20
-47.5
 30
0.0
 40
5.0
  1
単位：mm
100
AcDbText
  0
TEXT
  5
CE
330
1E
100
AcDbEntity
  8
MO_001_VIEW_PV
  6
C_SOLID_L
100
AcDbText
 10
19.21428599999999
 20
-53.5
 30
0.0
 40
5.0
  1
図は励磁時を示す
100
AcDbText
  0
TEXT
  5
CF
330
1E
100
AcDbEntity
  8
MO_001_VIEW_PV
  6
C_SOLID_L
100
AcDbText
 10
15.80052
 20
-34.269562
 30
0.0
 40
3.0
  1
M9 P0.75の不完全
100
AcDbText
  0
TEXT
  5
D0
330
1E
100
AcDbEntity
  8
MO_001_VIEW_PV
  6
C_SOLID_L
100
AcDbText
 10
15.80052
 20
-38.769562
 30
0.0
 40
3.0
  1
ネジ部 1.5以下
100
AcDbText
  0
DIMENSION
  5
D2
330
1E
100
AcDbEntity
  8
MO_001_VIEW_PV
  6
C_SOLID_M
100
AcDbDimension
  2
*D0
 10
-39.0
 20
27.0
 30
0.0
 11
-39.0
 21
27.0
 31
0.0
  3
STANDARD
100
AcDbAlignedDimension
 13
-30.100002
 23
2.0
 33
0.0
 14
-27.200001
 24
8.5
 34
0.0
100
AcDbRotatedDimension
  0
DIMENSION
  5
D4
330
1E
100
AcDbEntity
  8
MO_001_VIEW_PV
  6
C_SOLID_M
100
AcDbDimension
  2
*D1
 10
-9.0
 20
27.0
 30
0.0
 11
-9.0
 21
27.0
 31
0.0
  3
STANDARD
100
AcDbAlignedDimension
 13
-27.200001
 23
8.5
 33
0.0
 14
0.0
 24
8.3
 34
0.0
100
AcDbRotatedDimension
  0
DIMENSION
  5
D6
330
1E
100
AcDbEntity
  8
MO_001_VIEW_PV
  6
C_SOLID_M
100
AcDbDimension
  2
*D2
 10
15.187141
 20
33.0
 30
0.0
 11
15.187141
 21
33.0
 31
0.0
  3
STANDARD
100
AcDbAlignedDimension
 13
6.4
 23
3.75
 33
0.0
 14
0.0
 24
8.3
 34
0.0
 50
179.97571
100
AcDbRotatedDimension
  0
DIMENSION
  5
D8
330
1E
100
AcDbEntity
  8
MO_001_VIEW_PV
  6
C_SOLID_M
100
AcDbDimension
  2
*D3
 10
24.83197
 20
27.0
 30
0.0
 11
24.83197
 21
27.0
 31
0.0
  3
STANDARD
100
AcDbAlignedDimension
 13
6.4
 23
3.75
 33
0.0
 14
18.199997
 24
1.0
 34
0.0
100
AcDbRotatedDimension
  0
DIMENSION
  5
DA
330
1E
100
AcDbEntity
  8
MO_001_VIEW_PV
  6
C_SOLID_M
100
AcDbDimension
  2
*D4
 10
-51.0
 20
-18.0
 30
0.0
 11
-51.0
 21
-18.0
 31
0.0
  3
STANDARD
100
AcDbAlignedDimension
 13
-28.000002
 23
4.25
 33
0.0
 14
-28.000002
 24
-4.25
 34
0.0
 50
270.012145
100
AcDbRotatedDimension
  0
DIMENSION
  5
DC
330
1E
100
AcDbEntity
  8
MO_001_VIEW_PV
  6
C_SOLID_M
100
AcDbDimension
  2
*D5
 10
27.0
 20
12.0
 30
0.0
 11
27.0
 21
12.0
 31
0.0
  3
STANDARD
100
AcDbAlignedDimension
 13
18.199997
 23
1.0
 33
0.0
 14
18.199997
 24
-1.0
 34
0.0
 50
270.012145
100
AcDbRotatedDimension
  0
DIMENSION
  5
DE
330
1E
100
AcDbEntity
  8
MO_001_VIEW_PV
  6
C_SOLID_M
100
AcDbDimension
  2
*D6
 10
48.0
 20
27.0
 30
0.0
 11
48.0
 21
27.0
 31
0.0
  3
STANDARD
100
AcDbAlignedDimension
 13
56.5
 23
0.0
 33
0.0
 14
39.5
 24
0.0
 34
0.0
100
AcDbRotatedDimension
  0
DIMENSION
  5
E0
330
1E
100
AcDbEntity
  8
MO_001_VIEW_PV
  6
C_SOLID_M
100
AcDbDimension
  2
*D7
 10
66.0
 20
21.0
 30
0.0
 11
66.0
 21
21.0
 31
0.0
  3
STANDARD
100
AcDbAlignedDimension
 13
54.0
 23
3.460001
 33
0.0
 14
42.0
 24
3.460001
 34
0.0
100
AcDbRotatedDimension
  0
DIMENSION
  5
E2
330
1E
100
AcDbEntity
  8
MO_001_VIEW_PV
  6
C_SOLID_M
100
AcDbDimension
  2
*D8
 10
66.0
 20
15.0
 30
0.0
 11
66.0
 21
15.0
 31
0.0
  3
STANDARD
100
AcDbAlignedDimension
 13
48.0
 23
11.5
 33
0.0
 14
51.900002
 24
2.244991999999999
 34
0.0
100
AcDbRotatedDimension
  0
LINE
  5
E3
330
1E
100
AcDbEntity
  8
MO_001_VIEW_PV
  6
C_SOLID_L
100
AcDbLine
 10
5.15
 20
-4.5
 30
0.0
 11
16.65
 21
-15.999999
 31
0.0
  0
POLYLINE
  5
E4
330
1E
100
AcDbEntity
  8
MO_001_VIEW_PV
  6
C_SOLID_L
100
AcDb2dPolyline
 66
     1
 10
0.0
 20
0.0
 30
0.0
 70
     1
  0
VERTEX
  5
18C
330
E4
100
AcDbEntity
  8
MO_001_VIEW_PV
  6
C_SOLID_L
100
AcDbVertex
100
AcDb2dVertex
 10
7.908968999999999
 20
-6.433758999999999
 30
0.0
  0
VERTEX
  5
18D
330
E4
100
AcDbEntity
  8
MO_001_VIEW_PV
  6
C_SOLID_L
100
AcDbVertex
100
AcDb2dVertex
 10
5.509209999999999
 20
-4.85921
 30
0.0
  0
VERTEX
  5
18E
330
E4
100
AcDbEntity
  8
MO_001_VIEW_PV
  6
C_SOLID_L
100
AcDbVertex
100
AcDb2dVertex
 10
7.083758999999999
 20
-7.258969
 30
0.0
  0
SEQEND
  5
18F
330
E4
100
AcDbEntity
  8
MO_001_VIEW_PV
  6
C_SOLID_L
  0
LINE
  5
E9
330
1E
100
AcDbEntity
  8
MO_001_VIEW_PV
  6
C_SOLID_L
100
AcDbLine
 10
-36.667611
 20
-15.32629599999999
 30
0.0
 11
-27.993906
 21
-24.000001
 31
0.0
  0
POLYLINE
  5
EA
330
1E
100
AcDbEntity
  8
MO_001_VIEW_PV
  6
C_SOLID_L
100
AcDb2dPolyline
 66
     1
 10
0.0
 20
0.0
 30
0.0
 70
     1
  0
VERTEX
  5
190
330
EA
100
AcDbEntity
  8
MO_001_VIEW_PV
  6
C_SOLID_L
100
AcDbVertex
100
AcDb2dVertex
 10
-33.908642
 20
-17.26005499999999
 30
0.0
  0
VERTEX
  5
191
330
EA
100
AcDbEntity
  8
MO_001_VIEW_PV
  6
C_SOLID_L
100
AcDbVertex
100
AcDb2dVertex
 10
-36.308401
 20
-15.685506
 30
0.0
  0
VERTEX
  5
192
330
EA
100
AcDbEntity
  8
MO_001_VIEW_PV
  6
C_SOLID_L
100
AcDbVertex
100
AcDb2dVertex
 10
-34.733852
 20
-18.085265
 30
0.0
  0
SEQEND
  5
193
330
EA
100
AcDbEntity
  8
MO_001_VIEW_PV
  6
C_SOLID_L
  0
DIMENSION
  5
F0
330
1E
100
AcDbEntity
  8
MO_001_VIEW_PV
  6
C_SOLID_M
100
AcDbDimension
  2
*D9
 10
93.50083899999999
 20
3.0
 30
0.0
 11
93.50083899999999
 21
3.0
 31
0.0
  3
STANDARD
100
AcDbAlignedDimension
 13
82.0
 23
-12.728437
 33
0.0
 14
73.400002
 24
-15.0
 34
0.0
100
AcDbRotatedDimension
  0
DIMENSION
  5
F2
330
1E
100
AcDbEntity
  8
MO_001_VIEW_PV
  6
C_SOLID_M
100
AcDbDimension
  2
*D10
 10
90.0
 20
-3.0
 30
0.0
 11
90.0
 21
-3.0
 31
0.0
  1
(4)
  3
STANDARD
100
AcDbAlignedDimension
 13
82.0
 23
-12.728437
 33
0.0
 14
78.0
 24
-7.0
 34
0.0
100
AcDbRotatedDimension
  0
LINE
  5
F3
330
1E
100
AcDbEntity
  8
MO_001_VIEW_PV
  6
C_SOLID_L
100
AcDbLine
 10
80.300004
 20
-11.01628
 30
0.0
 11
78.000001
 21
-14.999997
 31
0.0
  0
POLYLINE
  5
F4
330
1E
100
AcDbEntity
  8
MO_001_VIEW_PV
  6
C_SOLID_L
100
AcDb2dPolyline
 66
     1
 10
0.0
 20
0.0
 30
0.0
 70
     1
  0
VERTEX
  5
194
330
F4
100
AcDbEntity
  8
MO_001_VIEW_PV
  6
C_SOLID_L
100
AcDbVertex
100
AcDb2dVertex
 10
79.146208
 20
-14.181733
 30
0.0
  0
VERTEX
  5
195
330
F4
100
AcDbEntity
  8
MO_001_VIEW_PV
  6
C_SOLID_L
100
AcDbVertex
100
AcDb2dVertex
 10
80.04600400000001
 20
-11.456221
 30
0.0
  0
VERTEX
  5
196
330
F4
100
AcDbEntity
  8
MO_001_VIEW_PV
  6
C_SOLID_L
100
AcDbVertex
100
AcDb2dVertex
 10
78.13553699999999
 20
-13.59822
 30
0.0
  0
SEQEND
  5
197
330
F4
100
AcDbEntity
  8
MO_001_VIEW_PV
  6
C_SOLID_L
  0
LINE
  5
F9
330
1E
100
AcDbEntity
  8
MO_001_VIEW_PV
  6
C_SOLID_L
100
AcDbLine
 10
75.700005
 20
-18.983715
 30
0.0
 11
78.000004
 21
-14.999998
 31
0.0
  0
POLYLINE
  5
FA
330
1E
100
AcDbEntity
  8
MO_001_VIEW_PV
  6
C_SOLID_L
100
AcDb2dPolyline
 66
     1
 10
0.0
 20
0.0
 30
0.0
 70
     1
  0
VERTEX
  5
198
330
FA
100
AcDbEntity
  8
MO_001_VIEW_PV
  6
C_SOLID_L
100
AcDbVertex
100
AcDb2dVertex
 10
76.853799
 20
-15.818262
 30
0.0
  0
VERTEX
  5
199
330
FA
100
AcDbEntity
  8
MO_001_VIEW_PV
  6
C_SOLID_L
100
AcDbVertex
100
AcDb2dVertex
 10
75.95400500000001
 20
-18.54377399999999
 30
0.0
  0
VERTEX
  5
19A
330
FA
100
AcDbEntity
  8
MO_001_VIEW_PV
  6
C_SOLID_L
100
AcDbVertex
100
AcDb2dVertex
 10
77.86446999999999
 20
-16.401773
 30
0.0
  0
SEQEND
  5
19B
330
FA
100
AcDbEntity
  8
MO_001_VIEW_PV
  6
C_SOLID_L
  0
ENDSEC
  0
SECTION
  2
OBJECTS
  0
DICTIONARY
  5
1A
330
0
100
AcDbDictionary
  3
ACAD_GROUP
350
1B
  3
ACAD_MLINESTYLE
350
1C
  3
ACAD_LAYOUT
350
182
  3
ACAD_PLOTSETTINGS
350
183
1001
ACAD
1000
TREAT_AS_HARD
1070
     0
  0
DICTIONARY
  5
188
330
1E
100
AcDbDictionary
  3
ACAD_LAYOUTSELFREF
350
189
  0
DICTIONARY
  5
18A
330
1F
100
AcDbDictionary
  3
ACAD_LAYOUTSELFREF
350
18B
  0
DICTIONARY
  5
1B
102
{ACAD_REACTORS
330
1A
102
}
330
1A
100
AcDbDictionary
1001
ACAD
1000
TREAT_AS_HARD
1070
     0
  0
DICTIONARY
  5
1C
102
{ACAD_REACTORS
330
1A
102
}
330
1A
100
AcDbDictionary
  3
STANDARD
350
1D
1001
ACAD
1000
TREAT_AS_HARD
1070
     0
  0
DICTIONARY
  5
182
102
{ACAD_REACTORS
330
1A
102
}
330
1A
100
AcDbDictionary
1001
ACAD
1000
TREAT_AS_HARD
1070
     0
  0
DICTIONARY
  5
183
102
{ACAD_REACTORS
330
1A
102
}
330
1A
100
AcDbDictionary
1001
ACAD
1000
TREAT_AS_HARD
1070
     0
  0
XRECORD
  5
189
102
{ACAD_REACTORS
330
188
102
}
330
188
100
AcDbXrecord
340
1E
  0
XRECORD
  5
18B
102
{ACAD_REACTORS
330
18A
102
}
330
18A
100
AcDbXrecord
340
1F
  0
MLINESTYLE
  5
1D
102
{ACAD_REACTORS
330
1C
102
}
330
1C
100
AcDbMlineStyle
  2
STANDARD
 70
     0
  3

 62
     0
 51
90.0
 52
90.0
 71
     2
 49
0.5
 62
   256
  6
BYLAYER
 49
-0.5
 62
   256
  6
BYLAYER
  0
ENDSEC
  0
EOF
